osu file format v14

[General]
AudioFilename: audio.mp3
AudioLeadIn: 0
PreviewTime: 41048
Countdown: 0
SampleSet: Soft
StackLeniency: 0.7
Mode: 3
LetterboxInBreaks: 0
SpecialStyle: 0
WidescreenStoryboard: 1

[Editor]
DistanceSpacing: 0.8
BeatDivisor: 4
GridSize: 8
TimelineZoom: 0.8999997

[Metadata]
Title:ONIGIRI FREEWAY
TitleUnicode:ONIGIRI FREEWAY
Artist:OISHII
ArtistUnicode:OISHII
Creator:Mentholzzz
Version:Umeboshi Onigiri "MX"
Source:osu!
Tags:Chiptune 8 bit Creamcore Polytetral Featured Artist
BeatmapID:1403600
BeatmapSetID:663098

[Difficulty]
HPDrainRate:8
CircleSize:4
OverallDifficulty:8
ApproachRate:5
SliderMultiplier:1.4
SliderTickRate:1

[Events]
//Background and Video events
0,0,"header-5120x.jpg",0,0
//Break Periods
//Storyboard Layer 0 (Background)
//Storyboard Layer 1 (Fail)
//Storyboard Layer 2 (Pass)
//Storyboard Layer 3 (Foreground)
//Storyboard Sound Samples
Sample,64120,0,"LR_NBell_C6.wav",70
Sample,65262,0,"LR_NBell_B5.wav",70
Sample,66405,0,"LR_NBell_A5.wav",70
Sample,66977,0,"LR_NBell_E6.wav",70
Sample,67548,0,"LR_NBell_D6.wav",70
Sample,67691,0,"LR_NBell_E6.wav",70
Sample,67834,0,"LR_NBell_F6.wav",70
Sample,67977,0,"LR_NBell_F#6.wav",70
Sample,68691,0,"LR_NBell_E6.wav",70
Sample,69262,0,"LR_NBell_B5.wav",70
Sample,69834,0,"LR_NBell_D#6.wav",70
Sample,70405,0,"LR_NBell_B5.wav",70
Sample,70977,0,"LR_NBell_D6.wav",70
Sample,71548,0,"LR_NBell_B5.wav",70
Sample,72120,0,"LR_NBell_C#6.wav",70
Sample,72691,0,"LR_NBell_A5.wav",70
Sample,73262,0,"LR_NBell_C6.wav",70
Sample,74691,0,"LR_NBell_G5.wav",70
Sample,74977,0,"LR_NBell_D6.wav",70
Sample,75262,0,"LR_NBell_G6.wav",70
Sample,76691,0,"LR_NBell_D6.wav",70
Sample,76834,0,"LR_NBell_A5.wav",70
Sample,76977,0,"LR_NBell_G6.wav",70
Sample,77120,0,"LR_NBell_F#6.wav",70
Sample,77834,0,"LR_NBell_B6.wav",70
Sample,134977,0,"LR_NBell_C6.wav",70
Sample,136120,0,"LR_NBell_B5.wav",70
Sample,137262,0,"LR_NBell_A5.wav",70
Sample,137834,0,"LR_NBell_E6.wav",70
Sample,138405,0,"LR_NBell_D6.wav",70
Sample,138548,0,"LR_NBell_E6.wav",70
Sample,138691,0,"LR_NBell_F6.wav",70
Sample,138834,0,"LR_NBell_F#6.wav",70
Sample,139548,0,"LR_NBell_E6.wav",70
Sample,140120,0,"LR_NBell_B5.wav",70
Sample,140691,0,"LR_NBell_D#6.wav",70
Sample,141262,0,"LR_NBell_B5.wav",70
Sample,141834,0,"LR_NBell_D6.wav",70
Sample,142405,0,"LR_NBell_B5.wav",70
Sample,142977,0,"LR_NBell_C#6.wav",70
Sample,143548,0,"LR_NBell_A5.wav",70
Sample,144120,0,"LR_NBell_C6.wav",70
Sample,145548,0,"LR_NBell_G5.wav",70
Sample,145834,0,"LR_NBell_D6.wav",70
Sample,146120,0,"LR_NBell_G6.wav",70
Sample,148691,0,"LR_NBell_D4.wav",70
Sample,149834,0,"LR_NBell_D#4.wav",70
Sample,150977,0,"LR_NBell_E4.wav",70
Sample,152120,0,"LR_NBell_F4.wav",70
Sample,153262,0,"LR_NBell_C5.wav",70
Sample,153262,0,"LR_NBell_C6.wav",70
Sample,154405,0,"LR_NBell_B5.wav",70
Sample,154405,0,"LR_NBell_B4.wav",70
Sample,155548,0,"LR_NBell_A4.wav",70
Sample,155548,0,"LR_NBell_A5.wav",70
Sample,156120,0,"LR_NBell_E6.wav",70
Sample,156120,0,"LR_NBell_E5.wav",70
Sample,156691,0,"LR_NBell_D5.wav",70
Sample,156691,0,"LR_NBell_D6.wav",70
Sample,156834,0,"LR_NBell_E6.wav",70
Sample,156834,0,"LR_NBell_E5.wav",70
Sample,156977,0,"LR_NBell_F5.wav",70
Sample,156977,0,"LR_NBell_F6.wav",70
Sample,157120,0,"LR_NBell_F#6.wav",70
Sample,157120,0,"LR_NBell_F#5.wav",70
Sample,157834,0,"LR_NBell_E5.wav",70
Sample,157834,0,"LR_NBell_E6.wav",70
Sample,158405,0,"LR_NBell_B5.wav",70
Sample,158405,0,"LR_NBell_B4.wav",70
Sample,158977,0,"LR_NBell_D#5.wav",70
Sample,158977,0,"LR_NBell_D#6.wav",70
Sample,159548,0,"LR_NBell_B5.wav",70
Sample,159548,0,"LR_NBell_B4.wav",70
Sample,160120,0,"LR_NBell_D5.wav",70
Sample,160120,0,"LR_NBell_D6.wav",70
Sample,160691,0,"LR_NBell_B5.wav",70
Sample,160691,0,"LR_NBell_B4.wav",70
Sample,161262,0,"LR_NBell_C#5.wav",70
Sample,161262,0,"LR_NBell_C#6.wav",70
Sample,161834,0,"LR_NBell_A5.wav",70
Sample,161834,0,"LR_NBell_A4.wav",70
Sample,162405,0,"LR_NBell_C5.wav",70
Sample,162405,0,"LR_NBell_C6.wav",70
Sample,163834,0,"LR_NBell_G5.wav",70
Sample,164120,0,"LR_NBell_D6.wav",70
Sample,164405,0,"LR_NBell_G6.wav",70
Sample,164691,0,"LR_NBell_D4.wav",70
Sample,164691,0,"LR_NBell_D5.wav",70
Sample,165834,0,"LR_NBell_D6.wav",70
Sample,165977,0,"LR_NBell_A5.wav",70
Sample,166120,0,"LR_NBell_G6.wav",70
Sample,166262,0,"LR_NBell_F#6.wav",70
Sample,166977,0,"LR_NBell_B6.wav",70
Sample,166977,0,"LR_NBell_B5.wav",70

[TimingPoints]
120,285.714285714286,4,2,1,30,1,0
9262,-100,4,2,1,50,0,0
38977,-100,4,2,1,25,0,0
41262,-100,4,2,1,50,0,0
109834,-100,4,2,1,25,0,0
120834,-100,4,2,1,50,0,0
121262,-100,4,2,1,50,0,1
166977,-100,4,2,1,50,0,0

[HitObjects]
64,192,120,128,0,262:0:0:0:70:Button.wav
320,192,262,1,0,0:0:0:70:Button.wav
448,192,405,1,0,0:0:0:70:Button.wav
64,192,548,1,0,0:0:0:70:Button.wav
320,192,691,1,0,0:0:0:70:Button.wav
448,192,834,1,0,0:0:0:70:Button.wav
64,192,977,1,0,0:0:0:70:Button.wav
320,192,1120,1,0,0:0:0:70:Button.wav
64,192,1262,128,0,1405:0:0:0:70:Button.wav
320,192,1405,1,0,0:0:0:70:Button.wav
448,192,1548,1,0,0:0:0:70:Button.wav
192,192,1691,1,0,0:0:0:70:Button.wav
320,192,1834,1,0,0:0:0:70:Button.wav
448,192,1977,1,0,0:0:0:70:Button.wav
192,192,2120,1,0,0:0:0:70:Button.wav
320,192,2262,1,0,0:0:0:70:Button.wav
64,192,2405,128,0,2548:0:0:0:70:Button.wav
320,192,2548,1,0,0:0:0:70:Button.wav
448,192,2691,1,0,0:0:0:70:Button.wav
64,192,2834,1,0,0:0:0:70:Button.wav
192,192,2977,1,0,0:0:0:70:Button.wav
448,192,3120,1,0,0:0:0:70:Button.wav
64,192,3262,1,0,0:0:0:70:Button.wav
448,192,3405,1,0,0:0:0:70:Button.wav
320,192,3548,128,0,3691:0:0:0:70:Button.wav
64,192,3691,1,0,0:0:0:70:Button.wav
192,192,3834,1,0,0:0:0:70:Button.wav
320,192,3977,1,0,0:0:0:70:Button.wav
448,192,4120,1,0,0:0:0:70:Button.wav
64,192,4262,1,0,0:0:0:70:Button.wav
192,192,4405,1,0,0:0:0:70:Button.wav
320,192,4548,1,0,0:0:0:70:Button.wav
64,192,4691,128,0,4834:0:0:0:70:Button.wav
192,192,4834,1,0,0:0:0:70:Button.wav
448,192,4977,1,0,0:0:0:70:Button.wav
64,192,5120,1,0,0:0:0:70:Button.wav
192,192,5262,1,0,0:0:0:70:Button.wav
448,192,5405,1,0,0:0:0:70:Button.wav
64,192,5548,1,0,0:0:0:70:Button.wav
320,192,5691,1,0,0:0:0:70:Button.wav
64,192,5834,128,0,7262:0:0:0:70:Button.wav
320,192,5977,1,0,0:0:0:70:Button.wav
448,192,6120,1,0,0:0:0:70:Button.wav
192,192,6262,1,0,0:0:0:70:Button.wav
320,192,6405,1,0,0:0:0:70:Button.wav
448,192,6548,1,0,0:0:0:70:Button.wav
192,192,6691,1,0,0:0:0:70:Button.wav
320,192,6834,1,0,0:0:0:70:Button.wav
192,192,6977,128,0,7120:0:0:0:70:Button.wav
320,192,7120,1,0,0:0:0:70:Button.wav
448,192,7262,1,0,0:0:0:70:Button.wav
192,192,7405,1,0,0:0:0:70:Button.wav
320,192,7548,1,0,0:0:0:70:Button.wav
448,192,7691,1,0,0:0:0:70:Button.wav
64,192,7834,1,0,0:0:0:70:Button.wav
192,192,7977,1,0,0:0:0:70:Button.wav
448,192,8120,128,0,8262:0:0:0:70:Button.wav
64,192,8262,1,0,0:0:0:70:Button.wav
192,192,8405,1,0,0:0:0:70:Button.wav
320,192,8548,1,0,0:0:0:70:Button.wav
448,192,8691,1,0,0:0:0:70:Button.wav
192,192,8834,1,0,0:0:0:70:Button.wav
320,192,8977,1,0,0:0:0:70:Button.wav
192,192,9120,1,0,0:0:0:70:Button.wav
64,192,9262,1,2,0:0:0:30:
448,192,9262,1,4,0:0:0:30:
320,192,9405,1,0,0:0:0:0:
320,192,9548,1,8,0:0:0:30:
192,192,9691,1,0,0:0:0:0:
448,192,9834,1,0,0:0:0:0:
64,192,9977,1,2,0:0:0:30:
192,192,10120,1,8,0:0:0:30:
320,192,10262,1,0,0:0:0:0:
192,192,10334,1,0,0:0:0:0:
64,192,10405,1,2,0:0:0:30:
448,192,10405,1,0,0:0:0:0:
192,192,10548,1,0,0:0:0:0:
192,192,10691,1,8,0:0:0:30:
320,192,10834,1,0,0:0:0:0:
448,192,10977,1,0,0:0:0:0:
64,192,11120,1,2,0:0:0:30:
320,192,11262,128,8,11405:0:0:0:0:
64,192,11548,1,2,0:0:0:30:
448,192,11548,1,0,0:0:0:0:
192,192,11691,1,0,0:0:0:0:
192,192,11834,1,8,0:0:0:30:
64,192,11977,1,0,0:0:0:0:
320,192,12120,1,0,0:0:0:0:
448,192,12262,1,2,0:0:0:30:
320,192,12405,1,8,0:0:0:30:
64,192,12477,1,0,0:0:0:0:
192,192,12548,1,0,0:0:0:0:
320,192,12620,1,0,0:0:0:0:
448,192,12691,1,2,0:0:0:30:
64,192,12691,1,0,0:0:0:0:
320,192,12834,1,0,0:0:0:0:
320,192,12977,1,8,0:0:0:30:
192,192,13120,1,0,0:0:0:0:
64,192,13262,1,0,0:0:0:0:
192,192,13405,1,2,0:0:0:30:
320,192,13477,1,2,0:0:0:30:
448,192,13548,1,8,0:0:0:30:
320,192,13691,1,2,0:0:0:30:
192,192,13834,1,2,0:0:0:30:
448,192,13834,1,0,0:0:0:0:
64,192,13977,1,0,0:0:0:0:
64,192,14120,1,8,0:0:0:30:
320,192,14262,1,0,0:0:0:0:
64,192,14405,1,0,0:0:0:0:
448,192,14548,1,2,0:0:0:30:
192,192,14691,1,8,0:0:0:30:
320,192,14834,1,0,0:0:0:0:
192,192,14905,1,0,0:0:0:0:
64,192,14977,1,2,0:0:0:30:
448,192,14977,1,0,0:0:0:0:
320,192,15120,1,0,0:0:0:0:
320,192,15262,1,8,0:0:0:30:
64,192,15405,1,0,0:0:0:0:
448,192,15548,1,0,0:0:0:0:
320,192,15691,1,2,0:0:0:30:
192,192,15834,1,8,0:0:0:30:
320,192,15977,1,0,0:0:0:0:
448,192,16120,1,2,0:0:0:30:
64,192,16120,1,0,0:0:0:0:
192,192,16262,1,0,0:0:0:0:
448,192,16405,1,8,0:0:0:30:
64,192,16548,1,0,0:0:0:0:
320,192,16691,1,0,0:0:0:0:
192,192,16834,1,2,0:0:0:30:
320,192,16905,1,0,0:0:0:0:
448,192,16977,1,8,0:0:0:30:
192,192,17120,1,0,0:0:0:0:
320,192,17262,1,2,0:0:0:30:
64,192,17262,1,0,0:0:0:0:
448,192,17405,1,0,0:0:0:0:
320,192,17477,1,0,0:0:0:0:
192,192,17548,1,8,0:0:0:30:
64,192,17691,1,0,0:0:0:0:
320,192,17834,1,0,0:0:0:0:
192,192,17905,1,0,0:0:0:0:
448,192,17977,1,2,0:0:0:30:
320,192,18048,1,2,0:0:0:30:
64,192,18120,1,8,0:0:0:30:
192,192,18191,1,2,0:0:0:30:
320,192,18262,1,2,0:0:0:30:
448,192,18334,1,2,0:0:0:30:
192,192,18405,1,2,0:0:0:30:
64,192,18405,128,4,18548:0:0:0:30:
320,192,18548,1,0,0:0:0:0:
320,192,18691,1,8,0:0:0:30:
192,192,18834,1,0,0:0:0:0:
64,192,18977,1,0,0:0:0:0:
448,192,19120,128,2,19262:0:0:0:30:
64,192,19262,1,8,0:0:0:30:
192,192,19405,1,0,0:0:0:0:
320,192,19477,1,0,0:0:0:0:
448,192,19548,1,2,0:0:0:30:
64,192,19548,128,0,19691:0:0:0:0:
320,192,19691,1,0,0:0:0:0:
320,192,19834,1,8,0:0:0:30:
192,192,19977,1,0,0:0:0:0:
64,192,20120,1,0,0:0:0:0:
448,192,20262,1,2,0:0:0:30:
192,192,20405,128,8,20548:0:0:0:0:
448,192,20691,1,2,0:0:0:30:
64,192,20691,128,0,20834:0:0:0:0:
320,192,20834,1,0,0:0:0:0:
320,192,20977,1,8,0:0:0:30:
64,192,21120,1,0,0:0:0:0:
192,192,21262,1,0,0:0:0:0:
320,192,21405,128,2,21548:0:0:0:30:
64,192,21548,1,8,0:0:0:30:
448,192,21620,1,0,0:0:0:0:
320,192,21691,1,0,0:0:0:0:
192,192,21762,1,0,0:0:0:0:
64,192,21834,1,2,0:0:0:30:
448,192,21834,128,0,21977:0:0:0:0:
192,192,21977,1,0,0:0:0:0:
192,192,22120,1,8,0:0:0:30:
320,192,22262,1,0,0:0:0:0:
448,192,22405,1,0,0:0:0:0:
64,192,22548,1,2,0:0:0:30:
448,192,22620,1,2,0:0:0:30:
192,192,22691,1,8,0:0:0:30:
320,192,22834,1,2,0:0:0:30:
192,192,22977,1,2,0:0:0:30:
64,192,22977,128,0,23120:0:0:0:0:
448,192,23120,1,0,0:0:0:0:
448,192,23262,1,8,0:0:0:30:
64,192,23405,1,0,0:0:0:0:
448,192,23548,1,0,0:0:0:0:
192,192,23691,128,2,23834:0:0:0:30:
320,192,23834,1,8,0:0:0:30:
448,192,23977,1,0,0:0:0:0:
320,192,24048,1,0,0:0:0:0:
192,192,24120,1,2,0:0:0:30:
64,192,24120,128,0,24262:0:0:0:0:
448,192,24262,1,0,0:0:0:0:
448,192,24405,1,8,0:0:0:30:
320,192,24548,1,0,0:0:0:0:
192,192,24691,1,0,0:0:0:0:
448,192,24834,128,2,24977:0:0:0:30:
64,192,24977,128,8,25120:0:0:0:30:
192,192,25120,1,0,0:0:0:0:
320,192,25191,1,0,0:0:0:0:
64,192,25262,1,2,0:0:0:30:
448,192,25262,128,0,25548:0:0:0:0:
320,192,25548,1,8,0:0:0:30:
192,192,25548,1,0,0:0:0:0:
64,192,25691,128,0,25977:0:0:0:0:
448,192,25977,1,2,0:0:0:30:
320,192,26120,128,8,26262:0:0:0:30:
64,192,26120,1,0,0:0:0:0:
192,192,26405,128,2,26691:0:0:0:30:
64,192,26691,1,8,0:0:0:30:
320,192,26691,1,0,0:0:0:0:
448,192,26834,128,0,27120:0:0:0:0:
64,192,27120,1,2,0:0:0:30:
192,192,27191,1,2,0:0:0:30:
320,192,27262,1,8,0:0:0:30:
64,192,27334,1,2,0:0:0:30:
192,192,27405,1,2,0:0:0:30:
320,192,27477,1,2,0:0:0:30:
64,192,27548,128,2,28120:0:0:0:30:
448,192,27548,1,4,0:0:0:30:
320,192,27977,1,2,0:0:0:30:
448,192,28120,1,8,0:0:0:30:
192,192,28120,1,0,0:0:0:0:
64,192,28262,128,2,28405:0:0:0:30:
320,192,28405,128,0,28548:0:0:0:0:
192,192,28548,128,2,28691:0:0:0:30:
448,192,28691,128,2,28977:0:0:0:30:
64,192,28977,128,0,29120:0:0:0:0:
320,192,29120,128,2,29405:0:0:0:30:
192,192,29262,1,8,0:0:0:30:
448,192,29262,1,0,0:0:0:0:
64,192,29405,128,2,29548:0:0:0:30:
192,192,29548,128,0,29691:0:0:0:0:
320,192,29691,128,2,29834:0:0:0:30:
448,192,29834,128,2,29977:0:0:0:30:
192,192,29977,128,0,30120:0:0:0:0:
448,192,30120,128,0,30262:0:0:0:0:
320,192,30262,128,2,30405:0:0:0:30:
192,192,30405,128,8,30548:0:0:0:30:
448,192,30405,1,0,0:0:0:0:
64,192,30548,128,2,30691:0:0:0:30:
320,192,30691,1,8,0:0:0:30:
448,192,30762,1,8,0:0:0:30:
64,192,30834,1,8,0:0:0:30:
192,192,30905,1,8,0:0:0:30:
320,192,30977,128,2,31120:0:0:0:30:
192,192,31120,128,8,31262:0:0:0:30:
448,192,31120,1,0,0:0:0:0:
64,192,31262,128,2,31405:0:0:0:30:
448,192,31405,128,2,31834:0:0:0:30:
320,192,31548,1,8,0:0:0:30:
64,192,31548,1,0,0:0:0:0:
192,192,31691,1,2,0:0:0:30:
64,192,31834,1,0,0:0:0:0:
320,192,31905,1,0,0:0:0:0:
192,192,31977,1,2,0:0:0:30:
64,192,32048,1,0,0:0:0:0:
448,192,32120,128,0,32405:0:0:0:70:aSnares2.wav
192,192,32262,1,2,0:0:0:30:
320,192,32405,1,2,0:0:0:30:
64,192,32548,128,0,32834:0:0:0:70:aSnares2.wav
320,192,32691,1,2,0:0:0:30:
192,192,32834,1,2,0:0:0:30:
320,192,32977,128,0,33262:0:0:0:70:aSnares2.wav
64,192,33120,1,2,0:0:0:30:
448,192,33262,1,2,0:0:0:30:
192,192,33405,128,0,33691:0:0:0:70:aSnares2.wav
448,192,33548,1,2,0:0:0:30:
64,192,33691,1,2,0:0:0:30:
448,192,33834,128,0,33977:0:0:0:70:aSnares2.wav
64,192,33977,128,6,34120:0:0:0:30:
192,192,34120,128,6,34262:0:0:0:30:
320,192,34262,128,6,34834:0:0:0:30:
192,192,34548,1,8,0:0:0:30:
64,192,34548,1,0,0:0:0:0:
448,192,34691,1,2,0:0:0:30:
64,192,34834,128,2,35120:0:0:0:30:
448,192,34977,1,8,0:0:0:30:
192,192,34977,1,0,0:0:0:0:
448,192,35262,128,2,35548:0:0:0:30:
192,192,35405,1,2,0:0:0:30:
64,192,35691,128,8,35977:0:0:0:30:
448,192,35691,1,0,0:0:0:0:
320,192,35834,1,2,0:0:0:30:
192,192,35977,1,2,0:0:0:30:
448,192,36120,128,8,36262:0:0:0:30:
64,192,36120,1,0,0:0:0:0:
192,192,36262,128,2,36405:0:0:0:30:
320,192,36405,128,8,36548:0:0:0:30:
448,192,36405,1,0,0:0:0:0:
64,192,36548,128,2,37262:0:0:0:30:
192,192,36691,1,2,0:0:0:30:
320,192,37120,1,0,0:0:0:0:
448,192,37262,1,0,0:0:0:70:Button.wav
192,192,37548,1,0,0:0:0:0:
320,192,37691,1,0,0:0:0:70:Button.wav
64,192,37977,1,0,0:0:0:0:
192,192,38120,1,0,0:0:0:70:Button.wav
64,192,38405,1,0,0:0:0:70:Button.wav
192,192,38548,1,0,0:0:0:70:Button.wav
64,192,38620,1,0,0:0:0:70:Button.wav
320,192,38691,1,0,0:0:0:70:Button.wav
448,192,38834,1,0,0:0:0:70:LR_Drum Soft.wav
192,192,38977,1,0,0:0:0:0:
448,192,39120,1,0,0:0:0:0:
320,192,39191,1,0,0:0:0:0:
192,192,39262,1,0,0:0:0:0:
448,192,39405,1,0,0:0:0:0:
64,192,39548,1,0,0:0:0:0:
192,192,39620,1,0,0:0:0:0:
320,192,39691,1,0,0:0:0:0:
64,192,39834,1,0,0:0:0:0:
448,192,39977,1,0,0:0:0:0:
320,192,40048,1,0,0:0:0:0:
192,192,40120,1,0,0:0:0:0:
448,192,40262,1,0,0:0:0:0:
64,192,40405,1,0,0:0:0:0:
192,192,40477,1,0,0:0:0:0:
320,192,40548,1,0,0:0:0:0:
64,192,40691,1,0,0:0:0:0:
192,192,40834,1,0,0:0:0:0:
320,192,40905,1,0,0:0:0:0:
448,192,40977,1,0,0:0:0:0:
64,192,41120,1,0,0:0:0:0:
192,192,41191,1,0,0:0:0:0:
448,192,41262,1,4,0:0:0:30:
320,192,41262,128,2,41405:0:0:0:30:
192,192,41405,1,0,0:0:0:0:
64,192,41548,1,8,0:0:0:30:
448,192,41548,128,0,41691:0:0:0:0:
320,192,41691,128,0,41834:0:0:0:0:
192,192,41834,1,2,0:0:0:30:
64,192,41834,1,0,0:0:0:0:
448,192,41977,128,0,42120:0:0:0:0:
320,192,42120,1,8,0:0:0:30:
192,192,42120,128,0,42262:0:0:0:0:
448,192,42262,128,0,42405:0:0:0:0:
64,192,42405,1,2,0:0:0:30:
320,192,42405,128,0,42548:0:0:0:0:
192,192,42548,128,0,42691:0:0:0:0:
64,192,42691,128,8,42834:0:0:0:30:
320,192,42691,1,0,0:0:0:0:
448,192,42834,128,0,42977:0:0:0:0:
64,192,42977,1,2,0:0:0:30:
320,192,42977,128,0,43120:0:0:0:0:
192,192,43120,1,0,0:0:0:0:
448,192,43262,1,8,0:0:0:30:
64,192,43262,128,0,43405:0:0:0:0:
320,192,43405,1,0,0:0:0:0:
192,192,43548,1,2,0:0:0:30:
448,192,43548,128,0,43691:0:0:0:0:
64,192,43691,1,0,0:0:0:0:
320,192,43834,1,8,0:0:0:30:
192,192,43834,128,0,43977:0:0:0:0:
448,192,43977,128,0,44120:0:0:0:0:
64,192,44120,1,2,0:0:0:30:
192,192,44120,1,0,0:0:0:0:
320,192,44262,128,0,44405:0:0:0:0:
192,192,44405,1,8,0:0:0:30:
448,192,44405,128,0,44548:0:0:0:0:
64,192,44548,128,0,44691:0:0:0:0:
448,192,44691,1,2,0:0:0:30:
320,192,44691,128,0,44834:0:0:0:0:
192,192,44834,128,0,44977:0:0:0:0:
320,192,44977,1,8,0:0:0:30:
448,192,44977,128,0,45120:0:0:0:0:
64,192,45120,128,0,45262:0:0:0:0:
192,192,45262,1,2,0:0:0:30:
448,192,45262,1,0,0:0:0:0:
320,192,45334,1,0,0:0:0:0:
64,192,45405,1,0,0:0:0:0:
192,192,45477,1,0,0:0:0:0:
448,192,45548,1,8,0:0:0:30:
320,192,45548,1,0,0:0:0:0:
192,192,45620,1,0,0:0:0:0:
64,192,45691,1,0,0:0:0:0:
448,192,45762,1,0,0:0:0:0:
192,192,45834,1,2,0:0:0:30:
320,192,45834,128,0,45977:0:0:0:0:
64,192,45977,128,0,46120:0:0:0:0:
320,192,46120,1,8,0:0:0:30:
448,192,46120,128,0,46262:0:0:0:0:
192,192,46262,128,0,46405:0:0:0:0:
448,192,46405,1,2,0:0:0:30:
64,192,46405,1,0,0:0:0:0:
320,192,46477,1,0,0:0:0:0:
192,192,46548,1,0,0:0:0:0:
320,192,46620,1,0,0:0:0:0:
64,192,46691,1,8,0:0:0:30:
448,192,46691,1,0,0:0:0:0:
192,192,46762,1,0,0:0:0:0:
320,192,46834,1,0,0:0:0:0:
448,192,46905,1,0,0:0:0:0:
192,192,46977,1,2,0:0:0:30:
64,192,46977,128,0,47120:0:0:0:0:
320,192,47120,128,0,47262:0:0:0:0:
192,192,47262,1,8,0:0:0:30:
448,192,47262,128,0,47405:0:0:0:0:
64,192,47405,128,0,47548:0:0:0:0:
320,192,47548,1,2,0:0:0:30:
448,192,47548,1,0,0:0:0:0:
192,192,47620,1,0,0:0:0:0:
64,192,47691,1,0,0:0:0:0:
320,192,47762,1,0,0:0:0:0:
448,192,47834,1,8,0:0:0:30:
64,192,47834,1,0,0:0:0:0:
192,192,47905,1,0,0:0:0:0:
448,192,47977,1,0,0:0:0:0:
320,192,48048,1,0,0:0:0:0:
192,192,48120,1,2,0:0:0:30:
64,192,48120,1,0,0:0:0:0:
448,192,48262,1,0,0:0:0:0:
320,192,48334,1,0,0:0:0:0:
192,192,48405,1,8,0:0:0:30:
64,192,48405,1,0,0:0:0:0:
320,192,48477,1,0,0:0:0:0:
192,192,48548,1,0,0:0:0:0:
64,192,48620,1,0,0:0:0:0:
448,192,48691,1,2,0:0:0:30:
320,192,48691,128,0,48834:0:0:0:0:
192,192,48834,128,0,48977:0:0:0:0:
64,192,48977,1,8,0:0:0:30:
448,192,48977,128,0,49120:0:0:0:0:
320,192,49120,128,0,49262:0:0:0:0:
448,192,49262,1,2,0:0:0:30:
64,192,49262,128,0,49405:0:0:0:0:
320,192,49405,1,8,0:0:0:30:
192,192,49405,128,4,49548:0:0:0:30:
448,192,49548,128,0,49691:0:0:0:0:
192,192,49691,1,2,0:0:0:30:
64,192,49691,128,0,49977:0:0:0:0:
320,192,49977,1,2,0:0:0:30:
448,192,49977,1,0,0:0:0:0:
192,192,50120,1,8,0:0:0:30:
64,192,50120,1,0,0:0:0:0:
448,192,50262,1,2,0:0:0:30:
320,192,50262,1,0,0:0:0:0:
192,192,50405,1,4,0:0:0:30:
64,192,50405,128,2,50548:0:0:0:30:
320,192,50548,1,0,0:0:0:0:
64,192,50691,1,8,0:0:0:30:
448,192,50691,128,0,50834:0:0:0:0:
192,192,50834,128,0,50977:0:0:0:0:
64,192,50977,1,2,0:0:0:30:
320,192,50977,1,0,0:0:0:0:
192,192,51120,128,0,51262:0:0:0:0:
320,192,51262,1,8,0:0:0:30:
448,192,51262,128,0,51405:0:0:0:0:
64,192,51405,128,0,51548:0:0:0:0:
448,192,51548,1,2,0:0:0:30:
192,192,51548,128,0,51691:0:0:0:0:
320,192,51762,128,0,51905:0:0:0:0:
192,192,51834,1,8,0:0:0:30:
64,192,51834,1,0,0:0:0:0:
448,192,51977,128,0,52120:0:0:0:0:
320,192,52120,1,2,0:0:0:30:
192,192,52120,1,0,0:0:0:0:
64,192,52262,128,0,52405:0:0:0:0:
448,192,52405,1,8,0:0:0:30:
320,192,52405,128,0,52548:0:0:0:0:
192,192,52548,128,0,52691:0:0:0:0:
64,192,52691,1,2,0:0:0:30:
448,192,52691,128,0,52834:0:0:0:0:
192,192,52905,128,0,53048:0:0:0:0:
320,192,52977,1,8,0:0:0:30:
448,192,52977,1,0,0:0:0:0:
64,192,53120,128,0,53262:0:0:0:0:
192,192,53262,1,2,0:0:0:30:
320,192,53262,1,0,0:0:0:0:
448,192,53405,128,0,53548:0:0:0:0:
64,192,53548,1,8,0:0:0:30:
320,192,53548,128,0,53691:0:0:0:0:
192,192,53691,128,0,53834:0:0:0:0:
64,192,53834,128,2,53977:0:0:0:30:
448,192,53834,1,0,0:0:0:0:
320,192,54048,128,0,54191:0:0:0:0:
192,192,54120,1,8,0:0:0:30:
64,192,54120,1,0,0:0:0:0:
448,192,54262,128,0,54405:0:0:0:0:
320,192,54405,1,2,0:0:0:30:
64,192,54405,1,0,0:0:0:0:
448,192,54477,1,0,0:0:0:0:
192,192,54548,1,0,0:0:0:0:
320,192,54620,1,0,0:0:0:0:
448,192,54691,1,8,0:0:0:30:
64,192,54691,1,0,0:0:0:0:
192,192,54762,1,0,0:0:0:0:
320,192,54834,1,0,0:0:0:0:
64,192,54905,1,0,0:0:0:0:
192,192,54977,1,2,0:0:0:30:
448,192,54977,1,0,0:0:0:0:
320,192,55120,1,0,0:0:0:0:
192,192,55191,1,0,0:0:0:0:
448,192,55262,1,8,0:0:0:30:
64,192,55262,1,0,0:0:0:0:
320,192,55334,1,0,0:0:0:0:
192,192,55405,1,0,0:0:0:0:
320,192,55548,1,2,0:0:0:30:
64,192,55548,1,0,0:0:0:0:
448,192,55620,1,0,0:0:0:0:
192,192,55691,1,0,0:0:0:0:
320,192,55762,1,0,0:0:0:0:
448,192,55834,1,8,0:0:0:30:
64,192,55834,1,0,0:0:0:0:
192,192,55977,1,0,0:0:0:0:
320,192,56048,1,0,0:0:0:0:
448,192,56120,1,2,0:0:0:30:
192,192,56120,1,0,0:0:0:0:
320,192,56262,1,0,0:0:0:0:
192,192,56334,1,0,0:0:0:0:
64,192,56405,1,8,0:0:0:30:
448,192,56405,1,0,0:0:0:0:
320,192,56477,1,0,0:0:0:0:
192,192,56548,1,0,0:0:0:0:
64,192,56691,1,2,0:0:0:30:
320,192,56691,1,0,0:0:0:0:
448,192,56762,1,0,0:0:0:0:
192,192,56834,1,0,0:0:0:0:
320,192,56905,1,0,0:0:0:0:
192,192,56977,1,8,0:0:0:30:
64,192,56977,1,0,0:0:0:0:
448,192,57048,1,0,0:0:0:0:
320,192,57120,1,0,0:0:0:0:
192,192,57191,1,0,0:0:0:0:
64,192,57262,1,2,0:0:0:30:
448,192,57262,1,0,0:0:0:0:
320,192,57405,1,0,0:0:0:70:aSnares2.wav
192,192,57405,128,0,57548:0:0:0:0:
448,192,57548,128,0,57691:0:0:0:0:
64,192,57691,128,2,57834:0:0:0:30:
320,192,57691,1,0,0:0:0:0:
192,192,57834,1,0,0:0:0:70:aSnares2.wav
448,192,57834,128,0,57977:0:0:0:0:
320,192,57977,128,0,58120:0:0:0:0:
192,192,58120,128,2,58262:0:0:0:30:
448,192,58120,1,0,0:0:0:0:
64,192,58262,1,0,0:0:0:70:aSnares2.wav
320,192,58262,128,0,58405:0:0:0:0:
64,192,58405,128,0,58548:0:0:0:0:
192,192,58548,1,2,0:0:0:30:
448,192,58548,128,0,58691:0:0:0:0:
64,192,58691,1,2,0:0:0:30:
320,192,58691,128,0,58834:0:0:0:0:
192,192,58834,1,2,0:0:0:30:
64,192,58834,128,0,58977:0:0:0:0:
448,192,58977,1,2,0:0:0:30:
320,192,59048,1,2,0:0:0:30:
192,192,59120,1,2,0:0:0:30:
64,192,59191,1,2,0:0:0:30:
448,192,59262,128,2,59334:0:0:0:30:
320,192,59334,128,2,59405:0:0:0:30:
192,192,59405,128,2,59477:0:0:0:30:
64,192,59477,128,2,59548:0:0:0:30:
448,192,59548,1,4,0:0:0:30:
320,192,59548,128,2,59691:0:0:0:30:
192,192,59691,1,0,0:0:0:0:
64,192,59834,1,8,0:0:0:30:
448,192,59834,128,0,59977:0:0:0:0:
320,192,59977,128,0,60120:0:0:0:0:
448,192,60120,1,2,0:0:0:30:
192,192,60120,1,0,0:0:0:0:
64,192,60262,128,0,60405:0:0:0:0:
192,192,60405,1,8,0:0:0:30:
320,192,60405,128,0,60548:0:0:0:0:
448,192,60548,128,0,60691:0:0:0:0:
192,192,60691,1,2,0:0:0:30:
64,192,60691,128,0,60834:0:0:0:0:
320,192,60834,128,0,60977:0:0:0:0:
64,192,60977,1,8,0:0:0:30:
448,192,60977,128,0,61120:0:0:0:0:
192,192,61120,128,0,61262:0:0:0:0:
320,192,61262,1,2,0:0:0:30:
64,192,61262,128,0,61405:0:0:0:0:
448,192,61405,1,0,0:0:0:0:
192,192,61548,1,8,0:0:0:30:
320,192,61548,128,0,61691:0:0:0:0:
64,192,61691,1,0,0:0:0:0:
320,192,61834,1,2,0:0:0:30:
448,192,61834,128,0,61977:0:0:0:0:
192,192,61977,1,0,0:0:0:0:
64,192,62120,1,8,0:0:0:30:
320,192,62120,128,0,62262:0:0:0:0:
192,192,62262,128,0,62405:0:0:0:0:
448,192,62405,1,2,0:0:0:30:
64,192,62405,1,0,0:0:0:0:
320,192,62548,128,0,62691:0:0:0:0:
448,192,62691,1,8,0:0:0:30:
64,192,62691,128,0,62834:0:0:0:0:
320,192,62834,128,0,62977:0:0:0:0:
448,192,62977,1,2,0:0:0:30:
192,192,62977,128,0,63120:0:0:0:0:
64,192,63120,128,0,63262:0:0:0:0:
448,192,63262,1,8,0:0:0:30:
320,192,63262,128,0,63405:0:0:0:0:
192,192,63405,128,0,63548:0:0:0:0:
448,192,63548,1,2,0:0:0:30:
64,192,63548,1,0,0:0:0:0:
320,192,63620,1,0,0:0:0:0:
192,192,63691,1,0,0:0:0:0:
64,192,63762,1,0,0:0:0:0:
448,192,63834,1,8,0:0:0:30:
320,192,63834,1,0,0:0:0:0:
192,192,63905,1,0,0:0:0:0:
320,192,63977,1,0,0:0:0:0:
448,192,64048,1,0,0:0:0:0:
192,192,64120,1,2,0:0:0:30:
64,192,64120,128,0,64262:0:0:0:0:
320,192,64262,128,0,64405:0:0:0:0:
64,192,64405,1,8,0:0:0:30:
448,192,64405,128,0,64548:0:0:0:0:
320,192,64548,128,0,64691:0:0:0:0:
64,192,64691,1,2,0:0:0:30:
448,192,64691,1,0,0:0:0:0:
192,192,64762,1,0,0:0:0:0:
320,192,64834,1,0,0:0:0:0:
64,192,64905,1,0,0:0:0:0:
448,192,64977,1,8,0:0:0:30:
192,192,64977,1,0,0:0:0:0:
320,192,65048,1,0,0:0:0:0:
192,192,65120,1,0,0:0:0:0:
64,192,65191,1,0,0:0:0:0:
448,192,65262,1,2,0:0:0:30:
320,192,65262,128,0,65405:0:0:0:0:
192,192,65405,128,0,65548:0:0:0:0:
448,192,65548,1,8,0:0:0:30:
64,192,65548,128,0,65691:0:0:0:0:
192,192,65691,128,0,65834:0:0:0:0:
448,192,65834,1,2,0:0:0:30:
320,192,65834,1,0,0:0:0:0:
64,192,65905,1,0,0:0:0:0:
192,192,65977,1,0,0:0:0:0:
320,192,66048,1,0,0:0:0:0:
448,192,66120,1,8,0:0:0:30:
64,192,66120,1,0,0:0:0:0:
192,192,66191,1,0,0:0:0:0:
320,192,66262,1,0,0:0:0:0:
448,192,66334,1,0,0:0:0:0:
192,192,66405,1,2,0:0:0:30:
64,192,66405,1,0,0:0:0:0:
320,192,66548,1,0,0:0:0:0:
192,192,66620,1,0,0:0:0:0:
448,192,66691,1,8,0:0:0:30:
64,192,66691,1,0,0:0:0:0:
320,192,66762,1,0,0:0:0:0:
192,192,66834,1,0,0:0:0:0:
320,192,66905,1,0,0:0:0:0:
448,192,66977,1,2,0:0:0:30:
64,192,66977,128,0,67120:0:0:0:0:
320,192,67120,128,0,67262:0:0:0:0:
448,192,67262,1,8,0:0:0:30:
192,192,67262,128,0,67405:0:0:0:0:
320,192,67405,128,0,67548:0:0:0:0:
192,192,67548,1,2,0:0:0:30:
64,192,67548,1,0,0:0:0:0:
320,192,67691,1,2,0:0:0:30:
192,192,67691,1,0,0:0:0:0:
448,192,67834,1,0,0:0:0:0:
320,192,67834,1,2,0:0:0:30:
448,192,67977,1,2,0:0:0:30:
64,192,67977,1,0,0:0:0:0:
192,192,68120,128,2,68191:0:0:0:30:
320,192,68191,128,2,68262:0:0:0:30:
448,192,68262,128,2,68334:0:0:0:30:
64,192,68334,128,2,68405:0:0:0:30:
448,192,68405,128,2,68477:0:0:0:30:
320,192,68477,128,2,68548:0:0:0:30:
192,192,68548,128,2,68620:0:0:0:30:
64,192,68620,128,2,68691:0:0:0:30:
448,192,68691,1,4,0:0:0:30:
320,192,68691,128,2,68834:0:0:0:30:
192,192,68905,128,0,69048:0:0:0:0:
64,192,68977,1,8,0:0:0:30:
448,192,68977,1,0,0:0:0:0:
320,192,69120,128,0,69262:0:0:0:0:
448,192,69262,1,2,0:0:0:30:
64,192,69262,1,0,0:0:0:0:
192,192,69405,128,0,69548:0:0:0:0:
320,192,69548,1,8,0:0:0:30:
448,192,69548,128,0,69691:0:0:0:0:
192,192,69691,128,0,69834:0:0:0:0:
448,192,69834,1,2,0:0:0:30:
64,192,69834,128,0,69977:0:0:0:0:
320,192,70048,128,0,70191:0:0:0:0:
448,192,70120,1,8,0:0:0:30:
64,192,70120,1,0,0:0:0:0:
192,192,70262,128,0,70405:0:0:0:0:
320,192,70405,1,2,0:0:0:30:
448,192,70405,1,0,0:0:0:0:
192,192,70548,128,0,70691:0:0:0:0:
64,192,70691,1,8,0:0:0:30:
320,192,70691,128,0,70834:0:0:0:0:
448,192,70834,128,0,70977:0:0:0:0:
192,192,70977,1,2,0:0:0:30:
64,192,70977,128,0,71120:0:0:0:0:
320,192,71191,128,0,71334:0:0:0:0:
448,192,71262,1,8,0:0:0:30:
64,192,71262,1,0,0:0:0:0:
192,192,71405,128,0,71548:0:0:0:0:
64,192,71548,1,2,0:0:0:30:
320,192,71548,1,0,0:0:0:0:
448,192,71620,128,0,71762:0:0:0:0:
192,192,71834,1,8,0:0:0:30:
64,192,71834,128,0,71977:0:0:0:0:
320,192,71977,128,0,72120:0:0:0:0:
448,192,72120,1,2,0:0:0:30:
192,192,72120,128,0,72262:0:0:0:0:
64,192,72262,128,0,72405:0:0:0:0:
448,192,72405,128,8,72548:0:0:0:30:
320,192,72405,1,0,0:0:0:0:
192,192,72548,128,0,72691:0:0:0:0:
320,192,72691,1,2,0:0:0:30:
64,192,72691,1,0,0:0:0:0:
448,192,72762,1,0,0:0:0:0:
192,192,72834,1,0,0:0:0:0:
320,192,72905,1,0,0:0:0:0:
448,192,72977,1,8,0:0:0:30:
64,192,72977,1,0,0:0:0:0:
192,192,73048,1,0,0:0:0:0:
320,192,73120,1,0,0:0:0:0:
64,192,73191,1,0,0:0:0:0:
192,192,73262,1,2,0:0:0:30:
448,192,73262,1,0,0:0:0:0:
320,192,73405,1,0,0:0:0:0:
192,192,73477,1,0,0:0:0:0:
64,192,73548,1,8,0:0:0:30:
448,192,73548,1,0,0:0:0:0:
320,192,73620,1,0,0:0:0:0:
192,192,73691,1,0,0:0:0:0:
64,192,73834,1,2,0:0:0:30:
320,192,73834,1,0,0:0:0:0:
448,192,73905,1,0,0:0:0:0:
192,192,73977,1,0,0:0:0:0:
320,192,74048,1,0,0:0:0:0:
448,192,74120,1,8,0:0:0:30:
64,192,74120,1,0,0:0:0:0:
192,192,74262,1,0,0:0:0:0:
320,192,74334,1,0,0:0:0:0:
192,192,74405,1,2,0:0:0:30:
448,192,74405,1,0,0:0:0:0:
320,192,74548,1,0,0:0:0:0:
192,192,74620,1,0,0:0:0:0:
448,192,74691,1,8,0:0:0:30:
64,192,74691,1,0,0:0:0:0:
320,192,74762,1,0,0:0:0:0:
192,192,74834,1,0,0:0:0:0:
448,192,74977,1,2,0:0:0:30:
64,192,74977,1,0,0:0:0:0:
192,192,75048,1,0,0:0:0:0:
320,192,75120,1,0,0:0:0:0:
192,192,75191,1,0,0:0:0:0:
448,192,75262,1,8,0:0:0:30:
64,192,75262,1,0,0:0:0:0:
320,192,75334,1,0,0:0:0:0:
192,192,75405,1,0,0:0:0:0:
320,192,75477,1,0,0:0:0:0:
448,192,75548,1,2,0:0:0:30:
64,192,75548,1,0,0:0:0:0:
320,192,75691,1,0,0:0:0:70:aSnares2.wav
192,192,75691,128,0,75834:0:0:0:0:
448,192,75834,128,0,75977:0:0:0:0:
64,192,75977,128,2,76120:0:0:0:30:
320,192,75977,1,0,0:0:0:0:
192,192,76120,1,0,0:0:0:70:aSnares2.wav
448,192,76120,128,0,76262:0:0:0:0:
320,192,76262,128,0,76405:0:0:0:0:
192,192,76405,128,2,76548:0:0:0:30:
448,192,76405,1,0,0:0:0:0:
320,192,76548,1,0,0:0:0:70:aSnares2.wav
64,192,76548,128,0,76691:0:0:0:0:
448,192,76691,128,0,76834:0:0:0:0:
320,192,76834,1,2,0:0:0:30:
64,192,76834,128,0,76977:0:0:0:0:
192,192,76977,1,2,0:0:0:30:
448,192,76977,128,0,77120:0:0:0:0:
64,192,77120,1,2,0:0:0:30:
192,192,77120,128,0,77262:0:0:0:0:
448,192,77262,1,2,0:0:0:30:
320,192,77334,1,2,0:0:0:30:
192,192,77405,1,2,0:0:0:30:
64,192,77477,1,2,0:0:0:30:
448,192,77548,128,2,77620:0:0:0:30:
64,192,77620,128,2,77691:0:0:0:30:
192,192,77691,128,2,77762:0:0:0:30:
320,192,77762,128,2,77834:0:0:0:30:
64,192,77834,1,2,0:0:0:30:
448,192,77834,128,4,78691:0:0:0:30:
192,192,78120,1,2,0:0:0:30:
320,192,78405,1,2,0:0:0:30:
192,192,78691,1,2,0:0:0:30:
64,192,78977,1,2,0:0:0:30:
448,192,78977,1,0,0:0:0:20:LR_CymbalSSD.wav
192,192,79120,1,2,0:0:0:30:
320,192,79120,1,0,0:0:0:20:LR_CymbalSSD.wav
448,192,79262,1,2,0:0:0:30:
64,192,79262,1,0,0:0:0:20:LR_CymbalSSD.wav
192,192,79405,1,2,0:0:0:30:
320,192,79405,1,0,0:0:0:20:LR_CymbalSSD.wav
64,192,79548,1,0,0:0:0:0:
192,192,79620,1,0,0:0:0:0:
320,192,79691,1,2,0:0:0:30:
448,192,79762,1,0,0:0:0:0:
64,192,79834,1,8,0:0:0:30:
192,192,79905,1,0,0:0:0:0:
320,192,79977,1,2,0:0:0:30:
448,192,80048,1,0,0:0:0:0:
64,192,80120,128,2,80262:0:0:0:30:
192,192,80120,1,4,0:0:0:30:
192,192,80405,1,8,0:0:0:30:
320,192,80477,1,0,0:0:0:0:
448,192,80548,128,0,80691:0:0:0:0:
320,192,80834,1,2,0:0:0:30:
192,192,80905,1,0,0:0:0:0:
64,192,80977,128,8,81120:0:0:0:30:
192,192,81120,1,0,0:0:0:0:
320,192,81191,1,0,0:0:0:0:
448,192,81262,128,2,81405:0:0:0:30:
192,192,81548,1,8,0:0:0:30:
320,192,81620,1,0,0:0:0:0:
64,192,81691,128,0,81834:0:0:0:0:
448,192,81977,1,2,0:0:0:30:
320,192,82048,1,0,0:0:0:0:
192,192,82120,1,8,0:0:0:30:
64,192,82191,1,0,0:0:0:0:
192,192,82262,1,0,0:0:0:0:
320,192,82334,1,0,0:0:0:0:
448,192,82405,1,2,0:0:0:30:
192,192,82477,1,0,0:0:0:0:
448,192,82548,1,0,0:0:0:0:
64,192,82620,1,0,0:0:0:0:
320,192,82691,1,8,0:0:0:30:
192,192,82762,1,0,0:0:0:0:
320,192,82834,1,0,0:0:0:0:
64,192,82905,1,0,0:0:0:0:
192,192,82977,1,0,0:0:0:0:
448,192,83048,1,0,0:0:0:0:
192,192,83120,1,2,0:0:0:30:
320,192,83191,1,0,0:0:0:0:
64,192,83262,1,8,0:0:0:30:
448,192,83334,1,0,0:0:0:0:
64,192,83405,1,0,0:0:0:0:
192,192,83477,1,0,0:0:0:0:
320,192,83548,1,2,0:0:0:30:
64,192,83620,1,0,0:0:0:0:
320,192,83691,1,0,0:0:0:0:
448,192,83762,1,0,0:0:0:0:
192,192,83834,1,8,0:0:0:30:
320,192,83905,1,0,0:0:0:0:
192,192,83977,1,0,0:0:0:0:
64,192,84048,1,0,0:0:0:0:
448,192,84120,1,0,0:0:0:0:
192,192,84191,1,0,0:0:0:0:
448,192,84262,1,2,0:0:0:30:
64,192,84334,1,2,0:0:0:30:
192,192,84405,1,8,0:0:0:30:
448,192,84477,1,0,0:0:0:0:
192,192,84548,1,2,0:0:0:30:
320,192,84620,1,0,0:0:0:0:
448,192,84691,1,2,0:0:0:30:
64,192,84691,128,0,84977:0:0:0:0:
448,192,84977,1,8,0:0:0:30:
320,192,84977,1,0,0:0:0:0:
192,192,85120,128,0,85405:0:0:0:0:
64,192,85405,1,2,0:0:0:30:
320,192,85548,128,8,85691:0:0:0:30:
448,192,85548,1,0,0:0:0:0:
64,192,85691,1,0,0:0:0:0:
448,192,85834,128,2,86120:0:0:0:30:
64,192,86120,1,8,0:0:0:30:
192,192,86120,1,0,0:0:0:0:
320,192,86262,128,0,86548:0:0:0:0:
64,192,86548,1,2,0:0:0:30:
192,192,86620,1,0,0:0:0:0:
320,192,86691,1,8,0:0:0:30:
448,192,86762,1,0,0:0:0:0:
320,192,86834,1,0,0:0:0:0:
192,192,86905,1,0,0:0:0:0:
64,192,86977,1,2,0:0:0:30:
448,192,86977,128,0,87120:0:0:0:0:
320,192,87120,128,0,87262:0:0:0:0:
192,192,87262,1,8,0:0:0:30:
64,192,87262,128,0,87405:0:0:0:0:
320,192,87405,128,0,87548:0:0:0:0:
448,192,87548,128,0,87691:0:0:0:0:
192,192,87691,128,2,87834:0:0:0:30:
320,192,87834,1,8,0:0:0:30:
64,192,87834,128,0,87977:0:0:0:0:
448,192,87977,128,0,88120:0:0:0:0:
64,192,88120,128,2,88262:0:0:0:30:
320,192,88262,128,0,88405:0:0:0:0:
64,192,88405,1,8,0:0:0:30:
448,192,88405,128,0,88548:0:0:0:0:
192,192,88548,128,0,88834:0:0:0:0:
448,192,88834,1,2,0:0:0:30:
320,192,88905,1,2,0:0:0:30:
192,192,88977,1,8,0:0:0:30:
64,192,89048,1,2,0:0:0:30:
320,192,89120,1,2,0:0:0:30:
192,192,89191,1,2,0:0:0:30:
64,192,89262,128,2,89548:0:0:0:30:
448,192,89262,1,4,0:0:0:30:
192,192,89548,1,8,0:0:0:30:
320,192,89620,1,0,0:0:0:0:
448,192,89691,128,0,89977:0:0:0:0:
320,192,89977,1,2,0:0:0:30:
192,192,90048,1,0,0:0:0:0:
64,192,90120,128,8,90262:0:0:0:30:
192,192,90262,1,0,0:0:0:0:
320,192,90334,1,0,0:0:0:0:
448,192,90405,128,2,90691:0:0:0:30:
320,192,90691,1,8,0:0:0:30:
192,192,90762,1,0,0:0:0:0:
64,192,90834,128,0,91120:0:0:0:0:
192,192,91120,1,2,0:0:0:30:
320,192,91191,1,0,0:0:0:0:
64,192,91262,1,8,0:0:0:30:
192,192,91334,1,0,0:0:0:0:
320,192,91405,1,0,0:0:0:0:
448,192,91477,1,0,0:0:0:0:
64,192,91548,1,2,0:0:0:30:
192,192,91620,1,0,0:0:0:0:
448,192,91691,1,0,0:0:0:0:
64,192,91762,1,0,0:0:0:0:
192,192,91834,1,8,0:0:0:30:
448,192,91905,1,0,0:0:0:0:
64,192,91977,1,0,0:0:0:0:
320,192,92048,1,0,0:0:0:0:
448,192,92120,1,0,0:0:0:0:
64,192,92191,1,0,0:0:0:0:
320,192,92262,1,2,0:0:0:30:
448,192,92334,1,0,0:0:0:0:
320,192,92405,1,8,0:0:0:30:
192,192,92477,1,0,0:0:0:0:
64,192,92548,1,0,0:0:0:0:
320,192,92620,1,0,0:0:0:0:
192,192,92691,1,2,0:0:0:30:
64,192,92762,1,0,0:0:0:0:
448,192,92834,1,0,0:0:0:0:
320,192,92905,1,0,0:0:0:0:
64,192,92977,1,8,0:0:0:30:
448,192,93048,1,0,0:0:0:0:
320,192,93120,1,0,0:0:0:0:
64,192,93191,1,0,0:0:0:0:
448,192,93262,1,0,0:0:0:0:
192,192,93334,1,0,0:0:0:0:
64,192,93405,1,2,0:0:0:30:
448,192,93477,1,2,0:0:0:30:
192,192,93548,1,8,0:0:0:30:
64,192,93620,1,0,0:0:0:0:
320,192,93691,1,2,0:0:0:30:
192,192,93762,1,0,0:0:0:0:
448,192,93834,1,2,0:0:0:30:
64,192,93834,128,0,94262:0:0:0:0:
320,192,94120,1,8,0:0:0:30:
448,192,94120,1,0,0:0:0:0:
192,192,94262,128,0,94691:0:0:0:0:
448,192,94548,1,2,0:0:0:30:
320,192,94691,128,8,94977:0:0:0:30:
64,192,94691,1,0,0:0:0:0:
448,192,94977,128,2,95405:0:0:0:30:
192,192,95262,1,8,0:0:0:30:
320,192,95262,1,0,0:0:0:0:
64,192,95405,128,0,95834:0:0:0:0:
192,192,95691,1,2,0:0:0:30:
448,192,95834,1,8,0:0:0:30:
320,192,95905,1,0,0:0:0:0:
192,192,95977,1,0,0:0:0:0:
64,192,96048,1,0,0:0:0:0:
448,192,96120,128,2,96405:0:0:0:30:
192,192,96405,1,8,0:0:0:30:
320,192,96405,1,0,0:0:0:0:
64,192,96548,128,0,96834:0:0:0:0:
448,192,96834,1,2,0:0:0:30:
320,192,96977,128,8,97262:0:0:0:30:
192,192,96977,1,0,0:0:0:0:
192,192,97262,128,2,97548:0:0:0:30:
64,192,97548,1,8,0:0:0:30:
320,192,97548,1,0,0:0:0:0:
448,192,97691,128,0,97977:0:0:0:0:
64,192,97977,1,2,0:0:0:30:
192,192,98048,1,2,0:0:0:30:
320,192,98120,1,8,0:0:0:30:
448,192,98120,1,0,0:0:0:0:
64,192,98191,1,2,0:0:0:30:
320,192,98262,1,2,0:0:0:30:
192,192,98334,1,2,0:0:0:30:
64,192,98405,128,2,98977:0:0:0:30:
448,192,98405,1,4,0:0:0:30:
320,192,98834,1,2,0:0:0:30:
448,192,98977,1,8,0:0:0:30:
192,192,98977,1,0,0:0:0:0:
64,192,99120,128,2,99262:0:0:0:30:
320,192,99262,128,0,99405:0:0:0:0:
192,192,99405,128,2,99548:0:0:0:30:
448,192,99548,128,2,99834:0:0:0:30:
64,192,99834,128,0,99977:0:0:0:0:
320,192,99977,128,2,100262:0:0:0:30:
192,192,100120,1,8,0:0:0:30:
448,192,100120,1,0,0:0:0:0:
64,192,100262,128,2,100405:0:0:0:30:
192,192,100405,128,0,100548:0:0:0:0:
320,192,100548,128,2,100691:0:0:0:30:
448,192,100691,128,2,100834:0:0:0:30:
192,192,100834,128,0,100977:0:0:0:0:
448,192,100977,128,0,101120:0:0:0:0:
320,192,101120,128,2,101262:0:0:0:30:
64,192,101262,128,8,101405:0:0:0:30:
448,192,101262,1,0,0:0:0:0:
192,192,101405,128,2,101548:0:0:0:30:
448,192,101548,1,8,0:0:0:30:
64,192,101620,1,8,0:0:0:30:
320,192,101691,1,8,0:0:0:30:
192,192,101762,1,8,0:0:0:30:
64,192,101834,128,2,101977:0:0:0:30:
192,192,101977,128,8,102120:0:0:0:30:
448,192,101977,1,0,0:0:0:0:
320,192,102120,128,2,102262:0:0:0:30:
64,192,102262,128,2,102405:0:0:0:30:
448,192,102405,1,8,0:0:0:30:
320,192,102405,1,0,0:0:0:0:
192,192,102548,1,2,0:0:0:30:
448,192,102691,1,0,0:0:0:0:
320,192,102762,1,0,0:0:0:0:
192,192,102834,1,2,0:0:0:30:
64,192,102905,1,0,0:0:0:0:
448,192,102977,128,0,103262:0:0:0:70:aSnares2.wav
192,192,103120,1,2,0:0:0:30:
320,192,103262,1,2,0:0:0:30:
64,192,103405,128,0,103691:0:0:0:70:aSnares2.wav
320,192,103548,1,2,0:0:0:30:
192,192,103691,1,2,0:0:0:30:
320,192,103834,128,0,104120:0:0:0:70:aSnares2.wav
64,192,103977,1,2,0:0:0:30:
448,192,104120,1,2,0:0:0:30:
192,192,104262,128,0,104548:0:0:0:70:aSnares2.wav
448,192,104405,1,2,0:0:0:30:
64,192,104548,1,2,0:0:0:30:
320,192,104691,128,0,104834:0:0:0:70:aSnares2.wav
192,192,104834,128,6,104977:0:0:0:30:
64,192,104977,128,6,105120:0:0:0:30:
448,192,105120,128,6,105691:0:0:0:30:
192,192,105405,1,8,0:0:0:30:
64,192,105405,1,0,0:0:0:0:
320,192,105548,1,2,0:0:0:30:
64,192,105691,128,2,105977:0:0:0:30:
320,192,105834,1,8,0:0:0:30:
448,192,105834,1,0,0:0:0:0:
448,192,106120,128,2,106405:0:0:0:30:
192,192,106262,1,2,0:0:0:30:
64,192,106548,128,8,106834:0:0:0:30:
448,192,106548,1,0,0:0:0:0:
320,192,106691,1,2,0:0:0:30:
192,192,106834,1,2,0:0:0:30:
448,192,106977,128,8,107120:0:0:0:30:
64,192,106977,1,0,0:0:0:0:
192,192,107120,128,2,107262:0:0:0:30:
320,192,107262,128,8,107405:0:0:0:30:
448,192,107262,1,0,0:0:0:0:
64,192,107405,128,2,108120:0:0:0:30:
448,192,107548,1,2,0:0:0:30:
320,192,107977,1,0,0:0:0:0:
448,192,108120,1,0,0:0:0:70:Button.wav
192,192,108405,1,0,0:0:0:0:
320,192,108548,1,0,0:0:0:70:Button.wav
64,192,108834,1,0,0:0:0:0:
192,192,108977,1,0,0:0:0:70:Button.wav
64,192,109262,1,0,0:0:0:70:Button.wav
192,192,109405,1,0,0:0:0:70:Button.wav
448,192,109477,1,0,0:0:0:70:Button.wav
320,192,109548,1,0,0:0:0:70:Button.wav
448,192,109691,1,0,0:0:0:70:LR_Drum Soft.wav
64,192,109834,1,0,0:0:0:0:
448,192,109977,1,0,0:0:0:0:
320,192,110048,1,0,0:0:0:0:
192,192,110120,1,0,0:0:0:0:
448,192,110262,1,0,0:0:0:0:
64,192,110405,1,0,0:0:0:0:
192,192,110477,1,0,0:0:0:0:
320,192,110548,1,0,0:0:0:0:
64,192,110691,1,0,0:0:0:0:
448,192,110834,1,0,0:0:0:0:
320,192,110905,1,0,0:0:0:0:
192,192,110977,1,0,0:0:0:0:
448,192,111120,1,0,0:0:0:0:
64,192,111262,1,0,0:0:0:0:
192,192,111334,1,0,0:0:0:0:
320,192,111405,1,0,0:0:0:0:
64,192,111548,1,0,0:0:0:0:
192,192,111691,1,0,0:0:0:0:
320,192,111762,1,0,0:0:0:0:
448,192,111834,1,0,0:0:0:0:
320,192,111905,1,0,0:0:0:0:
192,192,111977,1,0,0:0:0:0:
64,192,112048,1,0,0:0:0:0:
448,192,112120,1,0,0:0:0:50:D6S_s.wav
320,192,112405,1,0,0:0:0:50:G6S_s.wav
64,192,112548,1,0,0:0:0:50:G5S_s.wav
192,192,112834,1,0,0:0:0:50:A5S_s.wav
320,192,112977,1,0,0:0:0:50:B5S_s.wav
64,192,113120,1,0,0:0:0:50:C6S_s.wav
448,192,113262,1,0,0:0:0:50:D6S_s.wav
192,192,113405,1,0,0:0:0:50:C#6S_Db6S_s.wav
320,192,113548,1,0,0:0:0:50:D6S_s.wav
448,192,113691,1,0,0:0:0:50:G6S_s.wav
64,192,113834,1,0,0:0:0:50:F#6S_Gb6S_s.wav
192,192,114120,1,0,0:0:0:50:G6S_s.wav
320,192,114405,1,0,0:0:0:50:A6S_s.wav
448,192,114691,1,0,0:0:0:50:B6S_s.wav
192,192,114834,1,0,0:0:0:50:G6S_s.wav
320,192,115120,1,0,0:0:0:50:E6S_s.wav
192,192,115262,1,0,0:0:0:50:D6S_s.wav
64,192,115405,1,0,0:0:0:50:C6S_s.wav
320,192,115548,1,0,0:0:0:50:B5S_s.wav
448,192,115691,1,0,0:0:0:50:C6S_s.wav
64,192,115834,1,0,0:0:0:50:D6S_s.wav
320,192,115977,1,0,0:0:0:50:G5S_s.wav
192,192,116691,1,0,0:0:0:50:E6S_s.wav
320,192,116834,1,0,0:0:0:50:F#6S_Gb6S_s.wav
448,192,116977,1,0,0:0:0:50:G6S_s.wav
64,192,117120,1,0,0:0:0:50:C6S_s.wav
64,192,117834,1,0,0:0:0:50:D6S_s.wav
320,192,117977,1,0,0:0:0:50:F#6S_Gb6S_s.wav
448,192,118120,1,0,0:0:0:50:G6S_s.wav
192,192,118262,1,0,0:0:0:50:B5S_s.wav
320,192,118977,1,0,0:0:0:50:E6S_s.wav
64,192,119548,1,0,0:0:0:50:G6S_s.wav
448,192,119691,1,0,0:0:0:50:B6S_s.wav
320,192,119834,1,0,0:0:0:50:A6S_s.wav
192,192,119977,1,0,0:0:0:50:G6S_s.wav
64,192,120120,1,0,0:0:0:50:F#6S_Gb6S_ss.wav
192,192,120262,1,0,0:0:0:50:G6S_ss.wav
320,192,120405,1,0,0:0:0:50:G#6S_Ab6S_ss.wav
448,192,120548,128,0,120691:0:0:0:20:A6S_s+long.wav
320,192,120834,1,2,0:0:0:30:
448,192,120834,1,0,0:0:0:0:
192,192,120977,1,8,0:0:0:30:
64,192,120977,1,0,0:0:0:0:
448,192,121120,1,2,0:0:0:30:
320,192,121120,1,0,0:0:0:0:
192,192,121262,1,2,0:0:0:30:
64,192,121262,128,4,121405:0:0:0:30:
448,192,121262,1,2,0:0:0:30:
320,192,121405,1,0,0:0:0:0:
192,192,121548,1,8,0:0:0:30:
448,192,121548,128,0,121691:0:0:0:0:
64,192,121548,1,0,0:0:0:0:
64,192,121691,128,0,121834:0:0:0:0:
448,192,121834,1,2,0:0:0:30:
320,192,121834,1,0,0:0:0:0:
192,192,121977,128,0,122120:0:0:0:0:
320,192,122120,1,8,0:0:0:30:
448,192,122120,128,0,122262:0:0:0:0:
64,192,122120,1,0,0:0:0:0:
64,192,122262,128,0,122405:0:0:0:0:
448,192,122405,1,2,0:0:0:30:
192,192,122405,128,0,122548:0:0:0:0:
320,192,122620,128,0,122762:0:0:0:0:
192,192,122691,1,8,0:0:0:30:
64,192,122691,1,0,0:0:0:0:
448,192,122834,128,0,122977:0:0:0:0:
320,192,122977,1,2,0:0:0:30:
192,192,122977,1,0,0:0:0:0:
64,192,123120,128,0,123262:0:0:0:0:
448,192,123262,1,8,0:0:0:30:
320,192,123262,128,0,123405:0:0:0:0:
192,192,123262,1,0,0:0:0:0:
192,192,123405,128,0,123548:0:0:0:0:
64,192,123548,1,2,0:0:0:30:
448,192,123548,128,0,123691:0:0:0:0:
192,192,123762,128,0,123905:0:0:0:0:
320,192,123834,1,8,0:0:0:30:
448,192,123834,1,0,0:0:0:0:
64,192,123977,128,0,124120:0:0:0:0:
192,192,124120,1,2,0:0:0:30:
320,192,124120,1,0,0:0:0:0:
448,192,124262,128,0,124405:0:0:0:0:
64,192,124405,1,8,0:0:0:30:
320,192,124405,128,0,124548:0:0:0:0:
192,192,124405,1,0,0:0:0:0:
192,192,124548,128,0,124691:0:0:0:0:
64,192,124691,128,2,124834:0:0:0:30:
448,192,124691,1,0,0:0:0:0:
320,192,124905,128,0,125048:0:0:0:0:
192,192,124977,1,8,0:0:0:30:
64,192,124977,1,0,0:0:0:0:
448,192,125120,128,0,125262:0:0:0:0:
192,192,125262,1,2,0:0:0:30:
64,192,125262,1,0,0:0:0:0:
320,192,125334,1,0,0:0:0:0:
448,192,125405,1,0,0:0:0:0:
192,192,125477,1,0,0:0:0:0:
448,192,125548,1,8,0:0:0:30:
64,192,125548,1,0,0:0:0:0:
320,192,125620,1,0,0:0:0:0:
64,192,125691,1,0,0:0:0:0:
192,192,125762,1,0,0:0:0:0:
320,192,125834,1,2,0:0:0:30:
448,192,125834,1,0,0:0:0:0:
192,192,125977,1,0,0:0:0:0:
320,192,126048,1,0,0:0:0:0:
448,192,126120,1,8,0:0:0:30:
64,192,126120,1,0,0:0:0:0:
192,192,126191,1,0,0:0:0:0:
320,192,126262,1,0,0:0:0:0:
64,192,126405,1,2,0:0:0:30:
192,192,126405,1,0,0:0:0:0:
448,192,126477,1,0,0:0:0:0:
320,192,126548,1,0,0:0:0:0:
192,192,126620,1,0,0:0:0:0:
448,192,126691,1,8,0:0:0:30:
64,192,126691,1,0,0:0:0:0:
320,192,126834,1,0,0:0:0:0:
192,192,126905,1,0,0:0:0:0:
448,192,126977,1,2,0:0:0:30:
320,192,126977,1,0,0:0:0:0:
192,192,127120,1,0,0:0:0:0:
320,192,127191,1,0,0:0:0:0:
64,192,127262,1,8,0:0:0:30:
448,192,127262,1,0,0:0:0:0:
192,192,127334,1,0,0:0:0:0:
320,192,127405,1,0,0:0:0:0:
64,192,127548,1,2,0:0:0:30:
192,192,127548,1,0,0:0:0:0:
448,192,127620,1,0,0:0:0:0:
192,192,127691,1,0,0:0:0:0:
320,192,127762,1,0,0:0:0:0:
448,192,127834,1,8,0:0:0:30:
64,192,127834,1,0,0:0:0:0:
192,192,127905,1,0,0:0:0:0:
320,192,127977,1,0,0:0:0:0:
192,192,128048,1,0,0:0:0:0:
64,192,128120,1,2,0:0:0:30:
448,192,128120,1,0,0:0:0:0:
448,192,128262,1,0,0:0:0:70:aSnares2.wav
320,192,128262,128,0,128405:0:0:0:0:
64,192,128405,128,0,128548:0:0:0:0:
192,192,128548,128,2,128691:0:0:0:30:
320,192,128548,1,0,0:0:0:0:
64,192,128691,1,0,0:0:0:70:aSnares2.wav
448,192,128691,128,0,128834:0:0:0:0:
320,192,128834,128,0,128977:0:0:0:0:
192,192,128977,128,2,129120:0:0:0:30:
64,192,128977,1,0,0:0:0:0:
448,192,129120,1,0,0:0:0:70:aSnares2.wav
320,192,129120,128,0,129262:0:0:0:0:
64,192,129262,128,0,129405:0:0:0:0:
192,192,129405,1,2,0:0:0:30:
448,192,129405,128,0,129548:0:0:0:0:
64,192,129548,1,2,0:0:0:30:
320,192,129548,128,0,129691:0:0:0:0:
192,192,129691,1,2,0:0:0:30:
64,192,129691,128,0,129834:0:0:0:0:
448,192,129834,1,2,0:0:0:30:
320,192,129905,1,2,0:0:0:30:
192,192,129977,1,2,0:0:0:30:
64,192,130048,1,2,0:0:0:30:
448,192,130120,128,2,130191:0:0:0:30:
320,192,130191,128,2,130262:0:0:0:30:
192,192,130262,128,2,130334:0:0:0:30:
64,192,130334,128,2,130405:0:0:0:30:
448,192,130405,1,2,0:0:0:30:
320,192,130405,128,4,130548:0:0:0:30:
192,192,130548,1,0,0:0:0:0:
64,192,130691,1,8,0:0:0:30:
448,192,130691,128,0,130834:0:0:0:0:
192,192,130691,1,0,0:0:0:0:
320,192,130834,128,0,130977:0:0:0:0:
448,192,130977,1,2,0:0:0:30:
192,192,130977,1,0,0:0:0:0:
64,192,131120,128,0,131262:0:0:0:0:
192,192,131262,1,8,0:0:0:30:
320,192,131262,128,0,131405:0:0:0:0:
448,192,131262,1,0,0:0:0:0:
448,192,131405,128,0,131548:0:0:0:0:
192,192,131548,1,2,0:0:0:30:
64,192,131548,128,0,131691:0:0:0:0:
320,192,131691,128,0,131834:0:0:0:0:
64,192,131834,1,8,0:0:0:30:
448,192,131834,128,0,131977:0:0:0:0:
192,192,131834,1,0,0:0:0:0:
192,192,131977,128,0,132120:0:0:0:0:
320,192,132120,1,2,0:0:0:30:
64,192,132120,128,0,132262:0:0:0:0:
448,192,132262,1,0,0:0:0:0:
192,192,132405,1,8,0:0:0:30:
320,192,132405,128,0,132548:0:0:0:0:
448,192,132405,1,0,0:0:0:0:
64,192,132548,1,0,0:0:0:0:
320,192,132691,1,2,0:0:0:30:
448,192,132691,128,0,132834:0:0:0:0:
192,192,132834,1,0,0:0:0:0:
64,192,132977,1,8,0:0:0:30:
448,192,132977,128,0,133120:0:0:0:0:
192,192,132977,1,0,0:0:0:0:
320,192,133120,128,0,133262:0:0:0:0:
192,192,133262,1,2,0:0:0:30:
64,192,133262,1,0,0:0:0:0:
448,192,133405,128,0,133548:0:0:0:0:
320,192,133548,1,8,0:0:0:30:
64,192,133548,128,0,133691:0:0:0:0:
192,192,133548,1,0,0:0:0:0:
192,192,133691,128,0,133834:0:0:0:0:
448,192,133834,1,2,0:0:0:30:
320,192,133834,128,0,133977:0:0:0:0:
64,192,133977,128,0,134120:0:0:0:0:
448,192,134120,1,8,0:0:0:30:
320,192,134120,128,0,134262:0:0:0:0:
192,192,134120,1,0,0:0:0:0:
192,192,134262,128,0,134405:0:0:0:0:
448,192,134405,1,2,0:0:0:30:
64,192,134405,1,0,0:0:0:0:
320,192,134477,1,0,0:0:0:0:
192,192,134548,1,0,0:0:0:0:
64,192,134620,1,0,0:0:0:0:
448,192,134691,1,8,0:0:0:30:
320,192,134691,1,0,0:0:0:0:
192,192,134762,1,0,0:0:0:0:
320,192,134834,1,0,0:0:0:0:
448,192,134905,1,0,0:0:0:0:
192,192,134977,1,2,0:0:0:30:
64,192,134977,128,0,135120:0:0:0:0:
320,192,135120,128,0,135262:0:0:0:0:
64,192,135262,1,8,0:0:0:30:
448,192,135262,128,0,135405:0:0:0:0:
192,192,135262,1,0,0:0:0:0:
320,192,135405,128,0,135548:0:0:0:0:
64,192,135548,1,2,0:0:0:30:
448,192,135548,1,0,0:0:0:0:
192,192,135620,1,0,0:0:0:0:
320,192,135691,1,0,0:0:0:0:
448,192,135762,1,0,0:0:0:0:
64,192,135834,1,8,0:0:0:30:
192,192,135834,1,0,0:0:0:0:
320,192,135905,1,0,0:0:0:0:
192,192,135977,1,0,0:0:0:0:
64,192,136048,1,0,0:0:0:0:
320,192,136120,1,2,0:0:0:30:
448,192,136120,128,0,136262:0:0:0:0:
192,192,136262,128,0,136405:0:0:0:0:
448,192,136405,1,8,0:0:0:30:
64,192,136405,128,0,136548:0:0:0:0:
320,192,136405,1,0,0:0:0:0:
192,192,136548,128,0,136691:0:0:0:0:
448,192,136691,1,2,0:0:0:30:
320,192,136691,1,0,0:0:0:0:
64,192,136762,1,0,0:0:0:0:
192,192,136834,1,0,0:0:0:0:
448,192,136905,1,0,0:0:0:0:
320,192,136977,1,8,0:0:0:30:
64,192,136977,1,0,0:0:0:0:
192,192,137048,1,0,0:0:0:0:
448,192,137120,1,0,0:0:0:0:
320,192,137191,1,0,0:0:0:0:
192,192,137262,1,2,0:0:0:30:
64,192,137262,128,0,137405:0:0:0:0:
448,192,137405,1,0,0:0:0:0:
320,192,137477,1,0,0:0:0:0:
64,192,137548,1,8,0:0:0:30:
192,192,137548,1,0,0:0:0:0:
320,192,137620,1,0,0:0:0:0:
448,192,137691,1,0,0:0:0:0:
64,192,137762,1,0,0:0:0:0:
448,192,137834,1,2,0:0:0:30:
192,192,137834,128,0,137977:0:0:0:0:
320,192,137977,128,0,138120:0:0:0:0:
448,192,138120,1,8,0:0:0:30:
192,192,138120,128,0,138262:0:0:0:0:
64,192,138120,1,0,0:0:0:0:
64,192,138262,128,0,138405:0:0:0:0:
448,192,138405,1,2,0:0:0:30:
320,192,138405,1,2,0:0:0:30:
192,192,138548,1,2,0:0:0:30:
64,192,138548,1,2,0:0:0:30:
320,192,138691,1,2,0:0:0:30:
192,192,138691,1,2,0:0:0:30:
320,192,138834,1,2,0:0:0:30:
448,192,138834,1,2,0:0:0:30:
64,192,138977,128,2,139048:0:0:0:30:
192,192,139048,128,2,139120:0:0:0:30:
320,192,139120,128,2,139191:0:0:0:30:
64,192,139191,128,2,139262:0:0:0:30:
448,192,139262,128,2,139334:0:0:0:30:
64,192,139334,128,2,139405:0:0:0:30:
192,192,139405,128,2,139477:0:0:0:30:
320,192,139477,128,2,139548:0:0:0:30:
448,192,139548,1,2,0:0:0:30:
64,192,139548,128,4,139691:0:0:0:30:
192,192,139762,128,0,139905:0:0:0:0:
64,192,139834,1,8,0:0:0:30:
448,192,139834,1,0,0:0:0:0:
320,192,139977,128,0,140120:0:0:0:0:
448,192,140120,1,2,0:0:0:30:
64,192,140120,1,0,0:0:0:0:
192,192,140262,128,0,140405:0:0:0:0:
320,192,140405,1,8,0:0:0:30:
448,192,140405,128,0,140548:0:0:0:0:
64,192,140405,1,0,0:0:0:0:
192,192,140548,128,0,140691:0:0:0:0:
448,192,140691,1,2,0:0:0:30:
64,192,140691,128,0,140834:0:0:0:0:
320,192,140905,128,0,141048:0:0:0:0:
448,192,140977,1,8,0:0:0:30:
64,192,140977,1,0,0:0:0:0:
192,192,141120,128,0,141262:0:0:0:0:
320,192,141262,1,2,0:0:0:30:
64,192,141262,1,0,0:0:0:0:
448,192,141405,128,0,141548:0:0:0:0:
64,192,141548,1,8,0:0:0:30:
320,192,141548,128,0,141691:0:0:0:0:
192,192,141548,1,0,0:0:0:0:
192,192,141691,128,0,141834:0:0:0:0:
448,192,141834,1,2,0:0:0:30:
64,192,141834,128,0,141977:0:0:0:0:
320,192,142048,128,0,142191:0:0:0:0:
448,192,142120,1,8,0:0:0:30:
64,192,142120,1,0,0:0:0:0:
192,192,142262,128,0,142405:0:0:0:0:
64,192,142405,1,2,0:0:0:30:
448,192,142405,1,0,0:0:0:0:
320,192,142477,128,0,142620:0:0:0:0:
192,192,142691,1,8,0:0:0:30:
64,192,142691,128,0,142834:0:0:0:0:
448,192,142691,1,0,0:0:0:0:
320,192,142834,128,0,142977:0:0:0:0:
448,192,142977,1,2,0:0:0:30:
64,192,142977,128,0,143120:0:0:0:0:
192,192,143120,128,0,143262:0:0:0:0:
448,192,143262,128,8,143405:0:0:0:30:
320,192,143262,1,0,0:0:0:0:
64,192,143262,1,0,0:0:0:0:
192,192,143405,128,0,143548:0:0:0:0:
320,192,143548,1,2,0:0:0:30:
64,192,143548,1,0,0:0:0:0:
448,192,143620,1,0,0:0:0:0:
192,192,143691,1,0,0:0:0:0:
320,192,143762,1,0,0:0:0:0:
64,192,143834,1,8,0:0:0:30:
448,192,143834,1,0,0:0:0:0:
192,192,143905,1,0,0:0:0:0:
448,192,143977,1,0,0:0:0:0:
320,192,144048,1,0,0:0:0:0:
192,192,144120,1,2,0:0:0:30:
64,192,144120,1,0,0:0:0:0:
448,192,144262,1,0,0:0:0:0:
320,192,144334,1,0,0:0:0:0:
64,192,144405,1,8,0:0:0:30:
448,192,144405,1,0,0:0:0:0:
192,192,144477,1,0,0:0:0:0:
320,192,144548,1,0,0:0:0:0:
64,192,144691,1,2,0:0:0:30:
320,192,144691,1,0,0:0:0:0:
448,192,144762,1,0,0:0:0:0:
192,192,144834,1,0,0:0:0:0:
320,192,144905,1,0,0:0:0:0:
448,192,144977,1,8,0:0:0:30:
64,192,144977,1,0,0:0:0:0:
192,192,145120,1,0,0:0:0:0:
320,192,145191,1,0,0:0:0:0:
192,192,145262,1,2,0:0:0:30:
448,192,145262,1,0,0:0:0:0:
64,192,145405,1,0,0:0:0:0:
320,192,145477,1,0,0:0:0:0:
64,192,145548,1,8,0:0:0:30:
448,192,145548,1,0,0:0:0:0:
192,192,145620,1,0,0:0:0:0:
320,192,145691,1,0,0:0:0:0:
320,192,145834,1,2,0:0:0:30:
64,192,145834,1,0,0:0:0:0:
448,192,145905,1,0,0:0:0:0:
192,192,145977,1,0,0:0:0:0:
320,192,146048,1,0,0:0:0:0:
64,192,146120,1,8,0:0:0:30:
448,192,146120,1,0,0:0:0:0:
320,192,146191,1,0,0:0:0:0:
192,192,146262,1,0,0:0:0:0:
64,192,146334,1,0,0:0:0:0:
448,192,146405,1,2,0:0:0:30:
320,192,146405,1,0,0:0:0:0:
192,192,146477,1,2,0:0:0:30:
64,192,146548,1,8,0:0:0:30:
448,192,146548,128,0,146691:0:0:0:0:
320,192,146691,128,0,146834:0:0:0:0:
192,192,146834,128,2,146977:0:0:0:30:
64,192,146834,128,0,146977:0:0:0:0:
448,192,146977,128,8,147120:0:0:0:30:
320,192,147120,128,0,147262:0:0:0:0:
192,192,147262,128,2,147405:0:0:0:30:
320,192,147405,1,8,0:0:0:30:
64,192,147405,128,0,147548:0:0:0:0:
192,192,147548,128,2,147691:0:0:0:30:
448,192,147548,128,0,147834:0:0:0:0:
64,192,147691,128,2,147834:0:0:0:30:
320,192,147834,1,2,0:0:0:30:
192,192,147977,128,2,148120:0:0:0:30:
448,192,147977,128,0,148120:0:0:0:0:
64,192,148120,1,2,0:0:0:30:
320,192,148191,1,2,0:0:0:30:
192,192,148262,1,2,0:0:0:30:
448,192,148334,1,2,0:0:0:30:
64,192,148405,128,2,148691:0:0:0:30:
448,192,148477,1,2,0:0:0:30:
320,192,148548,1,2,0:0:0:30:
192,192,148620,1,2,0:0:0:30:
448,192,148691,1,2,0:0:0:30:
320,192,148691,128,4,148834:0:0:0:30:
192,192,148834,1,0,0:0:0:0:
64,192,148977,1,8,0:0:0:30:
448,192,148977,128,0,149120:0:0:0:0:
192,192,148977,1,0,0:0:0:0:
320,192,149120,128,0,149262:0:0:0:0:
448,192,149262,1,2,0:0:0:30:
192,192,149262,1,0,0:0:0:0:
64,192,149405,128,0,149548:0:0:0:0:
192,192,149548,1,8,0:0:0:30:
320,192,149548,128,0,149691:0:0:0:0:
448,192,149548,1,0,0:0:0:0:
448,192,149691,128,0,149834:0:0:0:0:
192,192,149834,1,2,0:0:0:30:
64,192,149834,128,0,149977:0:0:0:0:
320,192,149977,128,0,150120:0:0:0:0:
64,192,150120,1,8,0:0:0:30:
448,192,150120,128,0,150262:0:0:0:0:
192,192,150120,1,0,0:0:0:0:
192,192,150262,128,0,150405:0:0:0:0:
320,192,150405,1,2,0:0:0:30:
64,192,150405,128,0,150548:0:0:0:0:
448,192,150548,1,0,0:0:0:0:
192,192,150691,1,8,0:0:0:30:
320,192,150691,128,0,150834:0:0:0:0:
448,192,150691,1,0,0:0:0:0:
64,192,150834,1,0,0:0:0:0:
320,192,150977,1,2,0:0:0:30:
448,192,150977,128,0,151120:0:0:0:0:
192,192,151120,1,0,0:0:0:0:
448,192,151262,1,8,0:0:0:30:
320,192,151262,128,0,151405:0:0:0:0:
64,192,151262,1,0,0:0:0:0:
64,192,151405,128,0,151548:0:0:0:0:
192,192,151548,1,2,0:0:0:30:
448,192,151548,1,0,0:0:0:0:
320,192,151691,128,0,151834:0:0:0:0:
448,192,151834,1,8,0:0:0:30:
64,192,151834,128,0,151977:0:0:0:0:
192,192,151834,1,0,0:0:0:0:
320,192,151977,128,0,152120:0:0:0:0:
448,192,152120,1,2,0:0:0:30:
192,192,152120,128,0,152262:0:0:0:0:
64,192,152262,128,0,152405:0:0:0:0:
448,192,152405,1,8,0:0:0:30:
320,192,152405,128,0,152548:0:0:0:0:
192,192,152405,1,0,0:0:0:0:
192,192,152548,128,0,152691:0:0:0:0:
448,192,152691,1,2,0:0:0:30:
64,192,152691,1,0,0:0:0:0:
320,192,152762,1,0,0:0:0:0:
192,192,152834,1,0,0:0:0:0:
64,192,152905,1,0,0:0:0:0:
320,192,152977,1,8,0:0:0:30:
448,192,152977,1,0,0:0:0:0:
192,192,153048,1,0,0:0:0:0:
320,192,153120,1,0,0:0:0:0:
448,192,153191,1,0,0:0:0:0:
64,192,153262,128,2,153405:0:0:0:30:
192,192,153262,1,0,0:0:0:0:
320,192,153405,128,0,153548:0:0:0:0:
64,192,153548,1,8,0:0:0:30:
448,192,153548,128,0,153691:0:0:0:0:
192,192,153548,1,0,0:0:0:0:
320,192,153691,128,0,153834:0:0:0:0:
64,192,153834,1,2,0:0:0:30:
448,192,153834,1,0,0:0:0:0:
192,192,153905,1,0,0:0:0:0:
320,192,153977,1,0,0:0:0:0:
448,192,154048,1,0,0:0:0:0:
64,192,154120,1,8,0:0:0:30:
192,192,154120,1,0,0:0:0:0:
320,192,154191,1,0,0:0:0:0:
192,192,154262,1,0,0:0:0:0:
64,192,154334,1,0,0:0:0:0:
320,192,154405,1,2,0:0:0:30:
448,192,154405,128,0,154548:0:0:0:0:
192,192,154548,128,0,154691:0:0:0:0:
448,192,154691,1,8,0:0:0:30:
64,192,154691,128,0,154834:0:0:0:0:
320,192,154691,1,0,0:0:0:0:
192,192,154834,128,0,154977:0:0:0:0:
448,192,154977,1,2,0:0:0:30:
320,192,154977,1,0,0:0:0:0:
64,192,155048,1,0,0:0:0:0:
192,192,155120,1,0,0:0:0:0:
320,192,155191,1,0,0:0:0:0:
64,192,155262,1,8,0:0:0:30:
448,192,155262,1,0,0:0:0:0:
192,192,155334,1,0,0:0:0:0:
448,192,155405,1,0,0:0:0:0:
320,192,155477,1,0,0:0:0:0:
64,192,155548,1,2,0:0:0:30:
192,192,155548,1,0,0:0:0:0:
320,192,155691,1,0,0:0:0:0:
192,192,155762,1,0,0:0:0:0:
64,192,155834,1,8,0:0:0:30:
448,192,155834,1,0,0:0:0:0:
320,192,155905,1,0,0:0:0:0:
192,192,155977,1,0,0:0:0:0:
320,192,156048,1,0,0:0:0:0:
64,192,156120,128,2,156262:0:0:0:30:
448,192,156120,1,0,0:0:0:0:
320,192,156262,128,0,156405:0:0:0:0:
448,192,156405,1,8,0:0:0:30:
192,192,156405,128,0,156548:0:0:0:0:
64,192,156405,1,0,0:0:0:0:
320,192,156548,128,0,156691:0:0:0:0:
64,192,156691,1,2,0:0:0:30:
192,192,156691,1,0,0:0:0:0:
64,192,156834,1,2,0:0:0:30:
320,192,156834,1,0,0:0:0:0:
192,192,156977,1,2,0:0:0:30:
448,192,156977,1,0,0:0:0:0:
320,192,157120,1,2,0:0:0:30:
448,192,157120,1,0,0:0:0:0:
64,192,157262,128,2,157334:0:0:0:30:
320,192,157334,128,2,157405:0:0:0:30:
192,192,157405,128,2,157477:0:0:0:30:
64,192,157477,128,2,157548:0:0:0:30:
448,192,157548,128,2,157620:0:0:0:30:
320,192,157620,128,2,157691:0:0:0:30:
192,192,157691,128,2,157762:0:0:0:30:
64,192,157762,128,2,157834:0:0:0:30:
448,192,157834,1,2,0:0:0:30:
320,192,157834,128,2,157977:0:0:0:30:
192,192,158048,128,0,158191:0:0:0:0:
64,192,158120,1,8,0:0:0:30:
448,192,158120,1,0,0:0:0:0:
320,192,158262,128,0,158405:0:0:0:0:
448,192,158405,1,2,0:0:0:30:
64,192,158405,1,0,0:0:0:0:
192,192,158548,128,0,158691:0:0:0:0:
320,192,158691,1,8,0:0:0:30:
448,192,158691,128,0,158834:0:0:0:0:
64,192,158691,1,0,0:0:0:0:
192,192,158834,128,0,158977:0:0:0:0:
448,192,158977,1,2,0:0:0:30:
64,192,158977,128,0,159120:0:0:0:0:
320,192,159191,128,0,159334:0:0:0:0:
448,192,159262,1,8,0:0:0:30:
64,192,159262,1,0,0:0:0:0:
192,192,159405,128,0,159548:0:0:0:0:
320,192,159548,1,2,0:0:0:30:
448,192,159548,1,0,0:0:0:0:
192,192,159691,128,0,159834:0:0:0:0:
64,192,159834,1,8,0:0:0:30:
320,192,159834,128,0,159977:0:0:0:0:
448,192,159834,1,0,0:0:0:0:
448,192,159977,128,0,160120:0:0:0:0:
192,192,160120,1,2,0:0:0:30:
64,192,160120,128,0,160262:0:0:0:0:
320,192,160334,128,0,160477:0:0:0:0:
448,192,160405,1,8,0:0:0:30:
64,192,160405,1,0,0:0:0:0:
192,192,160548,128,0,160691:0:0:0:0:
64,192,160691,1,2,0:0:0:30:
448,192,160691,1,0,0:0:0:0:
320,192,160762,128,0,160905:0:0:0:0:
192,192,160977,1,8,0:0:0:30:
64,192,160977,128,0,161120:0:0:0:0:
448,192,160977,1,0,0:0:0:0:
320,192,161120,128,0,161262:0:0:0:0:
448,192,161262,1,2,0:0:0:30:
192,192,161262,128,0,161405:0:0:0:0:
64,192,161405,128,0,161548:0:0:0:0:
448,192,161548,128,8,161691:0:0:0:30:
320,192,161548,1,0,0:0:0:0:
192,192,161548,1,0,0:0:0:0:
192,192,161691,128,0,161834:0:0:0:0:
320,192,161834,1,2,0:0:0:30:
64,192,161834,1,0,0:0:0:0:
448,192,161905,1,0,0:0:0:0:
192,192,161977,1,0,0:0:0:0:
320,192,162048,1,0,0:0:0:0:
64,192,162120,1,8,0:0:0:30:
448,192,162120,1,0,0:0:0:0:
192,192,162191,1,0,0:0:0:0:
320,192,162262,1,0,0:0:0:0:
64,192,162334,1,0,0:0:0:0:
192,192,162405,1,2,0:0:0:30:
448,192,162405,1,0,0:0:0:0:
192,192,162548,1,0,0:0:0:0:
320,192,162620,1,0,0:0:0:0:
64,192,162691,1,8,0:0:0:30:
448,192,162691,1,0,0:0:0:0:
192,192,162762,1,0,0:0:0:0:
320,192,162834,1,0,0:0:0:0:
64,192,162977,1,2,0:0:0:30:
448,192,162977,1,0,0:0:0:0:
320,192,163048,1,0,0:0:0:0:
192,192,163120,1,0,0:0:0:0:
320,192,163191,1,0,0:0:0:0:
448,192,163262,1,8,0:0:0:30:
192,192,163262,1,0,0:0:0:0:
64,192,163405,1,0,0:0:0:0:
192,192,163477,1,0,0:0:0:0:
64,192,163548,1,2,0:0:0:30:
320,192,163548,1,0,0:0:0:0:
192,192,163691,1,0,0:0:0:0:
320,192,163762,1,0,0:0:0:0:
64,192,163834,1,8,0:0:0:30:
448,192,163834,1,0,0:0:0:0:
320,192,163905,1,0,0:0:0:0:
192,192,163977,1,0,0:0:0:0:
320,192,164120,1,2,0:0:0:30:
448,192,164120,1,0,0:0:0:0:
64,192,164191,1,0,0:0:0:0:
192,192,164262,1,0,0:0:0:0:
320,192,164334,1,0,0:0:0:0:
448,192,164405,1,8,0:0:0:30:
64,192,164405,1,0,0:0:0:0:
320,192,164477,1,0,0:0:0:0:
192,192,164548,1,0,0:0:0:0:
64,192,164620,1,0,0:0:0:0:
448,192,164691,1,2,0:0:0:30:
320,192,164691,1,0,0:0:0:0:
64,192,164834,1,0,0:0:0:70:aSnares2.wav
192,192,164834,128,0,164977:0:0:0:0:
320,192,164977,128,0,165120:0:0:0:0:
192,192,165120,128,2,165262:0:0:0:30:
448,192,165120,1,0,0:0:0:0:
64,192,165262,1,0,0:0:0:70:aSnares2.wav
448,192,165262,128,0,165405:0:0:0:0:
320,192,165405,128,0,165548:0:0:0:0:
192,192,165548,128,2,165691:0:0:0:30:
64,192,165548,1,0,0:0:0:0:
448,192,165691,1,0,0:0:0:70:aSnares2.wav
320,192,165691,128,0,165834:0:0:0:0:
64,192,165834,128,0,165977:0:0:0:0:
192,192,165977,1,2,0:0:0:30:
448,192,165977,128,0,166120:0:0:0:0:
64,192,166120,1,2,0:0:0:30:
320,192,166120,128,0,166262:0:0:0:0:
64,192,166262,1,2,0:0:0:30:
192,192,166262,128,0,166405:0:0:0:0:
448,192,166405,1,2,0:0:0:30:
320,192,166477,1,2,0:0:0:30:
192,192,166548,1,2,0:0:0:30:
64,192,166620,1,2,0:0:0:30:
448,192,166691,128,2,166762:0:0:0:30:
320,192,166762,128,2,166834:0:0:0:30:
192,192,166834,128,2,166905:0:0:0:30:
64,192,166905,128,2,166977:0:0:0:30:
448,192,166977,1,2,0:0:0:30:
320,192,166977,128,4,167977:0:0:0:30:
64,192,167262,1,2,0:0:0:30:
448,192,167548,1,2,0:0:0:30:
64,192,167834,1,2,0:0:0:30:
64,192,168120,1,2,0:0:0:30:
192,192,168120,1,0,0:0:0:20:LR_CymbalSSD.wav
320,192,168262,1,2,0:0:0:30:
64,192,168262,1,0,0:0:0:20:LR_CymbalSSD.wav
192,192,168405,1,2,0:0:0:30:
448,192,168405,1,0,0:0:0:20:LR_CymbalSSD.wav
320,192,168548,1,2,0:0:0:30:
448,192,168548,128,0,168977:0:0:0:20:LR_CymbalSSD.wav
64,192,168834,128,8,168977:0:0:0:30:
192,192,168834,1,0,0:0:0:0:
320,192,168977,1,2,0:0:0:30:
