osu file format v14

[General]
AudioFilename: audio.mp3
AudioLeadIn: 0
PreviewTime: 41048
Countdown: 0
SampleSet: Soft
StackLeniency: 0.7
Mode: 3
LetterboxInBreaks: 0
SpecialStyle: 0
WidescreenStoryboard: 1

[Editor]
DistanceSpacing: 0.8
BeatDivisor: 4
GridSize: 8
TimelineZoom: 2.2

[Metadata]
Title:ONIGIRI FREEWAY
TitleUnicode:ONIGIRI FREEWAY
Artist:OISHII
ArtistUnicode:OISHII
Creator:Mentholzzz
Version:Plain Onigiri "NM"
Source:osu!
Tags:Chiptune 8 bit Creamcore Polytetral Featured Artist
BeatmapID:1403599
BeatmapSetID:663098

[Difficulty]
HPDrainRate:7
CircleSize:4
OverallDifficulty:7
ApproachRate:5
SliderMultiplier:1.4
SliderTickRate:1

[Events]
//Background and Video events
0,0,"header-5120x.jpg",0,0
//Break Periods
//Storyboard Layer 0 (Background)
//Storyboard Layer 1 (Fail)
//Storyboard Layer 2 (Pass)
//Storyboard Layer 3 (Foreground)
//Storyboard Sound Samples
Sample,64120,0,"LR_NBell_C6.wav",70
Sample,65262,0,"LR_NBell_B5.wav",70
Sample,66405,0,"LR_NBell_A5.wav",70
Sample,66977,0,"LR_NBell_E6.wav",70
Sample,67548,0,"LR_NBell_D6.wav",70
Sample,67691,0,"LR_NBell_E6.wav",70
Sample,67834,0,"LR_NBell_F6.wav",70
Sample,67977,0,"LR_NBell_F#6.wav",70
Sample,68691,0,"LR_NBell_E6.wav",70
Sample,69262,0,"LR_NBell_B5.wav",70
Sample,69834,0,"LR_NBell_D#6.wav",70
Sample,70405,0,"LR_NBell_B5.wav",70
Sample,70977,0,"LR_NBell_D6.wav",70
Sample,71548,0,"LR_NBell_B5.wav",70
Sample,72120,0,"LR_NBell_C#6.wav",70
Sample,72691,0,"LR_NBell_A5.wav",70
Sample,73262,0,"LR_NBell_C6.wav",70
Sample,74691,0,"LR_NBell_G5.wav",70
Sample,74977,0,"LR_NBell_D6.wav",70
Sample,75262,0,"LR_NBell_G6.wav",70
Sample,76691,0,"LR_NBell_D6.wav",70
Sample,76834,0,"LR_NBell_A5.wav",70
Sample,76977,0,"LR_NBell_G6.wav",70
Sample,77120,0,"LR_NBell_F#6.wav",70
Sample,77834,0,"LR_NBell_B6.wav",70
Sample,78977,0,"LR_CymbalSSD.wav",20
Sample,79120,0,"LR_CymbalSSD.wav",20
Sample,79262,0,"LR_CymbalSSD.wav",20
Sample,79405,0,"LR_CymbalSSD.wav",20
Sample,112120,0,"D6S_s.wav",50
Sample,112405,0,"G6S_s.wav",50
Sample,112548,0,"G5S_s.wav",50
Sample,112834,0,"A5S_s.wav",50
Sample,112977,0,"B5S_s.wav",50
Sample,113120,0,"C6S_s.wav",50
Sample,113262,0,"D6S_s.wav",50
Sample,113405,0,"C#6S_Db6S_s.wav",50
Sample,113548,0,"D6S_s.wav",50
Sample,113691,0,"G6S_s.wav",50
Sample,113834,0,"F#6S_Gb6S_s.wav",50
Sample,114120,0,"G6S_s.wav",50
Sample,114405,0,"A6S_s.wav",50
Sample,114691,0,"B6S_s.wav",50
Sample,114834,0,"G6S_s.wav",50
Sample,115120,0,"E6S_s.wav",50
Sample,115262,0,"D6S_s.wav",50
Sample,115405,0,"C6S_s.wav",50
Sample,115548,0,"B5S_s.wav",50
Sample,115691,0,"C6S_s.wav",50
Sample,115834,0,"D6S_s.wav",50
Sample,115977,0,"G5S_s.wav",50
Sample,116691,0,"E6S_s.wav",50
Sample,116834,0,"F#6S_Gb6S_s.wav",50
Sample,116977,0,"G6S_s.wav",50
Sample,117120,0,"C6S_s.wav",50
Sample,117834,0,"D6S_s.wav",50
Sample,117977,0,"F#6S_Gb6S_s.wav",50
Sample,118120,0,"G6S_s.wav",50
Sample,118262,0,"B5S_s.wav",50
Sample,118977,0,"E6S_s.wav",50
Sample,119548,0,"G6S_s.wav",50
Sample,119691,0,"B6S_s.wav",50
Sample,119834,0,"A6S_s.wav",50
Sample,119977,0,"G6S_s.wav",50
Sample,120120,0,"F#6S_Gb6S_ss.wav",50
Sample,120262,0,"G6S_ss.wav",100
Sample,120405,0,"G#6S_Ab6S_ss.wav",50
Sample,120548,0,"A6S_s+long.wav",20
Sample,134977,0,"LR_NBell_C6.wav",70
Sample,136120,0,"LR_NBell_B5.wav",70
Sample,137262,0,"LR_NBell_A5.wav",70
Sample,137834,0,"LR_NBell_E6.wav",70
Sample,138405,0,"LR_NBell_D6.wav",70
Sample,138548,0,"LR_NBell_E6.wav",70
Sample,138691,0,"LR_NBell_F6.wav",70
Sample,138834,0,"LR_NBell_F#6.wav",70
Sample,139548,0,"LR_NBell_E6.wav",70
Sample,140120,0,"LR_NBell_B5.wav",70
Sample,140691,0,"LR_NBell_D#6.wav",70
Sample,141262,0,"LR_NBell_B5.wav",70
Sample,141834,0,"LR_NBell_D6.wav",70
Sample,142405,0,"LR_NBell_B5.wav",70
Sample,142977,0,"LR_NBell_C#6.wav",70
Sample,143548,0,"LR_NBell_A5.wav",70
Sample,144120,0,"LR_NBell_C6.wav",70
Sample,145548,0,"LR_NBell_G5.wav",70
Sample,145834,0,"LR_NBell_D6.wav",70
Sample,146120,0,"LR_NBell_G6.wav",70
Sample,148691,0,"LR_NBell_D4.wav",70
Sample,149834,0,"LR_NBell_D#4.wav",70
Sample,150977,0,"LR_NBell_E4.wav",70
Sample,152120,0,"LR_NBell_F4.wav",70
Sample,153262,0,"LR_NBell_C5.wav",70
Sample,153262,0,"LR_NBell_C6.wav",70
Sample,154405,0,"LR_NBell_B5.wav",70
Sample,154405,0,"LR_NBell_B4.wav",70
Sample,155548,0,"LR_NBell_A5.wav",70
Sample,155548,0,"LR_NBell_A4.wav",70
Sample,156120,0,"LR_NBell_E6.wav",70
Sample,156120,0,"LR_NBell_E5.wav",70
Sample,156691,0,"LR_NBell_D5.wav",70
Sample,156691,0,"LR_NBell_D6.wav",70
Sample,156834,0,"LR_NBell_E5.wav",70
Sample,156834,0,"LR_NBell_E6.wav",70
Sample,156977,0,"LR_NBell_F5.wav",70
Sample,156977,0,"LR_NBell_F6.wav",70
Sample,157120,0,"LR_NBell_F#6.wav",70
Sample,157120,0,"LR_NBell_F#5.wav",70
Sample,157834,0,"LR_NBell_E6.wav",70
Sample,157834,0,"LR_NBell_E5.wav",70
Sample,158405,0,"LR_NBell_B5.wav",70
Sample,158405,0,"LR_NBell_B4.wav",70
Sample,158977,0,"LR_NBell_D#6.wav",70
Sample,158977,0,"LR_NBell_D#5.wav",70
Sample,159548,0,"LR_NBell_B5.wav",70
Sample,159548,0,"LR_NBell_B4.wav",70
Sample,160120,0,"LR_NBell_D5.wav",70
Sample,160120,0,"LR_NBell_D6.wav",70
Sample,160691,0,"LR_NBell_B4.wav",70
Sample,160691,0,"LR_NBell_B5.wav",70
Sample,161262,0,"LR_NBell_C#5.wav",70
Sample,161262,0,"LR_NBell_C#6.wav",70
Sample,161834,0,"LR_NBell_A5.wav",70
Sample,161834,0,"LR_NBell_A4.wav",70
Sample,162405,0,"LR_NBell_C6.wav",70
Sample,162405,0,"LR_NBell_C5.wav",70
Sample,163834,0,"LR_NBell_G5.wav",70
Sample,164120,0,"LR_NBell_D6.wav",70
Sample,164405,0,"LR_NBell_G6.wav",70
Sample,164691,0,"LR_NBell_D5.wav",70
Sample,164691,0,"LR_NBell_D4.wav",70
Sample,165834,0,"LR_NBell_D6.wav",70
Sample,165977,0,"LR_NBell_A5.wav",70
Sample,166120,0,"LR_NBell_G6.wav",70
Sample,166262,0,"LR_NBell_F#6.wav",70
Sample,166977,0,"LR_NBell_B5.wav",70
Sample,166977,0,"LR_NBell_B6.wav",70
Sample,168120,0,"LR_CymbalSSD.wav",20
Sample,168262,0,"LR_CymbalSSD.wav",20
Sample,168405,0,"LR_CymbalSSD.wav",20
Sample,168548,0,"LR_CymbalSSD.wav",20

[TimingPoints]
120,285.714285714286,4,2,1,30,1,0
9262,-100,4,2,1,50,0,0
38977,-100,4,2,1,25,0,0
41262,-100,4,2,1,50,0,0
109834,-100,4,2,1,25,0,0
120834,-100,4,2,1,50,0,0
121262,-100,4,2,1,50,0,1
166977,-100,4,2,1,50,0,0

[HitObjects]
64,192,120,128,0,262:0:0:0:70:Button.wav
192,192,548,1,0,0:0:0:70:Button.wav
320,192,977,1,0,0:0:0:70:Button.wav
192,192,1262,128,0,1405:0:0:0:70:Button.wav
320,192,1691,1,0,0:0:0:70:Button.wav
64,192,2120,1,0,0:0:0:70:Button.wav
320,192,2405,128,0,2548:0:0:0:70:Button.wav
64,192,2834,1,0,0:0:0:70:Button.wav
192,192,3262,1,0,0:0:0:70:Button.wav
448,192,3548,128,0,3691:0:0:0:70:Button.wav
64,192,3834,1,0,0:0:0:70:Button.wav
320,192,4120,1,0,0:0:0:70:Button.wav
192,192,4405,1,0,0:0:0:70:Button.wav
320,192,4691,128,0,4834:0:0:0:70:Button.wav
64,192,5120,1,0,0:0:0:70:Button.wav
320,192,5548,1,0,0:0:0:70:Button.wav
64,192,5834,128,0,7262:0:0:0:70:Button.wav
448,192,6262,1,0,0:0:0:70:Button.wav
192,192,6691,1,0,0:0:0:70:Button.wav
448,192,6977,128,0,7120:0:0:0:70:Button.wav
320,192,7405,1,0,0:0:0:70:Button.wav
192,192,7834,1,0,0:0:0:70:Button.wav
448,192,8120,128,0,8262:0:0:0:70:Button.wav
64,192,8405,1,0,0:0:0:70:Button.wav
192,192,8691,1,0,0:0:0:70:Button.wav
320,192,8977,1,0,0:0:0:70:Button.wav
64,192,9262,1,2,0:0:0:30:
448,192,9262,1,4,0:0:0:30:
320,192,9548,1,8,0:0:0:30:
192,192,9977,1,2,0:0:0:30:
448,192,10120,1,8,0:0:0:30:
64,192,10405,1,2,0:0:0:30:
320,192,10691,1,8,0:0:0:30:
192,192,11120,1,2,0:0:0:30:
448,192,11262,1,8,0:0:0:30:
64,192,11548,1,2,0:0:0:30:
320,192,11834,1,8,0:0:0:30:
192,192,12262,1,2,0:0:0:30:
448,192,12405,128,8,12691:0:0:0:30:
64,192,12691,1,2,0:0:0:30:
320,192,12977,1,8,0:0:0:30:
64,192,13405,1,2,0:0:0:30:
448,192,13548,1,8,0:0:0:30:
192,192,13691,1,2,0:0:0:30:
320,192,13834,1,2,0:0:0:30:
64,192,14120,1,8,0:0:0:30:
448,192,14548,1,2,0:0:0:30:
192,192,14691,1,8,0:0:0:30:
320,192,14977,1,2,0:0:0:30:
64,192,15262,1,8,0:0:0:30:
448,192,15691,1,2,0:0:0:30:
192,192,15834,1,8,0:0:0:30:
320,192,16120,1,2,0:0:0:30:
192,192,16405,1,8,0:0:0:30:
64,192,16691,1,0,0:0:0:0:
448,192,16834,1,2,0:0:0:30:
192,192,16977,1,8,0:0:0:30:
320,192,17262,1,2,0:0:0:30:
64,192,17405,1,0,0:0:0:0:
448,192,17548,1,8,0:0:0:30:
320,192,17834,128,0,18405:0:0:0:0:
192,192,18120,128,0,18405:0:0:0:0:
64,192,18405,128,2,18548:0:0:0:30:
448,192,18405,1,4,0:0:0:30:
320,192,18691,1,8,0:0:0:30:
192,192,19120,128,2,19262:0:0:0:30:
448,192,19262,1,8,0:0:0:30:
64,192,19548,128,2,19691:0:0:0:30:
320,192,19834,1,8,0:0:0:30:
192,192,20262,128,2,20405:0:0:0:30:
448,192,20405,128,8,20548:0:0:0:30:
64,192,20691,128,2,20834:0:0:0:30:
320,192,20977,1,8,0:0:0:30:
448,192,21405,128,2,21548:0:0:0:30:
64,192,21548,128,8,21834:0:0:0:30:
192,192,21834,128,2,21977:0:0:0:30:
448,192,22120,1,8,0:0:0:30:
64,192,22548,1,2,0:0:0:30:
448,192,22691,1,8,0:0:0:30:
192,192,22834,1,2,0:0:0:30:
320,192,22977,128,2,23120:0:0:0:30:
64,192,23262,1,8,0:0:0:30:
448,192,23691,128,2,23834:0:0:0:30:
192,192,23834,1,8,0:0:0:30:
320,192,24120,128,2,24262:0:0:0:30:
64,192,24405,1,8,0:0:0:30:
192,192,24834,128,2,24977:0:0:0:30:
448,192,24977,128,8,25120:0:0:0:30:
320,192,25120,128,0,25262:0:0:0:0:
64,192,25262,128,2,25691:0:0:0:30:
320,192,25691,128,0,26120:0:0:0:0:
64,192,26120,128,8,26405:0:0:0:30:
192,192,26405,128,2,26834:0:0:0:30:
448,192,26834,128,0,27120:0:0:0:0:
320,192,27120,1,2,0:0:0:30:
64,192,27262,128,8,27548:0:0:0:30:
448,192,27548,128,2,28120:0:0:0:30:
320,192,27548,1,4,0:0:0:30:
64,192,28262,1,2,0:0:0:30:
192,192,28405,1,0,0:0:0:0:
320,192,28548,1,2,0:0:0:30:
448,192,28691,128,2,29120:0:0:0:30:
320,192,29120,128,2,29405:0:0:0:30:
64,192,29405,1,2,0:0:0:30:
192,192,29548,1,0,0:0:0:0:
320,192,29691,1,2,0:0:0:30:
448,192,29834,1,2,0:0:0:30:
192,192,29977,1,0,0:0:0:0:
448,192,30120,1,0,0:0:0:0:
320,192,30262,1,2,0:0:0:30:
64,192,30405,1,8,0:0:0:30:
192,192,30548,1,2,0:0:0:30:
320,192,30691,1,8,0:0:0:30:
448,192,30834,1,8,0:0:0:30:
192,192,30977,1,2,0:0:0:30:
320,192,31120,1,8,0:0:0:30:
64,192,31262,1,2,0:0:0:30:
192,192,31405,128,2,31834:0:0:0:30:
448,192,31834,128,0,32120:0:0:0:0:
320,192,32120,128,0,32548:0:0:0:70:aSnares2.wav
64,192,32548,128,0,32977:0:0:0:70:aSnares2.wav
320,192,32977,128,0,33405:0:0:0:70:aSnares2.wav
192,192,33405,128,0,33834:0:0:0:70:aSnares2.wav
448,192,33834,1,0,0:0:0:70:aSnares2.wav
320,192,33977,1,6,0:0:0:30:
64,192,34120,1,6,0:0:0:30:
448,192,34262,128,6,34834:0:0:0:30:
64,192,34834,128,2,35262:0:0:0:30:
320,192,35262,128,2,35691:0:0:0:30:
192,192,35691,128,8,36120:0:0:0:30:
320,192,36120,1,8,0:0:0:30:
64,192,36262,1,2,0:0:0:30:
448,192,36405,1,8,0:0:0:30:
192,192,36548,128,2,38120:0:0:0:30:
448,192,38977,1,0,0:0:0:0:
192,192,39120,1,0,0:0:0:0:
320,192,39405,1,0,0:0:0:0:
64,192,39548,1,0,0:0:0:0:
192,192,39834,1,0,0:0:0:0:
448,192,39977,1,0,0:0:0:0:
64,192,40262,1,0,0:0:0:0:
320,192,40405,1,0,0:0:0:0:
192,192,40691,1,0,0:0:0:0:
448,192,40834,1,0,0:0:0:0:
320,192,41120,128,0,41262:0:0:0:0:
64,192,41262,1,4,0:0:0:30:
192,192,41262,1,2,0:0:0:30:
448,192,41548,1,8,0:0:0:30:
320,192,41548,1,0,0:0:0:0:
192,192,41691,1,0,0:0:0:0:
320,192,41977,1,0,0:0:0:0:
64,192,42120,1,8,0:0:0:30:
448,192,42120,1,0,0:0:0:0:
192,192,42262,1,0,0:0:0:0:
320,192,42405,1,2,0:0:0:30:
192,192,42548,1,0,0:0:0:0:
64,192,42691,1,8,0:0:0:30:
448,192,42691,1,0,0:0:0:0:
320,192,42834,1,0,0:0:0:0:
192,192,42977,1,2,0:0:0:30:
64,192,43262,1,8,0:0:0:30:
448,192,43262,1,0,0:0:0:0:
320,192,43548,1,2,0:0:0:30:
448,192,43834,1,8,0:0:0:30:
192,192,43834,1,0,0:0:0:0:
320,192,43977,1,0,0:0:0:0:
64,192,44262,1,0,0:0:0:0:
320,192,44405,1,8,0:0:0:30:
448,192,44405,1,0,0:0:0:0:
192,192,44548,1,0,0:0:0:0:
448,192,44691,1,2,0:0:0:30:
64,192,44834,1,0,0:0:0:0:
320,192,44977,1,8,0:0:0:30:
192,192,44977,1,0,0:0:0:0:
448,192,45120,1,0,0:0:0:0:
64,192,45262,128,2,45834:0:0:0:30:
192,192,45834,1,2,0:0:0:30:
320,192,45977,1,0,0:0:0:0:
448,192,46120,1,8,0:0:0:30:
64,192,46120,1,0,0:0:0:0:
192,192,46262,1,0,0:0:0:0:
320,192,46405,128,2,46977:0:0:0:30:
64,192,46977,1,2,0:0:0:30:
192,192,47120,1,0,0:0:0:0:
448,192,47262,1,8,0:0:0:30:
320,192,47262,1,0,0:0:0:0:
64,192,47405,1,0,0:0:0:0:
192,192,47548,128,2,48120:0:0:0:30:
448,192,48120,128,2,48691:0:0:0:30:
64,192,48691,1,2,0:0:0:30:
320,192,48834,1,0,0:0:0:0:
448,192,48977,1,8,0:0:0:30:
192,192,48977,1,0,0:0:0:0:
320,192,49120,1,0,0:0:0:0:
64,192,49262,1,2,0:0:0:30:
192,192,49405,1,12,0:0:0:30:
320,192,49548,1,0,0:0:0:0:
448,192,49691,128,2,49977:0:0:0:30:
320,192,50405,1,4,0:0:0:30:
64,192,50405,1,2,0:0:0:0:
448,192,50691,1,8,0:0:0:30:
192,192,50691,1,0,0:0:0:0:
64,192,50834,1,0,0:0:0:0:
192,192,51120,1,0,0:0:0:0:
320,192,51262,1,8,0:0:0:30:
64,192,51262,1,0,0:0:0:0:
448,192,51405,1,0,0:0:0:0:
192,192,51548,1,2,0:0:0:30:
320,192,51762,1,0,0:0:0:0:
64,192,51977,1,0,0:0:0:0:
448,192,52262,1,0,0:0:0:0:
320,192,52405,1,8,0:0:0:30:
64,192,52405,1,0,0:0:0:0:
192,192,52548,1,0,0:0:0:0:
448,192,52691,1,2,0:0:0:30:
64,192,52905,1,0,0:0:0:30:
320,192,53120,1,0,0:0:0:0:
448,192,53405,1,0,0:0:0:0:
64,192,53548,1,8,0:0:0:30:
192,192,53548,1,0,0:0:0:0:
320,192,53691,1,0,0:0:0:0:
64,192,53834,1,2,0:0:0:30:
448,192,54048,1,0,0:0:0:30:
192,192,54262,1,0,0:0:0:0:
320,192,54405,128,2,54977:0:0:0:30:
64,192,54977,128,2,55120:0:0:0:30:
192,192,55262,1,8,0:0:0:30:
448,192,55405,128,0,55548:0:0:0:0:
192,192,55834,128,8,55977:0:0:0:30:
64,192,56120,128,2,56262:0:0:0:30:
192,192,56405,1,8,0:0:0:30:
320,192,56548,128,0,56691:0:0:0:0:
192,192,56977,128,8,57262:0:0:0:30:
448,192,57262,1,2,0:0:0:30:
64,192,57405,1,0,0:0:0:70:aSnares2.wav
320,192,57405,1,0,0:0:0:0:
192,192,57548,1,0,0:0:0:0:
448,192,57691,1,2,0:0:0:30:
320,192,57834,1,0,0:0:0:70:aSnares2.wav
64,192,57834,1,0,0:0:0:0:
192,192,57977,1,0,0:0:0:0:
320,192,58120,1,2,0:0:0:30:
64,192,58262,1,0,0:0:0:70:aSnares2.wav
448,192,58262,1,0,0:0:0:0:
192,192,58405,1,0,0:0:0:0:
320,192,58548,1,2,0:0:0:30:
192,192,58691,1,2,0:0:0:30:
448,192,58834,128,2,59548:0:0:0:30:
64,192,59548,1,4,0:0:0:30:
192,192,59548,1,2,0:0:0:30:
448,192,59834,1,8,0:0:0:30:
320,192,59834,1,0,0:0:0:0:
192,192,59977,1,0,0:0:0:0:
448,192,60262,1,0,0:0:0:0:
64,192,60405,1,8,0:0:0:30:
320,192,60405,1,0,0:0:0:0:
192,192,60548,1,0,0:0:0:0:
448,192,60691,1,2,0:0:0:30:
64,192,60834,1,0,0:0:0:0:
192,192,60977,1,8,0:0:0:30:
320,192,60977,1,0,0:0:0:0:
448,192,61120,1,0,0:0:0:0:
64,192,61262,1,2,0:0:0:30:
192,192,61548,1,8,0:0:0:30:
448,192,61548,1,0,0:0:0:0:
320,192,61834,1,2,0:0:0:30:
448,192,62120,1,8,0:0:0:30:
64,192,62120,1,0,0:0:0:0:
192,192,62262,1,0,0:0:0:0:
448,192,62548,1,0,0:0:0:0:
320,192,62691,1,8,0:0:0:30:
64,192,62691,1,0,0:0:0:0:
192,192,62834,1,0,0:0:0:0:
448,192,62977,1,2,0:0:0:30:
320,192,63120,1,0,0:0:0:0:
64,192,63262,1,8,0:0:0:30:
448,192,63262,1,0,0:0:0:0:
192,192,63405,1,0,0:0:0:0:
320,192,63548,128,2,64120:0:0:0:30:
192,192,64120,1,2,0:0:0:30:
64,192,64262,1,0,0:0:0:0:
448,192,64405,1,8,0:0:0:30:
320,192,64405,1,0,0:0:0:0:
192,192,64548,1,0,0:0:0:0:
448,192,64691,128,2,65262:0:0:0:30:
320,192,65262,1,2,0:0:0:30:
192,192,65405,1,0,0:0:0:0:
448,192,65548,1,8,0:0:0:30:
64,192,65548,1,0,0:0:0:0:
320,192,65691,1,0,0:0:0:0:
192,192,65834,128,2,66405:0:0:0:30:
448,192,66405,1,2,0:0:0:30:
64,192,66548,128,0,66977:0:0:0:0:
320,192,66977,1,2,0:0:0:30:
192,192,67120,1,0,0:0:0:0:
64,192,67262,1,8,0:0:0:30:
448,192,67262,1,0,0:0:0:0:
320,192,67405,1,0,0:0:0:0:
64,192,67548,1,2,0:0:0:30:
192,192,67691,1,2,0:0:0:30:
320,192,67834,1,2,0:0:0:30:
448,192,67977,128,2,68691:0:0:0:30:
64,192,68691,1,4,0:0:0:0:
320,192,68691,1,2,0:0:0:0:
192,192,68905,1,0,0:0:0:30:
448,192,69120,1,0,0:0:0:0:
320,192,69405,1,0,0:0:0:0:
448,192,69548,1,8,0:0:0:30:
192,192,69548,1,0,0:0:0:0:
64,192,69691,1,0,0:0:0:0:
320,192,69834,1,2,0:0:0:30:
192,192,70048,1,0,0:0:0:30:
448,192,70262,1,0,0:0:0:0:
320,192,70548,1,0,0:0:0:0:
448,192,70691,1,8,0:0:0:30:
64,192,70691,1,0,0:0:0:0:
192,192,70834,1,0,0:0:0:0:
320,192,70977,1,2,0:0:0:30:
448,192,71191,1,0,0:0:0:0:
64,192,71405,1,0,0:0:0:0:
320,192,71620,1,0,0:0:0:30:
448,192,71834,1,8,0:0:0:30:
192,192,71834,1,0,0:0:0:0:
320,192,71977,1,0,0:0:0:0:
64,192,72120,1,2,0:0:0:30:
192,192,72262,1,0,0:0:0:0:
320,192,72405,1,8,0:0:0:30:
448,192,72405,1,0,0:0:0:0:
64,192,72548,1,0,0:0:0:0:
192,192,72691,128,2,73262:0:0:0:30:
64,192,73262,128,2,73405:0:0:0:30:
448,192,73548,1,8,0:0:0:30:
192,192,73691,128,0,73834:0:0:0:0:
320,192,74120,128,8,74262:0:0:0:30:
64,192,74405,128,2,74548:0:0:0:30:
192,192,74691,1,8,0:0:0:30:
320,192,74834,128,0,74977:0:0:0:0:
448,192,75120,1,0,0:0:0:0:
192,192,75262,128,8,75548:0:0:0:30:
448,192,75548,1,2,0:0:0:30:
64,192,75691,1,0,0:0:0:70:aSnares2.wav
320,192,75691,1,0,0:0:0:0:
192,192,75834,1,0,0:0:0:0:
448,192,75977,1,2,0:0:0:30:
192,192,76120,1,0,0:0:0:70:aSnares2.wav
64,192,76120,1,0,0:0:0:0:
320,192,76262,1,0,0:0:0:0:
448,192,76405,1,2,0:0:0:30:
320,192,76548,1,0,0:0:0:70:aSnares2.wav
64,192,76548,1,0,0:0:0:0:
192,192,76691,1,0,0:0:0:0:
64,192,76834,1,2,0:0:0:30:
320,192,76977,1,2,0:0:0:30:
448,192,77120,128,2,77834:0:0:0:30:
192,192,77834,128,6,78977:0:0:0:30:
64,192,78977,128,2,79262:0:0:0:0:
320,192,79120,1,2,0:0:0:30:
192,192,79262,128,2,79548:0:0:0:0:
448,192,79405,1,2,0:0:0:30:
320,192,79548,128,0,79834:0:0:0:0:
448,192,79834,128,0,80120:0:0:0:0:
192,192,80120,1,2,0:0:0:30:
64,192,80120,1,4,0:0:0:30:
320,192,80405,1,8,0:0:0:30:
192,192,80548,1,0,0:0:0:0:
64,192,80834,1,2,0:0:0:30:
448,192,80977,1,8,0:0:0:30:
64,192,81262,1,2,0:0:0:30:
192,192,81548,1,8,0:0:0:30:
320,192,81691,1,0,0:0:0:0:
448,192,81977,1,2,0:0:0:30:
64,192,82120,1,8,0:0:0:30:
448,192,82405,128,2,82691:0:0:0:0:
320,192,82691,128,8,82977:0:0:0:0:
192,192,82977,128,0,83262:0:0:0:0:
64,192,83262,128,8,83548:0:0:0:0:
448,192,83548,128,2,83834:0:0:0:0:
320,192,83834,128,8,84120:0:0:0:0:
192,192,84120,128,0,84405:0:0:0:0:
64,192,84405,128,8,84691:0:0:0:0:
192,192,84691,128,2,85120:0:0:0:30:
64,192,84977,1,8,0:0:0:30:
320,192,85120,128,0,85548:0:0:0:0:
448,192,85405,1,2,0:0:0:30:
64,192,85548,128,8,85834:0:0:0:30:
448,192,85834,128,2,86262:0:0:0:30:
192,192,86120,1,8,0:0:0:30:
64,192,86262,128,0,86548:0:0:0:0:
448,192,86548,1,2,0:0:0:30:
320,192,86691,1,8,0:0:0:30:
192,192,86834,1,0,0:0:0:0:
64,192,86977,1,2,0:0:0:30:
320,192,87262,1,8,0:0:0:30:
192,192,87691,1,2,0:0:0:30:
448,192,87834,1,8,0:0:0:30:
64,192,88120,1,2,0:0:0:30:
320,192,88405,1,8,0:0:0:30:
448,192,88834,1,2,0:0:0:30:
192,192,88977,1,8,0:0:0:30:
320,192,89120,1,2,0:0:0:30:
64,192,89262,128,2,89691:0:0:0:30:
448,192,89262,1,4,0:0:0:30:
320,192,89691,128,0,90120:0:0:0:0:
64,192,89977,1,2,0:0:0:30:
192,192,90120,128,8,90405:0:0:0:30:
448,192,90405,128,2,90834:0:0:0:30:
64,192,90691,1,8,0:0:0:30:
320,192,90834,128,0,91120:0:0:0:0:
448,192,91120,1,2,0:0:0:30:
192,192,91262,1,8,0:0:0:30:
320,192,91405,1,0,0:0:0:0:
64,192,91548,128,2,91977:0:0:0:30:
192,192,91834,1,8,0:0:0:30:
448,192,91977,128,0,92405:0:0:0:0:
64,192,92262,1,2,0:0:0:30:
320,192,92405,128,8,92834:0:0:0:30:
64,192,92691,1,2,0:0:0:0:
192,192,92834,128,0,93262:0:0:0:0:
448,192,92977,1,8,0:0:0:30:
448,192,93262,128,0,93834:0:0:0:0:
64,192,93405,1,2,0:0:0:30:
320,192,93548,1,8,0:0:0:30:
64,192,93691,1,2,0:0:0:30:
192,192,93834,128,2,94262:0:0:0:30:
448,192,94120,1,8,0:0:0:30:
320,192,94262,128,0,94691:0:0:0:0:
192,192,94548,1,2,0:0:0:30:
64,192,94691,128,8,94977:0:0:0:30:
448,192,94977,128,2,95262:0:0:0:30:
192,192,95262,128,8,95405:0:0:0:30:
320,192,95405,128,0,95691:0:0:0:0:
448,192,95691,128,2,95834:0:0:0:30:
64,192,95834,128,8,96120:0:0:0:30:
320,192,96120,128,2,96548:0:0:0:30:
192,192,96405,1,8,0:0:0:30:
64,192,96548,128,0,96977:0:0:0:0:
448,192,96834,1,2,0:0:0:30:
192,192,96977,128,8,97262:0:0:0:30:
320,192,97262,128,2,97691:0:0:0:30:
448,192,97548,1,8,0:0:0:30:
192,192,97691,128,0,97977:0:0:0:0:
64,192,97977,1,2,0:0:0:30:
320,192,98120,1,8,0:0:0:30:
192,192,98262,1,2,0:0:0:30:
448,192,98405,128,2,98977:0:0:0:30:
64,192,98405,1,4,0:0:0:30:
64,192,99120,1,2,0:0:0:30:
192,192,99262,1,0,0:0:0:0:
320,192,99405,1,2,0:0:0:30:
448,192,99548,128,2,99977:0:0:0:30:
64,192,99548,1,0,0:0:0:0:
320,192,99977,128,2,100262:0:0:0:30:
64,192,100262,1,2,0:0:0:30:
192,192,100405,1,0,0:0:0:0:
320,192,100548,1,2,0:0:0:30:
448,192,100691,1,2,0:0:0:30:
64,192,100691,1,0,0:0:0:0:
192,192,100834,1,0,0:0:0:0:
320,192,100977,1,0,0:0:0:0:
192,192,101120,1,2,0:0:0:30:
64,192,101262,1,8,0:0:0:30:
320,192,101405,1,2,0:0:0:30:
192,192,101548,1,8,0:0:0:30:
64,192,101691,1,8,0:0:0:30:
320,192,101834,1,2,0:0:0:30:
192,192,101977,1,8,0:0:0:30:
448,192,102120,1,2,0:0:0:30:
192,192,102262,128,2,102691:0:0:0:30:
448,192,102691,128,0,102977:0:0:0:0:
320,192,102977,128,0,103405:0:0:0:70:aSnares2.wav
64,192,102977,1,0,0:0:0:0:
64,192,103405,128,0,103834:0:0:0:70:aSnares2.wav
320,192,103834,128,0,104262:0:0:0:70:aSnares2.wav
192,192,104262,128,0,104691:0:0:0:70:aSnares2.wav
448,192,104691,1,0,0:0:0:70:aSnares2.wav
320,192,104834,1,6,0:0:0:30:
64,192,104977,1,6,0:0:0:30:
448,192,105120,128,6,105691:0:0:0:30:
192,192,105405,1,8,0:0:0:30:
320,192,105548,1,2,0:0:0:30:
64,192,105691,128,2,106120:0:0:0:30:
192,192,105834,1,8,0:0:0:30:
320,192,106120,128,2,106548:0:0:0:30:
448,192,106262,1,2,0:0:0:30:
192,192,106548,128,8,106977:0:0:0:30:
448,192,106691,1,2,0:0:0:30:
320,192,106977,1,8,0:0:0:30:
64,192,107120,1,2,0:0:0:30:
448,192,107262,1,8,0:0:0:30:
192,192,107405,128,2,108977:0:0:0:30:
448,192,109834,1,0,0:0:0:0:
192,192,109977,1,0,0:0:0:0:
320,192,110262,1,0,0:0:0:0:
64,192,110405,1,0,0:0:0:0:
192,192,110691,1,0,0:0:0:0:
448,192,110834,1,0,0:0:0:0:
64,192,111120,1,0,0:0:0:0:
320,192,111262,1,0,0:0:0:0:
192,192,111548,1,0,0:0:0:0:
320,192,111691,128,0,112120:0:0:0:0:
64,192,112120,128,0,112262:0:0:0:0:
448,192,112405,128,0,112548:0:0:0:0:
192,192,112691,128,0,112834:0:0:0:0:
448,192,112977,128,0,113120:0:0:0:0:
192,192,113262,128,0,113405:0:0:0:0:
320,192,113548,128,0,113691:0:0:0:0:
64,192,113834,128,0,113977:0:0:0:0:
320,192,114120,128,0,114262:0:0:0:0:
192,192,114405,128,0,114548:0:0:0:0:
448,192,114691,128,0,114834:0:0:0:0:
320,192,114977,128,0,115120:0:0:0:0:
448,192,115262,128,0,115405:0:0:0:0:
64,192,115548,128,0,115691:0:0:0:0:
192,192,115834,128,0,115977:0:0:0:0:
320,192,116120,128,0,116262:0:0:0:0:
448,192,116405,128,0,116548:0:0:0:0:
192,192,116691,128,0,116834:0:0:0:0:
320,192,116977,128,0,117120:0:0:0:0:
448,192,117262,128,0,117405:0:0:0:0:
192,192,117548,128,0,117691:0:0:0:0:
64,192,117834,128,0,117977:0:0:0:0:
192,192,118120,128,0,118262:0:0:0:0:
448,192,118405,128,0,118548:0:0:0:0:
320,192,118691,128,0,118834:0:0:0:0:
64,192,118977,128,0,119120:0:0:0:0:
192,192,119262,128,0,119405:0:0:0:0:
320,192,119548,128,0,119691:0:0:0:0:
448,192,119834,128,0,119977:0:0:0:0:
64,192,120120,128,0,120262:0:0:0:0:
192,192,120405,128,0,120548:0:0:0:0:
320,192,120691,128,0,120834:0:0:0:0:
64,192,120834,1,2,0:0:0:30:
448,192,120977,1,8,0:0:0:30:
192,192,121120,1,2,0:0:0:30:
448,192,121262,1,2,0:0:0:30:
64,192,121262,1,4,0:0:0:30:
320,192,121548,1,8,0:0:0:30:
192,192,121548,1,0,0:0:0:0:
64,192,121691,1,0,0:0:0:0:
192,192,121977,1,0,0:0:0:0:
320,192,122120,1,8,0:0:0:30:
64,192,122120,1,0,0:0:0:0:
448,192,122262,1,0,0:0:0:0:
64,192,122405,128,2,122620:0:0:0:30:
192,192,122620,128,0,122834:0:0:0:0:
320,192,122834,128,0,122977:0:0:0:0:
448,192,123120,1,0,0:0:0:0:
320,192,123262,1,8,0:0:0:30:
64,192,123262,1,0,0:0:0:0:
192,192,123405,1,0,0:0:0:0:
448,192,123548,128,2,123762:0:0:0:30:
192,192,123762,128,0,123977:0:0:0:0:
320,192,123977,128,0,124120:0:0:0:0:
448,192,124262,1,0,0:0:0:0:
320,192,124405,1,8,0:0:0:30:
192,192,124405,1,0,0:0:0:0:
64,192,124548,1,0,0:0:0:0:
320,192,124691,128,2,124905:0:0:0:30:
448,192,124905,128,0,125120:0:0:0:0:
192,192,125120,128,0,125262:0:0:0:0:
320,192,125262,128,2,125834:0:0:0:30:
448,192,125548,1,8,0:0:0:30:
64,192,125834,128,2,125977:0:0:0:30:
448,192,126120,1,8,0:0:0:30:
320,192,126120,1,0,0:0:0:0:
192,192,126262,128,0,126405:0:0:0:0:
320,192,126548,1,0,0:0:0:0:
448,192,126691,128,8,126834:0:0:0:30:
64,192,126691,1,0,0:0:0:0:
64,192,126977,128,2,127120:0:0:0:30:
192,192,127262,1,8,0:0:0:30:
448,192,127262,1,0,0:0:0:0:
320,192,127405,128,0,127548:0:0:0:0:
192,192,127691,1,0,0:0:0:0:
448,192,127834,128,8,128120:0:0:0:30:
64,192,127834,1,0,0:0:0:0:
320,192,128120,1,2,0:0:0:30:
192,192,128262,1,0,0:0:0:70:aSnares2.wav
64,192,128262,1,0,0:0:0:0:
448,192,128405,1,0,0:0:0:0:
64,192,128548,1,2,0:0:0:30:
320,192,128691,1,0,0:0:0:70:aSnares2.wav
448,192,128691,1,0,0:0:0:0:
192,192,128834,1,0,0:0:0:0:
64,192,128977,1,2,0:0:0:30:
448,192,129120,1,0,0:0:0:70:aSnares2.wav
320,192,129120,1,0,0:0:0:0:
192,192,129262,1,0,0:0:0:0:
448,192,129405,1,2,0:0:0:30:
320,192,129548,1,2,0:0:0:30:
64,192,129691,128,2,130405:0:0:0:30:
320,192,130405,1,2,0:0:0:30:
192,192,130405,1,4,0:0:0:30:
448,192,130691,1,8,0:0:0:30:
64,192,130691,1,0,0:0:0:0:
192,192,130834,1,0,0:0:0:0:
448,192,131120,1,0,0:0:0:0:
64,192,131262,1,8,0:0:0:30:
320,192,131262,1,0,0:0:0:0:
192,192,131405,1,0,0:0:0:0:
448,192,131548,1,2,0:0:0:30:
64,192,131691,1,0,0:0:0:0:
320,192,131834,1,8,0:0:0:30:
192,192,131834,1,0,0:0:0:0:
448,192,131977,1,0,0:0:0:0:
64,192,132120,1,2,0:0:0:30:
192,192,132405,1,8,0:0:0:30:
448,192,132405,1,0,0:0:0:0:
320,192,132691,1,2,0:0:0:30:
448,192,132977,1,8,0:0:0:30:
64,192,132977,1,0,0:0:0:0:
192,192,133120,1,0,0:0:0:0:
448,192,133405,1,0,0:0:0:0:
320,192,133548,1,8,0:0:0:30:
64,192,133548,1,0,0:0:0:0:
192,192,133691,1,0,0:0:0:0:
448,192,133834,1,2,0:0:0:30:
320,192,133977,1,0,0:0:0:0:
192,192,134120,1,8,0:0:0:30:
64,192,134120,1,0,0:0:0:0:
320,192,134262,1,0,0:0:0:0:
448,192,134405,128,2,134977:0:0:0:30:
64,192,134691,1,8,0:0:0:30:
192,192,134977,1,2,0:0:0:30:
320,192,135120,1,0,0:0:0:0:
448,192,135262,1,8,0:0:0:30:
64,192,135262,1,0,0:0:0:0:
192,192,135405,1,0,0:0:0:0:
64,192,135548,128,2,136120:0:0:0:30:
320,192,135834,1,8,0:0:0:30:
448,192,136120,1,2,0:0:0:30:
320,192,136262,1,0,0:0:0:0:
448,192,136405,1,8,0:0:0:30:
192,192,136405,1,0,0:0:0:0:
64,192,136548,1,0,0:0:0:0:
192,192,136691,128,2,137262:0:0:0:30:
448,192,136977,1,8,0:0:0:30:
64,192,137262,1,2,0:0:0:30:
320,192,137405,128,0,137834:0:0:0:0:
448,192,137834,1,2,0:0:0:30:
64,192,137977,1,0,0:0:0:0:
448,192,138120,1,8,0:0:0:30:
192,192,138120,1,0,0:0:0:0:
320,192,138262,1,0,0:0:0:0:
64,192,138405,1,2,0:0:0:30:
192,192,138548,1,2,0:0:0:30:
320,192,138691,1,2,0:0:0:30:
448,192,138834,128,2,139548:0:0:0:30:
64,192,138977,128,2,139548:0:0:0:30:
192,192,139548,128,6,139762:0:0:0:30:
448,192,139762,128,0,139977:0:0:0:0:
64,192,139977,128,0,140120:0:0:0:0:
192,192,140262,1,0,0:0:0:0:
320,192,140405,1,8,0:0:0:30:
64,192,140405,1,0,0:0:0:0:
448,192,140548,1,0,0:0:0:0:
64,192,140691,128,2,140905:0:0:0:30:
192,192,140905,128,0,141120:0:0:0:0:
320,192,141120,128,0,141262:0:0:0:0:
448,192,141405,1,0,0:0:0:0:
320,192,141548,1,8,0:0:0:30:
64,192,141548,1,0,0:0:0:0:
192,192,141691,1,0,0:0:0:0:
448,192,141834,128,2,142048:0:0:0:30:
192,192,142048,128,0,142262:0:0:0:0:
320,192,142262,128,0,142477:0:0:0:0:
64,192,142477,128,0,142691:0:0:0:0:
448,192,142691,1,8,0:0:0:30:
192,192,142691,1,0,0:0:0:0:
320,192,142834,1,0,0:0:0:0:
64,192,142977,1,2,0:0:0:30:
192,192,143120,1,0,0:0:0:0:
320,192,143262,1,8,0:0:0:30:
448,192,143262,1,0,0:0:0:0:
64,192,143405,1,0,0:0:0:0:
192,192,143548,128,2,144120:0:0:0:30:
320,192,143834,1,8,0:0:0:30:
448,192,144120,128,2,144262:0:0:0:30:
320,192,144405,1,8,0:0:0:30:
64,192,144405,1,0,0:0:0:0:
192,192,144548,128,0,144691:0:0:0:0:
448,192,144691,1,2,0:0:0:30:
64,192,144834,1,0,0:0:0:0:
320,192,144977,128,8,145120:0:0:0:30:
192,192,144977,1,0,0:0:0:0:
64,192,145262,128,2,145405:0:0:0:30:
448,192,145548,1,8,0:0:0:30:
320,192,145548,1,0,0:0:0:0:
192,192,145691,128,0,145834:0:0:0:0:
64,192,145834,1,2,0:0:0:30:
320,192,145977,1,0,0:0:0:0:
448,192,146120,128,8,146405:0:0:0:30:
64,192,146120,1,0,0:0:0:0:
320,192,146405,1,2,0:0:0:30:
192,192,146548,1,8,0:0:0:30:
64,192,146548,1,0,0:0:0:0:
448,192,146691,1,0,0:0:0:0:
64,192,146834,128,2,146977:0:0:0:30:
320,192,146977,1,8,0:0:0:30:
448,192,147120,1,0,0:0:0:0:
64,192,147262,1,2,0:0:0:30:
192,192,147405,1,8,0:0:0:30:
320,192,147405,1,0,0:0:0:0:
448,192,147548,128,2,147691:0:0:0:30:
64,192,147691,128,2,147834:0:0:0:30:
320,192,147834,1,2,0:0:0:30:
192,192,147977,128,2,148405:0:0:0:30:
320,192,148405,128,2,148691:0:0:0:30:
192,192,148691,1,2,0:0:0:30:
64,192,148691,1,4,0:0:0:30:
448,192,148977,1,8,0:0:0:30:
320,192,148977,1,0,0:0:0:0:
64,192,149120,1,0,0:0:0:0:
448,192,149405,1,0,0:0:0:0:
192,192,149548,1,8,0:0:0:30:
64,192,149548,1,0,0:0:0:0:
320,192,149691,1,0,0:0:0:0:
448,192,149834,1,2,0:0:0:30:
64,192,149977,1,0,0:0:0:0:
192,192,150120,1,8,0:0:0:30:
448,192,150120,1,0,0:0:0:0:
320,192,150262,1,0,0:0:0:0:
64,192,150405,1,2,0:0:0:30:
192,192,150691,1,8,0:0:0:30:
448,192,150691,1,0,0:0:0:0:
320,192,150977,1,2,0:0:0:30:
448,192,151262,1,8,0:0:0:30:
64,192,151262,1,0,0:0:0:0:
192,192,151405,1,0,0:0:0:0:
448,192,151691,1,0,0:0:0:0:
320,192,151834,1,8,0:0:0:30:
64,192,151834,1,0,0:0:0:0:
192,192,151977,1,0,0:0:0:0:
448,192,152120,1,2,0:0:0:30:
64,192,152262,1,0,0:0:0:0:
320,192,152405,1,8,0:0:0:30:
192,192,152405,1,0,0:0:0:0:
448,192,152548,1,0,0:0:0:0:
64,192,152691,128,2,153262:0:0:0:30:
320,192,152977,1,8,0:0:0:30:
192,192,153262,1,2,0:0:0:30:
320,192,153405,1,0,0:0:0:0:
448,192,153548,1,8,0:0:0:30:
64,192,153548,1,0,0:0:0:0:
192,192,153691,1,0,0:0:0:0:
320,192,153834,128,2,154405:0:0:0:30:
64,192,154120,1,8,0:0:0:30:
192,192,154405,1,2,0:0:0:30:
448,192,154548,1,0,0:0:0:0:
320,192,154691,1,8,0:0:0:30:
64,192,154691,1,0,0:0:0:0:
192,192,154834,1,0,0:0:0:0:
320,192,154977,128,2,155548:0:0:0:30:
192,192,155262,1,8,0:0:0:30:
64,192,155548,1,2,0:0:0:30:
448,192,155691,128,0,156120:0:0:0:0:
320,192,156120,1,2,0:0:0:30:
64,192,156262,1,0,0:0:0:0:
192,192,156405,1,8,0:0:0:30:
320,192,156405,1,0,0:0:0:0:
448,192,156548,1,0,0:0:0:0:
64,192,156691,1,2,0:0:0:30:
192,192,156834,1,2,0:0:0:30:
320,192,156977,1,2,0:0:0:30:
448,192,157120,128,2,157834:0:0:0:30:
64,192,157262,128,2,157834:0:0:0:30:
192,192,157834,128,6,158048:0:0:0:30:
448,192,158048,128,0,158262:0:0:0:0:
64,192,158262,128,0,158405:0:0:0:0:
192,192,158548,1,0,0:0:0:0:
320,192,158691,1,8,0:0:0:30:
448,192,158691,1,0,0:0:0:0:
192,192,158834,1,0,0:0:0:0:
64,192,158977,128,2,159191:0:0:0:30:
192,192,159191,128,0,159405:0:0:0:0:
320,192,159405,128,0,159548:0:0:0:0:
448,192,159691,1,0,0:0:0:0:
192,192,159834,1,8,0:0:0:30:
64,192,159834,1,0,0:0:0:0:
320,192,159977,1,0,0:0:0:0:
64,192,160120,128,2,160334:0:0:0:30:
448,192,160334,128,0,160548:0:0:0:0:
192,192,160548,128,0,160762:0:0:0:0:
320,192,160762,128,0,160977:0:0:0:0:
448,192,160977,1,8,0:0:0:30:
64,192,160977,1,0,0:0:0:0:
192,192,161120,1,0,0:0:0:0:
320,192,161262,1,2,0:0:0:30:
64,192,161405,1,0,0:0:0:0:
320,192,161548,1,8,0:0:0:30:
192,192,161548,1,0,0:0:0:0:
448,192,161691,1,0,0:0:0:0:
192,192,161834,128,2,162405:0:0:0:30:
448,192,162120,1,8,0:0:0:30:
320,192,162405,128,2,162548:0:0:0:30:
448,192,162691,1,8,0:0:0:30:
64,192,162691,1,0,0:0:0:0:
192,192,162834,128,0,162977:0:0:0:0:
320,192,162977,1,2,0:0:0:30:
64,192,163120,1,0,0:0:0:0:
448,192,163262,128,8,163405:0:0:0:30:
192,192,163262,1,0,0:0:0:0:
64,192,163548,128,2,163691:0:0:0:30:
192,192,163834,1,8,0:0:0:30:
448,192,163834,1,0,0:0:0:0:
320,192,163977,128,0,164120:0:0:0:0:
64,192,164120,1,2,0:0:0:30:
192,192,164262,1,0,0:0:0:0:
448,192,164405,128,8,164691:0:0:0:30:
320,192,164405,1,0,0:0:0:0:
192,192,164691,1,2,0:0:0:30:
64,192,164834,1,0,0:0:0:70:aSnares2.wav
448,192,164834,1,0,0:0:0:0:
320,192,164977,1,0,0:0:0:0:
192,192,165120,1,2,0:0:0:30:
64,192,165262,1,0,0:0:0:70:aSnares2.wav
320,192,165262,1,0,0:0:0:0:
192,192,165405,1,0,0:0:0:0:
448,192,165548,1,2,0:0:0:30:
192,192,165691,1,0,0:0:0:70:aSnares2.wav
64,192,165691,1,0,0:0:0:0:
320,192,165834,1,0,0:0:0:0:
448,192,165977,1,2,0:0:0:30:
64,192,166120,1,2,0:0:0:30:
192,192,166262,128,2,166691:0:0:0:30:
320,192,166691,128,2,166977:0:0:0:30:
448,192,166977,128,4,168120:0:0:0:30:
192,192,166977,1,2,0:0:0:0:
64,192,167262,1,2,0:0:0:30:
64,192,167548,1,2,0:0:0:30:
64,192,167834,1,2,0:0:0:30:
192,192,168120,1,2,0:0:0:30:
64,192,168262,1,2,0:0:0:30:
448,192,168405,1,2,0:0:0:30:
320,192,168548,128,2,168834:0:0:0:30:
64,192,168834,1,8,0:0:0:30:
448,192,168977,1,2,0:0:0:30:
