osu file format v14

[General]
AudioFilename: audio.mp3
AudioLeadIn: 0
PreviewTime: -1
Countdown: 1
SampleSet: None
StackLeniency: 0.7
Mode: 3
LetterboxInBreaks: 0
SpecialStyle: 0
WidescreenStoryboard: 1

[Editor]
DistanceSpacing: 0.8
BeatDivisor: 4
GridSize: 8
TimelineZoom: 1.9

[Metadata]
Title:ONIGIRI FREEWAY
TitleUnicode:ONIGIRI FREEWAY
Artist:OISHII
ArtistUnicode:OISHII
Creator:HiImNKManiac
Version:Mania 4K SC [NOT DONE]
Source:
Tags:
BeatmapID:1908133
BeatmapSetID:912107

[Difficulty]
HPDrainRate:5
CircleSize:4
OverallDifficulty:5
ApproachRate:5
SliderMultiplier:1.4
SliderTickRate:1

[Events]
//Background and Video events
//Break Periods
//Storyboard Layer 0 (Background)
//Storyboard Layer 1 (Fail)
//Storyboard Layer 2 (Pass)
//Storyboard Layer 3 (Foreground)
//Storyboard Sound Samples

[TimingPoints]
84,285.714285714286,4,2,0,100,1,0
27512,-10,4,2,0,100,0,0
27584,-10000,4,2,0,100,0,0
27655,-1000,4,2,0,100,0,0
27726,-333.333333333333,4,2,0,100,0,0
27798,-200,4,2,0,100,0,0
27869,-142.857142857143,4,2,0,100,0,0
27941,-111.111111111111,4,2,0,100,0,0
28012,-99.9999999999999,4,2,0,100,0,0
41226,285.714285714286,4,2,0,100,1,0
41226,-66.6666666666667,4,2,0,100,0,1
77797,-100,4,2,0,100,0,0
96654,-133.333333333333,4,2,0,100,0,0
121226,-133.333333333333,4,2,0,100,0,1
166940,-100,4,2,0,100,0,0

[HitObjects]
64,192,84,128,0,369:0:0:0:0:
192,192,226,1,0,0:0:0:0:
448,192,369,1,0,0:0:0:0:
320,192,655,1,0,0:0:0:0:
448,192,798,1,0,0:0:0:0:
64,192,798,1,0,0:0:0:0:
64,192,1084,1,0,0:0:0:0:
448,192,1226,128,0,1512:0:0:0:0:
64,192,1369,1,0,0:0:0:0:
320,192,1512,1,0,0:0:0:0:
64,192,1798,1,0,0:0:0:0:
320,192,1941,1,0,0:0:0:0:
192,192,2226,1,0,0:0:0:0:
320,192,2369,128,0,2655:0:0:0:0:
64,192,2512,1,0,0:0:0:0:
448,192,2655,1,0,0:0:0:0:
64,192,2941,1,0,0:0:0:0:
448,192,3084,1,0,0:0:0:0:
64,192,3369,1,0,0:0:0:0:
320,192,3512,1,0,0:0:0:0:
448,192,3655,1,0,0:0:0:0:
320,192,3798,1,0,0:0:0:0:
64,192,3941,1,0,0:0:0:0:
192,192,4084,1,0,0:0:0:0:
320,192,4084,1,0,0:0:0:0:
192,192,4369,1,0,0:0:0:0:
320,192,4369,1,0,0:0:0:0:
192,192,4655,128,0,4941:0:0:0:0:
320,192,4798,1,0,0:0:0:0:
448,192,4941,1,0,0:0:0:0:
64,192,4941,1,0,0:0:0:0:
320,192,5226,1,0,0:0:0:0:
448,192,5369,1,0,0:0:0:0:
64,192,5369,1,0,0:0:0:0:
320,192,5655,1,0,0:0:0:0:
192,192,5798,128,0,7226:0:0:0:0:
64,192,5798,1,0,0:0:0:0:
320,192,5941,1,0,0:0:0:0:
448,192,6012,1,0,0:0:0:0:
320,192,6084,1,0,0:0:0:0:
448,192,6155,1,0,0:0:0:0:
320,192,6226,1,0,0:0:0:0:
448,192,6298,1,0,0:0:0:0:
320,192,6369,1,0,0:0:0:0:
64,192,6369,1,0,0:0:0:0:
448,192,6441,1,0,0:0:0:0:
320,192,6512,1,0,0:0:0:0:
448,192,6584,1,0,0:0:0:0:
320,192,6655,1,0,0:0:0:0:
448,192,6726,1,0,0:0:0:0:
320,192,6798,1,0,0:0:0:0:
448,192,6869,1,0,0:0:0:0:
320,192,6941,1,0,0:0:0:0:
64,192,6941,1,0,0:0:0:0:
448,192,7012,1,0,0:0:0:0:
320,192,7084,1,0,0:0:0:0:
448,192,7155,1,0,0:0:0:0:
320,192,7226,1,0,0:0:0:0:
64,192,7512,1,0,0:0:0:0:
64,192,8084,1,0,0:0:0:0:
192,192,8226,1,0,0:0:0:0:
64,192,8369,1,0,0:0:0:0:
192,192,8512,1,0,0:0:0:0:
448,192,8655,1,0,0:0:0:0:
448,192,8941,1,0,0:0:0:0:
64,192,8941,1,0,0:0:0:0:
192,192,8941,1,0,0:0:0:0:
320,192,8941,1,0,0:0:0:0:
448,192,9226,1,0,0:0:0:0:
320,192,9369,1,0,0:0:0:0:
448,192,9512,1,0,0:0:0:0:
320,192,9655,1,0,0:0:0:0:
448,192,9798,1,0,0:0:0:0:
64,192,9941,1,0,0:0:0:0:
192,192,10084,1,0,0:0:0:0:
448,192,10226,1,0,0:0:0:0:
320,192,10298,1,0,0:0:0:0:
192,192,10369,1,0,0:0:0:0:
448,192,10369,1,0,0:0:0:0:
192,192,10512,1,0,0:0:0:0:
64,192,10655,1,0,0:0:0:0:
192,192,10798,1,0,0:0:0:0:
448,192,10941,1,0,0:0:0:0:
320,192,11084,128,0,11226:0:0:0:0:
192,192,11226,1,0,0:0:0:0:
448,192,11512,1,0,0:0:0:0:
320,192,11655,1,0,0:0:0:0:
192,192,11798,1,0,0:0:0:0:
320,192,11941,1,0,0:0:0:0:
64,192,11941,1,0,0:0:0:0:
192,192,12084,1,0,0:0:0:0:
448,192,12226,1,0,0:0:0:0:
320,192,12369,1,0,0:0:0:0:
192,192,12441,1,0,0:0:0:0:
64,192,12512,1,0,0:0:0:0:
192,192,12584,1,0,0:0:0:0:
320,192,12655,1,0,0:0:0:0:
192,192,12798,1,0,0:0:0:0:
320,192,12941,1,0,0:0:0:0:
192,192,13084,1,0,0:0:0:0:
64,192,13226,1,0,0:0:0:0:
192,192,13226,1,0,0:0:0:0:
448,192,13369,1,0,0:0:0:0:
320,192,13369,1,0,0:0:0:0:
64,192,13512,1,0,0:0:0:0:
192,192,13512,1,0,0:0:0:0:
448,192,13655,1,0,0:0:0:0:
320,192,13655,1,0,0:0:0:0:
64,192,13798,1,0,0:0:0:0:
320,192,13798,1,0,0:0:0:0:
192,192,13941,1,0,0:0:0:0:
448,192,14084,1,0,0:0:0:0:
64,192,14226,1,0,0:0:0:0:
320,192,14369,1,0,0:0:0:0:
192,192,14369,1,0,0:0:0:0:
448,192,14512,1,0,0:0:0:0:
64,192,14655,1,0,0:0:0:0:
448,192,14798,1,0,0:0:0:0:
320,192,14869,1,0,0:0:0:0:
192,192,14941,1,0,0:0:0:0:
64,192,14941,1,0,0:0:0:0:
448,192,15084,1,0,0:0:0:0:
320,192,15226,1,0,0:0:0:0:
64,192,15369,1,0,0:0:0:0:
320,192,15512,1,0,0:0:0:0:
448,192,15655,1,0,0:0:0:0:
320,192,15798,1,0,0:0:0:0:
192,192,15798,1,0,0:0:0:0:
448,192,15941,1,0,0:0:0:0:
64,192,16084,1,0,0:0:0:0:
320,192,16084,1,0,0:0:0:0:
448,192,16226,1,0,0:0:0:0:
320,192,16369,1,0,0:0:0:0:
192,192,16512,1,0,0:0:0:0:
64,192,16655,1,0,0:0:0:0:
448,192,16798,1,0,0:0:0:0:
320,192,16869,1,0,0:0:0:0:
448,192,16941,1,0,0:0:0:0:
64,192,17084,1,0,0:0:0:0:
192,192,17226,1,0,0:0:0:0:
320,192,17369,1,0,0:0:0:0:
192,192,17441,1,0,0:0:0:0:
320,192,17512,1,0,0:0:0:0:
64,192,17655,1,0,0:0:0:0:
448,192,17798,1,0,0:0:0:0:
320,192,17869,1,0,0:0:0:0:
192,192,17941,1,0,0:0:0:0:
64,192,18012,1,0,0:0:0:0:
192,192,18084,1,0,0:0:0:0:
320,192,18155,1,0,0:0:0:0:
448,192,18226,1,0,0:0:0:0:
320,192,18298,1,0,0:0:0:0:
64,192,18369,1,0,0:0:0:0:
448,192,18369,1,0,0:0:0:0:
320,192,18512,1,0,0:0:0:0:
192,192,18655,1,0,0:0:0:0:
320,192,18798,1,0,0:0:0:0:
192,192,18941,1,0,0:0:0:0:
448,192,19084,1,0,0:0:0:0:
64,192,19226,1,0,0:0:0:0:
448,192,19369,1,0,0:0:0:0:
320,192,19441,1,0,0:0:0:0:
64,192,19512,1,0,0:0:0:0:
448,192,19512,1,0,0:0:0:0:
320,192,19655,1,0,0:0:0:0:
64,192,19798,1,0,0:0:0:0:
448,192,19941,1,0,0:0:0:0:
64,192,20084,1,0,0:0:0:0:
320,192,20226,1,0,0:0:0:0:
64,192,20369,1,0,0:0:0:0:
64,192,20655,1,0,0:0:0:0:
448,192,20655,1,0,0:0:0:0:
192,192,20798,1,0,0:0:0:0:
320,192,20798,1,0,0:0:0:0:
64,192,20941,1,0,0:0:0:0:
448,192,20941,1,0,0:0:0:0:
192,192,21084,1,0,0:0:0:0:
320,192,21084,1,0,0:0:0:0:
64,192,21226,1,0,0:0:0:0:
448,192,21226,1,0,0:0:0:0:
192,192,21369,1,0,0:0:0:0:
320,192,21369,1,0,0:0:0:0:
64,192,21512,1,0,0:0:0:0:
192,192,21584,1,0,0:0:0:0:
320,192,21655,1,0,0:0:0:0:
192,192,21726,1,0,0:0:0:0:
448,192,21798,1,0,0:0:0:0:
64,192,21798,1,0,0:0:0:0:
192,192,21941,1,0,0:0:0:0:
64,192,22084,1,0,0:0:0:0:
448,192,22084,1,0,0:0:0:0:
320,192,22226,1,0,0:0:0:0:
64,192,22369,1,0,0:0:0:0:
448,192,22369,1,0,0:0:0:0:
192,192,22512,1,0,0:0:0:0:
64,192,22655,1,0,0:0:0:0:
448,192,22655,1,0,0:0:0:0:
320,192,22798,1,0,0:0:0:0:
64,192,22941,1,0,0:0:0:0:
448,192,22941,1,0,0:0:0:0:
320,192,23084,1,0,0:0:0:0:
320,192,23226,1,0,0:0:0:0:
64,192,23369,1,0,0:0:0:0:
64,192,23512,1,0,0:0:0:0:
448,192,23655,1,0,0:0:0:0:
448,192,23798,1,0,0:0:0:0:
448,192,23941,1,0,0:0:0:0:
320,192,24012,1,0,0:0:0:0:
192,192,24084,1,0,0:0:0:0:
192,192,24226,1,0,0:0:0:0:
448,192,24369,1,0,0:0:0:0:
448,192,24512,1,0,0:0:0:0:
64,192,24655,1,0,0:0:0:0:
64,192,24798,1,0,0:0:0:0:
448,192,24941,1,0,0:0:0:0:
64,192,25084,1,0,0:0:0:0:
192,192,25155,1,0,0:0:0:0:
320,192,25226,1,0,0:0:0:0:
320,192,25655,1,0,0:0:0:0:
320,192,26084,1,0,0:0:0:0:
64,192,26369,1,0,0:0:0:0:
320,192,26369,1,0,0:0:0:0:
192,192,26798,1,0,0:0:0:0:
448,192,26798,1,0,0:0:0:0:
64,192,27226,1,0,0:0:0:0:
192,192,27298,1,0,0:0:0:0:
320,192,27369,1,0,0:0:0:0:
448,192,27441,1,0,0:0:0:0:
192,192,28084,1,0,0:0:0:0:
320,192,28084,1,0,0:0:0:0:
320,192,28655,1,0,0:0:0:0:
192,192,28655,1,0,0:0:0:0:
192,192,29226,1,0,0:0:0:0:
320,192,29226,1,0,0:0:0:0:
192,192,29798,1,0,0:0:0:0:
320,192,29798,1,0,0:0:0:0:
192,192,30369,1,0,0:0:0:0:
320,192,30369,1,0,0:0:0:0:
64,192,30941,1,0,0:0:0:0:
192,192,31084,1,0,0:0:0:0:
320,192,31226,1,0,0:0:0:0:
448,192,31369,128,0,31798:0:0:0:0:
320,192,31798,1,0,0:0:0:0:
192,192,31869,1,0,0:0:0:0:
64,192,31941,1,0,0:0:0:0:
192,192,32012,1,0,0:0:0:0:
320,192,32084,128,0,32512:0:0:0:0:
64,192,32512,128,0,32941:0:0:0:0:
320,192,32941,128,0,33369:0:0:0:0:
64,192,33369,128,0,33798:0:0:0:0:
448,192,33798,1,0,0:0:0:0:
64,192,33941,1,0,0:0:0:0:
448,192,34084,1,0,0:0:0:0:
64,192,34226,1,0,0:0:0:0:
320,192,34369,128,0,34798:0:0:0:0:
192,192,34798,128,0,35226:0:0:0:0:
320,192,35226,128,0,35655:0:0:0:0:
192,192,35655,128,0,36084:0:0:0:0:
448,192,36084,1,0,0:0:0:0:
64,192,36226,1,0,0:0:0:0:
448,192,36369,1,0,0:0:0:0:
448,192,36512,128,0,38798:0:0:0:0:
64,192,38798,1,0,0:0:0:0:
448,192,39084,1,0,0:0:0:0:
320,192,39155,1,0,0:0:0:0:
192,192,39226,1,0,0:0:0:0:
64,192,39512,1,0,0:0:0:0:
192,192,39584,1,0,0:0:0:0:
320,192,39655,1,0,0:0:0:0:
448,192,39941,1,0,0:0:0:0:
320,192,40012,1,0,0:0:0:0:
192,192,40084,1,0,0:0:0:0:
64,192,40369,1,0,0:0:0:0:
192,192,40441,1,0,0:0:0:0:
320,192,40512,1,0,0:0:0:0:
448,192,40798,1,0,0:0:0:0:
320,192,40869,1,0,0:0:0:0:
192,192,40941,1,0,0:0:0:0:
64,192,41084,1,0,0:0:0:0:
192,192,41155,1,0,0:0:0:0:
320,192,41226,1,0,0:0:0:0:
448,192,41226,1,0,0:0:0:0:
