osu file format v14

[General]
AudioFilename: audio.mp3
AudioLeadIn: 0
PreviewTime: -1
Countdown: 0
SampleSet: Soft
StackLeniency: 1
Mode: 2
LetterboxInBreaks: 0
WidescreenStoryboard: 0

[Editor]
Bookmarks: 9226,17798,18440,19511,19582,20654,22940,24083,55223,55366,77798,84869,112084,121226,146868,147581,147653,147724
DistanceSpacing: 0.6
BeatDivisor: 4
GridSize: 8
TimelineZoom: 3.500004

[Metadata]
Title:ONIGIRI FREEWAY
TitleUnicode:ONIGIRI FREEWAY
Artist:OISHII
ArtistUnicode:OISHII
Creator:-Sh1n1-
Version:Aspire
Source:
Tags:shini
BeatmapID:1562030
BeatmapSetID:740372

[Difficulty]
HPDrainRate:5.3
CircleSize:4.5
OverallDifficulty:9.3
ApproachRate:9.3
SliderMultiplier:1.6
SliderTickRate:2

[Events]
//Background and Video events
0,0,"BG.jpg",0,0
//Break Periods
//Storyboard Layer 0 (Background)
//Storyboard Layer 1 (Fail)
//Storyboard Layer 2 (Pass)
//Storyboard Layer 3 (Foreground)
//Storyboard Sound Samples

[TimingPoints]
84,285.714285714286,4,2,1,30,1,0
8655,-100,4,2,1,40,0,0
9226,-100,4,2,1,50,0,0
12368,571.428571428571,4,2,1,70,1,0
12369,-200,4,2,1,70,0,0
12654,285.714285714286,4,2,1,70,1,0
19368,571.428571428571,4,2,1,70,1,0
19368,-200,4,2,1,70,0,0
19511,285.714285714286,4,2,1,70,1,0
21511,571.428571428571,4,2,1,70,1,0
21796,285.714285714286,4,2,1,70,1,0
23938,571.428571428571,4,2,1,70,1,0
23938,-200,4,2,1,70,0,0
24081,285.714285714286,4,2,1,70,1,0
32366,-25,4,2,1,85,0,0
32509,-100,4,2,1,70,0,0
32795,-25,4,2,1,85,0,0
32938,-100,4,2,1,70,0,0
33223,-25,4,2,1,85,0,0
33366,-100,4,2,1,70,0,0
33652,-33.3333333333333,4,2,1,85,0,0
33795,-100,4,2,1,70,0,0
34795,-20,4,2,1,80,0,0
34938,-100,4,2,1,70,0,0
35223,-20,4,2,1,80,0,0
35366,-100,4,2,1,70,0,0
35652,-20,4,2,1,80,0,0
35795,-100,4,2,1,70,0,0
36081,-20,4,2,1,80,0,0
36226,-100,4,2,1,70,0,0
41223,-100,4,2,1,70,0,1
50081,-100,4,2,1,70,0,0
50366,-100,4,2,1,70,0,1
55223,-20,4,2,1,80,0,1
55366,-100,4,2,1,70,0,1
56366,-20,4,2,1,80,0,1
56509,-100,4,2,1,70,0,1
59366,-100,4,2,1,70,0,0
59509,-100,4,2,1,70,0,1
68081,35.7142857142857,4,2,1,30,1,1
68081,-133.333333333333,4,2,1,30,0,1
68652,285.714285714286,4,2,1,70,1,1
73509,-20,4,2,1,80,0,1
73652,-100,4,2,1,70,0,1
74652,-20,4,2,1,80,0,1
74794,-100,4,2,1,70,0,1
77798,-33.3333333333333,4,2,1,85,0,0
78941,-100,4,2,1,70,0,0
84655,23.8095238095238,4,2,1,70,1,0
84655,-500,4,2,1,70,0,0
84941,285.714285714286,4,2,1,70,1,0
84941,-100,4,2,1,70,0,0
85083,23.8095238095238,4,2,1,70,1,0
85083,-500,4,2,1,70,0,0
85369,285.714285714286,4,2,1,70,1,0
85369,-100,4,2,1,70,0,0
85797,23.8095238095238,4,2,1,70,1,0
85797,-500,4,2,1,70,0,0
86083,285.714285714286,4,2,1,70,1,0
86083,-100,4,2,1,70,0,0
86225,23.8095238095238,4,2,1,70,1,0
86225,-500,4,2,1,70,0,0
86511,285.714285714286,4,2,1,70,1,0
86511,-100,4,2,1,70,0,0
86939,285.714285714286,4,2,1,70,1,0
103224,-25,4,2,1,85,0,0
103367,-100,4,2,1,70,0,0
103653,-25,4,2,1,85,0,0
103796,-100,4,2,1,85,0,0
104081,-25,4,2,1,85,0,0
104224,-100,4,2,1,85,0,0
104510,-33.3333333333333,4,2,1,85,0,0
104653,-100,4,2,1,85,0,0
105653,-20,4,2,1,80,0,0
105796,-100,4,2,1,80,0,0
106081,-20,4,2,1,80,0,0
106224,-100,4,2,1,80,0,0
106510,-20,4,2,1,80,0,0
106653,-100,4,2,1,80,0,0
106939,-20,4,2,1,80,0,0
107084,-100,4,2,1,80,0,0
112367,-50,4,2,1,80,0,0
112510,-100,4,2,1,80,0,0
113367,-66.6666666666667,4,2,1,80,0,0
113510,-50,4,2,1,80,0,0
113653,-33.3333333333333,4,2,1,85,0,0
113796,-100,4,2,1,80,0,0
113939,-33.3333333333333,4,2,1,85,0,0
114081,-100,4,2,1,80,0,0
114224,-25,4,2,1,85,0,0
114367,-100,4,2,1,80,0,0
114653,-50,4,2,1,80,0,0
114796,-100,4,2,1,80,0,0
115081,-66.6666666666667,4,2,1,80,0,0
115224,-100,4,2,1,80,0,0
115367,-50,4,2,1,80,0,0
115510,-100,4,2,1,80,0,0
115939,-33.3333333333333,4,2,1,85,0,0
116081,-100,4,2,1,80,0,0
116224,-33.3333333333333,4,2,1,85,0,0
116367,-100,4,2,1,80,0,0
116510,-37.037037037037,4,2,1,85,0,0
116653,-100,4,2,1,80,0,0
117081,-33.3333333333333,4,2,1,85,0,0
117224,-100,4,2,1,85,0,0
117367,-33.3333333333333,4,2,1,85,0,0
117510,-100,4,2,1,85,0,0
117653,-33.3333333333333,4,2,1,85,0,0
117796,-100,4,2,1,85,0,0
118224,-33.3333333333333,4,2,1,85,0,0
118367,-100,4,2,1,85,0,0
118510,-33.3333333333333,4,2,1,85,0,0
118653,-100,4,2,1,85,0,0
118796,-25,4,2,1,85,0,0
118939,-100,4,2,1,85,0,0
119367,-33.3333333333333,4,2,1,85,0,0
119510,-100,4,2,1,85,0,0
119939,-25,4,2,1,85,0,0
120081,-100,4,2,1,85,0,0
120369,-25,4,2,1,80,0,0
120512,-100,4,2,1,85,0,0
120798,-33.3333333333333,4,2,1,85,0,0
120941,-100,4,2,1,85,0,0
121081,-33.3333333333333,4,2,1,85,0,0
121224,-100,4,2,1,85,0,1
126081,-20,4,2,1,80,0,1
126224,-100,4,2,1,85,0,1
127224,-20,4,2,1,80,0,1
127367,-100,4,2,1,85,0,1
138939,35.7142857142857,4,2,1,35,1,1
138939,-133.333333333333,4,2,1,35,0,1
139511,285.714285714286,4,2,1,85,1,1
144368,-20,4,2,1,80,0,1
144511,-100,4,2,1,85,0,1
145511,-20,4,2,1,80,0,1
145653,-100,4,2,1,85,0,0
146796,23.8095238095238,4,2,1,85,1,0
146939,285.714285714286,4,2,1,85,1,0
147510,23.8095238095238,4,2,1,85,1,0
147510,-200,4,2,1,85,0,0
147796,285.714285714286,4,2,1,85,1,0
148081,285.714285714286,4,2,1,85,1,0
157225,35.7142857142857,4,2,1,35,1,0
157225,-133.333333333333,4,2,1,35,0,0
157796,285.714285714286,4,2,1,85,1,0
162653,-20,4,2,1,80,0,1
162796,-100,4,2,1,85,0,0
163796,-20,4,2,1,80,0,1
163938,-100,4,2,1,85,0,0
166938,-33.3333333333333,4,2,1,85,0,0

[Colours]
Combo1 : 255,255,255
Combo2 : 255,255,255

[HitObjects]
228,192,84,5,2,0:0:0:0:
284,192,84,1,2,0:0:0:0:
32,192,1226,5,2,0:0:0:0:
88,192,1226,1,2,0:0:0:0:
32,192,2369,5,2,0:0:0:0:
88,192,2369,1,2,0:0:0:0:
480,192,3512,5,2,0:0:0:0:
424,192,3512,1,2,0:0:0:0:
228,192,4655,5,2,0:0:0:0:
284,192,4655,1,2,0:0:0:0:
32,192,5798,5,2,0:0:0:0:
88,192,5798,1,2,0:0:0:0:
480,192,6941,5,2,0:0:0:0:
424,192,6941,1,2,0:0:0:0:
32,192,8084,5,2,0:0:0:0:
88,192,8084,1,2,0:0:0:0:
480,192,8655,2,0,L|572:193,1,80,2|0,0:0|0:0,0:0:0:0:
0,147,9226,6,0,L|47:73,1,80,6|0,3:2|0:0,0:0:0:0:
204,113,9512,2,0,L|251:39,1,80,10|0,0:0|0:0,0:0:0:0:
134,201,9798,1,2,3:2:0:0:
278,201,9941,1,2,0:0:0:0:
62,346,10084,2,0,L|10:272,1,80,10|2,0:0|0:0,0:0:0:0:
45,279,10298,1,2,0:0:0:0:
267,46,10369,6,0,L|319:120,1,80,2|0,3:2|0:0,0:0:0:0:
153,181,10655,2,0,L|65:181,1,80,10|0,0:0|0:0,0:0:0:0:
186,104,10941,1,2,3:2:0:0:
42,104,11084,1,2,0:0:0:0:
312,270,11226,2,0,L|354:197,1,80,10|0,0:0|0:0,0:0:0:0:
110,42,11512,6,0,L|68:115,1,80,2|0,3:2|0:0,0:0:0:0:
240,31,11798,1,10,0:0:0:0:
307,66,11940,1,0,0:0:0:0:
305,142,12083,1,2,3:2:0:0:
237,175,12226,1,2,0:0:0:0:
17,175,12369,2,0,L|0:175,3,10,10|0|2|0,0:0|0:0|0:0|0:0,0:0:0:0:
229,259,12654,6,0,L|281:185,1,80,2|0,3:2|0:0,0:0:0:0:
115,32,12939,2,0,L|63:106,1,80,10|0,0:0|0:0,0:0:0:0:
303,336,13225,2,0,L|355:262,1,80,2|2,3:2|3:2,0:0:0:0:
320,269,13439,1,0,3:0:0:0:
98,19,13511,2,0,L|46:93,1,80,10|2,3:2|0:0,0:0:0:0:
332,122,13796,6,0,L|384:48,1,80,2|0,3:2|0:0,0:0:0:0:
217,110,14082,2,0,L|269:36,1,80,10|0,0:0|0:0,0:0:0:0:
150,218,14368,1,2,3:2:0:0:
294,218,14511,1,2,0:0:0:0:
62,142,14654,2,0,L|10:68,1,80,10|2,0:0|0:0,0:0:0:0:
45,67,14868,1,2,0:0:0:0:
264,283,14939,6,0,L|316:209,1,80,2|0,3:2|0:0,0:0:0:0:
149,124,15225,2,0,L|97:50,1,80,10|0,0:0|0:0,0:0:0:0:
216,40,15511,1,2,3:2:0:0:
72,125,15654,1,2,0:0:0:0:
332,349,15796,2,0,L|422:329,1,80,10|0,0:0|0:0,0:0:0:0:
192,291,16082,6,0,L|239:282,1,40,2|0,3:2|0:0,0:0:0:0:
393,246,16225,2,0,L|440:237,1,40,2|0,0:0|0:0,0:0:0:0:
210,179,16368,2,0,L|257:170,1,40,10|0,0:0|0:0,0:0:0:0:
411,134,16511,2,0,L|458:125,1,40,2|0,0:0|0:0,0:0:0:0:
208,54,16654,6,0,L|118:74,1,80,2|0,3:2|0:0,0:0:0:0:
158,87,16868,1,2,0:0:0:0:
357,201,16939,2,0,L|435:183,1,80,10|0,0:0|0:0,0:0:0:0:
217,310,17225,2,0,L|307:290,1,80,2|0,3:2|0:0,0:0:0:0:
267,277,17439,1,2,0:0:0:0:
82,163,17510,2,0,L|3:180,1,80,10|0,0:0|0:0,0:0:0:0:
256,264,17796,6,0,L|304:264,1,40,2|2,3:2|0:0,0:0:0:0:
472,206,17939,2,0,L|520:206,1,40,2|2,3:2|3:2,0:0:0:0:
256,136,18082,6,0,L|208:136,1,40,2|2,3:2|3:2,0:0:0:0:
40,194,18225,2,0,L|-8:194,1,40,2|2,3:2|3:2,0:0:0:0:
256,328,18368,5,6,3:2:0:0:
323,293,18511,1,0,0:0:0:0:
321,217,18654,1,10,0:0:0:0:
253,184,18796,1,0,0:0:0:0:
35,88,18939,1,2,3:2:0:0:
131,88,19082,1,2,0:0:0:0:
11,88,19225,1,10,0:0:0:0:
250,88,19368,2,0,L|265:88,2,10,2|2|2,0:0|0:0|3:2,0:0:0:0:
146,198,19653,5,0,0:0:0:0:
402,272,19796,1,10,0:0:0:0:
322,272,19939,1,0,0:0:0:0:
402,272,20082,1,2,3:2:0:0:
482,272,20225,1,2,0:0:0:0:
202,325,20368,2,0,B|168:340|168:340|76:326,1,120,10|0,0:0|0:0,0:0:0:0:
288,101,20653,6,0,L|376:101,1,80,2|0,3:2|0:0,0:0:0:0:
208,28,20939,2,0,L|120:28,1,80,10|0,0:0|0:0,0:0:0:0:
386,198,21225,2,0,L|298:198,1,80,2|2,3:2|0:0,0:0:0:0:
66,240,21511,2,0,L|42:240,1,20,10|2,0:0|0:0,0:0:0:0:
44,206,21653,2,0,L|68:206,1,20,2|2,0:0|0:0,0:0:0:0:
266,126,21796,6,0,L|311:52,1,80,2|0,3:2|0:0,0:0:0:0:
147,21,22081,2,0,L|106:90,1,80,10|0,0:0|0:0,0:0:0:0:
372,337,22367,2,0,L|413:268,1,80,2|2,0:0|3:2,0:0:0:0:
237,302,22581,1,0,3:0:0:0:
60,337,22653,2,0,L|101:268,1,80,10|0,3:2|0:0,0:0:0:0:
381,186,22938,5,2,3:2:0:0:
448,151,23081,1,0,0:0:0:0:
446,75,23224,1,10,0:0:0:0:
378,42,23366,1,0,0:0:0:0:
156,96,23510,1,2,3:2:0:0:
252,96,23653,1,2,0:0:0:0:
124,29,23796,1,10,0:0:0:0:
343,189,23938,2,0,L|358:189,2,10,2|2|2,0:0|0:0|3:2,0:0:0:0:
246,256,24223,5,0,0:0:0:0:
390,278,24366,1,10,0:0:0:0:
222,272,24509,1,0,0:0:0:0:
450,351,24652,2,0,L|491:282,1,80,2|2,3:2|0:0,0:0:0:0:
239,177,24938,2,0,L|329:157,1,80,10|2,0:0|0:0,0:0:0:0:
289,144,25152,1,2,0:0:0:0:
74,142,25223,6,0,P|18:96|92:81,1,160,2|0,3:2|0:0,0:0:0:0:
74,142,25223,1,2,3:2:0:0:
17,104,25365,1,0,0:0:0:0:
73,66,25508,1,8,0:0:0:0:
315,34,25652,6,0,L|155:34,1,160,2|0,0:0|3:0,0:0:0:0:
315,34,25652,1,2,0:0:0:0:
235,34,25794,1,0,0:0:0:0:
155,34,25937,1,0,3:0:0:0:
184,43,26009,1,0,0:0:0:0:
406,120,26081,2,0,L|326:120,1,80,10|0,3:2|0:0,0:0:0:0:
62,197,26366,6,0,P|6:243|80:258,1,160,2|8,3:2|0:0,0:0:0:0:
62,197,26366,1,2,3:2:0:0:
5,235,26508,1,0,0:0:0:0:
61,273,26651,1,8,0:0:0:0:
295,341,26795,6,0,P|351:295|277:280,1,160,2|0,0:0|3:0,0:0:0:0:
295,341,26795,1,2,0:0:0:0:
352,303,26937,1,0,0:0:0:0:
296,265,27080,1,0,3:0:0:0:
16,99,27223,2,0,L|56:99,1,40,10|2,3:2|3:2,0:0:0:0:
220,53,27366,2,0,L|268:53,1,40,2|2,3:2|3:2,0:0:0:0:
427,200,27509,6,0,P|508:133|413:77,1,240,6|0,3:2|3:2,0:0:0:0:
141,248,28081,2,0,L|61:248,1,80,8|2,0:0|3:2,0:0:0:0:
173,176,28366,1,2,0:0:0:0:
29,176,28509,1,2,3:2:0:0:
269,265,28652,6,0,B|386:305|386:225|520:264,1,240,2|0,3:2|3:0,0:0:0:0:
262,138,29223,2,0,L|229:63,1,80,8|2,0:0|3:2,0:0:0:0:
470,43,29509,2,0,L|503:118,1,80,2|2,0:0|3:2,0:0:0:0:
220,138,29795,6,0,L|187:63,1,80,2|0,3:2|0:0,0:0:0:0:
414,304,30081,1,2,0:0:0:0:
198,302,30223,1,0,3:0:0:0:
317,205,30366,1,10,0:0:0:0:
189,205,30509,1,0,0:0:0:0:
413,315,30652,6,0,L|455:317,1,40,10|8,0:0|0:0,0:0:0:0:
259,368,30795,2,0,L|196:371,1,40,10|8,0:0|0:0,0:0:0:0:
430,130,30938,2,0,L|510:130,2,80,10|2|2,3:2|0:0|0:0,0:0:0:0:
350,130,31366,1,2,0:0:0:0:
125,104,31509,2,0,L|91:25,1,80,10|0,0:0|0:0,0:0:0:0:
368,192,31795,2,0,L|408:192,1,40,8|2,3:0|0:0,0:0:0:0:
184,272,31938,2,0,L|136:272,1,40,2|2,0:0|0:0,0:0:0:0:
415,368,32081,6,0,P|471:336|407:296,1,160,6|0,0:0|3:0,0:0:0:0:
415,291,32366,2,0,L|95:291,1,320,0|0,3:0|0:0,0:0:0:0:
95,291,32509,6,0,P|39:253|96:215,1,160,6|0,0:0|3:0,0:0:0:0:
95,214,32795,2,0,L|415:214,1,320,0|0,3:0|0:0,0:0:0:0:
415,214,32938,6,0,P|471:182|407:142,1,160,6|0,0:0|3:0,0:0:0:0:
415,137,33223,2,0,L|95:137,1,320,0|0,3:0|0:0,0:0:0:0:
95,137,33366,6,0,P|39:99|96:61,1,160,6|0,0:0|3:0,0:0:0:0:
95,60,33652,2,0,L|336:60,1,240.000009155274,0|0,3:0|0:0,0:0:0:0:
335,60,33795,6,0,L|221:60,2,80,6|2|2,0:0|0:0|0:0,0:0:0:0:
193,333,34223,1,2,0:0:0:0:
376,291,34366,1,0,0:0:0:0:
55,20,34509,6,0,P|-1:58|56:96,1,160,10|2,0:0|0:0,0:0:0:0:
55,96,34795,2,0,L|461:95,1,400,2|0,0:0|0:0,0:0:0:0:
454,95,34938,6,0,P|510:133|455:172,1,160,8|2,0:0|0:0,0:0:0:0:
453,171,35223,2,0,L|48:172,1,400,2|0,0:0|0:0,0:0:0:0:
53,171,35366,6,0,P|-3:209|54:247,1,160,8|2,0:0|0:0,0:0:0:0:
53,247,35652,2,0,L|459:246,1,400,2|0,0:0|0:0,0:0:0:0:
452,246,35795,6,0,P|508:284|453:323,1,160,8|2,0:0|0:0,0:0:0:0:
451,322,36081,2,0,L|46:321,1,400,8|0,0:0|0:0,0:0:0:0:
51,321,36223,5,2,0:0:0:0:
289,96,36366,1,10,0:0:0:0:
1,190,36509,1,2,0:0:0:0:
256,192,36655,12,0,38084,0:0:0:0:
256,192,37084,12,0,37155,0:0:0:0:
256,192,37084,12,0,37155,0:0:0:0:
256,192,37084,12,0,37155,0:0:0:0:
256,192,37084,12,0,37155,0:0:0:0:
256,192,37084,12,0,37155,0:0:0:0:
256,192,37084,12,0,37155,0:0:0:0:
256,192,37084,12,0,37155,0:0:0:0:
256,192,37084,12,0,37155,0:0:0:0:
256,192,37084,12,0,37155,0:0:0:0:
256,192,37084,12,0,37155,0:0:0:0:
256,192,37084,12,0,37155,0:0:0:0:
256,192,37084,12,0,37155,0:0:0:0:
305,258,37084,6,0,L|339:178,1,80
256,192,37155,12,0,37226,0:0:0:0:
256,192,37155,12,0,37226,0:0:0:0:
256,192,37155,12,0,37226,0:0:0:0:
256,192,37155,12,0,37226,0:0:0:0:
256,192,37155,12,0,37226,0:0:0:0:
256,192,37155,12,0,37226,0:0:0:0:
256,192,37155,12,0,37226,0:0:0:0:
256,192,37155,12,0,37226,0:0:0:0:
256,192,37155,12,0,37226,0:0:0:0:
256,192,37155,12,0,37226,0:0:0:0:
256,192,37155,12,0,37226,0:0:0:0:
256,192,37155,12,0,37226,0:0:0:0:
256,192,37512,12,0,37583,0:0:0:0:
256,192,37512,12,0,37583,0:0:0:0:
256,192,37512,12,0,37583,0:0:0:0:
209,124,37512,6,0,L|175:208,1,80,0|0,0:0|0:0,0:0:0:0:
256,192,37512,12,0,37583,0:0:0:0:
256,192,37512,12,0,37583,0:0:0:0:
256,192,37512,12,0,37583,0:0:0:0:
256,192,37512,12,0,37583,0:0:0:0:
256,192,37512,12,0,37583,0:0:0:0:
256,192,37512,12,0,37583,0:0:0:0:
256,192,37512,12,0,37583,0:0:0:0:
256,192,37512,12,0,37583,0:0:0:0:
256,192,37512,12,0,37583,0:0:0:0:
256,192,37584,12,0,37655,0:0:0:0:
256,192,37584,12,0,37655,0:0:0:0:
256,192,37584,12,0,37655,0:0:0:0:
256,192,37584,12,0,37655,0:0:0:0:
256,192,37584,12,0,37655,0:0:0:0:
256,192,37584,12,0,37655,0:0:0:0:
256,192,37584,12,0,37655,0:0:0:0:
256,192,37584,12,0,37655,0:0:0:0:
256,192,37584,12,0,37655,0:0:0:0:
256,192,37584,12,0,37655,0:0:0:0:
256,192,37584,12,0,37655,0:0:0:0:
256,192,37584,12,0,37655,0:0:0:0:
256,192,37941,12,0,38012,0:0:0:0:
256,192,37941,12,0,38012,0:0:0:0:
256,192,37941,12,0,38012,0:0:0:0:
256,192,37941,12,0,38012,0:0:0:0:
256,192,37941,12,0,38012,0:0:0:0:
256,192,37941,12,0,38012,0:0:0:0:
256,192,37941,12,0,38012,0:0:0:0:
256,192,37941,12,0,38012,0:0:0:0:
256,192,37941,12,0,38012,0:0:0:0:
256,192,37941,12,0,38012,0:0:0:0:
256,192,37941,12,0,38012,0:0:0:0:
256,192,37941,12,0,38012,0:0:0:0:
324,268,37941,6,0,L|359:189,1,80,0|0,0:0|0:0,0:0:0:0:
256,192,38012,12,0,38083,0:0:0:0:
256,192,38012,12,0,38083,0:0:0:0:
256,192,38012,12,0,38083,0:0:0:0:
256,192,38012,12,0,38083,0:0:0:0:
256,192,38012,12,0,38083,0:0:0:0:
256,192,38012,12,0,38083,0:0:0:0:
256,192,38012,12,0,38083,0:0:0:0:
256,192,38012,12,0,38083,0:0:0:0:
256,192,38012,12,0,38083,0:0:0:0:
256,192,38012,12,0,38083,0:0:0:0:
256,192,38012,12,0,38083,0:0:0:0:
256,192,38012,12,0,38083,0:0:0:0:
68,303,38367,5,2,0:0:0:0:
0,268,38509,1,0,0:0:0:0:
1,193,38652,1,2,0:0:0:0:
69,160,38795,1,2,0:0:0:0:
279,111,38938,5,2,0:0:0:0:
148,47,39081,1,2,0:0:0:0:
159,47,39081,1,0,0:0:0:0:
108,47,39152,1,2,0:0:0:0:
119,47,39152,1,0,0:0:0:0:
148,47,39223,1,0,0:0:0:0:
159,47,39223,1,0,0:0:0:0:
377,111,39366,5,2,0:0:0:0:
238,47,39510,1,2,0:0:0:0:
249,47,39510,1,0,0:0:0:0:
198,47,39581,1,2,0:0:0:0:
209,47,39581,1,0,0:0:0:0:
249,47,39652,1,0,0:0:0:0:
238,47,39652,1,0,0:0:0:0:
473,112,39795,5,2,0:0:0:0:
353,197,39939,1,2,0:0:0:0:
364,197,39939,1,0,0:0:0:0:
404,197,40010,1,2,0:0:0:0:
393,197,40010,1,0,0:0:0:0:
433,197,40081,1,0,0:0:0:0:
444,197,40081,1,0,0:0:0:0:
193,220,40223,5,2,0:0:0:0:
73,134,40367,1,2,0:0:0:0:
62,134,40367,1,0,0:0:0:0:
102,134,40438,1,2,0:0:0:0:
113,134,40438,1,0,0:0:0:0:
153,134,40509,1,0,0:0:0:0:
142,134,40509,1,0,0:0:0:0:
387,220,40652,5,2,0:0:0:0:
496,138,40795,1,2,0:0:0:0:
507,138,40795,1,0,0:0:0:0:
456,138,40866,1,2,0:0:0:0:
467,138,40866,1,0,0:0:0:0:
427,138,40937,1,0,0:0:0:0:
416,138,40937,1,0,0:0:0:0:
198,235,41081,1,2,0:0:0:0:
209,235,41081,1,0,0:0:0:0:
169,235,41152,1,2,0:0:0:0:
158,235,41152,1,0,0:0:0:0:
417,306,41223,6,0,P|458:277|406:252,1,120,6|0,3:2|0:0,0:0:0:0:
254,248,41509,1,10,0:0:0:0:
29,151,41652,2,0,L|109:151,1,80,2|0,0:0|3:0,0:0:0:0:
351,104,41938,1,2,0:0:0:0:
239,104,42081,1,10,0:0:0:0:
366,104,42223,1,2,0:0:0:0:
142,28,42366,6,0,L|66:57,1,80,2|0,3:2|0:0,0:0:0:0:
317,218,42652,2,0,L|393:189,1,80,10|0,0:0|0:0,0:0:0:0:
150,28,42938,2,0,L|74:57,1,80,2|0,3:2|0:0,0:0:0:0:
366,218,43223,2,0,L|442:189,1,80,10|0,0:0|0:0,0:0:0:0:
120,306,43509,6,0,P|79:277|131:252,1,120,2|0,3:2|0:0,0:0:0:0:
283,248,43795,1,10,0:0:0:0:
47,172,43938,2,0,P|-10:143|58:118,1,160,2|2,0:0|0:0,0:0:0:0:
208,53,44366,6,0,L|128:53,1,80,10|2,0:0|0:0,0:0:0:0:
354,195,44652,2,0,L|430:166,1,80,2|0,3:2|0:0,0:0:0:0:
180,127,44938,2,0,L|104:156,1,80,10|0,0:0|0:0,0:0:0:0:
349,316,45223,5,2,3:2:0:0:
361,316,45223,1,0,0:0:0:0:
362,278,45295,1,2,0:0:0:0:
374,278,45295,1,0,0:0:0:0:
266,246,45366,1,2,0:0:0:0:
275,246,45366,1,0,0:0:0:0:
252,208,45438,1,2,0:0:0:0:
261,208,45438,1,0,0:0:0:0:
458,203,45509,5,10,0:0:0:0:
446,203,45509,1,0,0:0:0:0:
481,190,45580,1,2,0:0:0:0:
493,190,45580,1,0,0:0:0:0:
480,153,45651,1,2,0:0:0:0:
492,153,45651,1,0,0:0:0:0:
444,142,45723,1,2,0:0:0:0:
456,142,45723,1,0,0:0:0:0:
254,30,45795,6,0,L|351:29,1,80,2|0,3:2|0:0,0:0:0:0:
221,107,46081,1,10,0:0:0:0:
364,107,46223,1,2,0:0:0:0:
148,316,46366,5,2,3:2:0:0:
136,316,46366,1,0,0:0:0:0:
135,278,46438,1,2,0:0:0:0:
123,278,46438,1,0,0:0:0:0:
222,246,46509,1,2,0:0:0:0:
231,246,46509,1,0,0:0:0:0:
245,208,46581,1,0,0:0:0:0:
236,208,46581,1,2,0:0:0:0:
39,203,46652,5,10,0:0:0:0:
51,203,46652,1,0,0:0:0:0:
15,190,46723,1,2,0:0:0:0:
4,190,46723,1,0,0:0:0:0:
5,153,46794,1,0,0:0:0:0:
16,153,46794,1,2,0:0:0:0:
52,142,46866,1,2,0:0:0:0:
41,142,46866,1,0,0:0:0:0:
263,35,46938,6,0,L|360:34,1,80,2|0,3:2|0:0,0:0:0:0:
230,112,47223,1,10,0:0:0:0:
373,112,47366,1,2,0:0:0:0:
133,321,47508,5,2,3:2:0:0:
142,321,47508,1,0,0:0:0:0:
147,283,47580,1,2,0:0:0:0:
156,283,47580,1,0,0:0:0:0:
252,281,47651,1,2,0:0:0:0:
243,281,47651,1,0,0:0:0:0:
266,243,47723,1,2,0:0:0:0:
257,243,47723,1,0,0:0:0:0:
77,204,47794,5,10,0:0:0:0:
86,204,47794,1,0,0:0:0:0:
91,166,47866,1,2,0:0:0:0:
100,166,47866,1,0,0:0:0:0:
187,164,47937,1,2,0:0:0:0:
196,164,47937,1,0,0:0:0:0:
210,126,48009,1,2,0:0:0:0:
201,126,48009,1,0,0:0:0:0:
22,53,48081,6,0,L|107:53,1,80,2|0,3:2|0:0,0:0:0:0:
326,116,48366,1,10,0:0:0:0:
314,116,48366,1,0,0:0:0:0:
286,116,48438,1,2,0:0:0:0:
274,116,48438,1,0,0:0:0:0:
102,196,48509,1,2,0:0:0:0:
90,196,48509,1,0,0:0:0:0:
62,196,48581,1,2,0:0:0:0:
50,196,48581,1,0,0:0:0:0:
289,277,48652,6,0,L|324:197,1,80,2|0,3:2|0:0,0:0:0:0:
95,279,48938,2,0,L|60:359,1,80,10|0,0:0|0:0,0:0:0:0:
303,131,49223,5,2,3:2:0:0:
87,96,49366,1,6,0:0:0:0:
359,56,49509,1,2,0:0:0:0:
55,26,49652,2,0,P|-4:90|67:166,1,200,6|0,0:0|0:0,0:0:0:0:
319,238,50081,2,0,L|408:238,1,80,8|0,0:0|0:0,0:0:0:0:
370,209,50295,1,0,0:0:0:0:
151,306,50366,6,0,P|110:276|162:252,1,120,6|0,3:2|0:0,0:0:0:0:
314,336,50652,1,10,0:0:0:0:
90,181,50795,2,0,L|33:115,1,80,2|0,0:0|3:2,0:0:0:0:
159,74,51081,1,2,0:0:0:0:
422,78,51223,2,0,L|502:78,1,80,10|2,0:0|0:0,0:0:0:0:
268,326,51509,6,0,P|227:296|279:272,1,120,2|2,3:2|0:0,0:0:0:0:
431,356,51795,1,8,0:0:0:0:
208,200,51938,2,0,L|151:134,1,80,2|0,0:0|3:2,0:0:0:0:
276,94,52223,1,2,0:0:0:0:
28,49,52366,2,0,L|108:49,1,80,10|2,0:0|0:0,0:0:0:0:
350,240,52652,6,0,P|391:210|339:186,1,120,2|2,3:2|0:0,0:0:0:0:
199,270,52938,1,8,0:0:0:0:
432,40,53081,2,0,L|512:40,1,80,2|0,0:0|3:2,0:0:0:0:
393,114,53366,1,2,0:0:0:0:
169,54,53509,2,0,L|89:54,1,80,10|0,0:0|0:0,0:0:0:0:
392,206,53795,6,0,L|472:206,1,80,2|0,3:2|0:0,0:0:0:0:
250,330,54081,5,10,0:0:0:0:
262,330,54081,1,0,0:0:0:0:
210,330,54152,1,2,0:0:0:0:
222,330,54152,1,0,0:0:0:0:
369,269,54223,1,2,0:0:0:0:
381,269,54223,1,0,0:0:0:0:
409,269,54294,1,2,0:0:0:0:
421,269,54294,1,0,0:0:0:0:
147,283,54366,5,2,3:2:0:0:
159,283,54366,1,0,0:0:0:0:
107,283,54437,1,2,0:0:0:0:
119,283,54437,1,0,0:0:0:0:
266,222,54508,1,2,0:0:0:0:
278,222,54508,1,0,0:0:0:0:
306,222,54579,1,2,0:0:0:0:
318,222,54579,1,0,0:0:0:0:
40,243,54652,5,10,0:0:0:0:
52,243,54652,1,0,0:0:0:0:
0,243,54723,1,2,0:0:0:0:
12,243,54723,1,0,0:0:0:0:
152,200,54795,1,2,0:0:0:0:
165,198,54795,1,0,0:0:0:0:
300,153,54866,1,2,0:0:0:0:
310,153,54866,1,0,0:0:0:0:
467,114,54938,6,0,P|516:67|464:9,1,160,2|8,3:2|0:0,0:0:0:0:
467,114,55223,2,0,L|61:113,1,400,2|0,0:0|0:0,0:0:0:0:
67,113,55366,6,0,P|16:164|65:217,1,160,2|2,0:0|0:0,0:0:0:0:
225,112,55723,1,2,0:0:0:0:
387,112,55795,2,0,P|413:143|386:156,1,80,10|2,0:0|0:0,0:0:0:0:
63,247,56081,6,0,P|14:294|66:352,1,160,2|8,3:2|0:0,0:0:0:0:
64,351,56366,2,0,L|470:352,1,400,2|0,0:0|0:0,0:0:0:0:
463,351,56509,6,0,P|513:299|464:246,1,160,2|2,0:0|0:0,0:0:0:0:
283,247,56866,1,2,0:0:0:0:
101,194,56938,2,0,L|140:190,1,40,10|2,0:0|0:0,0:0:0:0:
363,141,57081,2,0,L|406:145,1,40,2|2,0:0|0:0,0:0:0:0:
204,30,57223,5,2,0:0:0:0:
308,50,57366,1,8,3:0:0:0:
85,10,57509,1,2,0:0:0:0:
389,70,57652,1,2,3:2:0:0:
171,131,57795,5,10,0:0:0:0:
275,151,57938,1,2,0:0:0:0:
52,111,58081,1,2,3:2:0:0:
356,171,58223,1,10,0:0:0:0:
139,229,58366,5,2,0:0:0:0:
243,249,58509,1,2,3:2:0:0:
115,226,58652,1,2,3:2:0:0:
386,286,58795,1,2,3:2:0:0:
147,283,58938,5,0,3:0:0:0:
159,283,58938,1,0,0:0:0:0:
107,283,59009,1,0,3:0:0:0:
119,283,59009,1,0,0:0:0:0:
278,222,59080,1,0,0:0:0:0:
266,222,59080,1,0,3:0:0:0:
306,222,59151,1,0,3:0:0:0:
318,222,59151,1,0,0:0:0:0:
40,243,59224,5,0,3:0:0:0:
52,243,59224,1,0,3:0:0:0:
0,243,59295,1,0,3:0:0:0:
12,243,59295,1,0,3:0:0:0:
165,198,59367,1,0,3:0:0:0:
155,198,59367,1,0,3:0:0:0:
300,153,59438,1,0,3:0:0:0:
310,153,59438,1,0,3:0:0:0:
467,114,59509,6,0,P|505:82|453:52,1,120,6|0,3:2|0:0,0:0:0:0:
301,48,59795,1,10,0:0:0:0:
76,151,59938,2,0,L|156:151,1,80,2|0,0:0|3:0,0:0:0:0:
436,315,60223,1,2,0:0:0:0:
340,315,60366,1,10,0:0:0:0:
460,315,60509,1,2,0:0:0:0:
236,198,60652,6,0,L|156:198,1,80,2|0,3:2|0:0,0:0:0:0:
414,102,60938,2,0,L|334:102,1,80,10|0,0:0|0:0,0:0:0:0:
102,52,61223,2,0,L|22:52,1,80,2|0,3:2|0:0,0:0:0:0:
283,316,61509,2,0,L|363:316,1,80,10|0,0:0|0:0,0:0:0:0:
121,277,61795,6,0,P|80:248|132:223,1,120,2|0,3:2|0:0,0:0:0:0:
284,219,62081,1,10,0:0:0:0:
45,114,62223,2,0,P|7:82|59:52,1,120,2|0,0:0|0:0,0:0:0:0:
192,48,62509,1,2,0:0:0:0:
416,48,62652,2,0,L|336:48,1,80,10|2,0:0|0:0,0:0:0:0:
75,180,62938,5,2,3:2:0:0:
8,215,63080,1,0,0:0:0:0:
10,291,63223,1,10,0:0:0:0:
78,324,63366,1,2,0:0:0:0:
302,321,63509,5,2,3:2:0:0:
293,321,63509,1,0,0:0:0:0:
288,283,63581,1,2,0:0:0:0:
279,283,63581,1,0,0:0:0:0:
183,281,63652,1,2,0:0:0:0:
192,281,63652,1,0,0:0:0:0:
169,243,63724,1,2,0:0:0:0:
178,243,63724,1,0,0:0:0:0:
358,204,63795,5,10,0:0:0:0:
349,204,63795,1,0,0:0:0:0:
344,166,63867,1,2,0:0:0:0:
335,166,63867,1,0,0:0:0:0:
248,164,63938,1,2,0:0:0:0:
239,164,63938,1,0,0:0:0:0:
225,126,64010,1,2,0:0:0:0:
234,126,64010,1,0,0:0:0:0:
420,95,64082,6,0,L|462:21,1,80,2|0,3:2|0:0,0:0:0:0:
347,150,64367,1,10,0:0:0:0:
490,150,64509,1,2,0:0:0:0:
210,321,64652,5,2,3:2:0:0:
219,321,64652,1,0,0:0:0:0:
224,283,64724,1,2,0:0:0:0:
233,283,64724,1,0,0:0:0:0:
320,281,64795,1,2,0:0:0:0:
329,281,64795,1,0,0:0:0:0:
343,243,64867,1,2,0:0:0:0:
334,243,64867,1,0,0:0:0:0:
163,204,64938,5,10,0:0:0:0:
154,204,64938,1,0,0:0:0:0:
168,166,65010,1,2,0:0:0:0:
177,166,65010,1,0,0:0:0:0:
273,164,65081,1,2,0:0:0:0:
264,164,65081,1,0,0:0:0:0:
287,126,65153,1,2,0:0:0:0:
278,126,65153,1,0,0:0:0:0:
92,95,65225,6,0,L|50:21,1,80,2|0,3:2|0:0,0:0:0:0:
164,160,65509,1,10,0:0:0:0:
21,160,65652,1,2,0:0:0:0:
261,272,65795,5,2,3:2:0:0:
274,272,65795,1,0,0:0:0:0:
309,272,65866,1,2,0:0:0:0:
322,272,65866,1,0,0:0:0:0:
274,272,65938,1,2,0:0:0:0:
261,272,65938,1,0,0:0:0:0:
213,272,66009,1,2,0:0:0:0:
226,272,66009,1,0,0:0:0:0:
428,195,66081,5,10,0:0:0:0:
441,195,66081,1,0,0:0:0:0:
489,195,66152,1,2,0:0:0:0:
476,195,66152,1,0,0:0:0:0:
428,195,66224,1,2,0:0:0:0:
441,195,66224,1,0,0:0:0:0:
393,195,66295,1,2,0:0:0:0:
380,195,66295,1,0,0:0:0:0:
158,45,66367,6,0,L|243:45,1,80,2|0,3:2|0:0,0:0:0:0:
448,52,66652,1,10,0:0:0:0:
460,52,66652,1,0,0:0:0:0:
500,52,66724,1,2,0:0:0:0:
488,52,66724,1,0,0:0:0:0:
289,139,66795,1,2,0:0:0:0:
277,139,66795,1,0,0:0:0:0:
237,139,66867,1,2,0:0:0:0:
249,139,66867,1,0,0:0:0:0:
408,363,66938,6,0,L|443:283,1,80,2|0,3:2|0:0,0:0:0:0:
198,273,67224,2,0,L|163:353,1,80,10|0,0:0|0:0,0:0:0:0:
406,125,67509,5,2,0:0:0:0:
190,90,67652,1,4,0:0:0:0:
462,50,67795,1,2,0:0:0:0:
158,20,67938,1,6,0:0:0:0:
264,40,68081,6,0,L|297:40,28,30.0000011444092,0|0|0|0|0|0|0|0|0|0|0|0|0|0|0|0|0|0|0|0|0|0|0|0|0|0|0|0|0,3:0|0:0|3:0|0:0|3:0|0:0|3:0|0:0|3:0|0:0|3:0|0:0|3:0|0:0|3:0|0:0|3:0|0:0|3:0|0:0|3:0|0:0|3:0|0:0|3:0|0:0|3:0|0:0|3:0,0:0:0:0:
36,202,68366,6,0,L|3:202,28,30.0000011444092,0|0|0|0|0|0|0|0|0|0|0|0|0|0|0|0|0|0|0|0|0|0|0|0|0|0|0|0|0,3:0|0:0|3:0|0:0|3:0|0:0|3:0|0:0|3:0|0:0|3:0|0:0|3:0|0:0|3:0|0:0|3:0|0:0|3:0|0:0|3:0|0:0|3:0|0:0|3:0|0:0|3:0|0:0|3:0,0:0:0:0:
241,346,68652,6,0,P|282:316|230:292,1,120,6|2,3:2|0:0,0:0:0:0:
78,327,68938,1,8,0:0:0:0:
302,201,69081,2,0,L|390:202,1,80,2|0,0:0|3:0,0:0:0:0:
261,114,69367,1,2,0:0:0:0:
22,50,69509,2,0,L|102:50,1,80,10|2,0:0|0:0,0:0:0:0:
344,307,69795,6,0,P|385:277|333:253,1,120,2|2,3:2|0:0,0:0:0:0:
181,277,70081,1,8,0:0:0:0:
451,158,70223,2,0,L|508:92,1,80,2|0,0:0|3:2,0:0:0:0:
382,50,70509,1,2,0:0:0:0:
150,47,70652,2,0,L|230:46,1,80,10|2,0:0|0:0,0:0:0:0:
472,305,70938,6,0,P|513:275|461:251,1,120,2|2,3:2|0:0,0:0:0:0:
321,277,71224,1,8,0:0:0:0:
41,303,71366,2,0,L|169:303,2,120,2|2|10,0:0|0:0|0:0,0:0:0:0:
136,273,71937,1,2,0:0:0:0:
360,189,72080,6,0,L|401:117,1,80,2|0,3:2|0:0,0:0:0:0:
125,44,72366,2,0,L|84:116,1,80,10|2,0:0|0:0,0:0:0:0:
365,282,72652,5,2,3:2:0:0:
353,282,72652,1,0,0:0:0:0:
405,282,72723,1,2,0:0:0:0:
393,282,72723,1,0,0:0:0:0:
234,221,72794,1,2,0:0:0:0:
246,221,72794,1,0,0:0:0:0:
206,221,72865,1,2,0:0:0:0:
194,221,72865,1,0,0:0:0:0:
472,242,72938,5,10,0:0:0:0:
460,242,72938,1,0,0:0:0:0:
512,242,73009,1,2,0:0:0:0:
500,242,73009,1,0,0:0:0:0:
347,197,73081,1,2,0:0:0:0:
357,197,73081,1,0,0:0:0:0:
212,152,73152,1,2,0:0:0:0:
202,152,73152,1,0,0:0:0:0:
45,113,73224,6,0,P|-4:66|48:8,1,160,2|8,3:2|0:0,0:0:0:0:
46,8,73509,2,0,L|452:7,1,400,2|0,0:0|0:0,0:0:0:0:
445,7,73652,6,0,P|494:54|442:112,1,160,2|2,0:0|0:0,0:0:0:0:
284,112,74008,1,2,0:0:0:0:
122,112,74080,2,0,P|96:143|123:156,1,80,10|2,0:0|0:0,0:0:0:0:
452,259,74366,6,0,P|501:306|449:364,1,160,2|8,3:2|0:0,0:0:0:0:
451,364,74652,2,0,L|45:365,1,400,2|0,0:0|0:0,0:0:0:0:
52,365,74794,6,0,P|3:318|55:260,1,160,2|2,0:0|0:0,0:0:0:0:
238,247,75152,1,2,0:0:0:0:
420,209,75224,2,0,L|381:205,1,40,10|2,0:0|0:0,0:0:0:0:
158,156,75367,2,0,L|115:160,1,40,2|2,0:0|0:0,0:0:0:0:
317,45,75509,5,2,0:0:0:0:
213,65,75652,1,8,3:0:0:0:
436,25,75795,1,2,0:0:0:0:
132,85,75938,1,2,3:2:0:0:
363,152,76080,2,0,L|395:227,1,80,10|2,0:0|0:0,0:0:0:0:
112,345,76366,2,0,L|80:270,1,80,2|10,3:2|0:0,0:0:0:0:
291,210,76651,5,2,0:0:0:0:
420,189,76794,1,2,3:2:0:0:
197,229,76937,1,2,3:2:0:0:
501,169,77080,1,2,3:2:0:0:
345,114,77223,5,0,3:0:0:0:
357,114,77223,1,0,0:0:0:0:
214,69,77294,1,0,3:0:0:0:
202,69,77294,1,0,0:0:0:0:
47,24,77366,1,0,3:0:0:0:
59,24,77366,1,0,0:0:0:0:
202,69,77438,1,0,3:0:0:0:
212,69,77438,1,0,0:0:0:0:
347,114,77509,5,0,3:0:0:0:
357,114,77509,1,0,0:0:0:0:
500,141,77580,1,2,3:2:0:0:
512,141,77580,1,0,0:0:0:0:
357,179,77652,1,2,3:2:0:0:
347,179,77652,1,0,0:0:0:0:
202,224,77723,1,2,3:2:0:0:
212,224,77723,1,0,0:0:0:0:
16,295,77798,6,0,B|496:295|496:295|16:287|16:287|496:279,1,1440.00005493164,6|0,3:2|3:0,0:0:0:0:
496,280,78083,5,0,3:0:0:0:
16,280,78369,5,0,3:0:0:0:
496,280,78655,5,0,0:0:0:0:
269,220,78941,5,2,0:0:0:0:
269,200,78976,1,0,0:0:0:0:
269,180,79012,1,0,0:0:0:0:
269,160,79048,1,0,0:0:0:0:
241,140,79048,1,0,0:0:0:0:
269,140,79083,1,0,0:0:0:0:
279,224,79226,5,2,0:0:0:0:
256,224,79226,1,0,0:0:0:0:
237,223,79226,1,0,0:0:0:0:
255,207,79261,1,0,0:0:0:0:
274,180,79298,1,0,0:0:0:0:
263,148,79334,1,0,0:0:0:0:
237,137,79369,1,0,0:0:0:0:
235,208,79512,5,2,0:0:0:0:
284,192,79547,1,0,0:0:0:0:
253,168,79583,1,0,0:0:0:0:
283,137,79619,1,0,0:0:0:0:
235,122,79654,1,0,0:0:0:0:
283,217,79798,5,2,0:0:0:0:
283,197,79833,1,0,0:0:0:0:
283,177,79870,1,0,0:0:0:0:
257,177,79870,1,0,0:0:0:0:
232,176,79870,1,0,0:0:0:0:
283,157,79906,1,0,0:0:0:0:
232,157,79906,1,0,0:0:0:0:
283,137,79940,1,0,0:0:0:0:
232,137,79941,1,0,0:0:0:0:
440,116,80080,6,0,P|493:66|430:54,1,160,6|10,3:2|0:0,0:0:0:0:
256,48,80437,1,2,0:0:0:0:
77,48,80509,6,0,P|20:83|79:116,1,160,2|0,3:2|0:0,0:0:0:0:
256,48,80866,1,2,0:0:0:0:
437,47,80937,6,0,L|521:48,1,80,10|0,0:0|0:0,0:0:0:0:
490,67,81152,1,2,0:0:0:0:
311,192,81223,6,0,B|359:208|359:208|471:192,1,160,2|10,3:2|0:0,0:0:0:0:
254,192,81580,1,2,0:0:0:0:
47,192,81652,6,0,B|95:208|95:208|207:192,1,160,2|2,3:2|0:0,0:0:0:0:
175,176,82009,1,2,0:0:0:0:
39,105,82081,5,10,0:0:0:0:
3,93,82152,1,2,0:0:0:0:
3,56,82223,1,2,0:0:0:0:
39,46,82295,1,2,0:0:0:0:
298,312,82366,5,2,3:2:0:0:
284,312,82366,1,0,0:0:0:0:
337,308,82437,1,0,0:0:0:0:
323,308,82438,1,0,0:0:0:0:
374,292,82508,1,0,0:0:0:0:
360,292,82509,1,0,0:0:0:0:
403,265,82580,1,0,0:0:0:0:
389,265,82581,1,0,0:0:0:0:
422,230,82652,5,10,0:0:0:0:
408,230,82652,1,0,0:0:0:0:
428,191,82723,1,0,0:0:0:0:
414,191,82723,1,0,0:0:0:0:
421,151,82794,1,0,0:0:0:0:
407,151,82795,1,0,0:0:0:0:
402,116,82865,1,0,0:0:0:0:
388,116,82866,1,0,0:0:0:0:
373,90,82938,5,2,3:2:0:0:
359,90,82938,1,0,0:0:0:0:
336,74,83008,1,0,0:0:0:0:
322,74,83009,1,0,0:0:0:0:
297,71,83081,1,0,3:0:0:0:
283,71,83081,1,0,0:0:0:0:
257,71,83152,1,0,0:0:0:0:
243,71,83152,1,0,0:0:0:0:
217,71,83223,5,10,0:0:0:0:
203,71,83223,1,0,0:0:0:0:
243,71,83295,1,0,0:0:0:0:
257,71,83295,1,0,0:0:0:0:
297,71,83366,1,0,0:0:0:0:
283,71,83366,1,0,0:0:0:0:
317,71,83437,1,0,0:0:0:0:
331,71,83437,1,0,0:0:0:0:
116,190,83509,5,2,3:2:0:0:
102,190,83509,1,0,0:0:0:0:
88,217,83579,1,0,0:0:0:0:
74,217,83580,1,0,0:0:0:0:
90,256,83650,1,0,0:0:0:0:
76,256,83651,1,0,0:0:0:0:
119,282,83722,1,0,0:0:0:0:
105,282,83722,1,0,0:0:0:0:
144,282,83794,5,10,0:0:0:0:
158,282,83794,1,0,0:0:0:0:
119,282,83865,1,0,0:0:0:0:
105,282,83865,1,0,0:0:0:0:
158,282,83936,1,0,0:0:0:0:
144,282,83937,1,0,0:0:0:0:
188,313,84008,1,0,0:0:0:0:
174,313,84008,1,0,0:0:0:0:
227,313,84079,5,2,3:2:0:0:
213,313,84080,1,0,0:0:0:0:
188,313,84151,1,0,0:0:0:0:
174,313,84151,1,0,0:0:0:0:
227,313,84222,1,0,3:0:0:0:
213,313,84222,1,0,0:0:0:0:
257,280,84294,1,0,0:0:0:0:
243,280,84294,1,0,0:0:0:0:
288,256,84365,5,10,0:0:0:0:
274,256,84365,1,0,0:0:0:0:
300,219,84436,1,0,0:0:0:0:
286,219,84437,1,0,0:0:0:0:
286,182,84508,1,0,0:0:0:0:
272,182,84508,1,0,0:0:0:0:
253,160,84579,1,0,0:0:0:0:
239,160,84580,1,0,0:0:0:0:
74,317,84655,6,0,P|20:226|79:61,1,288,2|0,3:2|0:0,0:0:0:0:
235,64,84941,2,0,L|275:64,1,40,8|0,0:0|0:0,0:0:0:0:
438,317,85083,6,0,P|492:226|433:61,1,288,2|0,3:2|0:0,0:0:0:0:
275,64,85369,2,2,L|235:64,1,40,2|2,3:2|0:0,0:0:0:0:
457,267,85511,5,8,0:0:0:0:
486,267,85547,1,0,0:0:0:0:
457,267,85584,1,0,0:0:0:0:
275,185,85654,2,0,L|235:185,1,40,2|0,0:0|0:0,0:0:0:0:
74,317,85797,6,0,P|20:226|79:61,1,288,2|0,3:2|0:0,0:0:0:0:
235,64,86083,2,0,L|275:64,1,40,8|0,0:0|0:0,0:0:0:0:
455,317,86225,6,0,P|509:226|450:61,1,288,2|0,3:2|0:0,0:0:0:0:
320,211,86512,1,2,3:2:0:0:
179,211,86582,1,0,0:0:0:0:
40,211,86653,1,8,0:0:0:0:
5,197,86725,1,0,0:0:0:0:
6,159,86796,1,2,0:0:0:0:
42,149,86869,1,0,0:0:0:0:
290,63,86939,6,0,L|370:63,1,80,2|0,3:2|0:0,0:0:0:0:
153,321,87224,2,0,L|73:321,1,80,10|0,0:0|0:0,0:0:0:0:
324,238,87510,2,0,L|244:238,1,80,2|0,3:2|0:0,0:0:0:0:
349,238,87796,1,10,0:0:0:0:
132,238,87939,1,0,0:0:0:0:
404,147,88082,6,0,L|484:147,1,80,2|0,3:2|0:0,0:0:0:0:
379,147,88368,1,10,0:0:0:0:
101,147,88510,2,0,L|21:147,1,80,2|0,0:0|3:0,0:0:0:0:
275,78,88795,2,0,L|323:78,1,40,2|2,3:2|3:2,0:0:0:0:
133,240,88938,2,0,L|85:240,1,40,10|2,3:2|3:2,0:0:0:0:
275,54,89081,2,0,L|323:54,1,40,2|2,3:2|3:2,0:0:0:0:
474,284,89224,6,0,P|530:248|471:215,1,160,6|8,3:2|0:0,0:0:0:0:
335,216,89581,1,2,0:0:0:0:
200,216,89653,6,0,P|143:181|202:148,1,160,0|0,3:2|0:0,0:0:0:0:
338,102,90010,1,2,0:0:0:0:
136,47,90081,6,0,L|52:48,1,80,10|0,0:0|0:0,0:0:0:0:
83,67,90296,1,2,0:0:0:0:
311,192,90367,6,0,B|359:208|359:208|471:192,1,160,2|8,3:2|0:0,0:0:0:0:
254,192,90724,1,2,0:0:0:0:
47,192,90796,6,0,B|95:208|95:208|207:192,1,160,2|2,3:2|0:0,0:0:0:0:
175,176,91152,1,2,0:0:0:0:
39,105,91224,5,10,0:0:0:0:
3,93,91295,1,2,0:0:0:0:
3,56,91366,1,2,0:0:0:0:
39,46,91438,1,2,0:0:0:0:
248,192,91510,5,2,3:2:0:0:
262,192,91510,1,0,0:0:0:0:
276,219,91581,1,0,0:0:0:0:
290,219,91582,1,0,0:0:0:0:
274,258,91652,1,0,0:0:0:0:
288,258,91653,1,0,0:0:0:0:
259,284,91724,1,0,0:0:0:0:
245,284,91724,1,0,0:0:0:0:
220,284,91796,5,8,0:0:0:0:
206,284,91796,1,0,0:0:0:0:
259,284,91867,1,0,0:0:0:0:
245,284,91867,1,0,0:0:0:0:
206,284,91938,1,0,0:0:0:0:
220,284,91939,1,2,0:0:0:0:
190,315,92010,1,0,0:0:0:0:
176,315,92010,1,0,0:0:0:0:
137,315,92081,5,0,3:0:0:0:
151,315,92082,1,0,0:0:0:0:
190,315,92153,1,0,0:0:0:0:
176,315,92153,1,0,0:0:0:0:
137,315,92224,1,0,3:0:0:0:
151,315,92224,1,0,0:0:0:0:
121,282,92296,1,0,0:0:0:0:
107,282,92296,1,0,0:0:0:0:
76,258,92367,5,10,0:0:0:0:
90,258,92367,1,0,0:0:0:0:
64,221,92438,1,0,0:0:0:0:
78,221,92439,1,0,0:0:0:0:
78,184,92510,1,0,0:0:0:0:
92,184,92510,1,0,0:0:0:0:
111,162,92581,1,0,0:0:0:0:
125,162,92582,1,0,0:0:0:0:
344,151,92653,5,0,3:2:0:0:
358,151,92653,1,0,0:0:0:0:
372,178,92723,1,0,0:0:0:0:
386,178,92724,1,0,0:0:0:0:
370,217,92794,1,0,0:0:0:0:
384,217,92795,1,2,0:0:0:0:
341,243,92866,1,0,0:0:0:0:
355,243,92866,1,0,0:0:0:0:
316,243,92938,5,8,0:0:0:0:
302,243,92938,1,0,0:0:0:0:
341,243,93009,1,0,0:0:0:0:
355,243,93009,1,0,0:0:0:0:
302,243,93080,1,0,0:0:0:0:
316,243,93081,1,0,0:0:0:0:
272,274,93152,1,0,0:0:0:0:
286,274,93152,1,0,0:0:0:0:
233,274,93223,5,2,3:2:0:0:
247,274,93224,1,0,0:0:0:0:
272,274,93295,1,0,0:0:0:0:
286,274,93295,1,0,0:0:0:0:
233,274,93366,1,0,0:0:0:0:
247,274,93366,1,0,0:0:0:0:
203,241,93438,1,0,0:0:0:0:
217,241,93438,1,0,0:0:0:0:
164,241,93507,5,0,0:0:0:0:
178,241,93508,1,8,0:0:0:0:
203,241,93581,1,0,0:0:0:0:
217,241,93581,1,0,0:0:0:0:
178,241,93652,1,2,0:0:0:0:
164,241,93652,1,0,0:0:0:0:
134,208,93724,1,0,0:0:0:0:
148,208,93724,1,0,0:0:0:0:
367,33,93795,5,2,3:2:0:0:
367,33,93813,1,0,0:0:0:0:
373,51,93830,1,0,0:0:0:0:
360,51,93848,1,0,0:0:0:0:
377,71,93866,1,0,0:0:0:0:
356,71,93884,1,0,0:0:0:0:
378,91,93902,1,0,0:0:0:0:
355,91,93920,1,0,0:0:0:0:
377,111,93937,1,0,0:0:0:0:
356,111,93955,1,0,0:0:0:0:
372,130,93973,1,0,0:0:0:0:
361,130,93991,1,0,0:0:0:0:
365,149,94009,1,0,0:0:0:0:
183,47,94081,6,0,L|137:46,1,40,8|0,0:0|0:0,0:0:0:0:
402,352,94224,5,2,3:2:0:0:
402,373,94242,1,0,0:0:0:0:
420,346,94259,1,0,0:0:0:0:
413,357,94277,1,0,0:0:0:0:
437,334,94295,1,0,0:0:0:0:
423,340,94313,1,0,0:0:0:0:
449,319,94331,1,0,0:0:0:0:
430,321,94349,1,0,0:0:0:0:
457,300,94366,1,0,0:0:0:0:
434,302,94384,1,0,0:0:0:0:
460,281,94402,1,0,0:0:0:0:
436,282,94420,1,0,0:0:0:0:
457,261,94438,1,0,0:0:0:0:
434,262,94456,1,0,0:0:0:0:
449,243,94474,1,0,0:0:0:0:
430,242,94492,1,0,0:0:0:0:
436,227,94510,1,2,3:2:0:0:
424,223,94527,1,0,0:0:0:0:
420,216,94545,1,0,0:0:0:0:
415,206,94563,1,0,0:0:0:0:
401,209,94581,1,0,0:0:0:0:
239,145,94653,6,0,L|188:144,1,40,8|0,0:0|0:0,0:0:0:0:
381,79,94796,2,0,L|432:78,1,40,2|0,3:2|0:0,0:0:0:0:
199,351,94941,5,2,3:2:0:0:
199,351,94959,1,0,0:0:0:0:
193,333,94976,1,0,0:0:0:0:
206,333,94994,1,0,0:0:0:0:
189,313,95012,1,0,0:0:0:0:
210,313,95030,1,0,0:0:0:0:
188,293,95048,1,0,0:0:0:0:
211,293,95066,1,0,0:0:0:0:
189,273,95083,1,0,0:0:0:0:
210,273,95101,1,0,0:0:0:0:
194,254,95119,1,0,0:0:0:0:
205,254,95137,1,0,0:0:0:0:
201,235,95155,1,0,0:0:0:0:
383,337,95227,6,0,L|429:338,1,40,8|0,0:0|0:0,0:0:0:0:
164,32,95369,5,2,3:2:0:0:
164,11,95387,1,0,0:0:0:0:
146,38,95404,1,0,0:0:0:0:
153,27,95422,1,0,0:0:0:0:
129,50,95440,1,0,0:0:0:0:
143,44,95458,1,0,0:0:0:0:
117,65,95476,1,0,0:0:0:0:
136,63,95494,1,0,0:0:0:0:
109,84,95511,1,0,0:0:0:0:
132,82,95529,1,0,0:0:0:0:
106,103,95547,1,0,0:0:0:0:
130,102,95565,1,0,0:0:0:0:
109,123,95583,1,0,0:0:0:0:
132,122,95601,1,0,0:0:0:0:
117,141,95619,1,0,0:0:0:0:
136,142,95637,1,0,0:0:0:0:
130,157,95654,1,2,3:2:0:0:
142,161,95672,1,0,0:0:0:0:
146,168,95690,1,0,0:0:0:0:
151,178,95708,1,0,0:0:0:0:
165,175,95726,1,0,0:0:0:0:
320,184,95798,5,8,0:0:0:0:
474,181,95867,2,0,L|515:151,1,40,0|2,0:0|0:0,0:0:0:0:
304,99,96010,1,0,0:0:0:0:
102,271,96081,2,0,L|21:273,1,80,2|0,3:2|0:0,0:0:0:0:
50,256,96296,1,0,0:0:0:0:
269,331,96367,6,0,L|350:333,1,80,8|2,0:0|0:0,0:0:0:0:
321,316,96583,1,0,0:0:0:0:
119,142,96653,2,0,L|76:138,1,40,0|0,3:0|0:0,0:0:0:0:
301,206,96798,2,0,L|344:202,1,40
119,232,96939,6,0,L|0:234,1,120,10|0,0:0|0:0,0:0:0:0:
258,68,97224,2,0,L|339:66,1,80,2|0,3:2|0:0,0:0:0:0:
310,83,97439,1,0,0:0:0:0:
88,122,97510,2,0,L|45:118,1,40,8|0,0:0|0:0,0:0:0:0:
290,287,97653,6,0,L|371:289,1,80,2|2,0:0|3:2,0:0:0:0:
342,272,97869,1,0,0:0:0:0:
140,230,97939,2,0,L|97:234,1,40,2|0,3:2|0:0,0:0:0:0:
312,177,98081,2,0,L|269:173,1,40,10|2,3:2|3:2,0:0:0:0:
53,160,98224,2,0,L|10:156,1,40,2|2,3:2|3:2,0:0:0:0:
255,73,98367,6,0,B|199:60|199:60|84:86|84:86|20:72,1,240,6|0,0:0|3:0,0:0:0:0:
283,197,98939,1,8,0:0:0:0:
163,277,99081,2,0,L|243:277,2,80,2|2|2,3:2|0:0|3:2,0:0:0:0:
443,253,99510,6,0,P|525:187|444:121,1,240,2|0,3:2|3:0,0:0:0:0:
226,124,100081,2,0,L|122:121,1,80,8|2,0:0|3:2,0:0:0:0:
442,187,100367,2,0,L|338:184,1,80,2|2,0:0|3:2,0:0:0:0:
152,288,100653,6,0,L|251:289,1,80,2|0,3:2|0:0,0:0:0:0:
22,192,100939,1,2,0:0:0:0:
302,192,101082,1,0,3:0:0:0:
183,95,101224,1,10,0:0:0:0:
311,95,101367,1,0,0:0:0:0:
71,289,101510,6,0,L|29:291,1,40,10|8,0:0|0:0,0:0:0:0:
233,342,101653,2,0,L|296:345,1,40,10|8,0:0|0:0,0:0:0:0:
49,106,101796,2,0,L|-34:106,2,80,10|2|2,0:0|0:0|0:0,0:0:0:0:
129,106,102226,1,2,0:0:0:0:
352,104,102369,6,0,L|440:104,1,80,8|0,0:0|0:0,0:0:0:0:
104,192,102653,2,0,L|152:192,1,40,8|2,3:0|0:0,0:0:0:0:
328,272,102796,2,0,L|376:272,1,40,2|2,0:0|0:0,0:0:0:0:
97,368,102939,6,0,P|41:336|105:296,1,160,4|0,0:0|3:0,0:0:0:0:
96,291,103224,2,0,L|416:291,1,320,0|0,3:0|0:0,0:0:0:0:
416,291,103367,6,0,P|472:253|415:215,1,160,4|0,0:0|3:0,0:0:0:0:
415,214,103653,2,0,L|95:214,1,320,0|0,3:0|0:0,0:0:0:0:
95,214,103796,6,0,P|39:182|103:142,1,160,4|0,0:0|3:0,0:0:0:0:
94,137,104081,2,0,L|414:137,1,320,0|0,3:0|0:0,0:0:0:0:
414,137,104224,6,0,P|470:99|413:61,1,160,4|0,0:0|3:0,0:0:0:0:
413,60,104510,2,0,L|172:60,1,240.000009155274,0|0,3:0|0:0,0:0:0:0:
172,60,104653,2,0,L|286:60,2,80,6|2|2,0:0|0:0|0:0,0:0:0:0:
317,333,105081,1,2,0:0:0:0:
134,291,105224,1,0,0:0:0:0:
457,20,105367,6,0,P|513:58|456:96,1,160,8|2,0:0|0:0,0:0:0:0:
456,96,105653,2,0,L|50:95,1,400,2|0,0:0|0:0,0:0:0:0:
56,95,105796,6,0,P|0:133|55:172,1,160,8|2,0:0|0:0,0:0:0:0:
56,171,106081,2,0,L|455:170,1,400,2|0,0:0|0:0,0:0:0:0:
455,170,106224,6,0,P|511:208|454:246,1,160,8|2,0:0|0:0,0:0:0:0:
454,246,106510,2,0,L|48:245,1,400,2|0,0:0|0:0,0:0:0:0:
54,245,106653,6,0,P|-2:282|53:321,1,160,8|2,0:0|0:0,0:0:0:0:
53,321,106939,2,0,L|458:320,1,400,10|0,0:0|0:0,0:0:0:0:
452,320,107084,5,2,0:0:0:0:
223,96,107224,1,10,0:0:0:0:
511,190,107367,1,2,0:0:0:0:
256,192,107512,12,0,108941,0:0:0:0:
256,192,107941,12,0,108012,0:0:0:0:
256,192,107941,12,0,108012,0:0:0:0:
256,192,107941,12,0,108012,0:0:0:0:
256,192,107941,12,0,108012,0:0:0:0:
256,192,107941,12,0,108012,0:0:0:0:
256,192,107941,12,0,108012,0:0:0:0:
256,192,107941,12,0,108012,0:0:0:0:
256,192,107941,12,0,108012,0:0:0:0:
256,192,107941,12,0,108012,0:0:0:0:
256,192,107941,12,0,108012,0:0:0:0:
256,192,107941,12,0,108012,0:0:0:0:
256,192,107941,12,0,108012,0:0:0:0:
86,192,107941,6,0,L|-2:192,1,80,0|0,0:0|0:0,0:0:0:0:
256,192,108012,12,0,108083,0:0:0:0:
256,192,108012,12,0,108083,0:0:0:0:
256,192,108012,12,0,108083,0:0:0:0:
256,192,108012,12,0,108083,0:0:0:0:
256,192,108012,12,0,108083,0:0:0:0:
256,192,108012,12,0,108083,0:0:0:0:
256,192,108012,12,0,108083,0:0:0:0:
256,192,108012,12,0,108083,0:0:0:0:
256,192,108012,12,0,108083,0:0:0:0:
256,192,108012,12,0,108083,0:0:0:0:
256,192,108012,12,0,108083,0:0:0:0:
256,192,108012,12,0,108083,0:0:0:0:
256,192,108369,12,0,108440,0:0:0:0:
256,192,108369,12,0,108440,0:0:0:0:
256,192,108369,12,0,108440,0:0:0:0:
256,192,108369,6,0,L|168:192,1,80,0|0,0:0|0:0,0:0:0:0:
256,192,108369,12,0,108440,0:0:0:0:
256,192,108369,12,0,108440,0:0:0:0:
256,192,108369,12,0,108440,0:0:0:0:
256,192,108369,12,0,108440,0:0:0:0:
256,192,108369,12,0,108440,0:0:0:0:
256,192,108369,12,0,108440,0:0:0:0:
256,192,108369,12,0,108440,0:0:0:0:
256,192,108369,12,0,108440,0:0:0:0:
256,192,108369,12,0,108440,0:0:0:0:
256,192,108441,12,0,108512,0:0:0:0:
256,192,108441,12,0,108512,0:0:0:0:
256,192,108441,12,0,108512,0:0:0:0:
256,192,108441,12,0,108512,0:0:0:0:
256,192,108441,12,0,108512,0:0:0:0:
256,192,108441,12,0,108512,0:0:0:0:
256,192,108441,12,0,108512,0:0:0:0:
256,192,108441,12,0,108512,0:0:0:0:
256,192,108441,12,0,108512,0:0:0:0:
256,192,108441,12,0,108512,0:0:0:0:
256,192,108441,12,0,108512,0:0:0:0:
256,192,108441,12,0,108512,0:0:0:0:
256,192,108798,12,0,108869,0:0:0:0:
256,192,108798,12,0,108869,0:0:0:0:
256,192,108798,12,0,108869,0:0:0:0:
256,192,108798,12,0,108869,0:0:0:0:
256,192,108798,12,0,108869,0:0:0:0:
256,192,108798,12,0,108869,0:0:0:0:
256,192,108798,12,0,108869,0:0:0:0:
256,192,108798,12,0,108869,0:0:0:0:
256,192,108798,12,0,108869,0:0:0:0:
256,192,108798,12,0,108869,0:0:0:0:
256,192,108798,12,0,108869,0:0:0:0:
256,192,108798,12,0,108869,0:0:0:0:
424,192,108798,6,0,L|336:192,1,80,0|0,0:0|0:0,0:0:0:0:
256,192,108869,12,0,108940,0:0:0:0:
256,192,108869,12,0,108940,0:0:0:0:
256,192,108869,12,0,108940,0:0:0:0:
256,192,108869,12,0,108940,0:0:0:0:
256,192,108869,12,0,108940,0:0:0:0:
256,192,108869,12,0,108940,0:0:0:0:
256,192,108869,12,0,108940,0:0:0:0:
256,192,108869,12,0,108940,0:0:0:0:
256,192,108869,12,0,108940,0:0:0:0:
256,192,108869,12,0,108940,0:0:0:0:
256,192,108869,12,0,108940,0:0:0:0:
256,192,108869,12,0,108940,0:0:0:0:
69,304,109225,5,2,0:0:0:0:
1,269,109367,1,0,0:0:0:0:
2,194,109510,1,2,0:0:0:0:
70,161,109653,1,2,0:0:0:0:
280,112,109796,5,2,0:0:0:0:
160,37,109939,1,2,0:0:0:0:
149,37,109939,1,0,0:0:0:0:
200,37,110010,1,2,0:0:0:0:
189,37,110010,1,0,0:0:0:0:
240,37,110081,1,0,0:0:0:0:
229,37,110081,1,0,0:0:0:0:
0,112,110224,5,2,0:0:0:0:
120,171,110368,1,2,0:0:0:0:
109,171,110368,1,0,0:0:0:0:
69,171,110439,1,2,0:0:0:0:
80,171,110439,1,0,0:0:0:0:
40,171,110510,1,0,0:0:0:0:
29,171,110510,1,0,0:0:0:0:
277,112,110653,5,2,0:0:0:0:
157,47,110797,1,2,0:0:0:0:
146,47,110797,1,0,0:0:0:0:
106,47,110868,1,2,0:0:0:0:
117,47,110868,1,0,0:0:0:0:
157,47,110939,1,0,0:0:0:0:
146,47,110939,1,0,0:0:0:0:
398,112,111081,5,2,0:0:0:0:
290,35,111225,1,2,0:0:0:0:
279,35,111225,1,0,0:0:0:0:
330,35,111296,1,2,0:0:0:0:
319,35,111296,1,0,0:0:0:0:
370,35,111367,1,0,0:0:0:0:
359,35,111367,1,0,0:0:0:0:
130,132,111510,5,2,0:0:0:0:
50,43,111653,1,2,0:0:0:0:
38,43,111653,1,0,0:0:0:0:
193,88,111725,1,2,0:0:0:0:
203,88,111725,1,0,0:0:0:0:
348,133,111796,1,2,0:0:0:0:
338,133,111796,1,0,0:0:0:0:
491,160,111867,1,2,0:0:0:0:
503,160,111867,1,0,0:0:0:0:
338,198,111939,1,2,0:0:0:0:
348,198,111939,1,0,0:0:0:0:
193,243,112010,1,2,0:0:0:0:
203,243,112010,1,0,0:0:0:0:
47,300,112081,6,0,P|-7:257|59:214,1,160,2|0,0:0|0:0,0:0:0:0:
47,177,112367,2,0,L|206:177,1,160,2|0,0:0|0:0,0:0:0:0:
206,177,112510,6,0,L|45:177,1,160,2|2,0:0|0:0,0:0:0:0:
151,208,112939,1,2,0:0:0:0:
255,222,113081,1,2,0:0:0:0:
358,227,113224,6,0,L|437:227,1,80,2|0,0:0|0:0,0:0:0:0:
358,227,113227,1,0,0:0:0:0:
437,294,113367,1,0,0:0:0:0:
437,294,113367,2,0,L|312:294,1,120.000004577637,2|2,0:0|0:0,0:0:0:0:
317,362,113510,2,0,L|481:362,1,160
317,294,113510,1,0,0:0:0:0:
477,362,113653,1,0,0:0:0:0:
477,237,113653,2,0,L|236:237,1,240.000009155274,2|0,0:0|0:0,0:0:0:0:
236,161,113796,6,0,L|190:82,1,80,2|0,0:0|0:0,0:0:0:0:
195,91,113939,2,0,L|435:91,1,240.000009155274
435,91,114081,2,0,L|477:19,1,80,2|0,0:0|0:0,0:0:0:0:
476,22,114224,2,0,L|150:22,1,320
156,22,114367,6,0,P|102:67|153:116,1,160,2|0,0:0|0:0,0:0:0:0:
153,116,114653,2,0,L|312:116,1,160,2|0,0:0|0:0,0:0:0:0:
313,116,114796,6,0,P|367:161|314:209,1,160,2|0,0:0|0:0,0:0:0:0:
314,209,115081,2,0,L|194:209,1,120.000004577637,2|0,0:0|0:0,0:0:0:0:
193,209,115224,6,0,B|153:282,1,80,2|0,0:0|0:0,0:0:0:0:
154,279,115367,2,0,L|314:279,1,160,2|0,0:0|0:0,0:0:0:0:
314,279,115510,5,2,0:0:0:0:
389,265,115653,1,2,0:0:0:0:
388,192,115796,1,2,0:0:0:0:
316,186,115939,1,0,0:0:0:0:
316,186,115939,2,0,L|72:186,1,240.000009155274,2|0,0:0|0:0,0:0:0:0:
75,186,116081,6,0,L|63:265,1,80
63,359,116224,2,0,L|307:359,1,240.000009155274,0|0,0:0|0:0,0:0:0:0:
303,359,116367,2,0,L|323:278,1,80
322,281,116510,2,0,L|101:281,1,216.000000823975,0|0,0:0|0:0,0:0:0:0:
106,281,116653,6,0,L|186:281,1,80,2|2,0:0|0:0,0:0:0:0:
106,281,116939,1,2,0:0:0:0:
26,281,117081,1,2,0:0:0:0:
26,96,117081,2,0,L|270:96,1,240.000009155274,0|0,0:0|0:0,0:0:0:0:
266,176,117224,6,0,L|186:176,1,80,0|0,0:0|0:0,0:0:0:0:
186,176,117367,2,0,L|430:176,1,240.000009155274,0|0,0:0|0:0,0:0:0:0:
426,254,117510,2,0,L|346:254,1,80,0|0,0:0|0:0,0:0:0:0:
346,254,117653,2,0,L|102:254,1,240.000009155274,0|2,0:0|0:0,0:0:0:0:
105,254,117796,5,0,0:0:0:0:
48,248,117939,1,2,0:0:0:0:
48,176,118081,1,2,0:0:0:0:
106,172,118224,1,0,0:0:0:0:
106,172,118224,2,0,L|350:172,1,240.000009155274,2|0,0:0|0:0,0:0:0:0:
346,172,118367,6,0,L|377:98,1,80,0|0,0:0|0:0,0:0:0:0:
376,98,118510,2,0,L|132:98,1,240.000009155274,0|0,0:0|0:0,0:0:0:0:
135,98,118653,2,0,L|104:172,1,80,0|0,0:0|0:0,0:0:0:0:
104,264,118796,2,0,L|430:264,1,320
424,264,118939,6,0,P|478:219|427:170,1,160,2|0,0:0|0:0,0:0:0:0:
425,171,119224,2,0,L|339:172,1,80,0|0,0:0|0:0,0:0:0:0:
345,171,119367,2,0,L|98:172,1,240.000009155274
105,171,119510,5,2,0:0:0:0:
185,169,119653,1,2,0:0:0:0:
105,169,119796,1,2,0:0:0:0:
25,296,119939,2,0,L|351:296,1,320,2|0,0:0|0:0,0:0:0:0:
25,169,119939,1,0,0:0:0:0:
345,296,120081,1,2,0:0:0:0:
249,296,120224,1,2,0:0:0:0:
370,169,120369,2,0,L|44:169,1,320,2|0,0:0|0:0,0:0:0:0:
370,296,120370,1,0,0:0:0:0:
50,169,120512,6,0,P|-4:124|47:75,1,160,2|0,0:0|0:0,0:0:0:0:
48,74,120798,2,0,L|295:75,1,240.000009155274,8|0,3:0|0:0,0:0:0:0:
287,74,120941,2,0,L|207:74,1,80,0|0,3:0|0:0,0:0:0:0:
207,74,121081,2,0,L|454:73,1,240.000009155274,0|0,3:0|0:0,0:0:0:0:
446,73,121224,6,0,P|487:103|435:127,1,120,6|0,3:2|0:0,0:0:0:0:
295,134,121510,1,10,0:0:0:0:
61,319,121653,6,0,L|31:241,1,80,2|0,0:0|3:0,0:0:0:0:
145,184,121939,1,2,0:0:0:0:
397,97,122081,2,0,L|477:97,1,80,10|2,0:0|0:0,0:0:0:0:
235,264,122367,6,0,P|194:234|246:210,1,120,2|2,3:2|0:0,0:0:0:0:
382,223,122653,1,8,0:0:0:0:
160,110,122796,2,0,L|70:110,1,80,2|0,0:0|3:0,0:0:0:0:
0,110,123081,1,2,0:0:0:0:
264,39,123224,2,0,L|344:38,1,80,10|2,0:0|0:0,0:0:0:0:
62,307,123510,6,0,P|21:277|73:253,1,120,2|2,3:2|0:0,0:0:0:0:
209,266,123796,1,8,0:0:0:0:
433,253,123939,2,0,L|527:252,1,80,2|0,0:0|3:0,0:0:0:0:
409,163,124224,1,2,0:0:0:0:
153,72,124367,2,0,L|73:73,1,80,10|2,0:0|0:0,0:0:0:0:
347,302,124653,6,0,P|388:272|336:248,1,120,2|2,3:2|0:0,0:0:0:0:
184,270,124939,2,0,L|104:270,1,80,8|2,0:0|0:0,0:0:0:0:
360,282,125224,5,2,3:2:0:0:
348,282,125224,1,0,0:0:0:0:
400,282,125295,1,2,0:0:0:0:
388,282,125295,1,0,0:0:0:0:
241,221,125366,1,2,0:0:0:0:
229,221,125366,1,0,0:0:0:0:
201,221,125437,1,2,0:0:0:0:
189,221,125437,1,0,0:0:0:0:
467,242,125510,5,10,0:0:0:0:
455,242,125510,1,0,0:0:0:0:
507,242,125581,1,2,0:0:0:0:
495,242,125581,1,0,0:0:0:0:
352,197,125653,1,2,0:0:0:0:
342,197,125653,1,0,0:0:0:0:
207,152,125724,1,2,0:0:0:0:
197,152,125724,1,0,0:0:0:0:
59,171,125796,6,0,L|10:18,1,160,2|0,3:2|0:0,0:0:0:0:
10,18,126081,2,0,L|410:17,1,400,10|0,0:0|0:0,0:0:0:0:
410,17,126224,6,0,L|460:169,1,160,2|2,0:0|0:0,0:0:0:0:
292,112,126581,1,2,0:0:0:0:
125,112,126653,2,0,P|100:143|126:156,1,80,10|2,0:0|0:0,0:0:0:0:
453,213,126939,6,0,L|502:366,1,160,2|0,3:2|0:0,0:0:0:0:
502,366,127224,2,0,L|102:367,1,400,10|0,0:0|0:0,0:0:0:0:
102,367,127367,6,0,L|52:215,1,160,2|2,0:0|0:0,0:0:0:0:
229,247,127724,1,2,0:0:0:0:
411,194,127796,2,0,L|372:190,1,40,10|2,0:0|0:0,0:0:0:0:
149,141,127939,2,0,L|106:145,1,40,2|2,0:0|0:0,0:0:0:0:
308,46,128081,5,2,0:0:0:0:
412,66,128224,1,8,3:0:0:0:
189,26,128367,1,2,0:0:0:0:
493,86,128510,1,2,3:2:0:0:
253,162,128653,5,10,0:0:0:0:
357,182,128796,1,2,0:0:0:0:
134,142,128939,1,2,3:2:0:0:
438,202,129082,1,10,0:0:0:0:
183,258,129224,5,2,0:0:0:0:
79,238,129367,1,2,3:2:0:0:
207,261,129510,1,2,3:2:0:0:
431,308,129653,1,2,3:2:0:0:
151,305,129796,5,0,3:0:0:0:
163,305,129796,1,0,0:0:0:0:
123,305,129867,1,0,3:0:0:0:
111,305,129867,1,0,0:0:0:0:
282,244,129938,1,0,3:0:0:0:
270,244,129938,1,0,0:0:0:0:
322,244,130009,1,0,3:0:0:0:
310,244,130009,1,0,0:0:0:0:
44,265,130082,5,0,3:0:0:0:
56,265,130082,1,0,3:0:0:0:
16,265,130153,1,0,3:0:0:0:
4,265,130153,1,0,3:0:0:0:
171,220,130225,1,0,3:0:0:0:
161,220,130225,1,0,3:0:0:0:
318,175,130296,1,0,3:0:0:0:
308,175,130296,1,0,3:0:0:0:
463,139,130367,6,0,P|501:107|449:77,1,120,6|0,3:2|0:0,0:0:0:0:
296,73,130653,1,10,0:0:0:0:
75,142,130796,2,0,L|155:142,1,80,2|0,0:0|3:0,0:0:0:0:
436,315,131081,1,2,0:0:0:0:
340,315,131224,1,10,0:0:0:0:
460,315,131367,1,2,0:0:0:0:
234,196,131510,6,0,L|291:132,1,80,2|0,3:2|0:0,0:0:0:0:
53,101,131796,2,0,L|110:37,1,80,10|0,0:0|0:0,0:0:0:0:
379,96,132081,2,0,L|436:32,1,80,2|0,3:2|0:0,0:0:0:0:
190,73,132367,2,0,L|133:137,1,80,10|0,0:0|0:0,0:0:0:0:
427,283,132653,6,0,P|468:254|416:229,1,120,2|0,3:2|0:0,0:0:0:0:
264,225,132939,1,10,0:0:0:0:
41,114,133081,2,0,P|3:82|55:52,1,120,2|0,0:0|0:0,0:0:0:0:
196,48,133367,1,2,0:0:0:0:
440,48,133511,2,0,L|360:48,1,80,10|2,0:0|0:0,0:0:0:0:
118,152,133796,5,2,3:2:0:0:
51,187,133939,1,0,0:0:0:0:
53,263,134081,1,10,0:0:0:0:
121,296,134224,1,0,0:0:0:0:
361,293,134367,5,2,3:2:0:0:
370,293,134367,1,0,0:0:0:0:
375,255,134439,1,2,0:0:0:0:
384,255,134439,1,0,0:0:0:0:
185,234,134510,1,2,0:0:0:0:
176,234,134510,1,0,0:0:0:0:
162,196,134581,1,2,0:0:0:0:
171,196,134581,1,0,0:0:0:0:
380,178,134653,5,10,0:0:0:0:
389,178,134653,1,0,0:0:0:0:
403,140,134724,1,2,0:0:0:0:
394,140,134724,1,0,0:0:0:0:
173,116,134796,1,2,0:0:0:0:
182,116,134796,1,0,0:0:0:0:
159,78,134867,1,2,0:0:0:0:
168,78,134867,1,0,0:0:0:0:
430,30,134939,5,2,3:2:0:0:
498,65,135081,1,0,0:0:0:0:
497,140,135224,1,10,0:0:0:0:
429,173,135367,1,2,0:0:0:0:
149,293,135510,5,2,3:2:0:0:
140,293,135510,1,0,0:0:0:0:
135,255,135582,1,2,0:0:0:0:
126,255,135582,1,0,0:0:0:0:
325,234,135653,1,2,0:0:0:0:
334,234,135653,1,0,0:0:0:0:
348,196,135724,1,2,0:0:0:0:
339,196,135724,1,0,0:0:0:0:
130,178,135796,5,10,0:0:0:0:
121,178,135796,1,0,0:0:0:0:
107,140,135867,1,2,0:0:0:0:
116,140,135867,1,0,0:0:0:0:
337,116,135939,1,2,0:0:0:0:
328,116,135939,1,0,0:0:0:0:
351,78,136010,1,2,0:0:0:0:
342,78,136010,1,0,0:0:0:0:
80,30,136082,5,2,3:2:0:0:
12,65,136224,1,0,0:0:0:0:
13,140,136367,1,10,0:0:0:0:
81,173,136510,1,2,0:0:0:0:
292,215,136653,5,2,3:2:0:0:
305,215,136653,1,0,0:0:0:0:
332,215,136724,1,2,0:0:0:0:
345,215,136724,1,0,0:0:0:0:
130,129,136796,1,0,0:0:0:0:
143,129,136796,1,2,0:0:0:0:
170,129,136867,1,2,0:0:0:0:
183,129,136867,1,0,0:0:0:0:
372,94,136939,5,10,0:0:0:0:
385,94,136939,1,0,0:0:0:0:
412,94,137010,1,2,0:0:0:0:
425,94,137010,1,0,0:0:0:0:
213,18,137081,1,2,0:0:0:0:
226,18,137081,1,0,0:0:0:0:
253,18,137152,1,2,0:0:0:0:
266,18,137152,1,0,0:0:0:0:
458,234,137224,6,0,L|517:171,1,80,2|0,3:2|0:0,0:0:0:0:
268,259,137510,1,10,0:0:0:0:
256,259,137510,1,0,0:0:0:0:
228,259,137582,1,2,0:0:0:0:
216,259,137582,1,0,0:0:0:0:
422,36,137652,1,2,0:0:0:0:
434,36,137652,1,0,0:0:0:0:
462,36,137724,1,2,0:0:0:0:
474,36,137724,1,0,0:0:0:0:
219,155,137796,6,0,L|184:75,1,80,2|0,3:2|0:0,0:0:0:0:
443,186,138081,2,0,L|478:266,1,80,10|0,0:0|0:0,0:0:0:0:
233,145,138367,5,2,3:2:0:0:
449,110,138510,1,6,0:0:0:0:
177,70,138653,1,2,0:0:0:0:
481,40,138796,1,6,0:0:0:0:
377,35,138939,6,0,L|344:35,28,30.0000011444092,0|0|0|0|0|0|0|0|0|0|0|0|0|0|0|0|0|0|0|0|0|0|0|0|0|0|0|0|0,3:0|0:0|3:0|0:0|3:0|0:0|3:0|0:0|3:0|0:0|3:0|0:0|3:0|0:0|3:0|0:0|3:0|0:0|3:0|0:0|3:0|0:0|3:0|0:0|3:0|0:0|3:0|0:0|3:0,0:0:0:0:
135,202,139224,6,0,L|102:202,28,30.0000011444092,0|0|0|0|0|0|0|0|0|0|0|0|0|0|0|0|0|0|0|0|0|0|0|0|0|0|0|0|0,3:0|0:0|3:0|0:0|3:0|0:0|3:0|0:0|3:0|0:0|3:0|0:0|3:0|0:0|3:0|0:0|3:0|0:0|3:0|0:0|3:0|0:0|3:0|0:0|3:0|0:0|3:0|0:0|3:0,0:0:0:0:
340,346,139511,6,0,P|381:316|329:292,1,120,6|2,3:2|0:0,0:0:0:0:
179,346,139796,1,8,0:0:0:0:
403,220,139939,2,0,L|491:221,1,80,2|0,0:0|3:0,0:0:0:0:
362,133,140225,1,2,0:0:0:0:
102,50,140368,2,0,L|22:50,1,80,10|2,0:0|0:0,0:0:0:0:
286,292,140653,6,0,P|327:262|275:238,1,120,2|2,3:2|0:0,0:0:0:0:
123,262,140940,1,8,0:0:0:0:
393,143,141082,2,0,L|450:77,1,80,2|0,0:0|3:0,0:0:0:0:
340,50,141368,1,2,0:0:0:0:
108,47,141511,2,0,L|188:46,1,80,10|2,0:0|0:0,0:0:0:0:
472,305,141796,6,0,P|513:275|461:251,1,120,2|2,3:2|0:0,0:0:0:0:
321,277,142082,1,8,0:0:0:0:
41,303,142225,2,0,L|169:303,2,120,2|2|10,0:0|0:0|0:0,0:0:0:0:
136,273,142796,1,0,0:0:0:0:
387,130,142939,6,0,L|347:60,1,80,2|0,3:2|0:0,0:0:0:0:
72,135,143225,2,0,L|111:204,1,80,10|2,0:0|0:0,0:0:0:0:
365,282,143511,5,2,3:2:0:0:
353,282,143511,1,0,0:0:0:0:
405,282,143582,1,2,0:0:0:0:
393,282,143582,1,0,0:0:0:0:
246,221,143653,1,2,0:0:0:0:
234,221,143653,1,0,0:0:0:0:
194,221,143724,1,2,0:0:0:0:
206,221,143724,1,0,0:0:0:0:
472,242,143797,5,8,0:0:0:0:
460,242,143797,1,2,0:0:0:0:
500,242,143868,1,2,0:0:0:0:
512,242,143868,1,0,0:0:0:0:
357,197,143940,1,2,0:0:0:0:
347,197,143940,1,0,0:0:0:0:
212,152,144011,1,2,0:0:0:0:
202,152,144011,1,0,0:0:0:0:
45,113,144082,6,0,P|-4:66|48:8,1,160,2|8,3:2|0:0,0:0:0:0:
46,8,144368,2,0,L|452:7,1,400,2|0,0:0|0:0,0:0:0:0:
445,7,144511,6,0,P|494:54|442:112,1,160,2|2,0:0|0:0,0:0:0:0:
284,112,144866,1,2,0:0:0:0:
122,112,144938,2,0,P|96:143|123:156,1,80,10|2,0:0|0:0,0:0:0:0:
452,259,145225,6,0,P|501:306|449:364,1,160,2|8,3:2|0:0,0:0:0:0:
451,364,145511,2,0,L|45:365,1,400,2|0,0:0|0:0,0:0:0:0:
52,365,145653,6,0,P|3:318|55:260,1,160,2|2,0:0|0:0,0:0:0:0:
238,247,146011,1,2,0:0:0:0:
420,209,146083,2,0,L|452:182,1,40,10|2,0:0|0:0,0:0:0:0:
236,157,146225,2,0,L|268:130,1,40,2|2,0:0|0:0,0:0:0:0:
457,119,146368,6,0,L|512:59,1,80,2|8,0:0|3:0,0:0:0:0:
285,62,146654,1,2,0:0:0:0:
60,322,146796,2,0,P|37:545|63:803,1,480,2|0,3:2|3:0,0:0:0:0:
61,62,146797,1,2,0:0:0:0:
355,152,146939,2,0,L|387:227,1,80,10|2,0:0|0:0,0:0:0:0:
120,233,147224,6,0,L|88:158,1,80,2|8,3:2|0:0,0:0:0:0:
341,63,147510,2,0,P|357:181|338:305,1,240,2|0,3:2|3:0,0:0:0:0:
171,299,147652,2,0,P|154:181|171:63,1,240,2|0,3:2|3:0,0:0:0:0:
381,187,147796,5,2,0:0:0:0:
501,169,147939,1,2,0:0:0:0:
345,114,148082,5,0,3:0:0:0:
357,114,148082,1,0,0:0:0:0:
202,69,148153,1,0,3:0:0:0:
214,69,148153,1,0,0:0:0:0:
47,24,148225,1,0,3:0:0:0:
59,24,148225,1,0,0:0:0:0:
212,69,148297,1,0,3:0:0:0:
202,69,148297,1,0,0:0:0:0:
347,114,148368,5,0,3:0:0:0:
357,114,148368,1,0,0:0:0:0:
512,141,148439,1,2,3:2:0:0:
500,141,148439,1,0,0:0:0:0:
357,179,148511,1,2,3:2:0:0:
347,179,148511,1,0,0:0:0:0:
212,224,148582,1,2,3:2:0:0:
202,224,148582,1,0,0:0:0:0:
45,181,148652,6,0,P|7:149|59:119,1,120,6|0,3:2|0:0,0:0:0:0:
211,148,148938,1,10,0:0:0:0:
445,151,149082,2,0,L|365:151,1,80,2|0,0:0|3:0,0:0:0:0:
85,315,149367,1,2,0:0:0:0:
181,315,149510,1,10,0:0:0:0:
61,315,149653,1,2,0:0:0:0:
301,229,149795,6,0,L|381:229,1,80,2|0,3:2|0:0,0:0:0:0:
121,114,150082,2,0,L|41:114,1,80,10|0,0:0|0:0,0:0:0:0:
297,70,150367,2,0,L|377:70,1,80,2|0,3:2|0:0,0:0:0:0:
89,211,150652,2,0,L|169:211,1,80,10|0,0:0|0:0,0:0:0:0:
391,277,150938,6,0,P|432:248|380:223,1,120,2|0,3:2|0:0,0:0:0:0:
228,219,151223,1,10,0:0:0:0:
467,114,151366,2,0,P|505:82|453:52,1,120,2|0,0:0|0:0,0:0:0:0:
320,48,151652,1,2,0:0:0:0:
94,48,151796,2,0,L|14:48,1,80,10|2,0:0|0:0,0:0:0:0:
302,146,152081,5,2,3:2:0:0:
369,181,152223,1,0,0:0:0:0:
367,257,152366,1,10,0:0:0:0:
299,290,152509,1,2,0:0:0:0:
82,265,152651,5,2,3:2:0:0:
73,265,152651,1,0,0:0:0:0:
68,227,152723,1,2,0:0:0:0:
59,227,152723,1,0,0:0:0:0:
258,67,152794,1,2,0:0:0:0:
267,67,152794,1,0,0:0:0:0:
281,29,152866,1,2,0:0:0:0:
272,29,152866,1,0,0:0:0:0:
53,275,152937,5,10,0:0:0:0:
44,275,152937,1,0,0:0:0:0:
39,237,153009,1,2,0:0:0:0:
30,237,153009,1,0,0:0:0:0:
289,72,153080,1,2,0:0:0:0:
280,72,153080,1,0,0:0:0:0:
303,34,153152,1,2,0:0:0:0:
294,34,153152,1,0,0:0:0:0:
70,95,153223,6,0,L|28:21,1,80,2|0,3:2|0:0,0:0:0:0:
143,150,153509,1,10,0:0:0:0:
0,150,153652,1,2,0:0:0:0:
289,72,153795,5,2,3:2:0:0:
298,72,153795,1,0,0:0:0:0:
303,110,153867,1,2,0:0:0:0:
312,110,153867,1,0,0:0:0:0:
104,270,153938,1,2,0:0:0:0:
113,270,153938,1,0,0:0:0:0:
90,308,154010,1,2,0:0:0:0:
99,308,154010,1,0,0:0:0:0:
318,62,154081,5,10,0:0:0:0:
327,62,154081,1,0,0:0:0:0:
332,100,154153,1,2,0:0:0:0:
341,100,154153,1,0,0:0:0:0:
91,265,154224,1,2,0:0:0:0:
82,265,154224,1,0,0:0:0:0:
68,303,154296,1,2,0:0:0:0:
77,303,154296,1,0,0:0:0:0:
313,259,154366,6,0,L|355:333,1,80,2|0,3:2|0:0,0:0:0:0:
241,194,154652,1,10,0:0:0:0:
384,194,154795,1,2,0:0:0:0:
134,336,154938,5,2,3:2:0:0:
147,336,154938,1,0,0:0:0:0:
187,336,155009,1,2,0:0:0:0:
174,336,155009,1,0,0:0:0:0:
323,183,155081,1,2,0:0:0:0:
336,183,155081,1,0,0:0:0:0:
376,183,155152,1,2,0:0:0:0:
363,183,155152,1,0,0:0:0:0:
164,224,155223,5,10,0:0:0:0:
151,224,155223,1,0,0:0:0:0:
191,224,155294,1,2,0:0:0:0:
204,224,155294,1,0,0:0:0:0:
340,71,155366,1,2,0:0:0:0:
353,71,155366,1,0,0:0:0:0:
380,71,155437,1,2,0:0:0:0:
393,71,155437,1,0,0:0:0:0:
186,37,155511,6,0,L|106:37,1,80,2|0,3:2|0:0,0:0:0:0:
371,28,155796,1,10,0:0:0:0:
383,28,155796,1,0,0:0:0:0:
411,28,155868,1,2,0:0:0:0:
423,28,155868,1,0,0:0:0:0:
212,115,155939,1,2,0:0:0:0:
200,115,155939,1,0,0:0:0:0:
172,115,156011,1,2,0:0:0:0:
160,115,156011,1,0,0:0:0:0:
396,353,156081,6,0,L|431:273,1,80,2|0,3:2|0:0,0:0:0:0:
186,263,156366,2,0,L|151:343,1,80,10|0,0:0|0:0,0:0:0:0:
406,125,156653,5,2,0:0:0:0:
190,90,156796,1,6,0:0:0:0:
462,50,156939,1,2,0:0:0:0:
158,20,157082,1,6,0:0:0:0:
262,39,157225,6,0,L|285:57,28,30.0000011444092,0|0|0|0|0|0|0|0|0|0|0|0|0|0|0|0|0|0|0|0|0|0|0|0|0|0|0|0|0,3:0|0:0|3:0|0:0|3:0|0:0|3:0|0:0|3:0|0:0|3:0|0:0|3:0|0:0|3:0|0:0|3:0|0:0|3:0|0:0|3:0|0:0|3:0|0:0|3:0|0:0|3:0|0:0|3:0,0:0:0:0:
36,202,157510,6,0,L|14:222,28,30.0000011444092,0|0|0|0|0|0|0|0|0|0|0|0|0|0|0|0|0|0|0|0|0|0|0|0|0|0|0|0|0,3:0|0:0|3:0|0:0|3:0|0:0|3:0|0:0|3:0|0:0|3:0|0:0|3:0|0:0|3:0|0:0|3:0|0:0|3:0|0:0|3:0|0:0|3:0|0:0|3:0|0:0|3:0|0:0|3:0,0:0:0:0:
241,346,157796,6,0,P|282:316|230:292,1,120,6|2,3:2|0:0,0:0:0:0:
78,327,158081,1,8,0:0:0:0:
302,201,158224,2,0,L|390:202,1,80,2|0,0:0|3:0,0:0:0:0:
261,114,158510,1,2,0:0:0:0:
22,50,158652,2,0,L|102:50,1,80,10|2,0:0|0:0,0:0:0:0:
344,307,158938,6,0,P|385:277|333:253,1,120,2|2,3:2|0:0,0:0:0:0:
181,277,159224,1,8,0:0:0:0:
451,158,159366,2,0,L|508:92,1,80,2|0,0:0|3:0,0:0:0:0:
382,50,159652,1,2,0:0:0:0:
150,47,159795,2,0,L|230:46,1,80,10|2,0:0|0:0,0:0:0:0:
472,305,160081,6,0,P|513:275|461:251,1,120,2|2,0:0|0:0,0:0:0:0:
321,277,160367,1,8,0:0:0:0:
41,303,160510,2,0,L|169:303,2,120,2|2|10,0:0|0:0|0:0,0:0:0:0:
136,273,161080,1,2,0:0:0:0:
360,189,161223,6,0,L|401:117,1,80,2|0,3:2|0:0,0:0:0:0:
125,44,161509,2,0,L|84:116,1,80,10|2,0:0|0:0,0:0:0:0:
365,282,161795,1,2,3:2:0:0:
353,282,161795,1,0,0:0:0:0:
405,282,161866,1,2,0:0:0:0:
393,282,161866,1,0,0:0:0:0:
246,221,161937,1,2,0:0:0:0:
234,221,161937,1,0,0:0:0:0:
206,221,162008,1,2,0:0:0:0:
194,221,162008,1,0,0:0:0:0:
472,242,162081,5,10,0:0:0:0:
460,242,162081,1,0,0:0:0:0:
512,242,162152,1,2,0:0:0:0:
500,242,162152,1,0,0:0:0:0:
357,197,162224,1,2,0:0:0:0:
347,197,162224,1,0,0:0:0:0:
212,152,162295,1,2,0:0:0:0:
202,152,162295,1,0,0:0:0:0:
45,113,162367,6,0,P|-4:66|48:8,1,160,2|8,3:2|0:0,0:0:0:0:
46,8,162653,2,0,L|452:7,1,400,2|0,0:0|0:0,0:0:0:0:
445,7,162796,6,0,P|494:54|442:112,1,160,2|2,0:0|0:0,0:0:0:0:
284,112,163153,1,2,0:0:0:0:
122,112,163224,2,0,P|96:143|123:156,1,80,10|2,0:0|0:0,0:0:0:0:
452,259,163510,6,0,P|501:306|449:364,1,160,2|8,3:2|0:0,0:0:0:0:
451,364,163796,2,0,L|45:365,1,400,2|0,0:0|0:0,0:0:0:0:
52,365,163938,6,0,P|3:318|55:260,1,160,2|2,0:0|0:0,0:0:0:0:
238,247,164296,1,2,0:0:0:0:
420,209,164368,2,0,L|381:205,1,40,10|2,0:0|0:0,0:0:0:0:
158,156,164511,2,0,L|115:160,1,40,2|2,0:0|0:0,0:0:0:0:
317,45,164653,5,2,0:0:0:0:
213,65,164796,1,8,3:0:0:0:
436,25,164939,1,2,0:0:0:0:
132,85,165082,1,2,3:2:0:0:
363,152,165224,2,0,L|395:227,1,80,10|2,0:0|0:0,0:0:0:0:
112,345,165510,2,0,L|80:270,1,80,2|10,3:2|0:0,0:0:0:0:
291,210,165795,5,2,0:0:0:0:
420,189,165938,1,2,3:2:0:0:
197,229,166081,1,2,3:2:0:0:
501,169,166224,1,2,3:2:0:0:
357,114,166367,5,0,3:0:0:0:
345,114,166367,1,0,0:0:0:0:
214,69,166438,1,0,3:0:0:0:
202,69,166438,1,0,0:0:0:0:
59,24,166510,1,0,3:0:0:0:
47,24,166510,1,0,0:0:0:0:
202,69,166582,1,0,3:0:0:0:
212,69,166582,1,0,0:0:0:0:
357,114,166653,5,0,3:0:0:0:
347,114,166653,1,0,0:0:0:0:
512,141,166724,1,2,3:2:0:0:
500,141,166724,1,0,0:0:0:0:
357,179,166796,1,2,3:2:0:0:
347,179,166796,1,0,0:0:0:0:
212,224,166867,1,2,3:2:0:0:
202,224,166867,1,0,0:0:0:0:
16,295,166938,6,0,B|496:295|496:295|16:287|16:287|496:279,1,1440.00005493164,6|0,3:2|0:0,0:0:0:0:
496,280,167223,5,0,3:0:0:0:
16,280,167509,5,0,3:0:0:0:
496,280,167795,5,0,3:0:0:0:
243,140,168081,5,6,0:0:0:0:
459,105,168224,1,2,0:0:0:0:
187,65,168367,1,2,0:0:0:0:
491,35,168510,1,6,0:0:0:0:
256,192,168581,12,0,168938,0:0:0:0:
256,192,168581,12,0,168867,0:0:0:0:
256,192,168581,12,0,168796,0:0:0:0:
256,192,168581,12,0,168724,0:0:0:0:
256,192,168581,12,0,168653,0:0:0:0:
