osu file format v14

[General]
AudioFilename: audio.mp3
AudioLeadIn: 0
PreviewTime: 83009
Countdown: 1
SampleSet: Soft
StackLeniency: 0.5
Mode: 0
LetterboxInBreaks: 0
WidescreenStoryboard: 0

[Editor]
Bookmarks: 86,9932,19778,29624,31316,37009,46855,56701,61624,66547,69009,76393,83778,93624,103470,113316
DistanceSpacing: 1.23
BeatDivisor: 4
GridSize: 8
TimelineZoom: 2.899999

[Metadata]
Title:COCOA WATERSLIDE
TitleUnicode:COCOA WATERSLIDE
Artist:OISHII
ArtistUnicode:OISHII
Creator:Zunv
Version:Extra
Source:
Tags:
BeatmapID:1403216
BeatmapSetID:662954

[Difficulty]
HPDrainRate:5.3
CircleSize:4.3
OverallDifficulty:8.3
ApproachRate:9.3
SliderMultiplier:1.4
SliderTickRate:1

[Events]
//Background and Video events
0,0,"bg.jpg",0,0
//Break Periods
//Storyboard Layer 0 (Background)
//Storyboard Layer 1 (Fail)
//Storyboard Layer 2 (Pass)
//Storyboard Layer 3 (Foreground)
//Storyboard Sound Samples

[TimingPoints]
86,307.692307692308,4,2,0,60,1,0
19778,-71.4285714285714,4,2,0,60,0,0
29624,-142.857142857143,4,2,0,60,0,0
35778,-100,4,2,0,60,0,0
36086,-71.4285714285714,4,2,0,60,0,0
37009,-55.5555555555556,4,2,0,60,0,1
46778,-55.5555555555556,4,2,0,60,0,0
46855,-55.5555555555556,4,2,0,60,0,1
56701,-100,4,2,0,60,0,0
66547,-71.4285714285714,4,2,0,60,0,0
76393,-200,4,2,0,60,0,0
77316,-100,4,2,0,60,0,0
79470,-200,4,2,0,60,0,0
79778,-100,4,2,0,60,0,0
83778,-50,4,2,0,60,0,1
93547,-50,4,2,0,60,0,0
93624,-50,4,2,0,60,0,1
103432,-41.6666666666667,4,2,0,60,0,0
103470,-41.6666666666667,4,2,0,60,0,1
105624,-50,4,2,0,60,0,1
105932,-41.6666666666667,4,2,0,60,0,1
108086,-50,4,2,0,60,0,1
108393,-41.6666666666667,4,2,0,60,0,1
109624,-50,4,2,0,60,0,1
109932,-41.6666666666667,4,2,0,60,0,1
110239,-50,4,2,0,60,0,1
110547,-41.6666666666667,4,2,0,60,0,1
113316,-41.6666666666667,4,2,0,60,0,0

[HitObjects]
332,335,86,5,0,0:0:0:0:
171,353,239,1,0,0:0:0:0:
262,115,393,1,0,0:0:0:0:
244,276,546,1,0,0:0:0:0:
337,192,701,2,0,L|255:201,2,70
480,170,1162,2,0,L|474:219,1,35
399,118,1316,6,0,P|436:84|470:74,1,70
305,100,1624,1,0,0:0:0:0:
480,170,1778,1,0,0:0:0:0:
399,118,1932,2,0,L|408:36,2,70
263,234,2393,2,0,L|268:184,1,35
344,286,2547,6,0,P|307:320|273:330,1,70
119,351,2855,1,0,0:0:0:0:
177,194,3009,1,0,0:0:0:0:
87,251,3162,2,0,L|94:320,1,70
277,162,3470,2,0,L|207:169,1,70
63,144,3701,1,0,0:0:0:0:
98,148,3778,6,0,L|167:155,2,70
0,55,4239,2,0,L|4:97,1,35
19,205,4393,2,0,L|12:274,2,70
132,143,4855,2,0,L|98:147,1,35
198,215,5009,6,0,L|232:218,3,35
107,234,5316,2,0,L|103:268,1,35
185,302,5470,2,0,L|188:338,1,35
69,358,5624,2,0,L|104:355,3,35
21,287,5932,2,0,L|17:252,3,35
59,128,6239,6,0,L|62:93,1,35
107,234,6393,2,0,L|110:268,1,35
286,207,6547,2,0,L|320:203,1,35
180,159,6701,2,0,L|145:155,1,35
256,288,6855,2,0,L|259:322,3,35
72,237,7162,6,0,L|106:233,1,35
141,120,7316,2,0,L|144:154,1,35
196,53,7470,2,0,L|199:18,3,35
60,93,7778,2,0,L|25:89,1,35
226,133,7932,2,0,L|260:129,1,35
60,173,8086,2,0,L|25:176,3,35
173,193,8393,2,0,P|224:215|277:196,1,105
382,181,8701,6,0,L|416:184,3,35
309,110,9009,2,0,L|275:107,3,35
266,236,9316,2,0,L|269:202,3,35
195,309,9624,2,0,L|192:343,3,35
173,193,9932,6,0,L|166:114,2,70
309,110,10393,1,0,0:0:0:0:
218,282,10547,6,0,L|174:332,1,35
347,343,10701,2,0,L|391:393,1,35
329,216,10855,1,0,0:0:0:0:
211,377,11009,1,0,0:0:0:0:
183,378,11086,1,0,0:0:0:0:
157,368,11162,2,0,P|128:336|125:297,1,70
154,133,11470,1,0,0:0:0:0:
194,308,11624,1,0,0:0:0:0:
83,242,11778,6,0,L|39:192,1,35
212,181,11932,2,0,L|256:131,1,35
194,308,12086,1,0,0:0:0:0:
287,83,12239,1,0,0:0:0:0:
306,102,12316,1,0,0:0:0:0:
319,126,12393,2,0,P|323:170|301:212,1,70
121,213,12701,1,0,0:0:0:0:
234,370,12855,1,0,0:0:0:0:
212,181,13009,2,0,P|212:134|179:163,1,105
255,256,13316,2,0,P|221:267|187:265,1,70
313,194,13547,5,0,0:0:0:0:
333,212,13624,2,0,B|350:247|341:282|341:282|374:267|412:278,1,140
377,118,14086,2,0,L|373:84,1,35
378,14,14239,1,0,0:0:0:0:
276,67,14393,1,0,0:0:0:0:
472,92,14547,1,0,0:0:0:0:
260,76,14701,2,0,L|226:80,1,35
70,145,14855,6,0,L|140:153,1,70
271,175,15162,1,0,0:0:0:0:
131,52,15316,1,0,0:0:0:0:
337,121,15470,2,0,P|384:121|355:154,1,105
260,76,15778,2,0,P|249:109|253:147,1,70
302,285,16086,5,0,0:0:0:0:
331,273,16239,1,0,0:0:0:0:
74,336,16393,5,0,0:0:0:0:
45,324,16546,1,0,0:0:0:0:
357,348,16701,6,0,P|389:331|405:296,1,70
447,139,17009,1,0,0:0:0:0:
348,199,17162,1,0,0:0:0:0:
252,143,17316,6,0,L|218:147,1,35
154,93,17470,2,0,L|120:89,1,35
56,142,17624,2,0,L|22:146,1,35
120,195,17778,2,0,L|154:199,1,35
258,312,17932,2,0,P|258:359|225:330,1,105
234,229,18239,2,0,P|271:226|304:241,1,70
146,291,18547,6,0,L|112:295,3,35
50,214,18855,2,0,L|54:180,3,35
67,79,19162,2,0,L|71:45,1,35
120,137,19316,2,0,L|154:141,1,35
178,69,19470,2,0,L|182:35,1,35
231,123,19624,1,0,0:0:0:0:
264,132,19700,1,0,0:0:0:0:
298,128,19778,6,0,P|345:117|399:128,1,97.9999970092774
512,193,20086,1,0,0:0:0:0:
348,252,20239,1,0,0:0:0:0:
486,99,20393,1,0,0:0:0:0:
264,132,20547,2,0,L|197:136,1,48.9999985046387
121,146,20701,1,0,0:0:0:0:
365,156,20855,2,0,L|361:89,1,48.9999985046387
351,13,21009,6,0,P|312:42|258:54,1,97.9999970092774
57,75,21316,1,0,0:0:0:0:
178,223,21470,1,0,0:0:0:0:
160,75,21624,1,0,0:0:0:0:
30,176,21778,2,0,L|97:172,1,48.9999985046387
320,164,21932,2,0,L|253:160,1,48.9999985046387
112,72,22086,2,0,L|160:74,1,48.9999985046387
349,102,22239,6,0,P|386:138|387:188,1,97.9999970092774
282,333,22547,1,0,0:0:0:0:
163,206,22701,1,0,0:0:0:0:
329,235,22855,2,0,P|388:186|364:109,1,146.999995513916
233,140,23162,2,0,P|278:169|338:151,1,97.9999970092774
259,257,23470,6,0,L|192:253,1,48.9999985046387
245,235,23624,2,0,L|178:231,1,48.9999985046387
369,301,23778,2,0,L|417:303,1,48.9999985046387
324,309,23932,1,0,0:0:0:0:
282,333,24008,1,0,0:0:0:0:
233,335,24086,2,0,P|183:326|112:345,1,97.9999970092774
0,384,24393,1,0,0:0:0:0:
115,238,24547,1,0,0:0:0:0:
139,196,24623,1,0,0:0:0:0:
141,147,24701,5,0,0:0:0:0:
65,45,24855,1,0,0:0:0:0:
263,111,25009,1,0,0:0:0:0:
47,169,25162,1,0,0:0:0:0:
245,235,25316,2,0,P|301:233|258:182,1,146.999995513916
192,285,25624,2,0,P|174:226|194:182,1,97.9999970092774
307,50,25932,5,0,0:0:0:0:
335,62,26086,1,0,0:0:0:0:
126,122,26239,1,0,0:0:0:0:
138,94,26393,1,0,0:0:0:0:
343,141,26547,2,0,P|392:119|408:47,1,97.9999970092774
357,228,26855,1,0,0:0:0:0:
512,127,27009,1,0,0:0:0:0:
335,62,27162,2,0,L|268:58,1,48.9999985046387
224,112,27316,2,0,L|175:114,1,48.9999985046387
113,61,27470,2,0,L|46:57,1,48.9999985046387
175,8,27624,2,0,L|223:5,1,48.9999985046387
335,62,27778,2,0,P|391:60|348:9,1,146.999995513916
312,132,28086,2,0,P|371:145|414:132,1,97.9999970092774
512,1,28393,5,0,0:0:0:0:
335,62,28547,1,0,0:0:0:0:
479,180,28701,1,0,0:0:0:0:
430,36,28855,2,0,P|473:58|500:99,1,97.9999970092774
318,45,29162,1,0,0:0:0:0:
406,135,29316,1,0,0:0:0:0:
289,116,29470,1,0,0:0:0:0:
251,85,29546,1,0,0:0:0:0:
237,39,29624,6,0,P|201:6|138:3,1,97.9999970092774
289,116,30239,1,0,0:0:0:0:
83,92,30547,1,0,0:0:0:0:
158,125,30701,1,0,0:0:0:0:
178,146,30778,1,0,0:0:0:0:
207,141,30855,1,0,0:0:0:0:
288,150,31009,1,0,0:0:0:0:
161,35,31162,1,0,0:0:0:0:
125,203,31316,1,0,0:0:0:0:
272,55,31470,6,0,P|316:55|367:93,1,97.9999970092774
465,213,32086,1,0,0:0:0:0:
438,48,32393,2,0,P|444:91|415:147,1,97.9999970092774
346,172,32855,1,0,0:0:0:0:
360,83,33009,2,0,L|305:96,1,48.9999985046387
231,116,33316,5,0,0:0:0:0:
184,131,33469,1,0,0:0:0:0:
147,162,33623,1,0,0:0:0:0:
125,205,33777,1,0,0:0:0:0:
120,254,33931,1,0,0:0:0:0:
135,300,34085,1,0,0:0:0:0:
9,137,34239,5,0,0:0:0:0:
58,183,34392,1,0,0:0:0:0:
124,205,34546,1,0,0:0:0:0:
195,204,34700,1,0,0:0:0:0:
257,173,34854,1,0,0:0:0:0:
305,121,35008,1,0,0:0:0:0:
122,37,35162,5,0,0:0:0:0:
138,128,35315,1,0,0:0:0:0:
195,204,35469,1,0,0:0:0:0:
274,261,35623,1,0,0:0:0:0:
368,277,35778,6,0,L|411:275,3,35
190,284,36086,6,0,L|121:285,1,48.9999985046387
274,261,36239,5,0,0:0:0:0:
276,256,36316,1,0,0:0:0:0:
279,246,36393,1,0,0:0:0:0:
282,231,36470,1,0,0:0:0:0:
284,211,36547,1,0,0:0:0:0:
284,188,36624,1,0,0:0:0:0:
281,163,36701,1,0,0:0:0:0:
272,137,36778,1,0,0:0:0:0:
256,112,36855,1,0,0:0:0:0:
232,89,36932,1,0,0:0:0:0:
191,70,37009,6,0,P|145:68|97:52,1,62.9999980773926
30,36,37162,1,0,0:0:0:0:
27,79,37238,1,0,0:0:0:0:
43,120,37315,1,8,0:0:0:0:
74,150,37392,1,0,0:0:0:0:
116,165,37469,1,0,0:0:0:0:
159,162,37546,1,0,0:0:0:0:
198,139,37624,6,0,P|229:134|261:133,1,62.9999980773926
356,53,37778,1,0,0:0:0:0:
378,98,37854,1,0,0:0:0:0:
381,151,37931,1,8,0:0:0:0:
361,199,38008,1,0,0:0:0:0:
322,236,38085,1,0,0:0:0:0:
273,254,38162,1,0,0:0:0:0:
220,247,38239,2,0,P|188:248|157:253,1,62.9999980773926
48,257,38393,37,0,0:0:0:0:
44,235,38470,1,0,0:0:0:0:
58,219,38547,1,8,0:0:0:0:
35,197,38624,1,0,0:0:0:0:
68,184,38701,1,0,0:0:0:0:
29,164,38778,1,0,0:0:0:0:
70,153,38855,38,0,P|67:113|24:152,1,125.999996154785
163,147,39086,1,0,0:0:0:0:
191,153,39162,2,0,L|253:148,3,62.9999980773926,8|0|0|0,0:0|0:0|0:0|0:0,0:0:0:0:
125,13,39470,6,0,P|127:59|143:107,1,62.9999980773926
163,147,39624,1,0,0:0:0:0:
192,115,39700,1,0,0:0:0:0:
233,100,39777,1,8,0:0:0:0:
276,98,39854,1,0,0:0:0:0:
318,115,39931,1,0,0:0:0:0:
352,141,40008,1,0,0:0:0:0:
373,181,40086,6,0,P|394:203|420:222,1,62.9999980773926
505,117,40239,1,0,0:0:0:0:
483,93,40315,1,0,0:0:0:0:
454,82,40392,1,8,0:0:0:0:
422,81,40469,1,0,0:0:0:0:
392,93,40546,1,0,0:0:0:0:
367,112,40623,1,0,0:0:0:0:
352,141,40701,6,0,P|335:168|314:191,1,62.9999980773926
216,194,40855,21,0,0:0:0:0:
212,216,40932,1,0,0:0:0:0:
226,232,41009,1,8,0:0:0:0:
203,254,41086,1,0,0:0:0:0:
236,267,41163,1,0,0:0:0:0:
197,287,41240,1,0,0:0:0:0:
238,298,41317,38,0,P|235:338|192:299,1,125.999996154785
317,244,41547,1,0,0:0:0:0:
345,238,41624,2,0,L|407:242,3,62.9999980773926,8|0|0|0,0:0|0:0|0:0|0:0,0:0:0:0:
216,170,41932,6,0,L|153:174,1,62.9999980773926,8|0,0:0|0:0,0:0:0:0:
316,114,42086,5,0,0:0:0:0:
338,116,42162,1,0,0:0:0:0:
359,118,42239,2,0,L|421:122,1,62.9999980773926,8|0,0:0|0:0,0:0:0:0:
238,0,42393,5,0,0:0:0:0:
239,23,42470,1,0,0:0:0:0:
241,44,42547,2,0,L|245:106,1,62.9999980773926,8|0,0:0|0:0,0:0:0:0:
58,81,42701,5,0,0:0:0:0:
79,83,42778,1,0,0:0:0:0:
100,85,42855,2,0,L|162:89,1,62.9999980773926,8|0,0:0|0:0,0:0:0:0:
145,276,43009,5,0,0:0:0:0:
147,257,43086,1,0,0:0:0:0:
149,236,43163,2,0,L|153:174,3,62.9999980773926,8|0|0|0,0:0|0:0|0:0|0:0,0:0:0:0:
249,184,43470,6,0,L|311:188,1,62.9999980773926,8|0,0:0|0:0,0:0:0:0:
396,140,43624,2,0,L|458:136,1,62.9999980773926,8|0,0:0|0:0,0:0:0:0:
314,91,43778,6,0,L|252:87,3,62.9999980773926,8|0|0|0,0:0|0:0|0:0|0:0,0:0:0:0:
170,151,44086,5,0,0:0:0:0:
153,118,44162,1,0,0:0:0:0:
148,83,44239,1,0,0:0:0:0:
158,44,44316,1,0,0:0:0:0:
188,6,44393,5,0,0:0:0:0:
263,51,44547,1,0,0:0:0:0:
303,129,44701,1,8,0:0:0:0:
314,216,44855,1,0,0:0:0:0:
294,302,45009,2,0,P|256:353|247:273,1,188.999994232178
368,277,45316,2,0,P|411:278|458:214,1,125.999996154785,8|0,0:0|0:0,0:0:0:0:
436,112,45624,5,0,0:0:0:0:
398,130,45700,1,0,0:0:0:0:
357,138,45777,1,0,0:0:0:0:
315,136,45854,1,0,0:0:0:0:
298,177,45932,5,0,0:0:0:0:
255,172,46008,1,0,0:0:0:0:
215,159,46085,1,0,0:0:0:0:
180,136,46162,1,0,0:0:0:0:
145,164,46239,5,0,0:0:0:0:
113,133,46315,1,0,0:0:0:0:
102,91,46392,1,0,0:0:0:0:
115,49,46469,1,0,0:0:0:0:
148,21,46546,1,0,0:0:0:0:
191,13,46623,1,0,0:0:0:0:
231,29,46700,1,0,0:0:0:0:
257,64,46777,1,0,0:0:0:0:
262,107,46855,6,0,P|264:153|280:201,1,62.9999980773926
349,242,47009,1,0,0:0:0:0:
380,211,47085,1,0,0:0:0:0:
391,169,47162,1,8,0:0:0:0:
378,126,47239,1,0,0:0:0:0:
345,98,47316,1,0,0:0:0:0:
302,91,47393,1,0,0:0:0:0:
262,107,47470,6,0,P|232:117|201:122,1,62.9999980773926
81,169,47624,1,0,0:0:0:0:
106,213,47700,1,0,0:0:0:0:
150,237,47777,1,8,0:0:0:0:
205,236,47854,1,0,0:0:0:0:
246,207,47931,1,0,0:0:0:0:
268,159,48008,1,0,0:0:0:0:
262,107,48086,6,0,P|261:60|275:12,1,62.9999980773926
384,98,48239,1,0,0:0:0:0:
389,123,48316,1,0,0:0:0:0:
368,137,48393,1,8,0:0:0:0:
392,164,48470,1,0,0:0:0:0:
362,179,48547,1,0,0:0:0:0:
382,205,48624,1,0,0:0:0:0:
367,222,48701,22,0,P|349:254|417:263,1,125.999996154785
500,197,48932,1,0,0:0:0:0:
494,153,49009,2,0,L|488:89,3,62.9999980773926,8|0|0|0,0:0|0:0|0:0|0:0,0:0:0:0:
368,137,49316,6,0,P|322:135|274:119,1,62.9999980773926
116,69,49470,1,0,0:0:0:0:
148,40,49546,1,0,0:0:0:0:
190,26,49623,1,8,0:0:0:0:
233,30,49700,1,0,0:0:0:0:
271,52,49777,1,0,0:0:0:0:
297,88,49854,1,0,0:0:0:0:
305,131,49932,6,0,P|303:177|287:225,1,62.9999980773926
252,338,50086,1,0,0:0:0:0:
229,313,50162,1,0,0:0:0:0:
219,281,50239,1,8,0:0:0:0:
222,248,50316,1,0,0:0:0:0:
239,219,50393,1,0,0:0:0:0:
266,199,50470,1,0,0:0:0:0:
299,193,50548,6,0,P|334:194|370:206,1,62.9999980773926
451,287,50701,1,0,0:0:0:0:
446,262,50778,1,0,0:0:0:0:
467,248,50855,1,8,0:0:0:0:
443,221,50932,1,0,0:0:0:0:
473,206,51009,1,0,0:0:0:0:
453,180,51086,1,0,0:0:0:0:
468,163,51162,22,0,P|486:131|416:122,1,125.999996154785
360,202,51393,1,0,0:0:0:0:
363,233,51470,2,0,L|368:295,3,62.9999980773926,8|0|0|0,0:0|0:0|0:0|0:0,0:0:0:0:
181,189,51778,6,0,L|175:126,1,62.9999980773926,8|0,0:0|0:0,0:0:0:0:
274,181,51932,5,0,0:0:0:0:
270,210,52009,1,0,0:0:0:0:
266,241,52086,2,0,L|260:303,1,62.9999980773926,8|0,0:0|0:0,0:0:0:0:
61,204,52239,5,0,0:0:0:0:
88,200,52316,1,0,0:0:0:0:
119,196,52393,2,0,L|181:190,1,62.9999980773926,8|0,0:0|0:0,0:0:0:0:
382,112,52547,5,0,0:0:0:0:
352,109,52624,1,0,0:0:0:0:
321,105,52701,2,0,L|258:99,1,62.9999980773926,8|0,0:0|0:0,0:0:0:0:
56,83,52855,5,0,0:0:0:0:
87,78,52932,1,0,0:0:0:0:
118,74,53009,2,0,L|180:68,3,62.9999980773926,8|0|0|0,0:0|0:0|0:0|0:0,0:0:0:0:
5,146,53316,6,0,L|1:208,1,62.9999980773926,8|0,0:0|0:0,0:0:0:0:
184,131,53470,2,0,L|180:69,1,62.9999980773926,8|0,0:0|0:0,0:0:0:0:
114,223,53624,6,0,L|118:285,3,62.9999980773926,8|0|0|0,0:0|0:0|0:0|0:0,0:0:0:0:
196,228,53932,5,0,0:0:0:0:
222,193,54008,1,0,0:0:0:0:
261,172,54085,1,0,0:0:0:0:
304,171,54162,1,0,0:0:0:0:
344,189,54239,5,0,0:0:0:0:
405,269,54393,1,0,0:0:0:0:
386,354,54547,1,8,0:0:0:0:
328,279,54701,1,0,0:0:0:0:
344,189,54855,2,0,P|382:138|391:218,1,188.999994232178
268,226,55162,2,0,P|225:225|178:289,1,125.999996154785,8|0,0:0|0:0,0:0:0:0:
161,167,55470,6,0,L|150:71,1,62.9999980773926
141,22,55624,1,0,0:0:0:0:
8,126,55778,1,0,0:0:0:0:
154,105,55932,2,0,L|250:116,1,62.9999980773926
300,126,56086,1,0,0:0:0:0:
122,254,56239,1,0,0:0:0:0:
99,216,56315,1,0,0:0:0:0:
88,173,56393,2,0,L|77:77,1,62.9999980773926
67,27,56547,1,0,0:0:0:0:
216,112,56701,5,0,0:0:0:0:
328,49,56855,1,0,0:0:0:0:
391,87,57009,1,0,0:0:0:0:
417,74,57162,2,0,P|474:48|434:135,1,210
286,124,57778,5,0,0:0:0:0:
251,118,57854,1,0,0:0:0:0:
216,112,57931,1,0,0:0:0:0:
0,69,58086,1,0,0:0:0:0:
115,44,58239,1,0,0:0:0:0:
69,102,58393,2,0,P|52:162|131:109,1,210
155,245,59009,5,0,0:0:0:0:
161,280,59086,1,0,0:0:0:0:
167,315,59162,2,0,L|175:397,1,70
254,227,59470,1,0,0:0:0:0:
65,291,59624,1,0,0:0:0:0:
210,151,59778,2,0,P|247:139|306:156,1,70
196,273,60086,2,0,P|184:236|201:177,1,70
197,172,60316,1,0,0:0:0:0:
210,151,60393,5,0,0:0:0:0:
359,54,60547,1,0,0:0:0:0:
368,231,60701,1,0,0:0:0:0:
257,74,60855,2,0,P|220:61|166:75,1,70
41,109,61162,1,0,0:0:0:0:
210,151,61316,2,0,L|276:156,1,35
354,170,61470,1,0,0:0:0:0:
108,191,61624,5,0,0:0:0:0:
312,79,61778,1,0,0:0:0:0:
175,283,61932,1,0,0:0:0:0:
134,91,62086,1,0,0:0:0:0:
266,221,62239,2,0,B|325:219|323:264|393:232,1,105
273,294,62547,2,0,P|235:313|194:312,1,70
39,224,62855,5,0,0:0:0:0:
134,171,63009,1,0,0:0:0:0:
53,384,63162,1,0,0:0:0:0:
0,289,63316,1,0,0:0:0:0:
195,384,63470,2,0,P|229:383|258:364,1,70
353,206,63778,1,0,0:0:0:0:
394,340,63932,1,0,0:0:0:0:
264,260,64086,6,0,L|216:254,1,35
149,298,64239,2,0,L|114:301,1,35
34,259,64393,2,0,L|-13:253,1,35
115,216,64547,2,0,L|150:213,1,35
264,260,64701,2,0,P|308:248|274:214,1,105
346,317,65009,2,0,P|310:336|256:329,1,70
149,298,65316,5,0,0:0:0:0:
382,254,65470,1,0,0:0:0:0:
264,260,65624,1,0,0:0:0:0:
497,304,65778,2,0,L|487:203,1,70
475,88,66086,1,0,0:0:0:0:
424,189,66239,1,0,0:0:0:0:
399,69,66393,1,0,0:0:0:0:
412,37,66469,1,0,0:0:0:0:
440,17,66547,6,0,L|342:26,1,97.9999970092774
185,41,66855,1,0,0:0:0:0:
358,140,67009,1,0,0:0:0:0:
185,239,67162,1,0,0:0:0:0:
254,120,67316,2,0,L|259:168,1,48.9999985046387
275,289,67470,1,0,0:0:0:0:
294,0,67624,2,0,L|245:5,1,48.9999985046387
125,21,67778,2,0,P|160:68|173:134,1,97.9999970092774
145,243,68086,5,0,0:0:0:0:
245,191,68239,1,0,0:0:0:0:
92,161,68393,1,0,0:0:0:0:
245,191,68547,2,0,L|321:197,1,48.9999985046387
444,146,68701,2,0,L|395:142,1,48.9999985046387
171,105,68855,2,0,L|219:101,1,48.9999985046387
497,101,69009,2,0,P|512:147|494:194,1,97.9999970092774
372,295,69316,1,0,0:0:0:0:
245,191,69470,1,0,0:0:0:0:
416,210,69624,2,0,P|492:196|504:114,1,146.999995513916
376,86,69932,2,0,P|403:132|465:143,1,97.9999970092774
224,100,70239,6,0,L|157:104,1,48.9999985046387
210,122,70393,2,0,L|143:126,1,48.9999985046387
283,292,70547,2,0,L|285:340,1,48.9999985046387
350,223,70701,1,0,0:0:0:0:
308,199,70777,1,0,0:0:0:0:
259,197,70855,2,0,P|209:206|138:187,1,97.9999970092774
24,139,71162,1,0,0:0:0:0:
163,80,71316,1,0,0:0:0:0:
210,70,71392,1,0,0:0:0:0:
259,75,71470,6,0,P|309:84|380:65,1,97.9999970092774
512,0,71778,1,0,0:0:0:0:
500,174,71932,1,0,0:0:0:0:
355,76,72086,2,0,P|412:74|373:25,1,146.999995513916
427,156,72393,2,0,P|379:165|333:152,1,97.9999970092774
184,42,72701,5,0,0:0:0:0:
279,95,72855,1,0,0:0:0:0:
24,211,73009,1,0,0:0:0:0:
77,116,73163,1,0,0:0:0:0:
260,176,73316,2,0,P|284:214|357:222,1,97.9999970092774
337,54,73624,2,0,L|332:165,1,97.9999970092774
314,372,73932,2,0,L|309:324,1,48.9999985046387
260,176,74086,2,0,L|254:224,1,48.9999985046387
205,372,74239,2,0,L|199:323,1,48.9999985046387
147,177,74393,2,0,L|141:225,1,48.9999985046387
75,167,74547,2,0,P|109:112|202:122,1,146.999995513916
140,225,74855,2,0,P|103:255|55:258,1,97.9999970092774
305,72,75162,5,0,0:0:0:0:
376,268,75316,1,0,0:0:0:0:
359,136,75470,1,0,0:0:0:0:
288,332,75624,2,0,P|256:287|254:232,1,97.9999970092774
280,54,75932,1,0,0:0:0:0:
351,253,76086,1,0,0:0:0:0:
173,184,76239,1,0,0:0:0:0:
126,194,76315,1,0,0:0:0:0:
98,233,76393,6,0,P|76:263|49:286,1,70
184,80,77009,1,0,0:0:0:0:
196,267,77316,6,0,L|201:341,1,70
261,198,77547,1,0,0:0:0:0:
263,163,77624,2,0,L|267:93,1,70
366,216,77932,1,0,0:0:0:0:
160,176,78086,1,0,0:0:0:0:
349,125,78239,2,0,P|398:129|457:196,1,140
484,360,78855,1,0,0:0:0:0:
366,216,79162,2,0,P|315:222|259:190,1,105
330,130,79470,6,0,L|377:132,1,35
327,44,79778,6,0,L|236:47,1,70
209,59,80086,5,0,0:0:0:0:
174,92,80239,1,0,0:0:0:0:
160,139,80393,1,0,0:0:0:0:
172,186,80547,1,0,0:0:0:0:
205,220,80701,1,0,0:0:0:0:
252,234,80855,1,0,0:0:0:0:
390,279,81009,5,0,0:0:0:0:
372,210,81162,1,0,0:0:0:0:
325,160,81316,1,0,0:0:0:0:
256,140,81470,1,0,0:0:0:0:
189,158,81624,1,0,0:0:0:0:
139,206,81778,1,0,0:0:0:0:
0,309,81932,5,0,0:0:0:0:
93,332,82085,1,0,0:0:0:0:
187,312,82239,1,0,0:0:0:0:
257,242,82393,1,0,0:0:0:0:
282,149,82547,6,0,L|279:109,3,35
378,211,82855,6,0,L|327:214,1,35
420,116,83009,5,0,0:0:0:0:
426,119,83086,1,0,0:0:0:0:
438,125,83162,1,0,0:0:0:0:
454,137,83239,1,0,0:0:0:0:
472,158,83316,1,0,0:0:0:0:
486,190,83393,1,0,0:0:0:0:
488,228,83470,1,0,0:0:0:0:
475,268,83547,1,0,0:0:0:0:
444,302,83624,1,0,0:0:0:0:
398,321,83701,1,0,0:0:0:0:
345,315,83778,6,0,P|299:313|251:297,1,70
231,229,83932,1,0,0:0:0:0:
204,190,84008,1,0,0:0:0:0:
160,170,84085,1,8,0:0:0:0:
121,177,84162,1,0,0:0:0:0:
73,180,84238,1,0,0:0:0:0:
30,157,84315,1,0,0:0:0:0:
11,125,84393,6,0,P|13:79|29:31,1,70
100,99,84547,1,0,0:0:0:0:
140,126,84623,1,0,0:0:0:0:
160,170,84700,1,8,0:0:0:0:
154,218,84777,1,0,0:0:0:0:
165,265,84855,1,0,0:0:0:0:
198,301,84932,1,0,0:0:0:0:
246,313,85009,6,0,P|292:311|340:295,1,70
369,207,85162,37,0,0:0:0:0:
347,211,85239,1,0,0:0:0:0:
331,197,85316,1,8,0:0:0:0:
309,220,85393,1,0,0:0:0:0:
296,187,85470,1,0,0:0:0:0:
276,226,85547,1,0,0:0:0:0:
265,185,85624,38,0,P|221:188|263:235,1,140
291,119,85855,5,0,0:0:0:0:
336,101,85932,2,0,L|417:94,3,70,8|0|0|0,0:0|0:0|0:0|0:0,0:0:0:0:
286,46,86239,6,0,P|251:46|217:51,1,70
126,100,86393,1,0,0:0:0:0:
104,143,86469,1,0,0:0:0:0:
105,191,86546,1,8,0:0:0:0:
130,233,86623,1,0,0:0:0:0:
172,257,86700,1,0,0:0:0:0:
221,258,86777,1,0,0:0:0:0:
263,236,86855,6,0,P|271:201|275:166,1,70
196,165,87009,1,0,0:0:0:0:
206,128,87085,1,0,0:0:0:0:
233,100,87162,1,8,0:0:0:0:
269,88,87239,1,0,0:0:0:0:
307,94,87316,1,0,0:0:0:0:
337,117,87393,1,0,0:0:0:0:
353,151,87470,6,0,P|353:186|359:220,1,70
438,184,87624,37,0,0:0:0:0:
442,206,87701,1,0,0:0:0:0:
428,222,87778,1,8,0:0:0:0:
451,244,87855,1,0,0:0:0:0:
418,257,87932,1,0,0:0:0:0:
457,277,88009,1,0,0:0:0:0:
416,288,88086,38,0,P|419:331|466:289,1,140
358,220,88316,5,0,0:0:0:0:
331,212,88393,2,0,L|250:221,3,70,8|0|0|0,0:0|0:0|0:0|0:0,0:0:0:0:
259,98,88701,6,0,L|268:17,1,70,8|0,0:0|0:0,0:0:0:0:
174,130,88855,5,0,0:0:0:0:
146,126,88932,1,0,0:0:0:0:
118,122,89009,2,0,L|37:113,1,70,8|0,0:0|0:0,0:0:0:0:
127,327,89162,5,0,0:0:0:0:
124,299,89239,1,0,0:0:0:0:
120,271,89316,2,0,L|111:190,1,70,8|0,0:0|0:0,0:0:0:0:
245,258,89470,5,0,0:0:0:0:
243,286,89547,1,0,0:0:0:0:
239,314,89624,2,0,L|230:395,1,70,8|0,0:0|0:0,0:0:0:0:
214,173,89778,5,0,0:0:0:0:
242,169,89855,1,0,0:0:0:0:
270,165,89932,2,0,L|351:156,3,70,8|0|0|0,0:0|0:0|0:0|0:0,0:0:0:0:
209,72,90239,6,0,L|128:63,1,70,8|0,0:0|0:0,0:0:0:0:
69,115,90393,2,0,L|-12:124,1,70,8|0,0:0|0:0,0:0:0:0:
144,165,90547,6,0,L|225:174,3,70,8|0|0|0,0:0|0:0|0:0|0:0,0:0:0:0:
270,284,90855,5,0,0:0:0:0:
285,322,90931,1,0,0:0:0:0:
313,354,91008,1,0,0:0:0:0:
349,375,91085,1,0,0:0:0:0:
390,382,91162,5,0,0:0:0:0:
413,302,91315,1,0,0:0:0:0:
395,221,91469,1,8,0:0:0:0:
340,158,91623,1,0,0:0:0:0:
314,237,91778,2,0,P|249:288|258:205,1,210
257,118,92085,2,0,P|245:53|292:0,1,140,8|0,0:0|0:0,0:0:0:0:
393,85,92393,5,0,0:0:0:0:
412,103,92469,1,0,0:0:0:0:
426,128,92547,2,0,P|430:164|421:200,1,70
273,166,92701,2,0,P|306:154|341:158,1,70
319,245,92855,1,0,0:0:0:0:
294,255,92931,1,0,0:0:0:0:
265,256,93009,2,0,P|228:245|202:221,1,70
302,105,93162,2,0,P|294:139|270:168,1,70
212,102,93316,1,0,0:0:0:0:
217,75,93392,1,0,0:0:0:0:
231,50,93470,2,0,P|260:24|297:15,1,70
125,75,93624,6,0,P|90:75|55:80,1,70
118,184,93778,1,0,0:0:0:0:
157,213,93854,1,0,0:0:0:0:
204,224,93931,1,8,0:0:0:0:
247,221,94009,1,0,0:0:0:0:
295,215,94085,1,0,0:0:0:0:
342,228,94162,1,0,0:0:0:0:
385,250,94239,22,0,P|419:255|454:256,1,70
392,123,94393,1,0,0:0:0:0:
337,113,94469,1,0,0:0:0:0:
285,133,94546,1,8,0:0:0:0:
252,177,94623,1,0,0:0:0:0:
247,221,94701,1,0,0:0:0:0:
234,274,94777,1,0,0:0:0:0:
194,313,94855,38,0,P|160:322|125:328,1,70
155,238,95009,1,0,0:0:0:0:
150,213,95086,1,0,0:0:0:0:
171,199,95162,1,8,0:0:0:0:
147,172,95239,1,0,0:0:0:0:
177,157,95315,1,0,0:0:0:0:
157,131,95393,1,0,0:0:0:0:
172,114,95470,22,0,P|206:85|141:55,1,140
75,110,95701,5,0,0:0:0:0:
59,141,95778,2,0,L|53:210,3,70,8|0|0|0,0:0|0:0|0:0|0:0,0:0:0:0:
155,238,96048,6,0,P|189:246|221:258,1,70
347,336,96239,1,0,0:0:0:0:
400,349,96315,1,0,0:0:0:0:
450,326,96392,1,8,0:0:0:0:
476,277,96469,1,0,0:0:0:0:
466,223,96546,1,0,0:0:0:0:
425,187,96623,1,0,0:0:0:0:
371,183,96701,38,0,P|336:188|301:189,1,70
194,306,96855,1,0,0:0:0:0:
147,313,96931,1,0,0:0:0:0:
104,292,97008,1,8,0:0:0:0:
83,248,97085,1,0,0:0:0:0:
95,201,97162,1,0,0:0:0:0:
131,171,97239,1,0,0:0:0:0:
157,131,97316,22,0,P|162:97|163:62,1,70
85,13,97470,1,0,0:0:0:0:
90,38,97547,1,0,0:0:0:0:
69,52,97624,1,8,0:0:0:0:
93,79,97701,1,0,0:0:0:0:
63,94,97778,1,0,0:0:0:0:
83,120,97855,1,0,0:0:0:0:
68,137,97932,22,0,P|34:166|99:196,1,140
157,131,98162,5,0,0:0:0:0:
188,115,98239,2,0,L|257:109,3,70,8|0|0|0,0:0|0:0|0:0|0:0,0:0:0:0:
184,258,98547,6,0,L|178:327,1,70,8|0,0:0|0:0,0:0:0:0:
261,143,98701,5,0,0:0:0:0:
257,108,98778,1,0,0:0:0:0:
252,74,98855,2,0,L|246:5,1,70,8|0,0:0|0:0,0:0:0:0:
337,192,99009,5,0,0:0:0:0:
333,227,99086,1,0,0:0:0:0:
328,261,99163,2,0,L|322:330,1,70,8|0,0:0|0:0,0:0:0:0:
412,153,99316,5,0,0:0:0:0:
416,118,99393,1,0,0:0:0:0:
421,84,99470,2,0,L|427:15,1,70,8|0,0:0|0:0,0:0:0:0:
288,45,99624,5,0,0:0:0:0:
253,42,99701,1,0,0:0:0:0:
219,37,99778,2,0,L|150:31,3,70,8|0|0|0,0:0|0:0|0:0|0:0,0:0:0:0:
74,191,100086,6,0,L|80:122,1,70,8|0,0:0|0:0,0:0:0:0:
237,296,100239,2,0,L|243:365,1,70,8|0,0:0|0:0,0:0:0:0:
161,244,100393,6,0,L|167:175,3,70,8|0|0|0,0:0|0:0|0:0|0:0,0:0:0:0:
166,93,100701,5,0,0:0:0:0:
138,53,100777,1,0,0:0:0:0:
94,32,100854,1,0,0:0:0:0:
46,37,100931,1,0,0:0:0:0:
7,66,101008,5,0,0:0:0:0:
80,121,101162,1,0,0:0:0:0:
166,93,101316,1,8,0:0:0:0:
238,147,101470,1,0,0:0:0:0:
324,119,101624,2,0,P|406:127|355:63,1,210
238,147,101932,2,0,P|275:208|347:239,1,140,8|0,0:0|0:0,0:0:0:0:
452,349,102239,5,0,0:0:0:0:
438,356,102316,1,0,0:0:0:0:
417,370,102393,1,0,0:0:0:0:
388,378,102470,1,0,0:0:0:0:
354,373,102547,1,0,0:0:0:0:
320,350,102624,1,0,0:0:0:0:
292,314,102701,1,0,0:0:0:0:
285,267,102778,1,0,0:0:0:0:
302,223,102855,6,0,L|363:250,1,35
316,179,102932,2,0,L|381:182,1,35
311,134,103009,2,0,L|371:108,1,35
289,93,103086,2,0,L|331:54,1,35
253,63,103162,2,0,L|270:17,1,35
206,54,103239,2,0,L|204:11,1,35
163,59,103316,2,0,L|136:18,1,35
123,84,103393,2,0,L|86:60,1,35
102,139,103470,6,0,P|99:184|105:229,1,83.9999974365235
180,320,103624,1,0,0:0:0:0:
231,328,103701,1,0,0:0:0:0:
281,305,103778,1,8,0:0:0:0:
297,252,103855,1,0,0:0:0:0:
253,219,103932,1,0,0:0:0:0:
240,271,104009,1,0,0:0:0:0:
281,305,104086,6,0,P|322:307|363:304,1,83.9999974365235
245,147,104239,1,0,0:0:0:0:
194,139,104316,1,0,0:0:0:0:
144,162,104393,1,8,0:0:0:0:
128,215,104470,1,0,0:0:0:0:
172,248,104547,1,0,0:0:0:0:
185,196,104624,1,0,0:0:0:0:
144,162,104701,6,0,P|102:159|61:162,1,83.9999974365235
49,270,104855,37,0,0:0:0:0:
74,274,104932,1,0,0:0:0:0:
93,260,105009,1,8,0:0:0:0:
119,287,105086,1,0,0:0:0:0:
136,250,105163,1,0,0:0:0:0:
157,297,105240,1,0,0:0:0:0:
172,248,105317,38,0,P|223:254|171:307,1,167.999994873047
136,250,105547,5,0,0:0:0:0:
121,222,105624,2,0,L|130:153,3,70,8|0|0|0,0:0|0:0|0:0|0:0,0:0:0:0:
227,101,105932,6,0,P|234:143|238:184,1,83.9999974365235
170,280,106086,1,0,0:0:0:0:
203,333,106162,1,0,0:0:0:0:
266,347,106239,1,0,0:0:0:0:
318,314,106316,1,0,0:0:0:0:
333,253,106393,1,0,0:0:0:0:
301,199,106470,1,0,0:0:0:0:
238,184,106547,6,0,P|197:177|156:164,1,83.9999974365235
64,214,106701,1,0,0:0:0:0:
21,180,106777,1,0,0:0:0:0:
14,124,106854,1,0,0:0:0:0:
48,80,106931,1,0,0:0:0:0:
103,72,107008,1,0,0:0:0:0:
148,107,107085,1,0,0:0:0:0:
156,164,107162,6,0,P|159:206|167:248,1,83.9999974365235
261,324,107316,1,0,0:0:0:0:
252,296,107393,1,0,0:0:0:0:
276,274,107470,1,8,0:0:0:0:
240,245,107547,1,0,0:0:0:0:
274,220,107624,1,0,0:0:0:0:
244,191,107701,1,0,0:0:0:0:
260,167,107778,22,0,P|296:123|209:99,1,167.999994873047
163,173,108009,5,0,0:0:0:0:
140,211,108086,2,0,L|43:218,3,70,8|0|0|0,0:0|0:0|0:0|0:0,0:0:0:0:
260,167,108393,6,0,L|253:84,1,83.9999974365235,8|0,0:0|0:0,0:0:0:0:
163,173,108547,5,0,0:0:0:0:
140,211,108624,1,0,0:0:0:0:
123,253,108701,2,0,L|130:350,1,83.9999974365235,8|0,0:0|0:0,0:0:0:0:
230,312,108855,5,0,0:0:0:0:
271,292,108932,1,0,0:0:0:0:
313,275,109009,2,0,L|410:282,1,83.9999974365235,8|0,0:0|0:0,0:0:0:0:
460,192,109162,5,0,0:0:0:0:
485,230,109239,1,0,0:0:0:0:
502,272,109316,2,0,L|495:369,1,83.9999974365235,8|0,0:0|0:0,0:0:0:0:
396,281,109470,5,0,0:0:0:0:
376,240,109547,1,0,0:0:0:0:
359,198,109624,2,0,L|366:101,3,70,8|0|0|0,0:0|0:0|0:0|0:0,0:0:0:0:
204,74,109932,6,0,L|197:158,1,83.9999974365235,8|0,0:0|0:0,0:0:0:0:
52,243,110086,2,0,L|58:159,1,83.9999974365235,8|0,0:0|0:0,0:0:0:0:
140,298,110239,6,0,L|147:395,3,70,8|0|0|0,0:0|0:0|0:0|0:0,0:0:0:0:
238,262,110547,5,0,0:0:0:0:
205,215,110624,1,0,0:0:0:0:
151,193,110701,1,0,0:0:0:0:
94,203,110778,1,0,0:0:0:0:
52,243,110854,5,0,0:0:0:0:
140,298,111009,1,0,0:0:0:0:
238,262,111162,1,8,0:0:0:0:
326,317,111316,1,0,0:0:0:0:
427,278,111470,2,0,P|421:198|486:242,1,167.999994873047
447,114,111778,2,0,P|368:138|321:206,1,167.999994873047,8|0,0:0|0:0,0:0:0:0:
427,278,112086,5,0,0:0:0:0:
372,301,112162,1,0,0:0:0:0:
313,304,112239,1,0,0:0:0:0:
259,285,112316,1,0,0:0:0:0:
213,247,112393,5,0,0:0:0:0:
271,236,112470,1,0,0:0:0:0:
321,205,112547,1,0,0:0:0:0:
357,161,112624,1,0,0:0:0:0:
375,104,112701,2,0,P|377:53|370:17,1,83.9999974365235
197,67,112855,6,0,P|147:52|115:34,1,83.9999974365235
357,161,113009,2,0,P|404:143|436:124,1,83.9999974365235
124,211,113162,2,0,P|84:177|62:148,1,83.9999974365235
372,301,113316,1,0,0:0:0:0:
