osu file format v14

[General]
AudioFilename: audio.mp3
AudioLeadIn: 0
PreviewTime: 35693
Countdown: 1
SampleSet: Soft
StackLeniency: 0.7
Mode: 0
LetterboxInBreaks: 0
WidescreenStoryboard: 0

[Editor]
DistanceSpacing: 0.8
BeatDivisor: 4
GridSize: 8
TimelineZoom: 1.3

[Metadata]
Title:COCOA WATERSLIDE
TitleUnicode:COCOA WATERSLIDE
Artist:OISHII
ArtistUnicode:OISHII
Creator:ZEduards
Version:150 km/h
Source:
Tags:oishii
BeatmapID:1521176
BeatmapSetID:720493

[Difficulty]
HPDrainRate:4
CircleSize:3.5
OverallDifficulty:7
ApproachRate:9
SliderMultiplier:2
SliderTickRate:1

[Events]
//Background and Video events
0,0,"cocoawaterslide.jpg",0,0
//Break Periods
2,76285,81947
2,103516,111486
//Storyboard Layer 0 (Background)
//Storyboard Layer 1 (Fail)
//Storyboard Layer 2 (Pass)
//Storyboard Layer 3 (Foreground)
//Storyboard Sound Samples

[TimingPoints]
86,307.692307692308,4,2,0,100,1,0
86,-125,4,2,0,100,0,0
9855,-100,4,2,0,100,0,0
29470,-133.333333333333,4,2,0,100,0,0
36162,-100,4,2,0,100,0,0
56624,-125,4,2,0,100,0,0
61393,-100,4,2,0,100,0,0

[HitObjects]
71,202,86,6,0,L|111:106,1,80
239,57,393,1,0,0:0:0:0:
174,224,547,1,0,0:0:0:0:
145,68,701,1,0,0:0:0:0:
226,177,855,1,0,0:0:0:0:
295,52,1009,1,0,0:0:0:0:
369,163,1162,1,0,0:0:0:0:
335,224,1239,1,0,0:0:0:0:
273,260,1316,6,0,P|235:222|205:215,1,80
70,260,1624,5,0,0:0:0:0:
202,42,1778,1,0,0:0:0:0:
315,198,1932,1,0,0:0:0:0:
94,71,2086,1,0,0:0:0:0:
269,73,2239,1,0,0:0:0:0:
182,189,2393,1,0,0:0:0:0:
131,234,2470,1,0,0:0:0:0:
108,300,2547,6,0,P|166:315|202:289,1,80
381,278,2855,1,0,0:0:0:0:
297,78,3009,1,0,0:0:0:0:
154,102,3162,2,0,L|252:132,1,80
316,234,3470,2,0,L|218:264,1,80
174,244,3701,1,0,0:0:0:0:
123,292,3778,6,0,L|221:322,1,80
396,237,4086,1,0,0:0:0:0:
290,111,4239,1,0,0:0:0:0:
255,169,4316,1,0,0:0:0:0:
222,109,4393,1,0,0:0:0:0:
132,60,4547,1,0,0:0:0:0:
363,64,4701,1,0,0:0:0:0:
260,278,4855,1,0,0:0:0:0:
210,233,4932,1,0,0:0:0:0:
186,170,5009,6,0,L|243:102,1,80
90,84,5316,1,0,0:0:0:0:
142,226,5470,1,0,0:0:0:0:
283,290,5624,1,0,0:0:0:0:
402,56,5932,1,0,0:0:0:0:
154,159,6239,5,0,0:0:0:0:
238,50,6393,1,0,0:0:0:0:
325,267,6547,1,0,0:0:0:0:
241,158,6701,1,0,0:0:0:0:
154,332,6855,1,0,0:0:0:0:
46,122,7162,1,0,0:0:0:0:
201,48,7316,1,0,0:0:0:0:
338,80,7470,6,0,B|383:95|407:144|403:144,1,80
423,301,7778,1,0,0:0:0:0:
270,337,7932,1,0,0:0:0:0:
88,335,8086,1,0,0:0:0:0:
176,49,8393,2,0,B|225:88|225:88|222:137|279:179,1,160
256,192,8855,12,0,9778,0:0:0:0:
33,202,9932,5,0,0:0:0:0:
189,43,10085,1,0,0:0:0:0:
325,120,10239,2,0,P|324:174|361:216,1,100
261,270,10547,2,0,P|207:271|167:310,1,100
82,141,10855,1,0,0:0:0:0:
277,40,11009,1,0,0:0:0:0:
240,97,11086,1,0,0:0:0:0:
263,164,11162,6,0,P|244:220|166:231,1,100
76,248,11470,1,0,0:0:0:0:
345,43,11624,1,0,0:0:0:0:
421,202,11778,2,0,P|381:248|317:237,1,100
173,189,12086,1,0,0:0:0:0:
110,108,12239,1,0,0:0:0:0:
74,46,12316,1,0,0:0:0:0:
144,45,12393,6,0,P|202:68|217:127,1,100
414,153,12701,2,0,P|355:176|340:235,1,100
130,113,13009,2,0,B|289:115|299:115|323:146,1,200
130,113,13470,1,0,0:0:0:0:
134,182,13547,1,0,0:0:0:0:
165,244,13624,6,0,P|204:292|348:334,1,200
291,194,14086,1,0,0:0:0:0:
256,136,14163,1,0,0:0:0:0:
223,196,14240,1,0,0:0:0:0:
133,245,14394,1,0,0:0:0:0:
364,241,14548,1,0,0:0:0:0:
256,136,14701,2,0,P|263:164|285:182,1,50
323,125,14855,6,0,P|376:138|402:201,1,100
278,224,15162,1,0,0:0:0:0:
141,322,15316,1,0,0:0:0:0:
45,198,15470,2,0,L|159:198,1,100
388,48,15778,1,0,0:0:0:0:
179,142,16086,6,0,L|241:23,1,100
330,235,16393,2,0,L|268:116,1,100
180,306,16701,2,0,P|236:332|245:389,1,100
412,291,17009,1,0,0:0:0:0:
352,128,17162,1,0,0:0:0:0:
213,43,17316,6,0,P|147:64|125:104,1,100
303,169,17624,1,0,0:0:0:0:
91,213,17778,1,0,0:0:0:0:
355,220,17932,2,0,B|151:218|151:218|294:286,1,350
256,192,18547,12,0,19470,0:0:0:0:
479,202,19778,5,0,0:0:0:0:
323,43,19931,1,0,0:0:0:0:
187,120,20085,2,0,P|188:174|151:216,1,100
251,270,20393,2,0,P|305:271|345:310,1,100
430,141,20701,1,0,0:0:0:0:
235,40,20855,1,0,0:0:0:0:
272,97,20932,1,0,0:0:0:0:
249,164,21008,6,0,P|268:220|346:231,1,100
436,248,21316,1,0,0:0:0:0:
167,43,21470,1,0,0:0:0:0:
91,202,21624,2,0,P|131:248|195:237,1,100
339,189,21932,1,0,0:0:0:0:
402,108,22085,1,0,0:0:0:0:
438,46,22162,1,0,0:0:0:0:
368,45,22239,6,0,P|310:68|295:127,1,100
98,153,22547,2,0,P|157:176|172:235,1,100
382,113,22855,2,0,B|223:115|213:115|189:146,1,200
382,113,23316,1,0,0:0:0:0:
378,182,23393,1,0,0:0:0:0:
347,244,23470,6,0,P|308:292|164:334,1,200
221,194,23932,1,0,0:0:0:0:
256,136,24009,1,0,0:0:0:0:
289,196,24086,1,0,0:0:0:0:
379,245,24240,1,0,0:0:0:0:
148,241,24394,1,0,0:0:0:0:
256,136,24547,2,0,P|253:163|233:175,1,50
189,125,24701,6,0,P|136:138|110:201,1,100
234,224,25008,1,0,0:0:0:0:
371,322,25162,1,0,0:0:0:0:
467,198,25316,2,0,L|353:198,1,100
124,48,25624,1,0,0:0:0:0:
333,142,25932,6,0,L|271:23,1,100
182,235,26239,2,0,L|244:116,1,100
332,306,26547,2,0,P|276:332|267:389,1,100
100,291,26855,1,0,0:0:0:0:
160,128,27008,1,0,0:0:0:0:
299,43,27162,6,0,P|365:64|387:104,1,100
209,169,27470,1,0,0:0:0:0:
421,213,27624,1,0,0:0:0:0:
157,220,27778,2,0,B|361:218|361:218|218:286,1,350
256,192,28393,12,0,29316,0:0:0:0:
32,196,29624,6,0,L|167:196,1,112.500004291535
244,165,29932,1,0,0:0:0:0:
464,141,30239,1,0,0:0:0:0:
161,103,30547,1,0,0:0:0:0:
341,44,30701,1,0,0:0:0:0:
294,93,30778,1,0,0:0:0:0:
270,158,30855,5,0,0:0:0:0:
82,122,31009,1,0,0:0:0:0:
294,93,31162,1,0,0:0:0:0:
457,166,31316,1,0,0:0:0:0:
341,288,31470,2,0,L|206:288,1,112.500004291535
129,257,31778,1,0,0:0:0:0:
378,51,32086,5,0,0:0:0:0:
53,153,32393,6,0,L|188:153,1,112.500004291535
265,184,32701,1,0,0:0:0:0:
467,182,32855,2,0,L|373:182,1,75.0000028610231
167,163,33162,1,0,0:0:0:0:
388,147,33316,5,0,0:0:0:0:
129,182,33470,1,0,0:0:0:0:
388,215,33624,1,0,0:0:0:0:
129,251,33778,1,0,0:0:0:0:
388,283,33932,1,0,0:0:0:0:
84,147,34086,1,0,0:0:0:0:
420,182,34240,1,0,0:0:0:0:
84,215,34394,1,0,0:0:0:0:
420,251,34547,5,0,0:0:0:0:
84,283,34702,1,0,0:0:0:0:
454,147,34855,1,0,0:0:0:0:
65,182,35009,1,0,0:0:0:0:
454,215,35163,1,0,0:0:0:0:
65,251,35317,1,0,0:0:0:0:
454,283,35471,1,0,0:0:0:0:
64,318,35624,1,0,0:0:0:0:
454,347,35778,5,0,0:0:0:0:
416,346,35854,1,0,0:0:0:0:
381,334,35931,1,0,0:0:0:0:
351,311,36008,1,0,0:0:0:0:
329,281,36085,1,0,0:0:0:0:
85,287,36239,1,0,0:0:0:0:
114,246,36315,1,0,0:0:0:0:
155,219,36392,1,0,0:0:0:0:
204,208,36469,1,0,0:0:0:0:
254,209,36546,1,0,0:0:0:0:
303,213,36623,1,0,0:0:0:0:
350,198,36700,1,0,0:0:0:0:
384,162,36777,1,0,0:0:0:0:
389,113,36854,1,0,0:0:0:0:
358,75,36931,1,0,0:0:0:0:
320,58,37009,6,0,P|276:51|247:70,1,50
234,62,37162,1,0,0:0:0:0:
250,108,37238,1,0,0:0:0:0:
250,158,37315,1,0,0:0:0:0:
227,201,37392,1,0,0:0:0:0:
183,223,37469,1,0,0:0:0:0:
136,211,37546,1,0,0:0:0:0:
110,171,37624,2,0,P|119:122|139:106,1,50
145,85,37778,1,0,0:0:0:0:
184,115,37854,1,0,0:0:0:0:
224,146,37931,1,0,0:0:0:0:
265,173,38008,1,0,0:0:0:0:
314,181,38085,1,0,0:0:0:0:
353,153,38162,1,0,0:0:0:0:
367,103,38239,6,0,P|415:113|430:134,1,50
459,138,38393,2,0,L|422:194,1,50
405,222,38547,2,0,L|350:199,1,50
314,181,38701,2,0,L|252:150,1,50
242,255,38855,1,0,0:0:0:0:
132,211,38932,1,0,0:0:0:0:
224,153,39009,2,0,P|268:138|294:152,1,50
242,255,39162,1,0,0:0:0:0:
334,197,39239,2,0,P|378:182|404:196,1,50
461,166,39393,1,0,0:0:0:0:
406,98,39470,6,0,L|296:98,1,100
260,101,39701,1,0,0:0:0:0:
236,144,39777,1,0,0:0:0:0:
195,173,39854,1,0,0:0:0:0:
146,181,39931,1,0,0:0:0:0:
99,167,40008,1,0,0:0:0:0:
79,119,40086,2,0,L|189:119,1,100
200,162,40315,1,0,0:0:0:0:
240,190,40392,1,0,0:0:0:0:
289,198,40469,1,0,0:0:0:0:
336,184,40546,1,0,0:0:0:0:
377,158,40624,1,0,0:0:0:0:
357,136,40701,6,0,L|247:136,1,100
230,175,40932,1,0,0:0:0:0:
209,219,41008,1,0,0:0:0:0:
166,244,41085,1,0,0:0:0:0:
117,239,41162,1,0,0:0:0:0:
80,208,41239,1,0,0:0:0:0:
102,164,41316,2,0,P|112:141|111:117,1,50
127,70,41470,1,0,0:0:0:0:
173,92,41547,1,0,0:0:0:0:
239,104,41624,1,0,0:0:0:0:
287,115,41700,1,0,0:0:0:0:
336,126,41777,1,0,0:0:0:0:
385,137,41854,1,0,0:0:0:0:
437,146,41932,6,0,L|437:202,1,50
445,201,42086,1,0,0:0:0:0:
397,212,42162,1,0,0:0:0:0:
346,216,42239,2,0,L|290:226,1,50
286,270,42393,1,0,0:0:0:0:
238,281,42469,1,0,0:0:0:0:
187,285,42546,2,0,L|135:302,1,50
113,330,42701,1,0,0:0:0:0:
65,341,42777,1,0,0:0:0:0:
82,298,42855,2,0,L|106:245,1,50
140,218,43009,1,0,0:0:0:0:
183,242,43086,1,0,0:0:0:0:
223,220,43162,6,0,L|268:157,1,50
281,140,43316,2,0,L|337:155,1,50
328,125,43470,2,0,L|266:144,1,50
280,110,43624,2,0,L|342:129,1,50
279,77,43778,2,0,B|162:75|154:74|130:119,1,150
121,148,44086,1,0,0:0:0:0:
73,142,44162,1,0,0:0:0:0:
50,100,44239,1,0,0:0:0:0:
73,57,44316,1,0,0:0:0:0:
119,49,44393,6,0,L|222:73,1,100
216,72,44547,2,0,L|113:97,1,100
114,116,44701,2,0,L|216:140,1,100
211,139,44855,2,0,L|108:164,1,100
113,162,45009,2,0,P|281:183|428:291,1,350
439,326,45624,5,0,0:0:0:0:
389,318,45700,1,0,0:0:0:0:
340,308,45777,1,0,0:0:0:0:
292,295,45854,1,0,0:0:0:0:
245,278,45931,1,0,0:0:0:0:
203,251,46008,1,0,0:0:0:0:
194,204,46085,1,0,0:0:0:0:
214,159,46162,1,0,0:0:0:0:
215,110,46239,1,0,0:0:0:0:
179,77,46316,1,0,0:0:0:0:
132,60,46393,1,0,0:0:0:0:
89,65,46470,1,0,0:0:0:0:
94,113,46547,1,0,0:0:0:0:
133,143,46624,1,0,0:0:0:0:
179,162,46700,1,0,0:0:0:0:
227,176,46777,1,0,0:0:0:0:
270,190,46855,6,0,P|320:213|346:267,1,100
179,300,47162,1,0,0:0:0:0:
408,180,47316,1,0,0:0:0:0:
217,54,47470,2,0,P|276:117|272:167,1,100
123,278,47778,1,0,0:0:0:0:
358,93,47932,1,0,0:0:0:0:
132,66,48086,6,0,P|89:112|97:179,1,100
89,191,48316,1,0,0:0:0:0:
137,201,48392,1,0,0:0:0:0:
187,197,48469,1,0,0:0:0:0:
233,178,48546,1,0,0:0:0:0:
271,146,48623,1,0,0:0:0:0:
297,108,48701,1,0,0:0:0:0:
314,63,48778,2,0,P|352:74|364:115,1,50
385,122,48932,1,0,0:0:0:0:
416,130,49009,2,0,P|454:141|466:182,1,50
487,189,49163,1,0,0:0:0:0:
314,62,49316,6,0,L|170:61,1,100
90,169,49624,1,0,0:0:0:0:
234,291,49778,1,0,0:0:0:0:
154,126,49932,2,0,L|298:125,1,100
378,233,50240,1,0,0:0:0:0:
234,355,50394,1,0,0:0:0:0:
316,189,50547,6,0,L|172:188,1,100
370,328,50855,1,0,0:0:0:0:
68,184,51009,1,0,0:0:0:0:
228,91,51162,2,0,P|249:78|260:56,1,50
310,42,51316,1,0,0:0:0:0:
438,185,51470,1,0,0:0:0:0:
218,128,51624,1,0,0:0:0:0:
67,62,51778,2,0,L|122:94,1,50
158,108,51932,1,0,0:0:0:0:
360,112,52086,2,0,L|305:144,1,50
269,158,52240,1,0,0:0:0:0:
73,176,52393,2,0,L|128:208,1,50
164,222,52547,1,0,0:0:0:0:
319,276,52701,2,0,B|352:254|350:222,1,50
328,190,52855,1,0,0:0:0:0:
303,147,52932,1,0,0:0:0:0:
263,115,53009,2,0,B|251:127|214:114,1,50
179,149,53162,2,0,B|191:160|178:197,1,50
207,237,53316,2,0,B|218:224|255:237,1,50
291,202,53469,2,0,B|278:190|291:153,1,50
309,52,53624,2,0,B|150:54|140:54|116:85,1,200
227,280,54086,1,0,0:0:0:0:
371,67,54239,6,0,L|268:91,1,100
274,90,54393,2,0,L|377:115,1,100
376,134,54547,2,0,L|274:158,1,100
279,157,54701,2,0,L|382:182,1,100
377,180,54855,2,0,P|209:201|62:309,1,350
65,277,55470,2,0,L|67:64,1,200
137,122,55855,1,0,0:0:0:0:
252,71,55932,2,0,L|305:95,1,50
380,142,56086,1,0,0:0:0:0:
450,288,56239,1,0,0:0:0:0:
253,147,56393,2,0,L|200:171,1,50
125,218,56547,1,0,0:0:0:0:
441,202,56701,6,0,L|401:106,1,80
273,57,57008,1,0,0:0:0:0:
338,224,57162,1,0,0:0:0:0:
367,68,57316,1,0,0:0:0:0:
286,177,57470,1,0,0:0:0:0:
217,52,57624,1,0,0:0:0:0:
143,163,57777,1,0,0:0:0:0:
177,224,57854,1,0,0:0:0:0:
239,260,57931,6,0,P|277:222|307:215,1,80
442,260,58239,5,0,0:0:0:0:
310,42,58393,1,0,0:0:0:0:
197,198,58547,1,0,0:0:0:0:
418,71,58701,1,0,0:0:0:0:
243,73,58854,1,0,0:0:0:0:
330,189,59008,1,0,0:0:0:0:
381,234,59085,1,0,0:0:0:0:
404,300,59162,6,0,P|346:315|310:289,1,80
131,278,59470,1,0,0:0:0:0:
215,78,59624,1,0,0:0:0:0:
358,102,59777,2,0,L|260:132,1,80
196,234,60085,2,0,L|294:264,1,80
338,244,60316,1,0,0:0:0:0:
389,292,60393,6,0,L|291:322,1,80
116,237,60701,1,0,0:0:0:0:
222,111,60854,1,0,0:0:0:0:
257,169,60931,1,0,0:0:0:0:
290,109,61008,1,0,0:0:0:0:
380,60,61162,1,0,0:0:0:0:
149,64,61316,1,0,0:0:0:0:
189,125,61624,6,0,P|136:138|110:201,1,100
234,224,61931,1,0,0:0:0:0:
371,322,62085,1,0,0:0:0:0:
467,198,62239,2,0,L|353:198,1,100
124,48,62547,1,0,0:0:0:0:
333,142,62855,6,0,L|271:23,1,100
182,235,63162,2,0,L|244:116,1,100
332,306,63470,2,0,P|276:332|267:389,1,100
100,291,63778,1,0,0:0:0:0:
160,128,63931,1,0,0:0:0:0:
299,43,64085,6,0,P|365:64|387:104,1,100
209,169,64393,1,0,0:0:0:0:
421,213,64547,1,0,0:0:0:0:
157,220,64701,2,0,B|361:218|361:218|218:286,1,350
256,192,65316,12,0,66239,0:0:0:0:
33,202,66547,5,0,0:0:0:0:
189,43,66700,1,0,0:0:0:0:
325,120,66854,2,0,P|324:174|361:216,1,100
261,270,67162,2,0,P|207:271|167:310,1,100
82,141,67470,1,0,0:0:0:0:
277,40,67624,1,0,0:0:0:0:
240,97,67701,1,0,0:0:0:0:
263,164,67777,6,0,P|244:220|166:231,1,100
76,248,68085,1,0,0:0:0:0:
345,43,68239,1,0,0:0:0:0:
421,202,68393,2,0,P|381:248|317:237,1,100
173,189,68701,1,0,0:0:0:0:
110,108,68854,1,0,0:0:0:0:
74,46,68931,1,0,0:0:0:0:
144,45,69008,6,0,P|202:68|217:127,1,100
414,153,69316,2,0,P|355:176|340:235,1,100
130,113,69624,2,0,B|289:115|299:115|323:146,1,200
130,113,70085,1,0,0:0:0:0:
134,182,70162,1,0,0:0:0:0:
165,244,70239,6,0,P|204:292|348:334,1,200
291,194,70701,1,0,0:0:0:0:
256,136,70778,1,0,0:0:0:0:
223,196,70855,1,0,0:0:0:0:
133,245,71009,1,0,0:0:0:0:
364,241,71163,1,0,0:0:0:0:
256,136,71316,2,0,P|259:163|279:175,1,50
323,125,71470,6,0,P|376:138|402:201,1,100
278,224,71777,1,0,0:0:0:0:
141,322,71931,1,0,0:0:0:0:
45,198,72085,2,0,L|159:198,1,100
388,48,72393,1,0,0:0:0:0:
179,142,72701,6,0,L|241:23,1,100
330,235,73008,2,0,L|268:116,1,100
180,306,73316,2,0,P|236:332|245:389,1,100
412,291,73624,1,0,0:0:0:0:
352,128,73777,1,0,0:0:0:0:
213,43,73931,6,0,P|147:64|125:104,1,100
303,169,74239,1,0,0:0:0:0:
91,213,74393,1,0,0:0:0:0:
355,220,74547,2,0,B|151:218|151:218|294:286,1,350
256,192,75162,12,0,76085,0:0:0:0:
58,347,82547,5,0,0:0:0:0:
96,346,82623,1,0,0:0:0:0:
131,334,82700,1,0,0:0:0:0:
161,311,82777,1,0,0:0:0:0:
183,281,82854,1,0,0:0:0:0:
427,287,83008,1,0,0:0:0:0:
398,246,83084,1,0,0:0:0:0:
357,219,83161,1,0,0:0:0:0:
308,208,83238,1,0,0:0:0:0:
258,209,83315,1,0,0:0:0:0:
209,213,83392,1,0,0:0:0:0:
162,198,83469,1,0,0:0:0:0:
128,162,83546,1,0,0:0:0:0:
123,113,83623,1,0,0:0:0:0:
154,75,83700,1,0,0:0:0:0:
192,58,83778,6,0,P|236:51|265:70,1,50
278,62,83931,1,0,0:0:0:0:
262,108,84007,1,0,0:0:0:0:
262,158,84084,1,0,0:0:0:0:
285,201,84161,1,0,0:0:0:0:
329,223,84238,1,0,0:0:0:0:
376,211,84315,1,0,0:0:0:0:
402,171,84393,2,0,P|393:122|373:106,1,50
367,85,84547,1,0,0:0:0:0:
328,115,84623,1,0,0:0:0:0:
288,146,84700,1,0,0:0:0:0:
247,173,84777,1,0,0:0:0:0:
198,181,84854,1,0,0:0:0:0:
159,153,84931,1,0,0:0:0:0:
145,103,85008,6,0,P|97:113|82:134,1,50
53,138,85162,2,0,L|90:194,1,50
107,222,85316,2,0,L|162:199,1,50
198,181,85470,2,0,L|260:150,1,50
270,255,85624,1,0,0:0:0:0:
380,211,85701,1,0,0:0:0:0:
288,153,85778,2,0,P|244:138|218:152,1,50
270,255,85931,1,0,0:0:0:0:
178,197,86008,2,0,P|134:182|108:196,1,50
51,166,86162,1,0,0:0:0:0:
106,98,86239,6,0,L|216:98,1,100
252,101,86470,1,0,0:0:0:0:
276,144,86546,1,0,0:0:0:0:
317,173,86623,1,0,0:0:0:0:
366,181,86700,1,0,0:0:0:0:
413,167,86777,1,0,0:0:0:0:
433,119,86855,2,0,L|323:119,1,100
312,162,87084,1,0,0:0:0:0:
272,190,87161,1,0,0:0:0:0:
223,198,87238,1,0,0:0:0:0:
176,184,87315,1,0,0:0:0:0:
135,158,87393,1,0,0:0:0:0:
155,136,87470,6,0,L|265:136,1,100
282,175,87701,1,0,0:0:0:0:
303,219,87777,1,0,0:0:0:0:
346,244,87854,1,0,0:0:0:0:
395,239,87931,1,0,0:0:0:0:
432,208,88008,1,0,0:0:0:0:
410,164,88085,2,0,P|400:141|401:117,1,50
385,70,88239,1,0,0:0:0:0:
339,92,88316,1,0,0:0:0:0:
273,104,88393,1,0,0:0:0:0:
225,115,88469,1,0,0:0:0:0:
176,126,88546,1,0,0:0:0:0:
127,137,88623,1,0,0:0:0:0:
75,146,88701,6,0,L|75:202,1,50
67,201,88855,1,0,0:0:0:0:
115,212,88931,1,0,0:0:0:0:
166,216,89008,2,0,L|222:226,1,50
226,270,89162,1,0,0:0:0:0:
274,281,89238,1,0,0:0:0:0:
325,285,89315,2,0,L|377:302,1,50
399,330,89470,1,0,0:0:0:0:
447,341,89546,1,0,0:0:0:0:
430,298,89624,2,0,L|406:245,1,50
372,218,89778,1,0,0:0:0:0:
329,242,89855,1,0,0:0:0:0:
289,220,89931,6,0,L|244:157,1,50
231,140,90085,2,0,L|175:155,1,50
184,125,90239,2,0,L|246:144,1,50
232,110,90393,2,0,L|170:129,1,50
233,77,90547,2,0,B|350:75|358:74|382:119,1,150
391,148,90855,1,0,0:0:0:0:
439,142,90931,1,0,0:0:0:0:
462,100,91008,1,0,0:0:0:0:
439,57,91085,1,0,0:0:0:0:
393,49,91162,6,0,L|290:73,1,100
296,72,91316,2,0,L|399:97,1,100
398,116,91470,2,0,L|296:140,1,100
301,139,91624,2,0,L|404:164,1,100
399,162,91778,2,0,P|231:183|84:291,1,350
73,326,92393,5,0,0:0:0:0:
123,318,92469,1,0,0:0:0:0:
172,308,92546,1,0,0:0:0:0:
220,295,92623,1,0,0:0:0:0:
267,278,92700,1,0,0:0:0:0:
309,251,92777,1,0,0:0:0:0:
318,204,92854,1,0,0:0:0:0:
298,159,92931,1,0,0:0:0:0:
297,110,93008,1,0,0:0:0:0:
333,77,93085,1,0,0:0:0:0:
380,60,93162,1,0,0:0:0:0:
423,65,93239,1,0,0:0:0:0:
418,113,93316,1,0,0:0:0:0:
379,143,93393,1,0,0:0:0:0:
333,162,93469,1,0,0:0:0:0:
285,176,93546,1,0,0:0:0:0:
242,190,93624,6,0,P|192:213|166:267,1,100
333,300,93931,1,0,0:0:0:0:
104,180,94085,1,0,0:0:0:0:
295,54,94239,2,0,P|236:117|240:167,1,100
389,278,94547,1,0,0:0:0:0:
154,93,94701,1,0,0:0:0:0:
380,66,94855,6,0,P|423:112|415:179,1,100
423,191,95085,1,0,0:0:0:0:
375,201,95161,1,0,0:0:0:0:
325,197,95238,1,0,0:0:0:0:
279,178,95315,1,0,0:0:0:0:
241,146,95392,1,0,0:0:0:0:
215,108,95470,1,0,0:0:0:0:
198,63,95547,2,0,P|160:74|148:115,1,50
127,122,95701,1,0,0:0:0:0:
96,130,95778,2,0,P|58:141|46:182,1,50
25,189,95932,1,0,0:0:0:0:
198,62,96085,6,0,L|342:61,1,100
422,169,96393,1,0,0:0:0:0:
278,291,96547,1,0,0:0:0:0:
358,126,96701,2,0,L|214:125,1,100
134,233,97009,1,0,0:0:0:0:
278,355,97163,1,0,0:0:0:0:
196,189,97316,6,0,L|340:188,1,100
142,328,97624,1,0,0:0:0:0:
444,184,97778,1,0,0:0:0:0:
284,91,97931,2,0,P|263:78|252:56,1,50
202,42,98085,1,0,0:0:0:0:
74,185,98239,1,0,0:0:0:0:
294,128,98393,1,0,0:0:0:0:
445,62,98547,2,0,L|390:94,1,50
354,108,98701,1,0,0:0:0:0:
152,112,98855,2,0,L|207:144,1,50
243,158,99009,1,0,0:0:0:0:
439,176,99162,2,0,L|384:208,1,50
348,222,99316,1,0,0:0:0:0:
193,276,99470,2,0,B|160:254|162:222,1,50
184,190,99624,1,0,0:0:0:0:
209,147,99701,1,0,0:0:0:0:
249,115,99778,2,0,B|260:127|297:114,1,50
333,149,99931,2,0,B|320:160|333:197,1,50
305,237,100085,2,0,B|293:224|256:237,1,50
221,202,100238,2,0,B|233:190|220:153,1,50
203,52,100393,2,0,B|362:54|372:54|396:85,1,200
285,280,100855,1,0,0:0:0:0:
141,67,101008,6,0,L|244:91,1,100
238,90,101162,2,0,L|135:115,1,100
136,134,101316,2,0,L|238:158,1,100
233,157,101470,2,0,L|130:182,1,100
135,180,101624,2,0,P|303:201|450:309,1,350
447,277,102239,2,0,L|445:64,1,200
375,122,102624,1,0,0:0:0:0:
260,71,102701,2,0,L|207:95,1,50
132,142,102855,1,0,0:0:0:0:
62,288,103008,1,0,0:0:0:0:
259,147,103162,2,0,L|312:171,1,50
387,218,103316,1,0,0:0:0:0:
256,192,112086,12,0,113239,0:0:0:0:
255,190,113316,5,0,0:0:0:0:
