osu file format v14

[General]
AudioFilename: audio.mp3
AudioLeadIn: 0
PreviewTime: 53778
Countdown: 0
SampleSet: Soft
StackLeniency: 0.3
Mode: 0
LetterboxInBreaks: 0
WidescreenStoryboard: 0

[Editor]
DistanceSpacing: 1
BeatDivisor: 4
GridSize: 32
TimelineZoom: 1.3

[Metadata]
Title:Secret Garden
TitleUnicode:비밀정원
Artist:OH MY GIRL
ArtistUnicode:오마이걸
Creator:TmacBoris
Version:Hard
Source:
Tags:WM Entertainment LOEN Entertainment Hyojung 효정 Mimi 미미 YooA 유아 Seunghee 승희 Jiho 지호 Binnie 비니 Arin 아린 kpop k-pop FunnyA machspeed
BeatmapID:1526863
BeatmapSetID:721485

[Difficulty]
HPDrainRate:5
CircleSize:4
OverallDifficulty:5
ApproachRate:7
SliderMultiplier:1.8
SliderTickRate:1

[Events]
//Background and Video events
Video,0,"[MV] OH MY GIRL Secret Garden.avi"
0,0,"secret garden.jpg",0,0
//Break Periods
2,92064,99778
2,199692,203164
//Storyboard Layer 0 (Background)
//Storyboard Layer 1 (Fail)
//Storyboard Layer 2 (Pass)
//Storyboard Layer 3 (Foreground)
//Storyboard Sound Samples

[TimingPoints]
14350,571.428571428571,4,2,1,50,1,0
14350,-125,4,2,1,50,0,0
22350,-105.263157894737,4,2,1,50,0,0
23492,-100,4,2,1,60,0,0
32635,-95.2380952380952,4,2,1,60,0,0
33207,-95.2380952380952,4,2,2,60,0,0
40635,-100,4,2,1,60,0,0
41778,-111.111111111111,4,2,1,50,0,0
46349,-90.9090909090909,4,2,1,60,0,0
47207,-100,4,2,1,60,0,0
48635,-90.9090909090909,4,2,1,60,0,0
50921,-86.9565217391304,4,2,1,70,0,0
54635,-111.111111111111,4,2,1,50,0,0
54921,-111.111111111111,4,2,1,70,0,0
55492,-95.2380952380952,4,2,1,80,0,1
62349,-105.263157894737,4,2,1,80,0,1
64635,-100,4,2,1,80,0,1
69207,-83.3333333333333,4,2,1,80,0,1
70064,-90.9090909090909,4,2,1,80,0,1
71492,-86.9565217391304,4,2,1,80,0,1
73778,-95.2380952380952,4,2,1,80,0,1
80635,-105.263157894737,4,2,1,80,0,1
82921,-100,4,2,1,80,0,1
87492,-90.9090909090909,4,2,1,80,0,1
89778,-125,4,2,1,70,0,0
101207,-100,4,2,1,60,0,0
110349,-95.2380952380952,4,2,1,60,0,0
110921,-95.2380952380952,4,2,2,60,0,0
118349,-100,4,2,1,60,0,0
119492,-111.111111111111,4,2,1,50,0,0
124064,-90.9090909090909,4,2,1,60,0,0
124921,-100,4,2,1,60,0,0
126349,-90.9090909090909,4,2,1,60,0,0
128635,-86.9565217391304,4,2,1,70,0,0
132349,-111.111111111111,4,2,1,50,0,0
132635,-111.111111111111,4,2,1,70,0,0
133207,-95.2380952380952,4,2,1,80,0,1
140064,-105.263157894737,4,2,1,80,0,1
142349,-100,4,2,1,80,0,1
146921,-83.3333333333333,4,2,1,80,0,1
147778,-90.9090909090909,4,2,1,80,0,1
149207,-86.9565217391304,4,2,1,80,0,1
151492,-95.2380952380952,4,2,1,80,0,1
158349,-105.263157894737,4,2,1,80,0,1
160635,-100,4,2,1,80,0,1
165207,-90.9090909090909,4,2,1,80,0,1
167492,-100,4,2,1,80,0,1
169778,-100,4,2,1,70,0,0
178921,-111.111111111111,4,2,1,50,0,0
188064,-111.111111111111,4,2,1,60,0,0
189207,-100,4,2,1,60,0,0
192635,-95.2380952380952,4,2,1,60,0,0
194921,-90.9090909090909,4,2,1,60,0,0
197207,-86.9565217391304,4,2,1,70,0,0
199492,-100,4,2,1,60,0,0
204064,-142.857142857143,4,2,2,50,0,0
204635,-142.857142857143,4,2,1,50,0,0
210921,-125,4,2,1,50,0,0
213207,-111.111111111111,4,2,1,60,0,0
213778,-111.111111111111,4,2,1,60,0,0
217207,-100,4,2,1,60,0,0
221492,-100,4,2,1,60,0,0
221778,-100,4,2,1,70,0,0
222349,-95.2380952380952,4,2,1,80,0,1
229207,-105.263157894737,4,2,1,80,0,1
231492,-100,4,2,1,80,0,1
236064,-90.9090909090909,4,2,1,80,0,1
238349,-100,4,2,1,80,0,1
240635,-105.263157894737,4,2,1,70,0,0
247492,-100,4,2,1,70,0,0
249021,-100,4,2,1,60,0,0
250349,-100,4,2,1,50,0,0
250921,-100,4,2,1,40,0,0
251492,-100,4,2,1,30,0,0
252064,-100,4,2,1,20,0,0
252635,-100,4,2,1,10,0,0
253207,-100,4,2,1,5,0,0

[Colours]
Combo1 : 255,128,255
Combo2 : 0,128,0
Combo3 : 0,0,64
Combo4 : 220,220,220

[HitObjects]
463,240,14350,6,0,L|354:231,1,108,6|0,0:0|0:0,0:0:0:0:
280,307,15207,2,0,L|171:298,1,108,2|0,0:0|0:0,0:0:0:0:
66,279,16064,2,0,P|85:234|115:204,1,72,8|0,0:0|0:0,0:0:0:0:
158,175,16635,5,2,0:0:0:0:
114,77,17064,1,2,0:0:0:0:
221,100,17492,2,0,L|332:90,1,108,2|0,0:0|0:0,0:0:0:0:
437,91,18350,2,0,P|426:138|402:172,1,72,8|0,0:0|0:0,0:0:0:0:
370,215,18921,5,2,0:0:0:0:
267,245,19350,1,2,0:0:0:0:
258,138,19778,2,0,P|203:127|152:160,1,108,2|0,0:0|0:0,0:0:0:0:
99,241,20635,1,8,0:0:0:0:
171,242,20921,1,2,0:0:0:0:
244,241,21207,6,0,P|226:290|179:314,2,108,2|2|2,0:0|0:0|0:0,0:0:0:0:
253,113,22492,5,2,0:0:0:0:
294,100,22634,1,2,0:0:0:0:
336,101,22777,1,2,0:0:0:0:
377,113,22921,2,0,L|385:206,1,85.4999977169037,2|2,0:0|0:0,0:0:0:0:
424,291,23492,6,0,P|382:303|322:290,1,90,6|0,0:3|0:3,0:3:0:0:
283,287,23921,1,0,0:3:0:0:
231,271,24064,2,0,P|189:251|157:204,1,90,2|0,0:3|0:3,0:3:0:0:
139,111,24635,2,0,L|177:137,1,45,2|0,0:3|0:3,0:3:0:0:
312,224,25207,1,2,0:3:0:0:
267,125,25492,1,0,0:3:0:0:
174,68,25778,5,2,0:3:0:0:
334,43,26207,1,0,0:3:0:0:
334,43,26349,1,2,0:3:0:0:
417,111,26635,1,0,0:3:0:0:
437,217,26921,2,0,P|435:237|422:264,1,45,2|0,0:3|0:3,0:3:0:0:
272,314,27492,2,0,P|316:310|372:293,1,90,2|0,0:3|0:3,0:3:0:0:
362,189,28064,6,0,P|311:180|266:194,1,90,2|0,0:3|0:3,0:3:0:0:
226,213,28492,1,0,0:3:0:0:
226,213,28635,2,0,P|200:163|157:138,2,90,2|0|2,0:3|0:3|0:3,0:3:0:0:
231,266,29349,1,0,0:3:0:0:
69,275,29778,2,0,P|75:232|95:176,1,90,2|0,0:3|0:3,0:3:0:0:
134,89,30349,5,2,0:3:0:0:
232,45,30635,2,0,P|259:50|289:62,1,45,0|0,0:3|0:3,0:3:0:0:
317,90,30921,2,0,P|308:138|278:174,1,90,2|0,0:3|0:3,0:3:0:0:
226,261,31492,2,0,P|240:279|268:296,1,45,2|2,0:3|0:0,0:3:0:0:
361,322,31921,1,2,0:3:0:0:
361,322,32064,2,0,P|411:289|419:245,1,90,2|2,0:0|0:3,0:3:0:0:
431,148,32635,6,0,L|286:134,1,141.749995674133,6|0,0:3|0:3,0:3:0:0:
232,133,33207,2,0,P|162:201|210:264,1,188.999994232178,10|2,0:3|0:3,0:3:0:0:
259,277,33921,1,0,0:3:0:0:
418,336,34349,2,0,P|394:341|365:342,1,47.2499985580445,10|0,0:3|0:3,0:3:0:0:
201,330,34921,6,0,P|250:306|277:225,1,141.749995674133,2|0,0:3|0:3,0:3:0:0:
273,170,35492,2,0,P|274:112|297:83,1,94.4999971160889,10|0,0:3|0:3,0:3:0:0:
338,47,35921,1,0,0:3:0:0:
338,47,36064,2,0,L|397:50,1,47.2499985580445,2|0,0:3|0:3,0:3:0:0:
464,200,36635,1,10,0:3:0:0:
464,200,36921,1,0,0:3:0:0:
479,87,37207,6,0,P|403:104|356:169,1,141.749995674133,2|0,0:3|0:3,0:3:0:0:
349,205,37778,1,10,0:3:0:0:
310,311,38064,1,0,0:3:0:0:
176,265,38349,2,0,P|163:296|143:319,2,47.2499985580445,2|0|0,0:3|0:3|0:3,0:3:0:0:
212,157,38921,1,10,0:3:0:0:
212,157,39207,2,0,L|159:161,1,47.2499985580445,0|0,0:3|0:3,0:3:0:0:
108,159,39492,6,0,P|96:90|163:73,1,141.749995674133,2|0,0:3|0:3,0:3:0:0:
209,72,40064,1,10,0:3:0:0:
318,100,40349,1,0,0:3:0:0:
374,192,40635,5,2,0:3:0:0:
334,204,40777,1,2,0:0:0:0:
291,199,40920,1,2,0:0:0:0:
253,179,41063,1,2,0:3:0:0:
226,145,41207,2,0,P|207:101|215:58,1,90,2|2,0:0|0:3,0:3:0:0:
117,50,41778,6,0,P|107:100|132:171,1,121.499996292114,6|8,0:3|0:1,0:3:0:0:
162,199,42349,2,0,P|205:220|279:221,1,121.499996292114,8|8,0:1|0:1,0:1:0:0:
371,193,43064,1,8,0:1:0:0:
457,148,43349,2,0,L|454:195,1,40.4999987640381,10|8,0:1|0:1,0:1:0:0:
454,287,43778,2,0,L|474:287,2,20.2499993820191,10|8|8,0:1|0:1|0:1,0:1:0:0:
405,283,44064,5,10,0:1:0:0:
325,338,44349,2,0,P|311:312|309:283,1,40.4999987640381,8|8,0:1|0:1,0:1:0:0:
305,252,44635,1,8,0:1:0:0:
302,154,44921,2,0,L|349:144,1,40.4999987640381,8|8,0:1|0:1,0:1:0:0:
414,81,45349,1,8,0:1:0:0:
414,81,45492,2,0,B|393:75|393:75|363:75,1,40.4999987640381,10|8,0:1|0:1,0:1:0:0:
322,75,45778,2,0,L|272:79,3,40.4999987640381,10|10|10|10,0:1|0:1|0:1|0:1,0:1:0:0:
219,92,46349,6,8,P|179:168|264:199,1,198.000006042481,10|10,0:1|0:1,0:1:0:0:
363,161,47207,5,8,0:1:0:0:
363,161,47349,1,8,0:1:0:0:
363,161,47492,2,8,P|446:202|345:292,1,270,10|10,0:1|0:1,0:1:0:0:
233,290,48635,6,8,L|120:280,1,99.0000030212403,10|10,0:1|0:1,0:1:0:0:
44,203,49207,2,8,L|142:211,1,99.0000030212403,10|10,0:1|0:1,0:1:0:0:
261,220,49778,5,10,0:1:0:0:
292,181,49920,1,10,0:1:0:0:
307,134,50063,1,10,0:1:0:0:
305,85,50206,1,10,0:1:0:0:
296,36,50349,2,8,L|246:36,3,49.5000015106202,10|10|10|10,0:1|0:1|0:1|0:1,0:1:0:0:
185,39,50921,6,0,B|173:99|173:99|197:167,1,103.500001974106,4|2,1:3|0:3,0:3:0:0:
344,195,51492,2,0,B|284:182|284:182|216:206,1,103.500001974106,0|2,1:3|0:3,0:3:0:0:
168,229,51921,1,2,0:3:0:0:
221,293,52064,2,0,B|249:236|249:236|242:165,1,103.500001974106,0|2,1:3|0:3,0:3:0:0:
234,113,52492,2,0,B|174:100|174:100|106:124,1,103.500001974106,0|2,1:3|0:3,0:3:0:0:
56,142,52921,1,0,1:3:0:0:
49,48,54635,5,2,0:3:0:0:
80,47,54777,1,2,0:3:0:0:
111,47,54921,2,0,P|143:67|118:109,1,80.9999975280763,0|0,1:3|0:3,0:3:0:0:
49,177,55492,6,0,P|24:234|87:324,1,141.749995674133,6|0,0:3|0:3,0:3:0:0:
99,336,56064,2,0,P|137:348|200:344,1,94.499997116089,8|0,0:3|0:3,0:3:0:0:
277,272,56635,2,0,P|239:259|176:263,1,94.499997116089,2|0,0:3|0:3,0:3:0:0:
72,280,57207,2,0,L|75:233,1,47.2499985580445,8|0,0:3|0:3,0:3:0:0:
43,187,57492,2,0,L|46:139,1,47.2499985580445,2|0,0:3|0:3,0:3:0:0:
56,82,57778,6,0,P|77:41|124:23,1,94.499997116089,2|0,0:3|0:3,0:3:0:0:
232,32,58349,2,0,P|265:63|276:109,1,94.499997116089,8|0,0:3|0:3,0:3:0:0:
219,208,58921,2,0,L|193:252,2,47.2499985580445,2|8|0,0:3|0:3|0:3,0:3:0:0:
276,110,59492,1,8,0:3:0:0:
333,208,59778,1,2,0:3:0:0:
390,109,60064,6,0,P|428:144|445:188,2,94.499997116089,2|0|8,0:3|0:3|0:3,0:3:0:0:
276,110,60921,1,0,0:3:0:0:
161,110,61207,2,0,P|124:145|107:189,1,94.499997116089,2|0,0:3|0:3,0:3:0:0:
107,297,61778,1,8,0:3:0:0:
205,240,62064,1,2,0:3:0:0:
206,353,62349,6,0,B|248:358|245:323|286:334,1,85.4999977169037,2|0,0:3|0:3,0:3:0:0:
366,269,62921,2,0,B|323:273|326:238|285:250,1,85.4999977169037,8|0,0:3|0:3,0:3:0:0:
185,233,63492,1,2,0:3:0:0:
185,233,63635,1,8,0:3:0:0:
269,175,63921,1,2,0:3:0:0:
269,175,64064,1,8,0:3:0:0:
176,132,64349,1,2,0:3:0:0:
73,97,64635,6,0,P|103:50|148:26,1,90,2|0,0:3|0:3,0:3:0:0:
239,35,65207,2,0,L|351:44,1,90,8|0,0:3|0:3,0:3:0:0:
436,54,65778,1,2,0:3:0:0:
375,143,66064,1,0,0:3:0:0:
424,238,66349,2,0,L|320:247,1,90,8|2,0:3|0:3,0:3:0:0:
225,252,66921,6,0,P|182:248|154:214,1,90,2|0,0:3|0:3,0:3:0:0:
192,143,67492,2,0,P|188:187|153:214,1,90,8|0,0:3|0:3,0:3:0:0:
83,175,68063,2,0,P|126:179|154:213,1,90,2|0,0:3|0:3,0:3:0:0:
116,285,68635,2,0,P|119:241|154:214,1,90,8|2,0:3|0:3,0:3:0:0:
252,218,69207,6,0,P|283:297|211:240,1,215.999993408203,2|8,0:3|0:3,0:3:0:0:
220,146,70064,1,0,0:3:0:0:
225,97,70206,1,0,0:3:0:0:
254,57,70349,2,0,L|315:62,2,49.5000015106202,2|0|0,0:3|0:3|0:3,0:3:0:0:
139,23,70921,2,0,L|142:74,1,49.5000015106202,8|0,0:3|0:3,0:3:0:0:
110,117,71206,2,0,L|113:167,1,49.5000015106202,2|0,0:3|0:3,0:3:0:0:
68,211,71492,6,0,L|92:257,3,51.7500009870529,2|0|0|0,0:3|0:3|0:3|0:3,0:3:0:0:
80,318,72064,2,0,L|123:345,3,51.7500009870529,8|0|0|0,0:3|0:3|0:3|0:3,0:3:0:0:
185,349,72635,1,2,0:3:0:0:
185,349,72778,1,8,0:3:0:0:
293,287,73064,1,2,0:3:0:0:
293,287,73207,1,8,0:3:0:0:
185,225,73492,1,2,0:3:0:0:
73,204,73778,6,0,P|48:147|111:57,1,141.749995674133,6|0,0:3|0:3,0:3:0:0:
123,45,74350,2,0,P|161:33|224:37,1,94.499997116089,8|0,0:3|0:3,0:3:0:0:
301,109,74921,2,0,P|263:122|200:118,1,94.499997116089,2|0,0:3|0:3,0:3:0:0:
96,101,75493,2,0,L|99:148,1,47.2499985580445,8|0,0:3|0:3,0:3:0:0:
67,194,75778,2,0,L|70:242,1,47.2499985580445,2|0,0:3|0:3,0:3:0:0:
80,299,76064,6,0,P|101:340|145:358,1,94.499997116089,2|0,0:3|0:3,0:3:0:0:
256,349,76635,2,0,P|289:318|300:272,1,94.499997116089,8|0,0:3|0:3,0:3:0:0:
243,173,77207,2,0,L|217:129,2,47.2499985580445,2|8|0,0:3|0:3|0:3,0:3:0:0:
300,271,77778,1,8,0:3:0:0:
357,173,78064,1,2,0:3:0:0:
414,272,78350,6,0,P|452:237|469:193,2,94.499997116089,2|0|8,0:3|0:3|0:3,0:3:0:0:
300,271,79207,1,0,0:3:0:0:
185,271,79493,2,0,P|148:236|131:192,1,94.499997116089,2|0,0:3|0:3,0:3:0:0:
131,84,80064,1,8,0:3:0:0:
229,141,80350,1,2,0:3:0:0:
230,28,80635,6,0,B|272:23|269:58|310:47,1,85.4999977169037,2|0,0:3|0:3,0:3:0:0:
390,112,81207,2,0,B|347:108|350:143|309:131,1,85.4999977169037,8|0,0:3|0:3,0:3:0:0:
209,148,81778,1,2,0:3:0:0:
209,148,81921,1,8,0:3:0:0:
293,206,82207,1,2,0:3:0:0:
293,206,82350,1,8,0:3:0:0:
200,249,82635,1,2,0:3:0:0:
97,284,82921,6,0,P|127:331|172:355,1,90,2|0,0:3|0:3,0:3:0:0:
263,346,83493,2,0,L|375:337,1,90,8|0,0:3|0:3,0:3:0:0:
460,327,84064,1,2,0:3:0:0:
399,238,84350,1,0,0:3:0:0:
448,143,84635,2,0,L|344:134,1,90,8|2,0:3|0:3,0:3:0:0:
250,119,85207,6,0,P|245:163|211:190,1,90,2|0,0:3|0:3,0:3:0:0:
230,268,85778,2,0,P|274:272|302:314,1,90,8|0,0:3|0:3,0:3:0:0:
380,292,86349,2,0,P|385:248|427:219,1,90,2|0,0:3|0:3,0:3:0:0:
400,141,86921,2,0,P|356:136|327:94,1,90,8|2,0:3|0:3,0:3:0:0:
229,29,87492,6,0,P|174:65|145:171,1,148.50000453186,2|0,0:3|0:3,0:3:0:0:
143,199,88064,2,0,P|162:261|256:318,1,148.50000453186,8|0,0:3|0:3,0:3:0:0:
284,310,88635,2,0,L|337:305,3,49.5000015106202,2|0|0|0,0:3|0:3|0:3|0:3,0:3:0:0:
383,273,89207,2,0,L|417:231,3,49.5000015106202,8|0|2|0,0:3|0:3|0:3|0:3,0:3:0:0:
426,176,89778,5,6,0:3:0:0:
88,93,101207,6,0,P|130:81|190:94,1,90,6|0,0:3|0:3,0:3:0:0:
229,97,101636,1,0,0:3:0:0:
281,113,101779,2,0,P|323:133|355:180,1,90,2|0,0:3|0:3,0:3:0:0:
373,273,102350,2,0,L|335:247,1,45,2|0,0:3|0:3,0:3:0:0:
200,160,102922,1,2,0:3:0:0:
245,259,103207,1,0,0:3:0:0:
338,316,103493,5,2,0:3:0:0:
178,341,103922,1,0,0:3:0:0:
178,341,104064,1,2,0:3:0:0:
95,273,104350,1,0,0:3:0:0:
75,167,104636,2,0,P|77:147|90:120,1,45,2|0,0:3|0:3,0:3:0:0:
240,70,105207,2,0,P|196:74|140:91,1,90,2|0,0:3|0:3,0:3:0:0:
150,195,105779,6,0,P|201:204|246:190,1,90,2|0,0:3|0:3,0:3:0:0:
286,171,106207,1,0,0:3:0:0:
286,171,106350,2,0,P|312:221|355:246,2,90,2|0|2,0:3|0:3|0:3,0:3:0:0:
281,118,107064,1,0,0:3:0:0:
443,109,107493,2,0,P|437:152|417:208,1,90,2|0,0:3|0:3,0:3:0:0:
378,295,108064,5,2,0:3:0:0:
280,339,108350,2,0,P|253:334|223:322,1,45,0|0,0:3|0:3,0:3:0:0:
195,294,108636,2,0,P|204:246|234:210,1,90,2|0,0:3|0:3,0:3:0:0:
286,123,109207,2,0,P|272:105|244:88,1,45,2|0,0:3|0:3,0:3:0:0:
151,62,109636,1,2,0:3:0:0:
151,62,109778,2,0,P|101:95|93:139,1,90,0|2,0:3|0:3,0:3:0:0:
81,236,110350,6,0,L|226:250,1,141.749995674133,6|0,0:3|0:3,0:3:0:0:
280,251,110922,2,0,P|350:183|302:120,1,188.999994232178,10|2,0:3|0:3,0:3:0:0:
253,107,111636,1,0,0:3:0:0:
94,48,112064,2,0,P|118:43|147:42,1,47.2499985580445,10|0,0:3|0:3,0:3:0:0:
311,54,112636,6,0,P|262:78|235:159,1,141.749995674133,2|0,0:3|0:3,0:3:0:0:
239,214,113207,2,0,P|238:272|215:301,1,94.4999971160889,10|0,0:3|0:3,0:3:0:0:
174,337,113636,1,0,0:3:0:0:
174,337,113779,2,0,L|115:334,1,47.2499985580445,2|0,0:3|0:3,0:3:0:0:
48,184,114350,1,10,0:3:0:0:
48,184,114636,1,0,0:3:0:0:
33,297,114922,6,0,P|109:280|156:215,1,141.749995674133,2|0,0:3|0:3,0:3:0:0:
163,179,115493,1,10,0:3:0:0:
202,73,115779,1,0,0:3:0:0:
336,119,116064,2,0,P|349:88|369:65,2,47.2499985580445,2|0|0,0:3|0:3|0:3,0:3:0:0:
300,227,116636,1,10,0:3:0:0:
300,227,116922,2,0,L|353:223,1,47.2499985580445,0|0,0:3|0:3,0:3:0:0:
404,225,117207,6,0,P|416:294|349:311,1,141.749995674133,2|0,0:3|0:3,0:3:0:0:
303,312,117778,1,10,0:3:0:0:
194,284,118064,1,0,0:3:0:0:
138,192,118350,5,2,0:3:0:0:
178,180,118492,1,2,0:0:0:0:
221,185,118635,1,2,0:0:0:0:
259,205,118778,1,2,0:3:0:0:
286,239,118922,2,0,P|305:283|297:326,1,90,2|2,0:0|0:3,0:3:0:0:
395,334,119493,6,0,P|405:284|380:213,1,121.499996292114,6|8,0:3|0:1,0:1:0:0:
350,185,120064,2,0,P|307:164|233:163,1,121.499996292114,8|8,0:1|0:1,0:1:0:0:
141,191,120779,1,8,0:1:0:0:
55,236,121064,2,0,L|58:189,1,40.4999987640381,10|8,0:1|0:1,0:1:0:0:
58,97,121493,2,0,L|38:97,2,20.2499993820191,10|8|8,0:1|0:1|0:1,0:1:0:0:
107,101,121779,5,10,0:1:0:0:
187,46,122064,2,0,P|201:72|203:101,1,40.4999987640381,8|8,0:1|0:1,0:1:0:0:
207,132,122350,1,8,0:1:0:0:
210,230,122636,2,0,L|163:240,1,40.4999987640381,8|8,0:1|0:1,0:1:0:0:
98,303,123064,1,8,0:1:0:0:
98,303,123207,2,0,B|119:309|119:309|149:309,1,40.4999987640381,10|8,0:1|0:1,0:1:0:0:
190,309,123493,2,0,L|240:305,3,40.4999987640381,10|10|10|10,0:1|0:1|0:1|0:1,0:1:0:0:
293,292,124064,6,0,P|333:216|248:185,1,198.000006042481,10|10,0:1|0:1,0:1:0:0:
149,223,124922,5,8,0:1:0:0:
149,223,125064,1,8,0:1:0:0:
149,223,125207,2,0,P|66:182|167:92,1,270,10|10,0:1|0:1,0:1:0:0:
279,94,126350,6,0,L|392:104,1,99.0000030212403,10|10,0:1|0:1,0:1:0:0:
468,181,126922,2,0,L|370:173,1,99.0000030212403,10|10,0:1|0:1,0:1:0:0:
251,164,127492,5,10,0:1:0:0:
220,203,127634,1,10,0:1:0:0:
205,250,127777,1,10,0:1:0:0:
207,299,127920,1,10,0:1:0:0:
216,348,128063,2,0,L|266:348,3,49.5000015106202,10|10|10|10,0:1|0:1|0:1|0:1,0:1:0:0:
327,345,128635,6,0,B|339:285|339:285|315:217,1,103.500001974106,4|2,1:3|0:3,0:3:0:0:
168,189,129206,2,0,B|228:202|228:202|296:178,1,103.500001974106,0|2,1:3|0:3,0:3:0:0:
344,155,129635,1,2,0:3:0:0:
291,91,129778,2,0,B|263:148|263:148|270:219,1,103.500001974106,0|2,1:3|0:3,0:3:0:0:
278,271,130206,2,0,B|338:284|338:284|406:260,1,103.500001974106,0|2,1:3|0:3,0:3:0:0:
456,242,130635,1,0,1:3:0:0:
463,336,132349,5,2,0:3:0:0:
432,337,132491,1,2,0:3:0:0:
401,337,132635,2,0,P|369:317|394:275,1,80.9999975280763,0|0,1:3|0:3,0:3:0:0:
463,207,133207,6,0,P|488:150|425:60,1,141.749995674133,6|0,0:3|0:3,0:3:0:0:
413,48,133778,2,0,P|375:36|312:40,1,94.499997116089,8|0,0:3|0:3,0:3:0:0:
235,112,134349,2,0,P|273:125|336:121,1,94.499997116089,2|0,0:3|0:3,0:3:0:0:
440,104,134921,2,0,L|437:151,1,47.2499985580445,8|0,0:3|0:3,0:3:0:0:
469,197,135206,2,0,L|466:245,1,47.2499985580445,2|0,0:3|0:3,0:3:0:0:
456,302,135492,6,0,P|435:343|388:361,1,94.499997116089,2|0,0:3|0:3,0:3:0:0:
280,352,136063,2,0,P|247:321|236:275,1,94.499997116089,8|0,0:3|0:3,0:3:0:0:
293,176,136635,2,0,L|319:132,2,47.2499985580445,2|8|0,0:3|0:3|0:3,0:3:0:0:
236,274,137206,1,8,0:3:0:0:
179,176,137492,1,2,0:3:0:0:
122,275,137778,6,0,P|84:240|67:196,2,94.499997116089,2|0|8,0:3|0:3|0:3,0:3:0:0:
236,274,138635,1,0,0:3:0:0:
351,274,138921,2,0,P|388:239|405:195,1,94.499997116089,2|0,0:3|0:3,0:3:0:0:
405,87,139492,1,8,0:3:0:0:
307,144,139778,1,2,0:3:0:0:
306,31,140064,6,0,B|264:26|267:61|226:50,1,85.4999977169037,2|0,0:3|0:3,0:3:0:0:
146,115,140635,2,0,B|189:111|186:146|227:134,1,85.4999977169037,8|0,0:3|0:3,0:3:0:0:
327,151,141206,1,2,0:3:0:0:
327,151,141349,1,8,0:3:0:0:
243,209,141635,1,2,0:3:0:0:
243,209,141778,1,8,0:3:0:0:
336,252,142063,1,2,0:3:0:0:
439,287,142349,6,0,P|409:334|364:358,1,90,2|0,0:3|0:3,0:3:0:0:
273,349,142921,2,0,L|161:340,1,90,8|0,0:3|0:3,0:3:0:0:
76,330,143492,1,2,0:3:0:0:
137,241,143778,1,0,0:3:0:0:
88,146,144063,2,0,L|192:137,1,90,8|2,0:3|0:3,0:3:0:0:
286,132,144635,6,0,P|330:136|358:171,1,90,2|0,0:3|0:3,0:3:0:0:
318,239,145206,2,0,P|322:196|357:169,1,90,8|0,0:3|0:3,0:3:0:0:
428,207,145778,2,0,P|385:203|357:169,1,90,2|0,0:3|0:3,0:3:0:0:
394,96,146349,2,0,P|390:140|356:168,1,90,8|2,0:3|0:3,0:3:0:0:
260,166,146921,6,0,P|229:87|301:144,1,215.999993408203,2|8,0:3|0:3,0:3:0:0:
292,238,147778,1,0,0:3:0:0:
287,287,147920,1,0,0:3:0:0:
258,327,148063,2,0,L|197:322,2,49.5000015106202,2|0|0,0:3|0:3|0:3,0:3:0:0:
373,361,148635,2,0,L|370:310,1,49.5000015106202,8|0,0:3|0:3,0:3:0:0:
402,267,148921,2,0,L|399:217,1,49.5000015106202,2|0,0:3|0:3,0:3:0:0:
444,173,149207,6,0,L|420:127,3,51.7500009870529,2|0|0|0,0:3|0:3|0:3|0:3,0:3:0:0:
432,66,149778,2,0,L|389:39,3,51.7500009870529,8|0|0|0,0:3|0:3|0:3|0:3,0:3:0:0:
327,35,150349,1,2,0:3:0:0:
327,35,150492,1,8,0:3:0:0:
219,97,150778,1,2,0:3:0:0:
219,97,150921,1,8,0:3:0:0:
327,159,151206,1,2,0:3:0:0:
439,180,151492,6,0,P|464:237|401:327,1,141.749995674133,6|0,0:3|0:3,0:3:0:0:
389,339,152064,2,0,P|351:351|288:347,1,94.499997116089,8|0,0:3|0:3,0:3:0:0:
211,275,152635,2,0,P|249:262|312:266,1,94.499997116089,2|0,0:3|0:3,0:3:0:0:
416,283,153207,2,0,L|413:236,1,47.2499985580445,8|0,0:3|0:3,0:3:0:0:
445,190,153492,2,0,L|442:142,1,47.2499985580445,2|0,0:3|0:3,0:3:0:0:
432,85,153778,6,0,P|411:44|367:26,1,94.499997116089,2|0,0:3|0:3,0:3:0:0:
256,35,154349,2,0,P|223:66|212:112,1,94.499997116089,8|0,0:3|0:3,0:3:0:0:
269,211,154921,2,0,L|295:255,2,47.2499985580445,2|8|0,0:3|0:3|0:3,0:3:0:0:
212,113,155492,1,8,0:3:0:0:
155,211,155778,1,2,0:3:0:0:
98,112,156064,6,0,P|60:147|43:191,2,94.499997116089,2|0|8,0:3|0:3|0:3,0:3:0:0:
212,113,156921,1,0,0:3:0:0:
327,113,157207,2,0,P|364:148|381:192,1,94.499997116089,2|0,0:3|0:3,0:3:0:0:
381,300,157778,1,8,0:3:0:0:
283,243,158064,1,2,0:3:0:0:
282,356,158349,6,0,B|240:361|243:326|202:337,1,85.4999977169037,2|0,0:3|0:3,0:3:0:0:
122,272,158921,2,0,B|165:276|162:241|203:253,1,85.4999977169037,8|0,0:3|0:3,0:3:0:0:
303,236,159492,1,2,0:3:0:0:
303,236,159635,1,8,0:3:0:0:
219,178,159921,1,2,0:3:0:0:
219,178,160064,1,8,0:3:0:0:
312,135,160349,1,2,0:3:0:0:
415,100,160635,6,0,P|385:53|340:29,1,90,2|0,0:3|0:3,0:3:0:0:
249,38,161207,2,0,L|137:47,1,90,8|0,0:3|0:3,0:3:0:0:
52,57,161778,1,2,0:3:0:0:
113,146,162064,1,0,0:3:0:0:
64,241,162349,2,0,L|168:250,1,90,8|2,0:3|0:3,0:3:0:0:
262,265,162921,6,0,P|267:221|301:194,1,90,2|0,0:3|0:3,0:3:0:0:
286,114,163492,2,0,P|242:110|214:68,1,90,8|0,0:3|0:3,0:3:0:0:
135,89,164063,2,0,P|130:133|88:162,1,90,2|0,0:3|0:3,0:3:0:0:
111,240,164635,2,0,P|155:245|184:287,1,90,8|2,0:3|0:3,0:3:0:0:
303,309,165207,6,0,P|346:259|347:150,1,148.50000453186,2|0,0:3|0:3,0:3:0:0:
342,123,165778,2,0,P|307:68|202:37,1,148.50000453186,8|0,0:3|0:3,0:3:0:0:
177,52,166349,2,0,L|127:70,3,49.5000015106202,2|0|0|0,0:3|0:3|0:3|0:3,0:3:0:0:
91,113,166921,2,0,L|69:162,3,49.5000015106202,8|0|2|0,0:3|0:3|0:3|0:3,0:3:0:0:
79,212,167492,6,0,L|97:260,1,45,2|0,0:3|0:3,0:3:0:0:
136,289,167778,2,0,L|184:310,1,45,0|0,0:3|0:3,0:3:0:0:
229,319,168064,2,0,P|280:315|322:286,1,90,8|0,0:3|0:3,0:3:0:0:
329,244,168492,1,0,0:3:0:0:
344,193,168635,2,0,P|390:170|441:174,1,90,2|0,0:3|0:3,0:3:0:0:
467,207,169064,1,0,0:3:0:0:
462,260,169207,2,0,P|417:291|366:291,1,90,8|2,0:3|0:3,0:3:0:0:
276,247,169778,6,0,P|321:191|428:184,2,180,2|8|2,0:3|0:3|0:3,0:3:0:0:
217,348,171207,1,0,0:3:0:0:
217,348,171492,1,8,0:3:0:0:
217,348,171778,2,0,L|322:338,1,90,2|2,0:3|0:3,0:3:0:0:
414,325,172349,1,0,0:3:0:0:
504,263,172635,1,8,0:3:0:0:
411,191,172921,2,0,P|368:176|323:171,1,90,0|2,0:3|0:3,0:3:0:0:
185,174,173492,5,0,0:3:0:0:
192,129,173634,1,0,0:3:0:0:
215,91,173778,2,0,L|257:68,3,45,8|2|2|2,0:3|0:3|0:3|0:3,0:3:0:0:
305,48,174349,6,0,P|354:41|382:3,2,90,8|2|2,0:3|0:3|0:3,0:3:0:0:
187,46,175207,2,0,P|162:80|173:123,1,90,8|2,0:3|0:3,0:3:0:0:
287,151,175778,2,0,P|276:193|247:228,1,90,8|2,0:3|0:3,0:3:0:0:
157,304,176349,2,0,L|165:202,1,90,8|2,0:3|0:3,0:3:0:0:
170,96,176921,5,8,0:3:0:0:
269,160,177207,1,8,0:3:0:0:
235,48,177492,1,2,0:3:0:0:
292,58,177635,2,0,L|356:69,1,45,8|0,0:3|0:3,0:3:0:0:
392,83,177921,2,0,P|436:112|456:157,1,90,8|0,0:3|0:3,0:3:0:0:
456,202,178349,1,8,0:3:0:0:
456,246,178491,1,8,0:3:0:0:
438,287,178634,1,8,0:3:0:0:
404,317,178777,1,8,0:3:0:0:
362,330,178921,6,0,L|281:322,2,80.9999975280763,6|0|2,0:3|0:3|0:3,0:3:0:0:
446,154,180064,2,0,P|413:130|374:118,1,80.9999975280763,2|0,0:3|0:3,0:3:0:0:
289,166,180635,2,0,L|280:70,1,80.9999975280763,8|0,0:3|0:3,0:3:0:0:
204,25,181207,6,0,P|165:16|126:25,1,80.9999975280763,2|0,0:3|0:3,0:3:0:0:
127,122,181778,2,0,P|166:113|205:122,1,80.9999975280763,2|0,0:3|0:3,0:3:0:0:
205,220,182349,2,0,P|165:210|126:219,1,80.9999975280763,2|0,0:3|0:3,0:3:0:0:
79,304,182921,1,8,0:3:0:0:
176,303,183207,1,2,0:3:0:0:
249,365,183492,6,0,P|268:330|271:290,1,80.9999975280763,2|0,0:3|0:3,0:3:0:0:
208,215,184064,2,0,P|243:195|283:192,1,80.9999975280763,2|0,0:3|0:3,0:3:0:0:
356,256,184635,2,0,P|375:220|378:180,1,80.9999975280763,2|0,0:3|0:3,0:3:0:0:
360,84,185207,1,8,0:3:0:0:
268,53,185492,5,6,0:3:0:0:
159,214,186064,1,2,0:3:0:0:
320,321,186635,1,2,0:3:0:0:
429,162,187207,1,2,0:3:0:0:
470,249,187492,1,8,0:3:0:0:
375,241,187778,2,0,L|334:237,1,40.4999987640381,0|0,0:3|0:3,0:3:0:0:
285,232,188064,6,0,B|251:227|251:227|244:239|244:239|211:234,1,80.9999975280763,6|0,0:3|0:3,0:3:0:0:
114,223,188635,2,0,L|17:214,1,80.9999975280763,8|0,0:3|0:3,0:3:0:0:
45,108,189207,2,0,L|138:116,1,90,2|0,0:3|0:3,0:3:0:0:
243,128,189778,1,8,0:3:0:0:
200,28,190064,1,2,0:3:0:0:
307,32,190349,6,0,P|352:55|378:97,1,90,2|0,0:3|0:3,0:3:0:0:
482,98,190921,2,0,P|437:121|411:163,1,90,8|0,0:3|0:3,0:3:0:0:
307,166,191492,2,0,P|352:189|378:231,1,90,2|0,0:3|0:3,0:3:0:0:
341,322,192064,1,8,0:3:0:0:
235,363,192349,1,2,0:3:0:0:
121,365,192635,6,0,P|73:341|53:299,1,94.499997116089,2|0,0:3|0:3,0:3:0:0:
45,192,193207,2,0,P|47:143|73:106,1,94.499997116089,2|0,0:3|0:3,0:3:0:0:
184,87,193778,2,0,P|165:44|125:10,2,94.499997116089,2|0|2,0:3|0:3|0:3,0:3:0:0:
186,200,194635,1,2,0:3:0:0:
375,172,194921,5,2,0:3:0:0:
271,116,195207,1,2,0:3:0:0:
355,290,195492,5,2,0:3:0:0:
237,306,195778,1,2,0:3:0:0:
338,368,196064,5,2,0:3:0:0:
387,368,196206,1,2,0:3:0:0:
431,346,196349,1,2,0:3:0:0:
459,306,196492,1,2,0:3:0:0:
454,256,196635,2,0,L|448:196,3,49.5000015106202,2|2|2|2,0:3|0:3|0:3|0:3,0:3:0:0:
440,144,197207,6,0,B|380:132|380:132|312:156,1,103.500001974106,4|2,1:3|0:3,0:3:0:0:
284,303,197778,2,0,B|297:243|297:243|273:175,1,103.500001974106,0|2,1:3|0:3,0:3:0:0:
250,127,198207,1,2,0:3:0:0:
186,180,198350,2,0,B|243:208|243:208|314:201,1,103.500001974106,0|2,1:3|0:3,0:3:0:0:
366,193,198778,2,0,B|379:133|379:133|355:65,1,103.500001974106,0|2,1:3|0:3,0:3:0:0:
337,23,199207,1,0,1:3:0:0:
337,23,199492,5,2,0:0:0:0:
104,99,204064,6,0,P|164:102|233:132,1,125.999996154785,4|0,0:1|0:3,0:3:0:0:
285,171,204921,1,2,0:0:0:0:
466,99,206349,6,0,P|406:102|337:132,1,125.999996154785,2|0,0:0|0:0,0:0:0:0:
285,171,207206,1,2,0:0:0:0:
285,171,208064,1,2,0:0:0:0:
285,171,208635,6,0,L|279:237,1,62.9999980773926,2|0,0:0|0:0,0:0:0:0:
268,308,209207,1,0,0:0:0:0:
268,308,209492,1,2,0:0:0:0:
195,309,210921,5,2,0:0:0:0:
233,231,211492,1,2,0:0:0:0:
305,182,212064,1,2,0:0:0:0:
392,176,212635,1,2,0:0:0:0:
471,215,213207,6,0,P|480:170|468:131,1,80.9999975280763,2|0,0:0|0:0,0:0:0:0:
421,53,213778,1,2,0:3:0:0:
421,53,214064,2,0,L|259:67,1,161.999995056153,2|0,0:0|0:0,0:0:0:0:
162,73,214921,1,2,0:3:0:0:
162,73,215207,1,0,0:0:0:0:
100,295,216064,2,0,P|93:255|106:212,1,80.9999975280763,2|2,0:3|0:0,0:0:0:0:
224,37,217207,5,2,0:3:0:0:
238,143,217492,1,2,0:3:0:0:
368,67,217778,2,0,P|411:81|438:149,1,90,2|2,0:3|0:3,0:3:0:0:
443,224,218349,1,2,0:3:0:0:
346,177,218635,1,2,0:3:0:0:
382,278,218921,5,2,0:3:0:0:
365,318,219063,1,2,0:3:0:0:
331,348,219206,1,2,0:3:0:0:
288,357,219349,1,2,0:3:0:0:
243,356,219492,2,0,L|188:350,4,45,2|2|2|2|2,0:3|0:3|0:3|0:3|0:3,0:3:0:0:
300,165,221492,5,2,0:3:0:0:
329,198,221634,1,2,0:3:0:0:
371,209,221778,2,0,L|409:212,5,30,0|2|2|2|2|2,1:3|0:3|0:3|0:3|0:3|0:3,0:3:0:0:
438,204,222349,6,0,P|464:139|435:76,1,141.749995674133,6|0,0:3|0:3,0:3:0:0:
389,45,222921,2,0,P|351:33|288:37,1,94.499997116089,8|0,0:3|0:3,0:3:0:0:
211,109,223492,2,0,P|249:122|312:118,1,94.499997116089,2|0,0:3|0:3,0:3:0:0:
416,101,224064,2,0,L|413:148,1,47.2499985580445,8|0,0:3|0:3,0:3:0:0:
445,194,224349,2,0,L|442:242,1,47.2499985580445,2|0,0:3|0:3,0:3:0:0:
432,299,224635,6,0,P|411:340|367:358,1,94.499997116089,2|0,0:3|0:3,0:3:0:0:
256,349,225206,2,0,P|223:318|212:272,1,94.499997116089,8|0,0:3|0:3,0:3:0:0:
269,173,225778,2,0,L|295:129,2,47.2499985580445,2|8|0,0:3|0:3|0:3,0:3:0:0:
212,271,226349,1,8,0:3:0:0:
155,173,226635,1,2,0:3:0:0:
98,272,226921,6,0,P|60:237|43:193,2,94.499997116089,2|0|8,0:3|0:3|0:3,0:3:0:0:
212,271,227778,1,0,0:3:0:0:
327,271,228064,2,0,P|364:236|381:192,1,94.499997116089,2|0,0:3|0:3,0:3:0:0:
381,84,228635,1,8,0:3:0:0:
283,141,228921,1,2,0:3:0:0:
282,28,229207,6,0,B|240:23|243:58|202:47,1,85.4999977169037,2|0,0:3|0:3,0:3:0:0:
122,112,229778,2,0,B|165:108|162:143|203:131,1,85.4999977169037,8|0,0:3|0:3,0:3:0:0:
303,148,230349,1,2,0:3:0:0:
303,148,230492,1,8,0:3:0:0:
219,206,230778,1,2,0:3:0:0:
219,206,230921,1,8,0:3:0:0:
312,249,231206,1,2,0:3:0:0:
415,284,231492,6,0,P|385:331|340:355,1,90,2|0,0:3|0:3,0:3:0:0:
249,346,232064,2,0,L|137:337,1,90,8|0,0:3|0:3,0:3:0:0:
52,327,232635,1,2,0:3:0:0:
113,238,232921,1,0,0:3:0:0:
64,143,233206,2,0,L|168:134,1,90,8|2,0:3|0:3,0:3:0:0:
262,119,233778,6,0,P|267:163|301:190,1,90,2|0,0:3|0:3,0:3:0:0:
284,269,234349,2,0,P|240:273|212:315,1,90,8|0,0:3|0:3,0:3:0:0:
133,294,234921,2,0,P|128:250|86:221,1,90,2|0,0:3|0:3,0:3:0:0:
116,145,235492,2,0,P|160:140|189:98,1,90,8|2,0:3|0:3,0:3:0:0:
303,75,236064,6,0,P|346:125|347:234,1,148.50000453186,2|0,0:3|0:3,0:3:0:0:
342,261,236635,2,0,P|307:316|202:347,1,148.50000453186,8|0,0:3|0:3,0:3:0:0:
177,332,237206,2,0,L|127:314,3,49.5000015106202,2|0|0|0,0:3|0:3|0:3|0:3,0:3:0:0:
91,271,237778,2,0,L|69:222,3,49.5000015106202,8|0|2|0,0:3|0:3|0:3|0:3,0:3:0:0:
79,172,238349,6,0,L|97:124,1,45,2|0,0:3|0:3,0:3:0:0:
136,95,238635,2,0,L|184:74,1,45,0|0,0:3|0:3,0:3:0:0:
229,65,238921,2,0,P|280:69|322:98,1,90,8|0,0:3|0:3,0:3:0:0:
329,140,239349,1,0,0:3:0:0:
344,191,239492,2,0,P|390:214|441:210,1,90,2|0,0:3|0:3,0:3:0:0:
467,177,239921,1,0,0:3:0:0:
461,123,240064,2,0,P|426:96|382:89,1,90,8|2,0:3|0:3,0:3:0:0:
279,94,240635,6,0,P|240:109|199:102,1,85.4999977169037,2|0,0:3|0:3,0:3:0:0:
101,69,241207,1,8,0:3:0:0:
75,168,241492,1,0,0:3:0:0:
75,168,241635,1,0,0:3:0:0:
74,168,241778,2,0,P|72:210|91:247,1,85.4999977169037,2|0,0:3|0:3,0:3:0:0:
160,324,242349,2,0,L|245:316,1,85.4999977169037,8|2,0:3|0:3,0:3:0:0:
345,294,242921,6,0,P|338:252|353:213,2,85.4999977169037,2|0|8,0:3|0:3|0:3,0:3:0:0:
415,369,243778,1,0,0:3:0:0:
415,369,243921,1,0,0:3:0:0:
415,369,244064,2,0,P|449:345|467:306,1,85.4999977169037,2|0,0:3|0:3,0:3:0:0:
461,204,244635,2,0,L|453:118,1,85.4999977169037,8|2,0:3|0:3,0:3:0:0:
454,15,245207,6,0,P|412:21|376:49,1,85.4999977169037,2|0,0:3|0:3,0:3:0:0:
314,129,245779,1,8,0:3:0:0:
299,230,246064,2,0,L|294:283,1,42.7499988584519,0|0,0:3|0:3,0:3:0:0:
282,322,246350,2,0,P|251:351|210:361,1,85.4999977169037,2|0,0:3|0:3,0:3:0:0:
108,363,246921,1,8,0:3:0:0:
158,274,247207,1,2,0:3:0:0:
253,223,247492,6,0,L|300:210,3,45,2|0|0|0,0:3|0:3|0:3|0:3,0:3:0:0:
344,185,248064,2,0,L|378:150,3,45,8|0|0|0,0:3|0:3|0:3|0:3,0:3:0:0:
406,108,248635,1,2,0:3:0:0:
410,64,248777,1,8,0:3:0:0:
381,32,248920,1,0,0:3:0:0:
272,34,249207,2,0,L|223:34,6,30,8|0|0|2|0|0|2,0:3|0:3|0:3|0:3|0:3|0:3|0:3,0:3:0:0:
256,192,249921,12,0,253778,0:3:0:0:
