osu file format v14

[General]
AudioFilename: audio.mp3
AudioLeadIn: 0
PreviewTime: -1
Countdown: 0
SampleSet: Soft
StackLeniency: 0.7
Mode: 3
LetterboxInBreaks: 0
SpecialStyle: 0
WidescreenStoryboard: 0

[Editor]
DistanceSpacing: 0.8
BeatDivisor: 16
GridSize: 32
TimelineZoom: 1.799999

[Metadata]
Title:yusa??o?"?yusa?seyoku$B%i!<%a%s(B"
TitleUnicode:ュサ??ォ? "?ュサ?セョク$B%i!<%a%s(B"
Artist:OG Mako
ArtistUnicode:OG Mako
Creator:Lenfried-
Version:??"^!$&14!71&%!#?
Source:Angel Beats!
Tags:Theme of SSS las esperanzas y la vida que han pasado [MISO-006] BITE 2 BEAT 荻窪麻子 Ogikubo miso-nicomi records
BeatmapID:1825679
BeatmapSetID:873382

[Difficulty]
HPDrainRate:9
CircleSize:7
OverallDifficulty:9
ApproachRate:5
SliderMultiplier:1.4
SliderTickRate:1

[Events]
//Background and Video events
0,0,"Konachan.com%20-%20247867%20flowers%20grass%20instrument%20mocha_(cotton)%20nobody%20original%20piano%20ruins%20scenic%20signed%20tree%.jpg",0,0
//Break Periods
//Storyboard Layer 0 (Background)
//Storyboard Layer 1 (Fail)
//Storyboard Layer 2 (Pass)
//Storyboard Layer 3 (Foreground)
//Storyboard Sound Samples

[TimingPoints]
1886,731.707317073171,4,2,0,10,1,0
1886,-43.1034482758621,4,2,0,10,0,0
25300,315.789473684211,4,2,0,10,1,0
25300,-100,4,2,0,10,0,0
101405,400,4,2,0,10,1,0
101405,-78.740157480315,4,2,0,10,0,0
101805,368.098159509202,4,2,0,10,1,0
101805,-85.4700854700855,4,2,0,10,0,0
102173,422.535211267606,4,2,0,10,1,0
102173,-74.6268656716418,4,2,0,10,0,0
102595,560.747663551402,4,2,0,10,1,0
102595,-56.1797752808989,4,2,0,10,0,0
103716,588.235294117647,4,2,0,10,1,0
103716,-53.763440860215,4,2,0,10,0,0
104304,662.983425414365,4,2,0,10,1,0
104304,-47.6190476190476,4,2,0,10,0,0
105629,1081.08108108108,4,2,0,10,1,0
105629,-29.2397660818713,4,2,0,10,0,0

[HitObjects]
36,192,1886,128,0,4812:0:0:0:0:
182,192,1886,128,0,3349:0:0:0:0:
329,192,1886,128,0,2251:0:0:0:0:
402,192,2251,128,0,2617:0:0:0:0:
475,192,2617,128,0,3349:0:0:0:0:
109,192,3349,128,0,4812:0:0:0:0:
402,192,3715,128,0,4081:0:0:0:0:
329,192,4081,128,0,4446:0:0:0:0:
256,192,4446,128,0,4812:0:0:0:0:
182,192,4812,128,0,5178:0:0:0:0:
475,192,4812,128,0,6276:0:0:0:0:
402,192,4812,128,0,6276:0:0:0:0:
329,192,5178,128,0,5544:0:0:0:0:
109,192,5910,128,0,6276:0:0:0:0:
182,192,6276,128,0,6642:0:0:0:0:
36,192,6276,128,0,7739:0:0:0:0:
256,192,6276,128,0,7739:0:0:0:0:
329,192,6642,128,0,7373:0:0:0:0:
109,192,7373,128,0,7556:0:0:0:0:
182,192,7556,128,0,7739:0:0:0:0:
329,192,7739,128,0,8471:0:0:0:0:
475,192,7739,128,0,9203:0:0:0:0:
402,192,7739,128,0,9203:0:0:0:0:
256,192,8471,128,0,8837:0:0:0:0:
182,192,8837,128,0,9203:0:0:0:0:
36,192,9203,128,0,10666:0:0:0:0:
256,192,9203,128,0,10300:0:0:0:0:
329,192,9203,128,0,10666:0:0:0:0:
109,192,10300,128,0,10666:0:0:0:0:
402,192,10666,128,0,12129:0:0:0:0:
182,192,10666,128,0,12129:0:0:0:0:
256,192,10666,128,0,11764:0:0:0:0:
329,192,11764,128,0,12129:0:0:0:0:
36,192,12129,128,0,13593:0:0:0:0:
475,192,12129,128,0,13593:0:0:0:0:
256,192,12129,128,0,13593:0:0:0:0:
109,192,13593,128,0,16520:0:0:0:0:
182,192,13593,128,0,13959:0:0:0:0:
329,192,13593,128,0,13959:0:0:0:0:
256,192,13959,128,0,14325:0:0:0:0:
402,192,13959,128,0,14325:0:0:0:0:
329,192,14325,128,0,15056:0:0:0:0:
475,192,14325,128,0,15422:0:0:0:0:
182,192,15056,128,0,15788:0:0:0:0:
402,192,15422,128,0,15788:0:0:0:0:
36,192,15788,128,0,16520:0:0:0:0:
329,192,15788,128,0,16154:0:0:0:0:
256,192,16154,128,0,16520:0:0:0:0:
475,192,16520,128,0,17983:0:0:0:0:
329,192,16520,128,0,16886:0:0:0:0:
182,192,16520,128,0,16886:0:0:0:0:
402,192,16886,128,0,17617:0:0:0:0:
36,192,16886,128,0,17251:0:0:0:0:
109,192,17251,128,0,17983:0:0:0:0:
256,192,17617,128,0,17983:0:0:0:0:
36,192,17983,128,0,19446:0:0:0:0:
182,192,17983,128,0,18349:0:0:0:0:
329,192,17983,128,0,18349:0:0:0:0:
256,192,18349,128,0,18715:0:0:0:0:
402,192,18349,128,0,19081:0:0:0:0:
109,192,18715,128,0,19446:0:0:0:0:
329,192,19081,128,0,19264:0:0:0:0:
256,192,19264,128,0,19446:0:0:0:0:
182,192,19446,128,0,19812:0:0:0:0:
402,192,19446,128,0,20178:0:0:0:0:
475,192,19446,128,0,20910:0:0:0:0:
36,192,19812,128,0,20178:0:0:0:0:
109,192,20178,128,0,20910:0:0:0:0:
329,192,20178,128,0,20544:0:0:0:0:
256,192,20544,128,0,20910:0:0:0:0:
36,192,20910,128,0,21642:0:0:0:0:
182,192,20910,128,0,21276:0:0:0:0:
329,192,20910,128,0,21642:0:0:0:0:
475,192,21276,128,0,21642:0:0:0:0:
109,192,21642,128,0,22373:0:0:0:0:
402,192,21642,128,0,22373:0:0:0:0:
256,192,21642,128,0,22007:0:0:0:0:
182,192,22007,128,0,22373:0:0:0:0:
329,192,22373,128,0,25209:0:0:0:0:
475,192,22373,128,0,25209:0:0:0:0:
36,192,22373,128,0,22739:0:0:0:0:
109,192,22739,128,0,23105:0:0:0:0:
182,192,23105,128,0,23471:0:0:0:0:
256,192,23471,128,0,23837:0:0:0:0:
36,192,23837,128,0,25209:0:0:0:0:
182,192,23837,128,0,25209:0:0:0:0:
256,192,24568,128,0,25209:0:0:0:0:
329,192,25300,1,0,0:0:0:0:
475,192,25300,1,0,0:0:0:0:
182,192,25300,1,0,0:0:0:0:
182,192,25457,1,0,0:0:0:0:
256,192,25536,1,0,0:0:0:0:
182,192,25615,1,0,0:0:0:0:
36,192,25615,1,0,0:0:0:0:
329,192,25615,1,0,0:0:0:0:
475,192,25615,1,0,0:0:0:0:
256,192,25773,1,0,0:0:0:0:
182,192,25852,1,0,0:0:0:0:
109,192,25931,1,0,0:0:0:0:
329,192,25931,1,0,0:0:0:0:
475,192,25931,1,0,0:0:0:0:
402,192,26089,1,0,0:0:0:0:
256,192,26089,1,0,0:0:0:0:
109,192,26089,1,0,0:0:0:0:
36,192,26247,1,0,0:0:0:0:
256,192,26247,1,0,0:0:0:0:
402,192,26247,1,0,0:0:0:0:
182,192,26326,1,0,0:0:0:0:
329,192,26405,1,0,0:0:0:0:
256,192,26484,1,0,0:0:0:0:
182,192,26563,1,0,0:0:0:0:
36,192,26563,1,0,0:0:0:0:
402,192,26563,1,0,0:0:0:0:
329,192,26721,1,0,0:0:0:0:
109,192,26721,1,0,0:0:0:0:
182,192,26878,1,0,0:0:0:0:
329,192,26878,1,0,0:0:0:0:
475,192,26878,1,0,0:0:0:0:
256,192,27036,1,0,0:0:0:0:
36,192,27036,1,0,0:0:0:0:
36,192,27194,1,0,0:0:0:0:
256,192,27194,1,0,0:0:0:0:
329,192,27194,1,0,0:0:0:0:
475,192,27194,1,0,0:0:0:0:
182,192,27352,1,0,0:0:0:0:
329,192,27431,1,0,0:0:0:0:
182,192,27510,1,0,0:0:0:0:
402,192,27589,1,0,0:0:0:0:
182,192,27668,1,0,0:0:0:0:
36,192,27668,1,0,0:0:0:0:
329,192,27747,1,0,0:0:0:0:
256,192,27826,1,0,0:0:0:0:
36,192,27826,1,0,0:0:0:0:
475,192,27826,1,0,0:0:0:0:
182,192,27984,1,0,0:0:0:0:
402,192,27984,1,0,0:0:0:0:
329,192,28142,1,0,0:0:0:0:
475,192,28142,1,0,0:0:0:0:
182,192,28221,1,0,0:0:0:0:
36,192,28221,1,0,0:0:0:0:
329,192,28300,1,0,0:0:0:0:
182,192,28378,1,0,0:0:0:0:
402,192,28457,1,0,0:0:0:0:
182,192,28536,1,0,0:0:0:0:
36,192,28536,1,0,0:0:0:0:
329,192,28615,1,0,0:0:0:0:
475,192,28615,1,0,0:0:0:0:
256,192,28773,1,0,0:0:0:0:
109,192,28931,1,0,0:0:0:0:
256,192,28931,1,0,0:0:0:0:
402,192,28931,1,0,0:0:0:0:
182,192,29089,1,0,0:0:0:0:
36,192,29089,1,0,0:0:0:0:
182,192,29247,1,0,0:0:0:0:
329,192,29247,1,0,0:0:0:0:
475,192,29247,1,0,0:0:0:0:
182,192,29405,1,0,0:0:0:0:
402,192,29405,1,0,0:0:0:0:
36,192,29405,1,0,0:0:0:0:
109,192,29563,1,0,0:0:0:0:
329,192,29642,1,0,0:0:0:0:
475,192,29642,1,0,0:0:0:0:
182,192,29721,1,0,0:0:0:0:
329,192,29800,1,0,0:0:0:0:
475,192,29800,1,0,0:0:0:0:
182,192,29878,1,0,0:0:0:0:
36,192,29878,1,0,0:0:0:0:
109,192,30036,1,0,0:0:0:0:
256,192,30036,1,0,0:0:0:0:
402,192,30036,1,0,0:0:0:0:
329,192,30194,1,0,0:0:0:0:
182,192,30194,1,0,0:0:0:0:
256,192,30352,1,0,0:0:0:0:
475,192,30352,1,0,0:0:0:0:
109,192,30352,1,0,0:0:0:0:
256,192,30510,1,0,0:0:0:0:
402,192,30510,1,0,0:0:0:0:
36,192,30510,1,0,0:0:0:0:
182,192,30668,1,0,0:0:0:0:
36,192,30668,1,0,0:0:0:0:
329,192,30747,1,0,0:0:0:0:
475,192,30747,1,0,0:0:0:0:
182,192,30826,1,0,0:0:0:0:
36,192,30826,1,0,0:0:0:0:
329,192,30984,1,0,0:0:0:0:
109,192,30984,1,0,0:0:0:0:
182,192,31142,1,0,0:0:0:0:
329,192,31142,1,0,0:0:0:0:
475,192,31142,1,0,0:0:0:0:
256,192,31300,1,0,0:0:0:0:
256,192,31457,1,0,0:0:0:0:
36,192,31457,1,0,0:0:0:0:
402,192,31457,1,0,0:0:0:0:
329,192,31615,1,0,0:0:0:0:
109,192,31668,1,0,0:0:0:0:
182,192,31721,1,0,0:0:0:0:
256,192,31773,1,0,0:0:0:0:
329,192,31826,1,0,0:0:0:0:
36,192,31931,1,0,0:0:0:0:
109,192,31931,1,0,0:0:0:0:
402,192,31931,1,0,0:0:0:0:
182,192,32010,1,0,0:0:0:0:
329,192,32010,1,0,0:0:0:0:
402,192,32089,1,0,0:0:0:0:
109,192,32089,1,0,0:0:0:0:
36,192,32089,1,0,0:0:0:0:
182,192,32247,1,0,0:0:0:0:
329,192,32247,1,0,0:0:0:0:
329,192,32405,1,0,0:0:0:0:
182,192,32405,1,0,0:0:0:0:
256,192,32484,1,0,0:0:0:0:
402,192,32563,1,0,0:0:0:0:
109,192,32563,1,0,0:0:0:0:
329,192,32721,1,0,0:0:0:0:
475,192,32721,1,0,0:0:0:0:
182,192,32721,1,0,0:0:0:0:
36,192,32721,1,0,0:0:0:0:
256,192,32878,1,0,0:0:0:0:
109,192,32878,1,0,0:0:0:0:
402,192,32878,1,0,0:0:0:0:
329,192,33036,1,0,0:0:0:0:
182,192,33036,1,0,0:0:0:0:
36,192,33036,1,0,0:0:0:0:
182,192,33194,1,0,0:0:0:0:
329,192,33194,1,0,0:0:0:0:
475,192,33194,1,0,0:0:0:0:
402,192,33352,1,0,0:0:0:0:
109,192,33352,1,0,0:0:0:0:
256,192,33352,1,0,0:0:0:0:
109,192,33510,1,0,0:0:0:0:
182,192,33550,1,0,0:0:0:0:
256,192,33589,1,0,0:0:0:0:
329,192,33628,1,0,0:0:0:0:
402,192,33668,1,0,0:0:0:0:
36,192,33668,1,0,0:0:0:0:
109,192,33826,1,0,0:0:0:0:
256,192,33826,1,0,0:0:0:0:
329,192,33905,1,0,0:0:0:0:
402,192,33984,1,0,0:0:0:0:
182,192,33984,1,0,0:0:0:0:
36,192,33984,1,0,0:0:0:0:
256,192,34063,1,0,0:0:0:0:
182,192,34142,1,0,0:0:0:0:
36,192,34142,1,0,0:0:0:0:
402,192,34142,1,0,0:0:0:0:
329,192,34221,1,0,0:0:0:0:
109,192,34300,1,0,0:0:0:0:
256,192,34378,1,0,0:0:0:0:
36,192,34457,1,0,0:0:0:0:
182,192,34457,1,0,0:0:0:0:
402,192,34536,1,0,0:0:0:0:
109,192,34615,1,0,0:0:0:0:
329,192,34615,1,0,0:0:0:0:
256,192,34773,1,0,0:0:0:0:
36,192,34826,1,0,0:0:0:0:
109,192,34878,1,0,0:0:0:0:
182,192,34931,1,0,0:0:0:0:
256,192,34984,1,0,0:0:0:0:
329,192,35036,1,0,0:0:0:0:
402,192,35089,1,0,0:0:0:0:
182,192,35142,1,0,0:0:0:0:
36,192,35142,1,0,0:0:0:0:
256,192,35194,1,0,0:0:0:0:
329,192,35247,1,0,0:0:0:0:
475,192,35247,1,0,0:0:0:0:
182,192,35326,1,0,0:0:0:0:
36,192,35326,1,0,0:0:0:0:
329,192,35405,1,0,0:0:0:0:
475,192,35405,1,0,0:0:0:0:
256,192,35563,1,0,0:0:0:0:
109,192,35563,1,0,0:0:0:0:
182,192,35721,1,0,0:0:0:0:
36,192,35721,1,0,0:0:0:0:
329,192,35721,1,0,0:0:0:0:
475,192,35721,1,0,0:0:0:0:
256,192,35878,1,0,0:0:0:0:
402,192,35878,1,0,0:0:0:0:
182,192,35957,1,0,0:0:0:0:
109,192,36036,1,0,0:0:0:0:
402,192,36076,1,0,0:0:0:0:
329,192,36115,1,0,0:0:0:0:
256,192,36155,1,0,0:0:0:0:
182,192,36194,1,0,0:0:0:0:
36,192,36194,1,0,0:0:0:0:
329,192,36247,1,0,0:0:0:0:
402,192,36300,1,0,0:0:0:0:
475,192,36352,1,0,0:0:0:0:
109,192,36352,1,0,0:0:0:0:
475,192,36510,1,0,0:0:0:0:
329,192,36510,1,0,0:0:0:0:
36,192,36510,1,0,0:0:0:0:
182,192,36510,1,0,0:0:0:0:
109,192,36668,1,0,0:0:0:0:
256,192,36668,1,0,0:0:0:0:
402,192,36668,1,0,0:0:0:0:
329,192,36826,1,0,0:0:0:0:
182,192,36826,1,0,0:0:0:0:
182,192,36984,1,0,0:0:0:0:
36,192,36984,1,0,0:0:0:0:
329,192,36984,1,0,0:0:0:0:
475,192,36984,1,0,0:0:0:0:
256,192,37142,1,0,0:0:0:0:
109,192,37142,1,0,0:0:0:0:
402,192,37221,1,0,0:0:0:0:
256,192,37300,1,0,0:0:0:0:
109,192,37300,1,0,0:0:0:0:
182,192,37457,1,0,0:0:0:0:
36,192,37457,1,0,0:0:0:0:
329,192,37457,1,0,0:0:0:0:
475,192,37457,1,0,0:0:0:0:
256,192,37615,1,0,0:0:0:0:
402,192,37615,1,0,0:0:0:0:
109,192,37694,1,0,0:0:0:0:
256,192,37773,1,0,0:0:0:0:
402,192,37773,1,0,0:0:0:0:
182,192,37852,1,0,0:0:0:0:
329,192,37931,1,0,0:0:0:0:
109,192,37931,1,0,0:0:0:0:
475,192,37931,1,0,0:0:0:0:
329,192,38089,1,0,0:0:0:0:
182,192,38089,1,0,0:0:0:0:
256,192,38247,1,0,0:0:0:0:
36,192,38247,1,0,0:0:0:0:
109,192,38247,1,0,0:0:0:0:
402,192,38247,1,0,0:0:0:0:
182,192,38405,1,0,0:0:0:0:
329,192,38405,1,0,0:0:0:0:
256,192,38484,1,0,0:0:0:0:
36,192,38563,1,0,0:0:0:0:
182,192,38563,1,0,0:0:0:0:
402,192,38563,1,0,0:0:0:0:
329,192,38721,1,0,0:0:0:0:
109,192,38721,1,0,0:0:0:0:
109,192,38878,1,0,0:0:0:0:
329,192,38878,1,0,0:0:0:0:
475,192,38878,1,0,0:0:0:0:
256,192,38878,1,0,0:0:0:0:
182,192,39036,1,0,0:0:0:0:
402,192,39036,1,0,0:0:0:0:
329,192,39115,1,0,0:0:0:0:
256,192,39194,1,0,0:0:0:0:
109,192,39194,1,0,0:0:0:0:
36,192,39194,1,0,0:0:0:0:
182,192,39352,1,0,0:0:0:0:
402,192,39352,1,0,0:0:0:0:
182,192,39510,1,0,0:0:0:0:
329,192,39510,1,0,0:0:0:0:
36,192,39510,1,0,0:0:0:0:
475,192,39510,1,0,0:0:0:0:
256,192,39668,1,0,0:0:0:0:
109,192,39668,1,0,0:0:0:0:
256,192,39826,1,0,0:0:0:0:
402,192,39826,1,0,0:0:0:0:
329,192,39984,1,0,0:0:0:0:
182,192,40063,1,0,0:0:0:0:
36,192,40063,1,0,0:0:0:0:
402,192,40142,1,0,0:0:0:0:
182,192,40221,1,0,0:0:0:0:
36,192,40221,1,0,0:0:0:0:
329,192,40300,1,0,0:0:0:0:
475,192,40300,1,0,0:0:0:0:
329,192,40457,1,0,0:0:0:0:
182,192,40457,1,0,0:0:0:0:
36,192,40457,1,0,0:0:0:0:
256,192,40615,1,0,0:0:0:0:
402,192,40615,1,0,0:0:0:0:
402,192,40773,1,0,0:0:0:0:
256,192,40773,1,0,0:0:0:0:
36,192,40773,1,0,0:0:0:0:
182,192,40773,1,0,0:0:0:0:
36,192,40931,1,0,0:0:0:0:
329,192,40931,1,0,0:0:0:0:
182,192,41010,1,0,0:0:0:0:
329,192,41089,1,0,0:0:0:0:
36,192,41089,1,0,0:0:0:0:
109,192,41247,1,0,0:0:0:0:
256,192,41247,1,0,0:0:0:0:
329,192,41247,1,0,0:0:0:0:
475,192,41247,1,0,0:0:0:0:
182,192,41405,1,0,0:0:0:0:
36,192,41405,1,0,0:0:0:0:
329,192,41484,1,0,0:0:0:0:
109,192,41563,1,0,0:0:0:0:
256,192,41602,1,0,0:0:0:0:
402,192,41602,1,0,0:0:0:0:
182,192,41721,1,0,0:0:0:0:
36,192,41721,1,0,0:0:0:0:
329,192,41721,1,0,0:0:0:0:
475,192,41721,1,0,0:0:0:0:
256,192,41878,1,0,0:0:0:0:
109,192,41878,1,0,0:0:0:0:
36,192,42036,1,0,0:0:0:0:
182,192,42036,1,0,0:0:0:0:
256,192,42036,1,0,0:0:0:0:
402,192,42036,1,0,0:0:0:0:
109,192,42194,1,0,0:0:0:0:
329,192,42194,1,0,0:0:0:0:
475,192,42194,1,0,0:0:0:0:
182,192,42352,1,0,0:0:0:0:
329,192,42352,1,0,0:0:0:0:
256,192,42510,1,0,0:0:0:0:
475,192,42510,1,0,0:0:0:0:
36,192,42510,1,0,0:0:0:0:
329,192,42510,1,0,0:0:0:0:
36,192,42668,1,0,0:0:0:0:
182,192,42668,1,0,0:0:0:0:
402,192,42747,1,0,0:0:0:0:
182,192,42826,1,0,0:0:0:0:
36,192,42826,1,0,0:0:0:0:
256,192,42905,1,0,0:0:0:0:
329,192,42984,1,0,0:0:0:0:
475,192,42984,1,0,0:0:0:0:
182,192,42984,1,0,0:0:0:0:
36,192,42984,1,0,0:0:0:0:
402,192,43142,1,0,0:0:0:0:
256,192,43142,1,0,0:0:0:0:
329,192,43300,1,0,0:0:0:0:
182,192,43300,1,0,0:0:0:0:
36,192,43300,1,0,0:0:0:0:
256,192,43300,1,0,0:0:0:0:
36,192,43457,1,0,0:0:0:0:
182,192,43457,1,0,0:0:0:0:
256,192,43510,1,0,0:0:0:0:
329,192,43563,1,0,0:0:0:0:
402,192,43615,1,0,0:0:0:0:
109,192,43615,1,0,0:0:0:0:
182,192,43694,1,0,0:0:0:0:
256,192,43773,1,0,0:0:0:0:
36,192,43773,1,0,0:0:0:0:
36,192,43931,1,0,0:0:0:0:
256,192,43931,1,0,0:0:0:0:
329,192,43931,1,0,0:0:0:0:
475,192,43931,1,0,0:0:0:0:
329,192,44089,1,0,0:0:0:0:
182,192,44089,1,0,0:0:0:0:
256,192,44247,1,0,0:0:0:0:
109,192,44247,1,0,0:0:0:0:
36,192,44247,1,0,0:0:0:0:
475,192,44247,1,0,0:0:0:0:
329,192,44405,1,0,0:0:0:0:
182,192,44405,1,0,0:0:0:0:
256,192,44563,1,0,0:0:0:0:
329,192,44563,1,0,0:0:0:0:
475,192,44563,1,0,0:0:0:0:
109,192,44563,1,0,0:0:0:0:
182,192,44721,1,0,0:0:0:0:
402,192,44721,1,0,0:0:0:0:
329,192,44878,1,0,0:0:0:0:
109,192,44878,1,0,0:0:0:0:
256,192,45036,1,0,0:0:0:0:
36,192,45036,1,0,0:0:0:0:
475,192,45036,1,0,0:0:0:0:
329,192,45194,1,0,0:0:0:0:
182,192,45273,1,0,0:0:0:0:
329,192,45352,1,0,0:0:0:0:
109,192,45431,1,0,0:0:0:0:
329,192,45510,1,0,0:0:0:0:
475,192,45510,1,0,0:0:0:0:
182,192,45510,1,0,0:0:0:0:
256,192,45668,1,0,0:0:0:0:
109,192,45668,1,0,0:0:0:0:
256,192,45826,1,0,0:0:0:0:
36,192,45826,1,0,0:0:0:0:
402,192,45826,1,0,0:0:0:0:
475,192,45826,1,0,0:0:0:0:
182,192,45905,1,0,0:0:0:0:
109,192,45984,1,0,0:0:0:0:
329,192,45984,1,0,0:0:0:0:
256,192,46142,1,0,0:0:0:0:
475,192,46142,1,0,0:0:0:0:
109,192,46142,1,0,0:0:0:0:
402,192,46221,1,0,0:0:0:0:
329,192,46300,1,0,0:0:0:0:
182,192,46300,1,0,0:0:0:0:
36,192,46300,1,0,0:0:0:0:
109,192,46300,1,0,0:0:0:0:
256,192,46378,1,0,0:0:0:0:
109,192,46457,1,0,0:0:0:0:
329,192,46536,1,0,0:0:0:0:
475,192,46536,1,0,0:0:0:0:
182,192,46615,1,0,0:0:0:0:
36,192,46615,1,0,0:0:0:0:
329,192,46694,1,0,0:0:0:0:
475,192,46694,1,0,0:0:0:0:
182,192,46773,1,0,0:0:0:0:
36,192,46773,1,0,0:0:0:0:
109,192,46931,1,0,0:0:0:0:
256,192,46931,1,0,0:0:0:0:
402,192,46931,1,0,0:0:0:0:
329,192,47089,1,0,0:0:0:0:
475,192,47089,1,0,0:0:0:0:
182,192,47089,1,0,0:0:0:0:
36,192,47089,1,0,0:0:0:0:
329,192,47247,1,0,0:0:0:0:
475,192,47247,1,0,0:0:0:0:
109,192,47326,1,0,0:0:0:0:
256,192,47405,1,0,0:0:0:0:
182,192,47484,1,0,0:0:0:0:
36,192,47563,1,0,0:0:0:0:
329,192,47563,1,0,0:0:0:0:
475,192,47563,1,0,0:0:0:0:
109,192,47563,1,0,0:0:0:0:
256,192,47721,1,0,0:0:0:0:
402,192,47721,1,0,0:0:0:0:
109,192,47800,1,0,0:0:0:0:
256,192,47878,1,0,0:0:0:0:
402,192,47878,1,0,0:0:0:0:
182,192,47957,1,0,0:0:0:0:
36,192,47957,1,0,0:0:0:0:
329,192,48036,1,0,0:0:0:0:
475,192,48036,1,0,0:0:0:0:
329,192,48194,1,0,0:0:0:0:
109,192,48194,1,0,0:0:0:0:
256,192,48273,1,0,0:0:0:0:
182,192,48352,1,0,0:0:0:0:
36,192,48352,1,0,0:0:0:0:
329,192,48352,1,0,0:0:0:0:
475,192,48352,1,0,0:0:0:0:
256,192,48510,1,0,0:0:0:0:
109,192,48510,1,0,0:0:0:0:
329,192,48589,1,0,0:0:0:0:
402,192,48668,1,0,0:0:0:0:
182,192,48668,1,0,0:0:0:0:
109,192,48747,1,0,0:0:0:0:
256,192,48826,1,0,0:0:0:0:
475,192,48826,1,0,0:0:0:0:
36,192,48826,1,0,0:0:0:0:
329,192,48826,1,0,0:0:0:0:
182,192,48984,1,0,0:0:0:0:
36,192,48984,1,0,0:0:0:0:
329,192,49063,1,0,0:0:0:0:
475,192,49063,1,0,0:0:0:0:
256,192,49142,1,0,0:0:0:0:
109,192,49142,1,0,0:0:0:0:
329,192,49221,1,0,0:0:0:0:
475,192,49221,1,0,0:0:0:0:
182,192,49300,1,0,0:0:0:0:
36,192,49300,1,0,0:0:0:0:
182,192,49457,1,0,0:0:0:0:
256,192,49536,1,0,0:0:0:0:
329,192,49615,1,0,0:0:0:0:
475,192,49615,1,0,0:0:0:0:
109,192,49615,1,0,0:0:0:0:
36,192,49615,1,0,0:0:0:0:
182,192,49773,1,0,0:0:0:0:
402,192,49773,1,0,0:0:0:0:
36,192,49773,1,0,0:0:0:0:
329,192,49852,1,0,0:0:0:0:
256,192,49931,1,0,0:0:0:0:
109,192,49931,1,0,0:0:0:0:
182,192,50010,1,0,0:0:0:0:
36,192,50089,1,0,0:0:0:0:
256,192,50089,1,0,0:0:0:0:
109,192,50089,1,0,0:0:0:0:
402,192,50089,1,0,0:0:0:0:
329,192,50247,1,0,0:0:0:0:
182,192,50326,1,0,0:0:0:0:
36,192,50326,1,0,0:0:0:0:
329,192,50405,1,0,0:0:0:0:
475,192,50405,1,0,0:0:0:0:
36,192,50484,1,0,0:0:0:0:
109,192,50523,1,0,0:0:0:0:
182,192,50563,1,0,0:0:0:0:
329,192,50563,1,0,0:0:0:0:
475,192,50563,1,0,0:0:0:0:
256,192,50721,1,0,0:0:0:0:
109,192,50721,1,0,0:0:0:0:
402,192,50721,1,0,0:0:0:0:
182,192,50878,1,0,0:0:0:0:
329,192,50878,1,0,0:0:0:0:
36,192,50878,1,0,0:0:0:0:
109,192,50878,1,0,0:0:0:0:
402,192,50957,1,0,0:0:0:0:
182,192,51036,1,0,0:0:0:0:
329,192,51115,1,0,0:0:0:0:
475,192,51115,1,0,0:0:0:0:
36,192,51194,1,0,0:0:0:0:
182,192,51273,1,0,0:0:0:0:
329,192,51352,1,0,0:0:0:0:
475,192,51352,1,0,0:0:0:0:
109,192,51352,1,0,0:0:0:0:
256,192,51510,1,0,0:0:0:0:
36,192,51510,1,0,0:0:0:0:
402,192,51510,1,0,0:0:0:0:
182,192,51510,1,0,0:0:0:0:
256,192,51668,1,0,0:0:0:0:
109,192,51668,1,0,0:0:0:0:
329,192,51747,1,0,0:0:0:0:
182,192,51826,1,0,0:0:0:0:
36,192,51826,1,0,0:0:0:0:
182,192,51984,1,0,0:0:0:0:
402,192,51984,1,0,0:0:0:0:
329,192,52063,1,0,0:0:0:0:
256,192,52142,1,0,0:0:0:0:
109,192,52142,1,0,0:0:0:0:
36,192,52142,1,0,0:0:0:0:
475,192,52142,1,0,0:0:0:0:
402,192,52221,1,0,0:0:0:0:
182,192,52300,1,0,0:0:0:0:
256,192,52378,1,0,0:0:0:0:
402,192,52378,1,0,0:0:0:0:
109,192,52457,1,0,0:0:0:0:
256,192,52536,1,0,0:0:0:0:
402,192,52536,1,0,0:0:0:0:
182,192,52615,1,0,0:0:0:0:
36,192,52615,1,0,0:0:0:0:
182,192,52773,1,0,0:0:0:0:
36,192,52773,1,0,0:0:0:0:
329,192,52773,1,0,0:0:0:0:
475,192,52773,1,0,0:0:0:0:
256,192,52931,1,0,0:0:0:0:
256,192,53089,1,0,0:0:0:0:
109,192,53089,1,0,0:0:0:0:
402,192,53089,1,0,0:0:0:0:
329,192,53247,1,0,0:0:0:0:
182,192,53247,1,0,0:0:0:0:
36,192,53247,1,0,0:0:0:0:
256,192,53405,1,0,0:0:0:0:
109,192,53405,1,0,0:0:0:0:
329,192,53405,1,0,0:0:0:0:
475,192,53405,1,0,0:0:0:0:
182,192,53484,1,0,0:0:0:0:
36,192,53563,1,0,0:0:0:0:
109,192,53642,1,0,0:0:0:0:
256,192,53642,1,0,0:0:0:0:
329,192,53721,1,0,0:0:0:0:
256,192,53800,1,0,0:0:0:0:
109,192,53800,1,0,0:0:0:0:
329,192,53878,1,0,0:0:0:0:
475,192,53878,1,0,0:0:0:0:
36,192,53878,1,0,0:0:0:0:
36,192,54036,1,0,0:0:0:0:
182,192,54036,1,0,0:0:0:0:
329,192,54036,1,0,0:0:0:0:
475,192,54036,1,0,0:0:0:0:
256,192,54115,1,0,0:0:0:0:
182,192,54194,1,0,0:0:0:0:
329,192,54273,1,0,0:0:0:0:
475,192,54273,1,0,0:0:0:0:
182,192,54352,1,0,0:0:0:0:
36,192,54352,1,0,0:0:0:0:
256,192,54510,1,0,0:0:0:0:
109,192,54510,1,0,0:0:0:0:
329,192,54589,1,0,0:0:0:0:
402,192,54668,1,0,0:0:0:0:
182,192,54668,1,0,0:0:0:0:
36,192,54668,1,0,0:0:0:0:
256,192,54747,1,0,0:0:0:0:
109,192,54826,1,0,0:0:0:0:
182,192,54905,1,0,0:0:0:0:
329,192,54905,1,0,0:0:0:0:
402,192,54984,1,0,0:0:0:0:
256,192,55063,1,0,0:0:0:0:
329,192,55142,1,0,0:0:0:0:
475,192,55142,1,0,0:0:0:0:
329,192,55300,1,0,0:0:0:0:
475,192,55300,1,0,0:0:0:0:
182,192,55300,1,0,0:0:0:0:
36,192,55300,1,0,0:0:0:0:
256,192,55457,1,0,0:0:0:0:
256,192,55615,1,0,0:0:0:0:
109,192,55615,1,0,0:0:0:0:
475,192,55615,1,0,0:0:0:0:
402,192,55694,1,0,0:0:0:0:
329,192,55773,1,0,0:0:0:0:
182,192,55773,1,0,0:0:0:0:
182,192,55931,1,0,0:0:0:0:
36,192,55931,1,0,0:0:0:0:
256,192,55931,1,0,0:0:0:0:
475,192,55931,1,0,0:0:0:0:
329,192,56010,1,0,0:0:0:0:
402,192,56089,1,0,0:0:0:0:
109,192,56089,1,0,0:0:0:0:
182,192,56168,1,0,0:0:0:0:
256,192,56247,1,0,0:0:0:0:
36,192,56247,1,0,0:0:0:0:
475,192,56326,1,0,0:0:0:0:
109,192,56405,1,0,0:0:0:0:
402,192,56405,1,0,0:0:0:0:
256,192,56405,1,0,0:0:0:0:
36,192,56484,1,0,0:0:0:0:
182,192,56563,1,0,0:0:0:0:
329,192,56563,1,0,0:0:0:0:
402,192,56642,1,0,0:0:0:0:
182,192,56721,1,0,0:0:0:0:
36,192,56721,1,0,0:0:0:0:
256,192,56800,1,0,0:0:0:0:
182,192,56878,1,0,0:0:0:0:
36,192,56878,1,0,0:0:0:0:
182,192,57036,1,0,0:0:0:0:
402,192,57036,1,0,0:0:0:0:
256,192,57115,1,0,0:0:0:0:
36,192,57194,1,0,0:0:0:0:
329,192,57194,1,0,0:0:0:0:
109,192,57194,1,0,0:0:0:0:
475,192,57194,1,0,0:0:0:0:
182,192,57273,1,0,0:0:0:0:
256,192,57352,1,0,0:0:0:0:
402,192,57352,1,0,0:0:0:0:
109,192,57431,1,0,0:0:0:0:
329,192,57510,1,0,0:0:0:0:
256,192,57589,1,0,0:0:0:0:
36,192,57668,1,0,0:0:0:0:
475,192,57668,1,0,0:0:0:0:
182,192,57668,1,0,0:0:0:0:
402,192,57668,1,0,0:0:0:0:
329,192,57747,1,0,0:0:0:0:
182,192,57826,1,0,0:0:0:0:
256,192,57905,1,0,0:0:0:0:
402,192,57905,1,0,0:0:0:0:
182,192,57984,1,0,0:0:0:0:
36,192,57984,1,0,0:0:0:0:
329,192,58063,1,0,0:0:0:0:
475,192,58063,1,0,0:0:0:0:
182,192,58142,1,0,0:0:0:0:
36,192,58142,1,0,0:0:0:0:
109,192,58300,1,0,0:0:0:0:
256,192,58300,1,0,0:0:0:0:
329,192,58378,1,0,0:0:0:0:
402,192,58457,1,0,0:0:0:0:
182,192,58457,1,0,0:0:0:0:
36,192,58457,1,0,0:0:0:0:
475,192,58457,1,0,0:0:0:0:
256,192,58536,1,0,0:0:0:0:
329,192,58615,1,0,0:0:0:0:
109,192,58615,1,0,0:0:0:0:
182,192,58694,1,0,0:0:0:0:
256,192,58773,1,0,0:0:0:0:
402,192,58773,1,0,0:0:0:0:
182,192,58852,1,0,0:0:0:0:
109,192,58931,1,0,0:0:0:0:
329,192,58931,1,0,0:0:0:0:
36,192,58931,1,0,0:0:0:0:
475,192,58931,1,0,0:0:0:0:
182,192,59089,1,0,0:0:0:0:
256,192,59168,1,0,0:0:0:0:
402,192,59168,1,0,0:0:0:0:
182,192,59247,1,0,0:0:0:0:
36,192,59247,1,0,0:0:0:0:
329,192,59326,1,0,0:0:0:0:
475,192,59326,1,0,0:0:0:0:
256,192,59405,1,0,0:0:0:0:
109,192,59405,1,0,0:0:0:0:
182,192,59563,1,0,0:0:0:0:
329,192,59563,1,0,0:0:0:0:
475,192,59563,1,0,0:0:0:0:
256,192,59721,1,0,0:0:0:0:
36,192,59721,1,0,0:0:0:0:
182,192,59721,1,0,0:0:0:0:
402,192,59721,1,0,0:0:0:0:
329,192,59878,1,0,0:0:0:0:
109,192,59878,1,0,0:0:0:0:
475,192,59878,1,0,0:0:0:0:
256,192,59957,1,0,0:0:0:0:
182,192,60036,1,0,0:0:0:0:
109,192,60115,1,0,0:0:0:0:
256,192,60194,1,0,0:0:0:0:
329,192,60194,1,0,0:0:0:0:
475,192,60194,1,0,0:0:0:0:
36,192,60194,1,0,0:0:0:0:
182,192,60273,1,0,0:0:0:0:
402,192,60352,1,0,0:0:0:0:
256,192,60431,1,0,0:0:0:0:
109,192,60431,1,0,0:0:0:0:
329,192,60510,1,0,0:0:0:0:
475,192,60510,1,0,0:0:0:0:
182,192,60589,1,0,0:0:0:0:
36,192,60589,1,0,0:0:0:0:
256,192,60668,1,0,0:0:0:0:
402,192,60668,1,0,0:0:0:0:
256,192,60826,1,0,0:0:0:0:
402,192,60826,1,0,0:0:0:0:
109,192,60826,1,0,0:0:0:0:
256,192,60984,1,0,0:0:0:0:
109,192,60984,1,0,0:0:0:0:
402,192,60984,1,0,0:0:0:0:
36,192,60984,1,0,0:0:0:0:
182,192,61142,1,0,0:0:0:0:
256,192,61221,1,0,0:0:0:0:
402,192,61221,1,0,0:0:0:0:
109,192,61300,1,0,0:0:0:0:
256,192,61378,1,0,0:0:0:0:
402,192,61378,1,0,0:0:0:0:
182,192,61457,1,0,0:0:0:0:
36,192,61457,1,0,0:0:0:0:
182,192,61615,1,0,0:0:0:0:
36,192,61615,1,0,0:0:0:0:
329,192,61615,1,0,0:0:0:0:
475,192,61615,1,0,0:0:0:0:
256,192,61694,1,0,0:0:0:0:
109,192,61773,1,0,0:0:0:0:
256,192,61852,1,0,0:0:0:0:
402,192,61852,1,0,0:0:0:0:
182,192,61931,1,0,0:0:0:0:
36,192,61931,1,0,0:0:0:0:
256,192,62089,1,0,0:0:0:0:
109,192,62089,1,0,0:0:0:0:
329,192,62168,1,0,0:0:0:0:
402,192,62247,1,0,0:0:0:0:
182,192,62247,1,0,0:0:0:0:
36,192,62247,1,0,0:0:0:0:
475,192,62247,1,0,0:0:0:0:
256,192,62326,1,0,0:0:0:0:
109,192,62405,1,0,0:0:0:0:
182,192,62484,1,0,0:0:0:0:
329,192,62484,1,0,0:0:0:0:
402,192,62563,1,0,0:0:0:0:
256,192,62642,1,0,0:0:0:0:
182,192,62721,1,0,0:0:0:0:
36,192,62721,1,0,0:0:0:0:
182,192,62878,1,0,0:0:0:0:
36,192,62878,1,0,0:0:0:0:
329,192,62878,1,0,0:0:0:0:
475,192,62878,1,0,0:0:0:0:
256,192,63036,1,0,0:0:0:0:
109,192,63194,1,0,0:0:0:0:
256,192,63194,1,0,0:0:0:0:
402,192,63194,1,0,0:0:0:0:
182,192,63352,1,0,0:0:0:0:
36,192,63352,1,0,0:0:0:0:
256,192,63431,1,0,0:0:0:0:
329,192,63510,1,0,0:0:0:0:
475,192,63510,1,0,0:0:0:0:
182,192,63510,1,0,0:0:0:0:
36,192,63510,1,0,0:0:0:0:
256,192,63668,1,0,0:0:0:0:
402,192,63668,1,0,0:0:0:0:
182,192,63747,1,0,0:0:0:0:
36,192,63747,1,0,0:0:0:0:
329,192,63826,1,0,0:0:0:0:
182,192,63905,1,0,0:0:0:0:
36,192,63905,1,0,0:0:0:0:
256,192,63984,1,0,0:0:0:0:
402,192,63984,1,0,0:0:0:0:
475,192,63984,1,0,0:0:0:0:
329,192,64142,1,0,0:0:0:0:
182,192,64142,1,0,0:0:0:0:
36,192,64142,1,0,0:0:0:0:
475,192,64142,1,0,0:0:0:0:
256,192,64300,1,0,0:0:0:0:
109,192,64300,1,0,0:0:0:0:
329,192,64378,1,0,0:0:0:0:
402,192,64457,1,0,0:0:0:0:
182,192,64457,1,0,0:0:0:0:
36,192,64457,1,0,0:0:0:0:
256,192,64615,1,0,0:0:0:0:
402,192,64615,1,0,0:0:0:0:
182,192,64694,1,0,0:0:0:0:
109,192,64773,1,0,0:0:0:0:
329,192,64773,1,0,0:0:0:0:
36,192,64773,1,0,0:0:0:0:
475,192,64773,1,0,0:0:0:0:
256,192,64852,1,0,0:0:0:0:
402,192,64931,1,0,0:0:0:0:
329,192,65010,1,0,0:0:0:0:
182,192,65010,1,0,0:0:0:0:
109,192,65089,1,0,0:0:0:0:
256,192,65168,1,0,0:0:0:0:
402,192,65168,1,0,0:0:0:0:
182,192,65247,1,0,0:0:0:0:
36,192,65247,1,0,0:0:0:0:
182,192,65405,1,0,0:0:0:0:
36,192,65405,1,0,0:0:0:0:
329,192,65405,1,0,0:0:0:0:
475,192,65405,1,0,0:0:0:0:
256,192,65563,1,0,0:0:0:0:
109,192,65721,1,0,0:0:0:0:
256,192,65721,1,0,0:0:0:0:
329,192,65800,1,0,0:0:0:0:
475,192,65800,1,0,0:0:0:0:
182,192,65878,1,0,0:0:0:0:
256,192,66036,1,0,0:0:0:0:
402,192,66036,1,0,0:0:0:0:
182,192,66115,1,0,0:0:0:0:
36,192,66115,1,0,0:0:0:0:
329,192,66194,1,0,0:0:0:0:
329,192,66352,1,0,0:0:0:0:
182,192,66352,1,0,0:0:0:0:
36,192,66352,1,0,0:0:0:0:
256,192,66510,1,0,0:0:0:0:
256,192,66826,1,0,0:0:0:0:
329,192,66984,1,0,0:0:0:0:
256,192,67300,1,0,0:0:0:0:
329,192,67378,1,0,0:0:0:0:
182,192,67457,1,0,0:0:0:0:
256,192,67536,1,0,0:0:0:0:
402,192,67536,1,0,0:0:0:0:
109,192,67615,1,0,0:0:0:0:
329,192,67694,1,0,0:0:0:0:
256,192,67773,1,0,0:0:0:0:
182,192,67852,1,0,0:0:0:0:
109,192,67931,1,0,0:0:0:0:
36,192,68010,1,0,0:0:0:0:
329,192,68247,1,0,0:0:0:0:
475,192,68247,1,0,0:0:0:0:
182,192,68405,1,0,0:0:0:0:
329,192,68484,1,0,0:0:0:0:
475,192,68484,1,0,0:0:0:0:
36,192,68563,1,0,0:0:0:0:
256,192,68563,1,0,0:0:0:0:
109,192,68563,1,0,0:0:0:0:
182,192,68721,1,0,0:0:0:0:
182,192,68878,1,0,0:0:0:0:
329,192,68878,1,0,0:0:0:0:
475,192,68878,1,0,0:0:0:0:
329,192,69036,1,0,0:0:0:0:
256,192,69115,1,0,0:0:0:0:
109,192,69115,1,0,0:0:0:0:
329,192,69194,1,0,0:0:0:0:
475,192,69194,1,0,0:0:0:0:
329,192,69352,1,0,0:0:0:0:
182,192,69352,1,0,0:0:0:0:
36,192,69352,1,0,0:0:0:0:
182,192,69510,1,0,0:0:0:0:
256,192,69589,1,0,0:0:0:0:
402,192,69589,1,0,0:0:0:0:
182,192,69668,1,0,0:0:0:0:
36,192,69668,1,0,0:0:0:0:
182,192,69826,1,0,0:0:0:0:
329,192,69826,1,0,0:0:0:0:
475,192,69826,1,0,0:0:0:0:
109,192,69905,1,0,0:0:0:0:
109,192,70063,1,0,0:0:0:0:
182,192,70142,1,0,0:0:0:0:
475,192,70142,1,0,0:0:0:0:
402,192,70142,1,0,0:0:0:0:
329,192,70194,1,0,0:0:0:0:
256,192,70247,1,0,0:0:0:0:
182,192,70300,1,0,0:0:0:0:
402,192,70300,1,0,0:0:0:0:
329,192,70352,1,0,0:0:0:0:
256,192,70405,1,0,0:0:0:0:
182,192,70457,1,0,0:0:0:0:
36,192,70457,1,0,0:0:0:0:
475,192,70536,1,0,0:0:0:0:
402,192,70536,1,0,0:0:0:0:
329,192,70615,1,0,0:0:0:0:
182,192,70615,1,0,0:0:0:0:
36,192,70615,1,0,0:0:0:0:
182,192,70773,1,0,0:0:0:0:
36,192,70773,1,0,0:0:0:0:
329,192,70773,1,0,0:0:0:0:
475,192,70773,1,0,0:0:0:0:
256,192,70931,1,0,0:0:0:0:
36,192,71089,1,0,0:0:0:0:
109,192,71089,1,0,0:0:0:0:
402,192,71089,1,0,0:0:0:0:
475,192,71089,1,0,0:0:0:0:
402,192,71247,1,0,0:0:0:0:
109,192,71247,1,0,0:0:0:0:
256,192,71247,1,0,0:0:0:0:
329,192,71405,1,0,0:0:0:0:
182,192,71405,1,0,0:0:0:0:
329,192,71563,1,0,0:0:0:0:
475,192,71563,1,0,0:0:0:0:
182,192,71563,1,0,0:0:0:0:
36,192,71563,1,0,0:0:0:0:
256,192,71721,1,0,0:0:0:0:
182,192,71800,1,0,0:0:0:0:
36,192,71800,1,0,0:0:0:0:
329,192,71878,1,0,0:0:0:0:
475,192,71878,1,0,0:0:0:0:
256,192,71957,1,0,0:0:0:0:
182,192,72036,1,0,0:0:0:0:
36,192,72036,1,0,0:0:0:0:
329,192,72036,1,0,0:0:0:0:
475,192,72036,1,0,0:0:0:0:
109,192,72194,1,0,0:0:0:0:
256,192,72273,1,0,0:0:0:0:
109,192,72352,1,0,0:0:0:0:
329,192,72431,1,0,0:0:0:0:
182,192,72510,1,0,0:0:0:0:
36,192,72510,1,0,0:0:0:0:
256,192,72589,1,0,0:0:0:0:
402,192,72589,1,0,0:0:0:0:
109,192,72668,1,0,0:0:0:0:
182,192,72747,1,0,0:0:0:0:
256,192,72826,1,0,0:0:0:0:
402,192,72826,1,0,0:0:0:0:
182,192,72878,1,0,0:0:0:0:
36,192,72878,1,0,0:0:0:0:
475,192,72957,1,0,0:0:0:0:
329,192,72957,1,0,0:0:0:0:
109,192,73036,1,0,0:0:0:0:
182,192,73089,1,0,0:0:0:0:
256,192,73142,1,0,0:0:0:0:
329,192,73194,1,0,0:0:0:0:
402,192,73247,1,0,0:0:0:0:
182,192,73300,1,0,0:0:0:0:
36,192,73300,1,0,0:0:0:0:
256,192,73378,1,0,0:0:0:0:
329,192,73457,1,0,0:0:0:0:
475,192,73457,1,0,0:0:0:0:
182,192,73457,1,0,0:0:0:0:
36,192,73457,1,0,0:0:0:0:
256,192,73563,1,0,0:0:0:0:
109,192,73563,1,0,0:0:0:0:
329,192,73655,1,0,0:0:0:0:
402,192,73734,1,0,0:0:0:0:
182,192,73773,1,0,0:0:0:0:
36,192,73773,1,0,0:0:0:0:
256,192,73852,1,0,0:0:0:0:
402,192,73852,1,0,0:0:0:0:
329,192,74089,1,0,0:0:0:0:
475,192,74089,1,0,0:0:0:0:
36,192,74089,1,0,0:0:0:0:
256,192,74128,1,0,0:0:0:0:
182,192,74168,1,0,0:0:0:0:
109,192,74207,1,0,0:0:0:0:
402,192,74247,1,0,0:0:0:0:
329,192,74286,1,0,0:0:0:0:
256,192,74326,1,0,0:0:0:0:
182,192,74365,1,0,0:0:0:0:
475,192,74405,1,0,0:0:0:0:
402,192,74444,1,0,0:0:0:0:
329,192,74484,1,0,0:0:0:0:
256,192,74523,1,0,0:0:0:0:
182,192,74563,1,0,0:0:0:0:
36,192,74563,1,0,0:0:0:0:
329,192,74615,1,0,0:0:0:0:
475,192,74668,1,0,0:0:0:0:
109,192,74721,1,0,0:0:0:0:
182,192,74760,1,0,0:0:0:0:
256,192,74800,1,0,0:0:0:0:
329,192,74839,1,0,0:0:0:0:
36,192,74878,1,0,0:0:0:0:
182,192,74878,1,0,0:0:0:0:
256,192,74931,1,0,0:0:0:0:
329,192,74984,1,0,0:0:0:0:
402,192,75036,1,0,0:0:0:0:
109,192,75036,1,0,0:0:0:0:
182,192,75089,1,0,0:0:0:0:
256,192,75142,1,0,0:0:0:0:
329,192,75194,1,0,0:0:0:0:
475,192,75194,1,0,0:0:0:0:
36,192,75247,1,0,0:0:0:0:
109,192,75300,1,0,0:0:0:0:
182,192,75352,1,0,0:0:0:0:
475,192,75352,1,0,0:0:0:0:
402,192,75352,1,0,0:0:0:0:
329,192,75392,1,0,0:0:0:0:
256,192,75431,1,0,0:0:0:0:
182,192,75471,1,0,0:0:0:0:
36,192,75471,1,0,0:0:0:0:
182,192,75826,1,0,0:0:0:0:
36,192,75826,1,0,0:0:0:0:
329,192,75826,1,0,0:0:0:0:
475,192,75826,1,0,0:0:0:0:
256,192,75984,1,0,0:0:0:0:
109,192,75984,1,0,0:0:0:0:
329,192,76063,1,0,0:0:0:0:
402,192,76142,1,0,0:0:0:0:
182,192,76142,1,0,0:0:0:0:
36,192,76142,1,0,0:0:0:0:
256,192,76221,1,0,0:0:0:0:
109,192,76300,1,0,0:0:0:0:
329,192,76378,1,0,0:0:0:0:
475,192,76378,1,0,0:0:0:0:
182,192,76457,1,0,0:0:0:0:
329,192,76536,1,0,0:0:0:0:
475,192,76536,1,0,0:0:0:0:
182,192,76615,1,0,0:0:0:0:
36,192,76615,1,0,0:0:0:0:
256,192,76773,1,0,0:0:0:0:
182,192,76852,1,0,0:0:0:0:
36,192,76852,1,0,0:0:0:0:
329,192,76931,1,0,0:0:0:0:
182,192,77010,1,0,0:0:0:0:
36,192,77010,1,0,0:0:0:0:
256,192,77089,1,0,0:0:0:0:
475,192,77089,1,0,0:0:0:0:
402,192,77089,1,0,0:0:0:0:
36,192,77247,1,0,0:0:0:0:
109,192,77247,1,0,0:0:0:0:
256,192,77247,1,0,0:0:0:0:
182,192,77326,1,0,0:0:0:0:
329,192,77326,1,0,0:0:0:0:
402,192,77326,1,0,0:0:0:0:
256,192,77484,1,0,0:0:0:0:
402,192,77484,1,0,0:0:0:0:
475,192,77484,1,0,0:0:0:0:
329,192,77563,1,0,0:0:0:0:
182,192,77563,1,0,0:0:0:0:
109,192,77563,1,0,0:0:0:0:
256,192,77642,1,0,0:0:0:0:
182,192,77721,1,0,0:0:0:0:
36,192,77721,1,0,0:0:0:0:
402,192,77721,1,0,0:0:0:0:
329,192,77800,1,0,0:0:0:0:
256,192,77878,1,0,0:0:0:0:
109,192,77878,1,0,0:0:0:0:
475,192,77878,1,0,0:0:0:0:
402,192,77957,1,0,0:0:0:0:
329,192,78036,1,0,0:0:0:0:
182,192,78036,1,0,0:0:0:0:
36,192,78036,1,0,0:0:0:0:
475,192,78194,1,0,0:0:0:0:
402,192,78194,1,0,0:0:0:0:
182,192,78194,1,0,0:0:0:0:
109,192,78273,1,0,0:0:0:0:
36,192,78273,1,0,0:0:0:0:
329,192,78273,1,0,0:0:0:0:
256,192,78352,1,0,0:0:0:0:
402,192,78352,1,0,0:0:0:0:
475,192,78352,1,0,0:0:0:0:
256,192,78510,1,0,0:0:0:0:
109,192,78510,1,0,0:0:0:0:
36,192,78510,1,0,0:0:0:0:
182,192,78668,1,0,0:0:0:0:
475,192,78668,1,0,0:0:0:0:
402,192,78707,1,0,0:0:0:0:
109,192,78707,1,0,0:0:0:0:
329,192,78747,1,0,0:0:0:0:
36,192,78747,1,0,0:0:0:0:
256,192,78826,1,0,0:0:0:0:
109,192,78905,1,0,0:0:0:0:
402,192,78905,1,0,0:0:0:0:
329,192,78984,1,0,0:0:0:0:
256,192,79063,1,0,0:0:0:0:
182,192,79142,1,0,0:0:0:0:
36,192,79142,1,0,0:0:0:0:
475,192,79142,1,0,0:0:0:0:
475,192,79300,1,0,0:0:0:0:
36,192,79300,1,0,0:0:0:0:
402,192,79300,1,0,0:0:0:0:
109,192,79300,1,0,0:0:0:0:
329,192,79378,1,0,0:0:0:0:
182,192,79378,1,0,0:0:0:0:
402,192,79457,1,0,0:0:0:0:
109,192,79457,1,0,0:0:0:0:
256,192,79536,1,0,0:0:0:0:
36,192,79615,1,0,0:0:0:0:
182,192,79615,1,0,0:0:0:0:
329,192,79615,1,0,0:0:0:0:
475,192,79615,1,0,0:0:0:0:
402,192,79773,1,0,0:0:0:0:
256,192,79773,1,0,0:0:0:0:
109,192,79773,1,0,0:0:0:0:
182,192,79931,1,0,0:0:0:0:
36,192,79931,1,0,0:0:0:0:
475,192,79931,1,0,0:0:0:0:
329,192,79931,1,0,0:0:0:0:
329,192,80089,1,0,0:0:0:0:
109,192,80089,1,0,0:0:0:0:
256,192,80168,1,0,0:0:0:0:
182,192,80247,1,0,0:0:0:0:
402,192,80247,1,0,0:0:0:0:
329,192,80326,1,0,0:0:0:0:
256,192,80405,1,0,0:0:0:0:
36,192,80405,1,0,0:0:0:0:
475,192,80405,1,0,0:0:0:0:
402,192,80563,1,0,0:0:0:0:
109,192,80563,1,0,0:0:0:0:
256,192,80563,1,0,0:0:0:0:
329,192,80721,1,0,0:0:0:0:
256,192,80800,1,0,0:0:0:0:
182,192,80878,1,0,0:0:0:0:
36,192,80878,1,0,0:0:0:0:
402,192,80878,1,0,0:0:0:0:
329,192,81036,1,0,0:0:0:0:
329,192,81194,1,0,0:0:0:0:
109,192,81194,1,0,0:0:0:0:
475,192,81194,1,0,0:0:0:0:
109,192,81352,1,0,0:0:0:0:
256,192,81352,1,0,0:0:0:0:
329,192,81431,1,0,0:0:0:0:
402,192,81510,1,0,0:0:0:0:
182,192,81510,1,0,0:0:0:0:
36,192,81510,1,0,0:0:0:0:
256,192,81589,1,0,0:0:0:0:
329,192,81668,1,0,0:0:0:0:
109,192,81668,1,0,0:0:0:0:
182,192,81747,1,0,0:0:0:0:
256,192,81826,1,0,0:0:0:0:
475,192,81826,1,0,0:0:0:0:
402,192,81826,1,0,0:0:0:0:
329,192,81984,1,0,0:0:0:0:
109,192,81984,1,0,0:0:0:0:
329,192,82063,1,0,0:0:0:0:
402,192,82142,1,0,0:0:0:0:
182,192,82142,1,0,0:0:0:0:
256,192,82221,1,0,0:0:0:0:
329,192,82300,1,0,0:0:0:0:
109,192,82300,1,0,0:0:0:0:
36,192,82300,1,0,0:0:0:0:
109,192,82457,1,0,0:0:0:0:
329,192,82457,1,0,0:0:0:0:
475,192,82457,1,0,0:0:0:0:
256,192,82615,1,0,0:0:0:0:
402,192,82615,1,0,0:0:0:0:
182,192,82694,1,0,0:0:0:0:
109,192,82773,1,0,0:0:0:0:
329,192,82773,1,0,0:0:0:0:
475,192,82773,1,0,0:0:0:0:
256,192,82931,1,0,0:0:0:0:
109,192,82931,1,0,0:0:0:0:
329,192,83010,1,0,0:0:0:0:
36,192,83089,1,0,0:0:0:0:
402,192,83089,1,0,0:0:0:0:
182,192,83089,1,0,0:0:0:0:
402,192,83247,1,0,0:0:0:0:
182,192,83247,1,0,0:0:0:0:
329,192,83326,1,0,0:0:0:0:
256,192,83405,1,0,0:0:0:0:
109,192,83405,1,0,0:0:0:0:
109,192,83563,1,0,0:0:0:0:
329,192,83563,1,0,0:0:0:0:
475,192,83563,1,0,0:0:0:0:
329,192,83721,1,0,0:0:0:0:
182,192,83721,1,0,0:0:0:0:
36,192,83721,1,0,0:0:0:0:
329,192,83878,1,0,0:0:0:0:
475,192,83878,1,0,0:0:0:0:
109,192,83878,1,0,0:0:0:0:
256,192,83957,1,0,0:0:0:0:
182,192,84036,1,0,0:0:0:0:
36,192,84036,1,0,0:0:0:0:
402,192,84036,1,0,0:0:0:0:
329,192,84115,1,0,0:0:0:0:
256,192,84194,1,0,0:0:0:0:
109,192,84194,1,0,0:0:0:0:
475,192,84194,1,0,0:0:0:0:
475,192,84352,1,0,0:0:0:0:
329,192,84352,1,0,0:0:0:0:
182,192,84352,1,0,0:0:0:0:
182,192,84510,1,0,0:0:0:0:
402,192,84510,1,0,0:0:0:0:
182,192,84589,1,0,0:0:0:0:
109,192,84668,1,0,0:0:0:0:
329,192,84668,1,0,0:0:0:0:
36,192,84668,1,0,0:0:0:0:
256,192,84747,1,0,0:0:0:0:
182,192,84826,1,0,0:0:0:0:
475,192,84826,1,0,0:0:0:0:
402,192,84826,1,0,0:0:0:0:
329,192,84984,1,0,0:0:0:0:
36,192,84984,1,0,0:0:0:0:
182,192,84984,1,0,0:0:0:0:
402,192,85036,1,0,0:0:0:0:
256,192,85089,1,0,0:0:0:0:
329,192,85142,1,0,0:0:0:0:
182,192,85194,1,0,0:0:0:0:
256,192,85247,1,0,0:0:0:0:
109,192,85300,1,0,0:0:0:0:
36,192,85300,1,0,0:0:0:0:
402,192,85300,1,0,0:0:0:0:
475,192,85300,1,0,0:0:0:0:
329,192,85457,1,0,0:0:0:0:
182,192,85457,1,0,0:0:0:0:
182,192,85615,1,0,0:0:0:0:
329,192,85615,1,0,0:0:0:0:
475,192,85615,1,0,0:0:0:0:
109,192,85668,1,0,0:0:0:0:
256,192,85721,1,0,0:0:0:0:
182,192,85773,1,0,0:0:0:0:
329,192,85826,1,0,0:0:0:0:
256,192,85878,1,0,0:0:0:0:
475,192,85931,1,0,0:0:0:0:
109,192,85931,1,0,0:0:0:0:
36,192,85931,1,0,0:0:0:0:
402,192,85931,1,0,0:0:0:0:
182,192,86089,1,0,0:0:0:0:
329,192,86089,1,0,0:0:0:0:
182,192,86247,1,0,0:0:0:0:
329,192,86247,1,0,0:0:0:0:
36,192,86247,1,0,0:0:0:0:
109,192,86405,1,0,0:0:0:0:
402,192,86484,1,0,0:0:0:0:
256,192,86484,1,0,0:0:0:0:
36,192,86563,1,0,0:0:0:0:
256,192,86642,1,0,0:0:0:0:
402,192,86642,1,0,0:0:0:0:
182,192,86721,1,0,0:0:0:0:
36,192,86721,1,0,0:0:0:0:
256,192,86878,1,0,0:0:0:0:
402,192,86878,1,0,0:0:0:0:
182,192,86957,1,0,0:0:0:0:
36,192,86957,1,0,0:0:0:0:
329,192,87036,1,0,0:0:0:0:
475,192,87036,1,0,0:0:0:0:
256,192,87115,1,0,0:0:0:0:
109,192,87115,1,0,0:0:0:0:
182,192,87194,1,0,0:0:0:0:
329,192,87194,1,0,0:0:0:0:
475,192,87194,1,0,0:0:0:0:
256,192,87352,1,0,0:0:0:0:
182,192,87510,1,0,0:0:0:0:
109,192,87668,1,0,0:0:0:0:
329,192,87786,1,0,0:0:0:0:
475,192,87786,1,0,0:0:0:0:
182,192,87826,1,0,0:0:0:0:
36,192,87826,1,0,0:0:0:0:
475,192,87865,1,0,0:0:0:0:
329,192,87865,1,0,0:0:0:0:
182,192,87905,1,0,0:0:0:0:
36,192,87905,1,0,0:0:0:0:
256,192,88063,1,0,0:0:0:0:
109,192,88063,1,0,0:0:0:0:
329,192,88142,1,0,0:0:0:0:
475,192,88142,1,0,0:0:0:0:
182,192,88221,1,0,0:0:0:0:
36,192,88221,1,0,0:0:0:0:
256,192,88300,1,0,0:0:0:0:
402,192,88300,1,0,0:0:0:0:
36,192,88378,1,0,0:0:0:0:
182,192,88378,1,0,0:0:0:0:
329,192,88457,1,0,0:0:0:0:
475,192,88457,1,0,0:0:0:0:
402,192,88457,1,0,0:0:0:0:
256,192,88536,1,0,0:0:0:0:
182,192,88615,1,0,0:0:0:0:
109,192,88615,1,0,0:0:0:0:
36,192,88615,1,0,0:0:0:0:
329,192,88694,1,0,0:0:0:0:
475,192,88694,1,0,0:0:0:0:
256,192,88773,1,0,0:0:0:0:
109,192,88773,1,0,0:0:0:0:
36,192,88773,1,0,0:0:0:0:
329,192,88931,1,0,0:0:0:0:
182,192,89010,1,0,0:0:0:0:
36,192,89010,1,0,0:0:0:0:
329,192,89089,1,0,0:0:0:0:
475,192,89089,1,0,0:0:0:0:
182,192,89168,1,0,0:0:0:0:
36,192,89168,1,0,0:0:0:0:
256,192,89247,1,0,0:0:0:0:
402,192,89247,1,0,0:0:0:0:
475,192,89247,1,0,0:0:0:0:
329,192,89405,1,0,0:0:0:0:
182,192,89405,1,0,0:0:0:0:
256,192,89563,1,0,0:0:0:0:
109,192,89563,1,0,0:0:0:0:
182,192,89721,1,0,0:0:0:0:
36,192,89721,1,0,0:0:0:0:
329,192,89721,1,0,0:0:0:0:
475,192,89721,1,0,0:0:0:0:
402,192,89878,1,0,0:0:0:0:
256,192,89878,1,0,0:0:0:0:
329,192,90036,1,0,0:0:0:0:
182,192,90036,1,0,0:0:0:0:
36,192,90036,1,0,0:0:0:0:
109,192,90194,1,0,0:0:0:0:
256,192,90194,1,0,0:0:0:0:
402,192,90194,1,0,0:0:0:0:
109,192,90352,1,0,0:0:0:0:
329,192,90431,1,0,0:0:0:0:
475,192,90431,1,0,0:0:0:0:
182,192,90510,1,0,0:0:0:0:
256,192,90510,1,0,0:0:0:0:
36,192,90510,1,0,0:0:0:0:
109,192,90668,1,0,0:0:0:0:
329,192,90668,1,0,0:0:0:0:
256,192,90826,1,0,0:0:0:0:
402,192,90826,1,0,0:0:0:0:
256,192,90984,1,0,0:0:0:0:
475,192,90984,1,0,0:0:0:0:
109,192,90984,1,0,0:0:0:0:
402,192,91063,1,0,0:0:0:0:
329,192,91142,1,0,0:0:0:0:
182,192,91142,1,0,0:0:0:0:
36,192,91142,1,0,0:0:0:0:
182,192,91300,1,0,0:0:0:0:
36,192,91300,1,0,0:0:0:0:
329,192,91300,1,0,0:0:0:0:
475,192,91300,1,0,0:0:0:0:
256,192,91378,1,0,0:0:0:0:
109,192,91457,1,0,0:0:0:0:
402,192,91536,1,0,0:0:0:0:
256,192,91615,1,0,0:0:0:0:
36,192,91615,1,0,0:0:0:0:
182,192,91615,1,0,0:0:0:0:
329,192,91694,1,0,0:0:0:0:
402,192,91773,1,0,0:0:0:0:
475,192,91773,1,0,0:0:0:0:
109,192,91773,1,0,0:0:0:0:
256,192,91931,1,0,0:0:0:0:
36,192,91931,1,0,0:0:0:0:
182,192,91931,1,0,0:0:0:0:
256,192,92089,1,0,0:0:0:0:
329,192,92089,1,0,0:0:0:0:
475,192,92089,1,0,0:0:0:0:
402,192,92247,1,0,0:0:0:0:
475,192,92247,1,0,0:0:0:0:
109,192,92247,1,0,0:0:0:0:
36,192,92247,1,0,0:0:0:0:
182,192,92352,1,0,0:0:0:0:
256,192,92352,1,0,0:0:0:0:
329,192,92352,1,0,0:0:0:0:
256,192,92563,1,0,0:0:0:0:
36,192,92721,1,0,0:0:0:0:
182,192,92721,1,0,0:0:0:0:
329,192,92721,1,0,0:0:0:0:
475,192,92721,1,0,0:0:0:0:
256,192,92878,1,0,0:0:0:0:
109,192,92878,1,0,0:0:0:0:
402,192,92957,1,0,0:0:0:0:
182,192,93036,1,0,0:0:0:0:
402,192,93115,1,0,0:0:0:0:
256,192,93194,1,0,0:0:0:0:
109,192,93194,1,0,0:0:0:0:
36,192,93194,1,0,0:0:0:0:
402,192,93352,1,0,0:0:0:0:
182,192,93352,1,0,0:0:0:0:
329,192,93431,1,0,0:0:0:0:
256,192,93510,1,0,0:0:0:0:
109,192,93510,1,0,0:0:0:0:
36,192,93510,1,0,0:0:0:0:
256,192,93668,1,0,0:0:0:0:
402,192,93668,1,0,0:0:0:0:
329,192,93826,1,0,0:0:0:0:
182,192,93826,1,0,0:0:0:0:
36,192,93826,1,0,0:0:0:0:
109,192,93931,1,0,0:0:0:0:
256,192,93931,1,0,0:0:0:0:
182,192,94036,1,0,0:0:0:0:
329,192,94036,1,0,0:0:0:0:
475,192,94142,1,0,0:0:0:0:
402,192,94142,1,0,0:0:0:0:
256,192,94142,1,0,0:0:0:0:
182,192,94247,1,0,0:0:0:0:
475,192,94247,1,0,0:0:0:0:
402,192,94247,1,0,0:0:0:0:
402,192,94352,1,0,0:0:0:0:
109,192,94352,1,0,0:0:0:0:
475,192,94352,1,0,0:0:0:0:
36,192,94457,1,0,0:0:0:0:
256,192,94457,1,0,0:0:0:0:
475,192,94536,1,0,0:0:0:0:
182,192,94536,1,0,0:0:0:0:
402,192,94536,1,0,0:0:0:0:
329,192,94694,1,0,0:0:0:0:
475,192,94694,1,0,0:0:0:0:
256,192,94773,1,0,0:0:0:0:
109,192,94773,1,0,0:0:0:0:
36,192,94773,1,0,0:0:0:0:
329,192,94931,1,0,0:0:0:0:
182,192,94931,1,0,0:0:0:0:
36,192,94931,1,0,0:0:0:0:
109,192,94931,1,0,0:0:0:0:
182,192,95089,1,0,0:0:0:0:
329,192,95089,1,0,0:0:0:0:
475,192,95089,1,0,0:0:0:0:
256,192,95247,1,0,0:0:0:0:
109,192,95247,1,0,0:0:0:0:
329,192,95326,1,0,0:0:0:0:
182,192,95405,1,0,0:0:0:0:
36,192,95405,1,0,0:0:0:0:
256,192,95484,1,0,0:0:0:0:
329,192,95484,1,0,0:0:0:0:
475,192,95484,1,0,0:0:0:0:
182,192,95563,1,0,0:0:0:0:
36,192,95563,1,0,0:0:0:0:
109,192,95721,1,0,0:0:0:0:
256,192,95721,1,0,0:0:0:0:
402,192,95721,1,0,0:0:0:0:
329,192,95878,1,0,0:0:0:0:
475,192,95878,1,0,0:0:0:0:
256,192,95957,1,0,0:0:0:0:
182,192,96036,1,0,0:0:0:0:
36,192,96036,1,0,0:0:0:0:
402,192,96036,1,0,0:0:0:0:
36,192,96352,1,0,0:0:0:0:
182,192,96352,1,0,0:0:0:0:
256,192,96352,1,0,0:0:0:0:
329,192,96392,1,0,0:0:0:0:
402,192,96431,1,0,0:0:0:0:
475,192,96471,1,0,0:0:0:0:
109,192,96510,1,0,0:0:0:0:
182,192,96550,1,0,0:0:0:0:
256,192,96589,1,0,0:0:0:0:
329,192,96628,1,0,0:0:0:0:
402,192,96668,1,0,0:0:0:0:
109,192,96668,1,0,0:0:0:0:
36,192,96668,1,0,0:0:0:0:
182,192,96747,1,0,0:0:0:0:
256,192,96826,1,0,0:0:0:0:
475,192,96826,1,0,0:0:0:0:
402,192,96905,1,0,0:0:0:0:
329,192,96984,1,0,0:0:0:0:
182,192,96984,1,0,0:0:0:0:
36,192,96984,1,0,0:0:0:0:
256,192,97142,1,0,0:0:0:0:
182,192,97181,1,0,0:0:0:0:
109,192,97221,1,0,0:0:0:0:
36,192,97260,1,0,0:0:0:0:
329,192,97300,1,0,0:0:0:0:
475,192,97300,1,0,0:0:0:0:
182,192,97457,1,0,0:0:0:0:
256,192,97497,1,0,0:0:0:0:
329,192,97536,1,0,0:0:0:0:
402,192,97576,1,0,0:0:0:0:
182,192,97615,1,0,0:0:0:0:
36,192,97615,1,0,0:0:0:0:
329,192,97773,1,0,0:0:0:0:
475,192,97773,1,0,0:0:0:0:
109,192,97892,1,0,0:0:0:0:
182,192,97911,1,0,0:0:0:0:
256,192,97931,1,0,0:0:0:0:
475,192,97971,1,0,0:0:0:0:
402,192,97990,1,0,0:0:0:0:
329,192,98010,1,0,0:0:0:0:
182,192,98089,1,0,0:0:0:0:
36,192,98089,1,0,0:0:0:0:
402,192,98168,1,0,0:0:0:0:
329,192,98247,1,0,0:0:0:0:
109,192,98286,1,0,0:0:0:0:
182,192,98326,1,0,0:0:0:0:
256,192,98365,1,0,0:0:0:0:
475,192,98405,1,0,0:0:0:0:
402,192,98444,1,0,0:0:0:0:
329,192,98484,1,0,0:0:0:0:
256,192,98523,1,0,0:0:0:0:
36,192,98563,1,0,0:0:0:0:
182,192,98563,1,0,0:0:0:0:
256,192,98721,1,0,0:0:0:0:
402,192,98839,1,0,0:0:0:0:
402,192,98957,1,0,0:0:0:0:
402,192,99036,1,0,0:0:0:0:
329,192,99194,1,0,0:0:0:0:
329,192,99273,1,0,0:0:0:0:
182,192,99352,1,0,0:0:0:0:
36,192,99352,1,0,0:0:0:0:
36,192,99431,1,0,0:0:0:0:
182,192,99431,1,0,0:0:0:0:
402,192,99510,1,0,0:0:0:0:
256,192,99668,1,0,0:0:0:0:
109,192,99826,1,0,0:0:0:0:
402,192,99984,1,0,0:0:0:0:
256,192,100142,1,0,0:0:0:0:
182,192,100300,1,0,0:0:0:0:
256,192,100457,1,0,0:0:0:0:
256,192,100536,1,0,0:0:0:0:
329,192,100615,1,0,0:0:0:0:
329,192,100694,1,0,0:0:0:0:
182,192,100773,1,0,0:0:0:0:
36,192,100773,1,0,0:0:0:0:
402,192,100931,1,0,0:0:0:0:
256,192,101089,1,0,0:0:0:0:
109,192,101089,1,0,0:0:0:0:
402,192,101247,1,0,0:0:0:0:
182,192,101405,1,0,0:0:0:0:
36,192,101405,1,0,0:0:0:0:
36,192,101555,1,0,0:0:0:0:
182,192,101555,1,0,0:0:0:0:
36,192,101705,1,0,0:0:0:0:
182,192,101705,1,0,0:0:0:0:
329,192,101805,128,0,102173:0:0:0:0:
36,192,102081,1,0,0:0:0:0:
109,192,102104,1,0,0:0:0:0:
182,192,102127,1,0,0:0:0:0:
402,192,102173,128,0,102595:0:0:0:0:
182,192,102331,1,0,0:0:0:0:
109,192,102357,1,0,0:0:0:0:
36,192,102384,1,0,0:0:0:0:
256,192,102489,128,0,102542:0:0:0:0:
475,192,102595,128,0,103716:0:0:0:0:
182,192,102595,128,0,103716:0:0:0:0:
402,192,102805,1,0,0:0:0:0:
329,192,102840,1,0,0:0:0:0:
256,192,102875,1,0,0:0:0:0:
402,192,103050,1,0,0:0:0:0:
329,192,103120,1,0,0:0:0:0:
402,192,103202,1,0,0:0:0:0:
329,192,103295,1,0,0:0:0:0:
402,192,103366,1,0,0:0:0:0:
109,192,103611,1,0,0:0:0:0:
256,192,103716,128,0,104304:0:0:0:0:
109,192,103752,1,0,0:0:0:0:
109,192,103899,1,0,0:0:0:0:
329,192,104304,128,0,105629:0:0:0:0:
36,192,104304,128,0,105629:0:0:0:0:
109,192,104856,1,0,0:0:0:0:
182,192,104884,1,0,0:0:0:0:
256,192,104925,1,0,0:0:0:0:
402,192,105629,128,0,106710:0:0:0:0:
256,192,105629,128,0,105696:0:0:0:0:
182,192,106507,128,0,106574:0:0:0:0:
109,192,106710,128,0,109953:0:0:0:0:
256,192,106710,128,0,109953:0:0:0:0:
402,192,106777,128,0,106845:0:0:0:0:
