osu file format v14

[General]
AudioFilename: audio.mp3
AudioLeadIn: 0
PreviewTime: -1
Countdown: 0
SampleSet: None
StackLeniency: 0.7
Mode: 0
LetterboxInBreaks: 0
WidescreenStoryboard: 1

[Editor]
DistanceSpacing: 1.1
BeatDivisor: 4
GridSize: 8
TimelineZoom: 1

[Metadata]
Title:How Did I Get Here
TitleUnicode:How Did I Get Here
Artist:ODESZA
ArtistUnicode:ODESZA
Creator:PedroSora
Version:When
Source:
Tags:Chill
BeatmapID:2269640
BeatmapSetID:1085342

[Difficulty]
HPDrainRate:5
CircleSize:3.7
OverallDifficulty:7
ApproachRate:8
SliderMultiplier:1.4
SliderTickRate:1

[Events]
//Background and Video events
0,0,"aoi-ogata-ny.jpg",0,0
//Break Periods
//Storyboard Layer 0 (Background)
//Storyboard Layer 1 (Fail)
//Storyboard Layer 2 (Pass)
//Storyboard Layer 3 (Foreground)
//Storyboard Layer 4 (Overlay)
//Storyboard Sound Samples

[TimingPoints]
13883,625,4,2,0,100,1,0

[Colours]
Combo1 : 222,211,1
Combo2 : 14,188,101
Combo3 : 1,9,101
Combo4 : 240,26,90

[HitObjects]
290,66,13883,6,0,L|187:74,1,70
423,111,14403,1,0,0:0:0:0:
413,280,14820,2,0,P|348:305|233:320,1,175
73,127,15758,5,0,0:0:0:0:
165,38,16070,1,0,0:0:0:0:
267,129,16383,1,0,0:0:0:0:
425,39,16695,1,0,0:0:0:0:
466,169,17008,6,0,P|428:160|332:221,1,140
256,192,17789,12,0,18726,0:0:0:0:
257,173,18883,5,0,0:0:0:0:
88,72,19195,2,0,P|70:128|93:166,1,105
165,229,19820,1,0,0:0:0:0:
275,314,20133,2,0,P|239:283|248:200,1,105
418,66,20758,5,0,0:0:0:0:
409,201,21070,1,0,0:0:0:0:
308,299,21383,1,0,0:0:0:0:
211,205,21695,1,0,0:0:0:0:
336,69,22008,2,0,P|263:100|240:136,1,116.666666666667
204,221,22633,5,0,0:0:0:0:
113,315,22945,1,0,0:0:0:0:
77,199,23101,2,0,P|72:144|83:131,1,70
252,165,23570,1,0,0:0:0:0:
362,291,23726,6,0,B|362:243|391:225|419:220|435:222|448:195|447:184|424:158|410:147|394:136|379:127|366:128|345:136|333:147|326:161|323:180,1,280
362,340,25133,1,0,0:0:0:0:
161,352,25445,1,0,0:0:0:0:
32,227,25758,1,0,0:0:0:0:
120,89,26070,1,0,0:0:0:0:
258,28,26383,2,0,P|235:55|243:80,1,35
382,92,26695,1,0,0:0:0:0:
443,218,27008,1,0,0:0:0:0:
190,298,27320,6,0,B|226:268|233:249|214:209|166:194,1,140
80,98,28258,1,0,0:0:0:0:
225,45,28570,1,0,0:0:0:0:
362,90,28883,1,0,0:0:0:0:
146,153,29195,2,0,P|119:96|86:89,1,70
318,56,29820,1,0,0:0:0:0:
440,158,30133,2,0,L|395:229,2,70
110,311,31070,5,0,0:0:0:0:
80,225,31383,2,0,P|46:175|59:148,1,70
118,72,32008,1,0,0:0:0:0:
275,48,32320,2,0,P|322:46|341:69,1,70
371,189,32945,1,0,0:0:0:0:
223,187,33101,1,0,0:0:0:0:
357,293,33258,1,0,0:0:0:0:
218,291,33414,1,0,0:0:0:0:
71,160,33883,6,0,B|53:115|98:67|110:35,1,105
331,53,34508,1,0,0:0:0:0:
213,267,34820,1,0,0:0:0:0:
81,50,35133,1,0,0:0:0:0:
182,147,35445,2,0,P|154:182|184:219,1,70
361,270,36070,1,0,0:0:0:0:
440,32,36383,6,0,P|402:59|397:97,1,70
374,320,37008,1,0,0:0:0:0:
78,71,37320,1,0,0:0:0:0:
173,320,37633,1,0,0:0:0:0:
321,77,37945,1,0,0:0:0:0:
76,242,38258,1,0,0:0:0:0:
220,34,38570,1,0,0:0:0:0:
413,118,38883,6,0,L|410:173,2,35
320,293,39508,5,0,0:0:0:0:
243,219,39664,5,0,0:0:0:0:
161,298,39820,5,0,0:0:0:0:
92,221,39976,5,0,0:0:0:0:
246,145,40133,6,0,L|245:186,3,35
388,61,40758,1,0,0:0:0:0:
409,177,41070,2,0,P|368:177|346:189,1,46.6666666666667
229,208,41383,5,0,0:0:0:0:
128,112,41539,1,0,0:0:0:0:
237,50,41695,1,0,0:0:0:0:
321,125,41851,1,0,0:0:0:0:
238,201,42008,1,0,0:0:0:0:
139,123,42164,1,0,0:0:0:0:
239,57,42320,1,0,0:0:0:0:
319,114,42476,1,0,0:0:0:0:
436,154,42633,6,0,P|408:188|409:252,1,105
354,340,43258,2,0,P|278:283|247:295,1,105
172,309,43883,2,0,P|102:289|80:235,1,105
91,151,44508,1,0,0:0:0:0:
214,74,44820,1,0,0:0:0:0:
391,70,45133,6,0,P|354:110|391:129,1,105
428,230,45758,2,0,P|409:262|344:300,1,105
237,294,46383,2,0,P|254:233|222:181,1,105
125,143,47008,1,0,0:0:0:0:
231,60,47320,1,0,0:0:0:0:
72,48,47633,6,0,P|149:45|194:68,1,105
337,68,48258,2,0,B|373:77|406:105|402:141,1,105
237,280,48883,2,0,B|260:250|242:218|234:208|269:174,1,105
411,129,49508,1,0,0:0:0:0:
234,71,49820,1,0,0:0:0:0:
72,158,50133,6,0,P|95:211|140:220,1,105
245,297,50758,2,0,P|259:247|306:211,1,105
419,226,51383,2,0,P|434:161|396:112,1,105
266,143,52008,1,0,0:0:0:0:
237,267,52320,1,0,0:0:0:0:
363,91,52633,5,0,0:0:0:0:
315,224,52945,1,0,0:0:0:0:
453,58,53101,1,0,0:0:0:0:
384,261,53414,1,0,0:0:0:0:
156,279,53883,6,0,B|158:221|212:203|216:192|217:178|211:159|200:148|180:138|166:134|146:136|131:140|120:147|108:157|100:165|107:188|115:192,1,245
154,331,55133,1,0,0:0:0:0:
374,313,55758,6,0,P|360:260|403:201,1,105
464,147,56383,2,0,P|435:120|348:120,1,105
285,186,57008,2,0,P|218:158|208:103,1,105
457,46,57633,1,0,0:0:0:0:
367,169,57945,1,0,0:0:0:0:
384,341,58258,6,0,P|309:342|288:308,1,105
327,189,58883,2,0,P|278:190|227:225,1,105
116,293,59508,2,0,P|88:247|106:188,1,105
199,96,60133,1,0,0:0:0:0:
398,73,60445,1,0,0:0:0:0:
345,220,60758,6,0,P|339:160|299:134,1,105
174,178,61383,2,0,P|157:137|195:79,1,105
255,247,62008,2,0,P|211:277|146:270,1,105
73,138,62633,5,0,0:0:0:0:
252,37,62945,1,0,0:0:0:0:
436,131,63258,1,0,0:0:0:0:
241,249,63570,1,0,0:0:0:0:
408,315,63883,6,0,B|391:262|406:246|426:226|422:210|409:180,1,140
274,61,64664,1,0,0:0:0:0:
274,216,64976,1,0,0:0:0:0:
305,141,65133,6,0,L|247:142,1,35
222,278,65445,1,0,0:0:0:0:
99,169,65758,1,0,0:0:0:0:
212,60,66070,1,0,0:0:0:0:
426,71,66383,6,0,B|407:117|411:120|420:125|431:139|431:158|425:169|401:204,1,140
336,300,67164,1,0,0:0:0:0:
193,220,67476,1,0,0:0:0:0:
407,151,67633,1,0,0:0:0:0:
246,50,67945,1,0,0:0:0:0:
94,150,68258,1,0,0:0:0:0:
220,251,68570,1,0,0:0:0:0:
79,49,68883,6,0,B|66:88|72:106|88:116|106:148|98:186,1,140
143,247,69664,1,0,0:0:0:0:
245,67,69976,1,0,0:0:0:0:
213,146,70133,6,0,L|278:146,1,35
247,224,70445,5,0,0:0:0:0:
409,188,70758,1,0,0:0:0:0:
363,329,71070,1,0,0:0:0:0:
103,338,71383,6,0,B|88:301|109:276|115:257|111:234|92:194,1,140
116,113,72164,1,0,0:0:0:0:
293,150,72476,5,0,0:0:0:0:
391,62,72633,5,0,0:0:0:0:
442,212,72945,1,0,0:0:0:0:
294,309,73258,1,0,0:0:0:0:
150,224,73570,1,0,0:0:0:0:
93,77,73883,6,0,B|136:63|216:78|250:88|255:90,1,140
320,95,74664,1,0,0:0:0:0:
150,196,74976,1,0,0:0:0:0:
251,199,75133,6,0,L|250:240,1,35
363,197,75445,5,0,0:0:0:0:
277,36,75758,1,0,0:0:0:0:
76,125,76070,1,0,0:0:0:0:
119,282,76383,6,0,P|225:273|285:278,1,140
359,249,77164,1,0,0:0:0:0:
236,132,77476,1,0,0:0:0:0:
135,223,77633,1,0,0:0:0:0:
72,58,77945,1,0,0:0:0:0:
230,203,78258,1,0,0:0:0:0:
394,70,78570,1,0,0:0:0:0:
458,317,78883,6,0,B|412:298|376:307|353:323|316:321|306:311,1,140
177,295,79664,1,0,0:0:0:0:
376,141,79976,1,0,0:0:0:0:
386,274,80133,1,0,0:0:0:0:
256,192,80445,12,0,82320,0:0:0:0:
50,148,82633,6,0,P|94:117|173:122,1,105
155,212,83258,2,0,P|218:206|246:144,1,105
229,76,83883,2,0,P|306:85|335:115,1,105
341,193,84508,2,0,P|394:169|412:128,1,105
334,263,85133,2,0,B|292:243|263:207|269:153,1,105
309,92,85758,6,0,B|248:96|226:110|200:146,1,105
117,234,86383,1,0,0:0:0:0:
266,341,86695,1,0,0:0:0:0:
434,259,87008,1,0,0:0:0:0:
262,80,87320,1,0,0:0:0:0:
108,144,87633,6,0,P|150:155|194:204,1,105
323,318,88258,2,0,P|268:291|223:292,1,105
101,317,88883,2,0,B|87:279|93:249|134:220,1,105
204,266,89508,2,0,P|227:231|208:158,1,105
326,108,90133,2,0,P|289:82|209:78,1,105
88,141,90758,5,0,0:0:0:0:
252,54,91070,1,0,0:0:0:0:
429,122,91383,1,0,0:0:0:0:
248,273,91695,1,0,0:0:0:0:
409,281,92008,6,0,B|357:260|333:243|326:219,1,105
427,157,92633,2,0,P|373:126|305:141,1,105
279,57,93258,2,0,P|245:102|255:163,1,105
238,237,93883,2,0,P|291:226|330:173,1,105
238,136,94508,2,0,P|301:105|361:123,1,105
412,157,95133,2,0,P|425:115|396:60,1,105
208,102,95758,5,0,0:0:0:0:
413,243,96070,1,0,0:0:0:0:
223,313,96383,1,0,0:0:0:0:
325,65,96695,1,0,0:0:0:0:
100,229,97008,1,0,0:0:0:0:
344,168,97320,5,0,0:0:0:0:
224,249,97476,1,0,0:0:0:0:
118,159,97633,6,0,L|161:158,3,35
217,83,98258,2,0,L|175:83,3,35
145,243,98883,2,0,L|206:241,3,35
245,106,99508,2,0,L|244:163,3,35
141,250,100133,6,0,P|198:243|246:252,1,105
367,244,100758,2,0,P|353:193|376:146,1,105
287,62,101383,2,0,P|223:47|166:55,1,105
72,99,102008,2,0,P|58:139|71:199,1,105
