osu file format v14

[General]
AudioFilename: audio.mp3
AudioLeadIn: 0
PreviewTime: 105500
Countdown: 0
SampleSet: Soft
StackLeniency: 0.7
Mode: 0
LetterboxInBreaks: 0
WidescreenStoryboard: 1

[Editor]
DistanceSpacing: 1
BeatDivisor: 4
GridSize: 32
TimelineZoom: 1.6

[Metadata]
Title:Black Out
TitleUnicode:Black Out
Artist:OBSYDIA
ArtistUnicode:OBSYDIA
Creator:SMOKELIND
Version:Pepekcz's Hard
Source:
Tags:ペトラ グリン Petra Gurin せれん たつき Selen Tatsuki ろぜみ らぶろっく Rosemi Lovelock にじさんじ Nijisanji EN English Ryushen 緑仙 Giga TeddyLoid Electronic VTuber Pop ロゼミ ラブロック セレン 龍月 -Aqua Laplus- La+- Flake Pepekcz Basensorex
BeatmapID:3331727
BeatmapSetID:1532556

[Difficulty]
HPDrainRate:4
CircleSize:3.6
OverallDifficulty:7
ApproachRate:8
SliderMultiplier:1.4
SliderTickRate:1

[Events]
//Background and Video events
Video,0,"vid.mp4"
0,0,"BG.jpg",0,0
//Break Periods
2,104199,109650
2,137800,141650
//Storyboard Layer 0 (Background)
//Storyboard Layer 1 (Fail)
//Storyboard Layer 2 (Pass)
//Storyboard Layer 3 (Foreground)
//Storyboard Layer 4 (Overlay)
//Storyboard Sound Samples

[TimingPoints]
0,400,4,2,77,47,1,0
0,-200,4,2,77,47,0,0
12400,-500,4,2,77,47,0,0
12800,-166.666666666667,4,2,77,57,0,0
24000,-125,4,2,77,67,0,0
25600,-111.111111111111,4,2,77,67,0,0
37600,-111.111111111111,4,2,77,57,0,0
38000,-111.111111111111,4,2,77,67,0,0
38400,-125,4,2,77,67,0,0
51200,-166.666666666667,4,2,77,57,0,0
52800,-166.666666666667,4,2,77,47,0,0
57600,-166.666666666667,4,2,77,57,0,0
58800,-166.666666666667,4,2,77,47,0,0
64000,-111.111111111111,4,2,77,67,0,0
65600,-100,4,2,77,87,0,0
78400,-111.111111111111,4,2,77,67,0,0
78700,-111.111111111111,4,2,77,67,0,0
91200,-100,4,2,77,77,0,0
104000,-125,4,2,77,77,0,0
104100,-125,4,2,77,47,0,0
107200,-166.666666666667,4,2,77,47,0,0
110400,-111.111111111111,4,2,77,57,0,0
123200,-166.666666666667,4,2,77,57,0,0
124799,-166.666666666667,4,2,77,47,0,0
129599,-166.666666666667,4,2,77,57,0,0
130799,-166.666666666667,4,2,77,47,0,0
135999,-111.111111111111,4,2,77,67,0,0
137599,-111.111111111111,4,2,77,57,0,0
143200,-111.111111111111,4,2,77,67,0,0
144000,-111.111111111111,4,2,77,77,0,0
149800,-111.111111111111,4,2,77,57,0,0
150399,-100,4,2,77,67,0,0
163199,-100,4,2,77,77,0,0
176000,-111.111111111111,4,2,77,77,0,0

[Colours]
Combo1 : 75,75,75
Combo2 : 131,0,131
Combo3 : 155,0,0
Combo4 : 211,100,0
Combo5 : 183,183,183

[HitObjects]
476,344,12800,5,8,1:0:0:0:
384,272,13200,2,0,L|344:284,1,41.9999987182618,2|2,0:0|0:0,0:0:0:0:
252,208,13800,2,0,L|291:195,1,41.9999987182618,2|2,0:0|0:0,0:0:0:0:
384,124,14400,6,0,P|380:80|300:56,1,125.999996154785,2|8,0:0|0:1,0:0:0:0:
304,56,15100,1,8,0:1:0:0:
296,64,15200,2,0,P|255:51|215:41,1,83.9999974365235,8|8,0:1|0:1,0:0:0:0:
100,56,16000,5,8,0:1:0:0:
48,160,16400,2,0,P|44:184|48:204,1,41.9999987182618,2|2,0:0|0:0,0:0:0:0:
32,316,17000,2,0,P|46:335|63:347,1,41.9999987182618,2|2,0:0|0:0,0:0:0:0:
159,284,17600,6,0,P|200:295|240:309,1,83.9999974365235,10|2,0:1|0:0,0:0:0:0:
308,344,18200,1,10,0:1:0:0:
316,340,18300,1,8,0:1:0:0:
328,336,18400,2,0,P|368:347|408:361,1,83.9999974365235,10|10,0:1|0:1,0:0:0:0:
504,284,19200,5,8,0:1:0:0:
428,196,19600,2,0,P|404:196|384:204,1,41.9999987182618,2|2,0:0|0:0,0:0:0:0:
292,272,20200,2,0,P|268:272|248:264,1,41.9999987182618,2|2,0:0|0:0,0:0:0:0:
148,212,20800,6,0,P|132:184|172:108,1,125.999996154785,2|0,0:0|0:0,0:0:0:0:
244,88,21600,6,0,L|260:148,2,55.9999982910157,8|8|8,0:1|0:1|0:1,0:0:0:0:
320,24,22400,1,8,0:1:0:0:
412,96,22800,6,0,L|400:140,1,41.9999987182618,2|2,0:0|0:0,0:0:0:0:
440,248,23400,2,0,L|428:292,1,41.9999987182618,2|2,0:0|0:0,0:0:0:0:
280,340,24000,6,0,P|289:302|300:260,2,74.6666666666667,10|10|10,1:0|1:0|1:0,0:0:0:0:
180,364,24800,2,0,P|140:372|88:316,1,112,10|10,1:0|1:0,0:0:0:0:
28,164,25600,5,14,0:0:0:0:
28,164,25800,2,0,P|58:152|104:136,1,62.9999980773926,10|10,0:1|0:1,0:0:0:0:
160,92,26200,1,2,3:0:0:0:
160,92,26400,2,0,P|189:100|232:116,2,62.9999980773926,0|0|8,0:0|0:0|0:0,0:0:0:0:
86,141,27000,5,8,0:1:0:0:
92,156,27100,1,8,0:1:0:0:
100,172,27200,2,0,P|92:202|84:240,1,62.9999980773926,10|10,1:0|0:1,0:0:0:0:
152,292,27600,2,0,P|159:261|166:230,1,62.9999980773926,10|2,0:1|0:0,0:0:0:0:
248,192,28000,1,8,0:0:0:0:
248,192,28200,1,8,0:0:0:0:
304,124,28400,5,8,0:1:0:0:
320,116,28500,1,8,0:1:0:0:
336,108,28600,1,8,0:1:0:0:
352,100,28700,1,0,0:0:0:0:
368,92,28800,6,0,L|404:108,3,31.4999990386963,10|0|8|0,0:0|0:0|0:1|0:0,0:0:0:0:
440,104,29200,2,0,L|452:75,2,31.4999990386963,10|0|8,0:1|0:0|0:0,0:0:0:0:
404,184,29600,1,0,3:0:0:0:
408,200,29700,1,0,3:0:0:0:
412,216,29800,1,0,3:0:0:0:
400,304,30000,2,0,L|364:312,1,31.4999990386963,8|0,0:0|0:0,0:0:0:0:
332,336,30200,2,0,L|301:329,1,31.4999990386963,8|0,0:0|0:0,0:0:0:0:
264,304,30400,6,0,L|233:310,3,31.4999990386963,0|0|8|0,1:0|0:0|0:1|0:0,0:0:0:0:
192,328,30800,2,0,L|161:321,3,31.4999990386963,10|0|10|0,0:1|0:0|0:1|0:0,0:0:0:0:
120,308,31200,1,0,3:0:0:0:
120,308,31400,1,0,3:0:0:0:
60,244,31600,5,2,3:0:0:0:
64,228,31700,1,0,0:0:0:0:
68,212,31800,1,0,0:0:0:0:
72,196,31900,1,0,0:0:0:0:
76,180,32000,6,0,L|64:144,3,31.4999990386963,10|0|10|0,0:0|0:0|0:1|0:0,0:0:0:0:
52,108,32400,1,0,1:0:0:0:
52,108,32600,1,10,0:0:0:0:
124,56,32800,2,0,L|160:40,3,31.4999990386963,0|0|0|0,1:0|3:0|1:0|3:0,0:0:0:0:
196,28,33200,1,8,0:0:0:0:
284,28,33400,5,0,3:0:0:0:
300,36,33500,1,0,3:0:0:0:
312,44,33600,2,0,L|300:84,3,31.4999990386963,10|0|2|0,0:0|0:0|0:0|0:0,0:0:0:0:
276,112,34000,2,0,L|288:152,3,31.4999990386963,10|0|2|0,0:0|0:0|0:0|0:0,0:0:0:0:
304,188,34400,1,10,0:0:0:0:
304,188,34600,1,10,0:0:0:0:
348,264,34800,5,0,3:0:0:0:
364,256,34900,1,0,3:0:0:0:
380,248,35000,1,0,3:0:0:0:
396,240,35100,1,0,3:0:0:0:
412,232,35200,6,0,L|424:196,3,31.4999990386963,8|0|8|0,0:0|0:0|0:0|0:0,0:0:0:0:
444,164,35600,2,0,L|480:176,2,31.4999990386963,8|0|8,0:0|0:0|0:0,0:0:0:0:
388,96,36000,1,8,0:0:0:0:
372,100,36100,1,8,0:0:0:0:
356,104,36200,1,8,0:0:0:0:
276,140,36400,2,0,L|236:128,1,31.4999990386963,8|0,0:0|0:0,0:0:0:0:
204,116,36600,2,0,L|173:125,1,31.4999990386963,0|0,3:0|0:0,0:0:0:0:
132,136,36800,6,8,P|112:168|108:200,1,62.9999980773926,10|2,0:0|3:0,0:0:0:0:
20,208,37200,2,0,P|28:244|48:270,1,62.9999980773926,2|8,3:0|0:0,0:0:0:0:
20,352,37600,2,0,P|52:372|84:376,1,62.9999980773926,2|0,3:0|3:0,0:0:0:0:
140,316,38000,1,10,0:0:0:0:
260,216,38400,6,0,P|300:216|344:280,1,112,4|2,1:0|0:0,0:0:0:0:
368,344,39000,1,2,1:0:0:0:
428,292,39200,2,0,P|435:264|444:232,1,56,10|2,0:0|0:0,0:0:0:0:
504,192,39600,2,0,P|496:164|488:132,1,56,2|2,1:0|0:0,0:0:0:0:
440,76,40000,6,0,P|412:83|380:92,1,56,2|0,0:0|1:0,0:0:0:0:
320,136,40400,1,2,1:0:0:0:
320,136,40600,1,2,0:0:0:0:
256,184,40800,6,0,P|212:188|168:156,1,84,10|0,0:0|0:0,0:0:0:0:
148,140,41200,2,0,P|155:112|162:85,1,56,2|0,1:0|0:0,0:0:0:0:
56,36,41600,6,0,P|48:62|41:90,1,56,0|2,1:0|0:0,0:0:0:0:
12,164,42000,2,0,P|19:190|26:218,1,56,2|0,0:0|1:0,0:0:0:0:
56,292,42400,2,0,P|79:306|107:307,1,56,10|2,0:0|0:0,0:0:0:0:
176,268,42800,1,2,1:0:0:0:
176,268,43000,1,2,0:0:0:0:
236,216,43200,6,0,P|259:201|287:200,1,56,2|0,0:0|1:0,0:0:0:0:
360,240,43600,1,2,1:0:0:0:
360,240,43800,1,2,0:0:0:0:
412,180,44000,2,0,P|419:152|427:126,1,56,10|0,0:0|1:0,0:0:0:0:
420,48,44400,1,2,1:0:0:0:
420,48,44600,1,2,1:0:0:0:
300,16,44800,6,0,P|268:16|244:32,1,56,2|2,1:0|0:0,0:0:0:0:
200,88,45200,2,0,P|168:88|144:72,1,56,2|0,0:0|1:0,0:0:0:0:
88,24,45600,1,8,0:0:0:0:
88,24,45800,1,2,0:0:0:0:
36,84,46000,2,0,P|44:114|52:144,1,56,2|2,1:0|0:0,0:0:0:0:
76,212,46400,6,0,P|99:227|126:232,1,56,2|2,0:0|1:0,0:0:0:0:
192,192,46800,2,0,P|215:176|242:171,1,56,2|2,1:0|0:0,0:0:0:0:
312,212,47200,2,0,P|336:228|364:232,1,56,10|2,0:0|0:0,0:0:0:0:
436,200,47600,1,2,1:0:0:0:
436,200,47800,1,2,0:0:0:0:
512,288,48000,6,0,P|504:316|496:348,1,56,2|2,1:0|0:0,0:0:0:0:
424,364,48400,2,0,P|395:356|364:348,1,56,2|0,0:0|1:0,0:0:0:0:
308,308,48800,1,8,0:0:0:0:
308,308,49000,1,2,0:0:0:0:
244,260,49200,2,0,P|216:267|189:274,1,56,2|2,1:0|0:0,0:0:0:0:
132,328,49600,6,0,P|104:312|92:280,1,56,2|2,0:0|1:0,0:0:0:0:
28,248,50000,2,0,P|19:216|33:185,1,56,2|2,1:0|0:0,0:0:0:0:
72,132,50400,1,10,0:0:0:0:
132,84,50600,1,2,0:0:0:0:
144,80,50700,1,0,0:0:0:0:
156,76,50800,2,0,P|182:84|208:94,1,56,2|0,1:0|0:0,0:0:0:0:
272,176,51200,6,0,B|328:132|408:180|352:232|428:284|484:240,1,251.999992309571,4|0,1:0|0:0,0:0:0:0:
492,92,52800,6,0,P|451:82|410:73,1,83.9999974365235,2|2,0:0|0:0,0:0:0:0:
268,24,53600,2,0,L|216:36,1,41.9999987182618,2|2,0:0|0:0,0:0:0:0:
164,76,54000,2,0,L|112:64,1,41.9999987182618,2|2,0:0|0:0,0:0:0:0:
24,48,54400,6,0,P|34:92|44:136,1,83.9999974365235,0|2,0:0|0:0,0:0:0:0:
72,280,55200,2,0,P|116:269|160:260,1,83.9999974365235,2|2,0:0|0:0,0:0:0:0:
216,216,55800,1,2,0:0:0:0:
216,216,56000,1,2,0:0:0:0:
336,312,56400,5,2,0:0:0:0:
336,312,56600,2,0,P|360:304|376:292,1,41.9999987182618,2|0,0:0|0:0,0:0:0:0:
448,272,57000,2,0,P|459:249|462:229,1,41.9999987182618,2|0,0:0|0:0,0:0:0:0:
436,132,57400,5,2,0:0:0:0:
436,132,57600,2,0,L|388:120,1,41.9999987182618,4|0,1:0|0:0,0:0:0:0:
331,80,58000,2,0,P|249:96|169:121,1,167.999994873047,0|2,0:0|0:0,0:0:0:0:
96,256,59200,6,0,L|108:300,1,41.9999987182618,2|2,0:0|0:0,0:0:0:0:
184,288,59600,2,0,L|172:247,1,41.9999987182618,2|2,0:0|0:0,0:0:0:0:
220,188,60000,1,2,0:0:0:0:
336,284,60400,2,0,P|360:292|380:292,1,41.9999987182618,2|2,0:0|0:0,0:0:0:0:
448,268,60800,6,0,L|464:340,2,62.9999980773926,2|2|2,0:0|0:0|0:0,0:0:0:0:
408,204,61600,2,0,L|420:152,1,41.9999987182618,2|0,0:0|0:0,0:0:0:0:
436,88,62000,5,2,0:0:0:0:
436,88,62200,2,0,B|392:60|332:96|368:128|304:168|252:140,1,209.999993591309,2|0,0:0|0:0,0:0:0:0:
252,140,64000,6,0,L|240:184,1,31.4999990386963,10|10,0:0|0:0,0:0:0:0:
364,228,64400,6,0,L|355:197,1,31.4999990386963,10|10,0:0|0:0,0:0:0:0:
448,104,64800,5,2,1:0:0:0:
392,36,65000,1,0,1:0:0:0:
376,32,65100,1,0,1:0:0:0:
360,28,65200,2,0,P|329:35|298:43,1,62.9999980773926,8|0,0:0|0:0,0:0:0:0:
204,132,65600,6,0,P|170:121|136:112,1,70,6|0,1:0|0:0,0:0:0:0:
44,144,66000,2,0,P|33:177|24:211,1,70,2|0,0:0|1:0,0:0:0:0:
84,288,66400,2,0,P|116:312|152:308,1,70,10|0,0:0|0:0,0:0:0:0:
228,256,66800,1,2,1:0:0:0:
296,324,67000,1,2,0:0:0:0:
368,256,67200,6,0,P|384:224|380:188,1,70,2|0,0:0|1:0,0:0:0:0:
468,144,67600,2,0,P|456:110|428:87,1,70,2|0,1:0|0:0,0:0:0:0:
332,96,68000,2,0,P|298:105|264:115,1,70,10|0,0:0|1:0,0:0:0:0:
192,180,68400,1,2,0:0:0:0:
124,108,68600,1,2,0:0:0:0:
52,176,68800,6,0,P|24:224|48:284,1,105,6|0,1:0|0:0,0:0:0:0:
64,312,69200,1,2,0:0:0:0:
148,360,69400,2,0,P|182:351|216:343,1,70,2|8,1:0|0:0,0:0:0:0:
300,292,69800,1,2,0:0:0:0:
384,340,70000,2,0,B|420:312|420:312|384:208,1,140,2|0,1:0|0:0,0:0:0:0:
328,148,70600,5,0,1:0:0:0:
388,72,70800,2,0,P|351:61|320:52,1,70,0|0,1:0|0:0,0:0:0:0:
228,88,71200,2,0,P|217:124|208:156,1,70,8|0,0:0|1:0,0:0:0:0:
152,236,71600,1,0,0:0:0:0:
220,308,71800,1,0,1:0:0:0:
108,376,72000,6,0,P|72:380|36:356,1,70,6|0,1:0|0:0,0:0:0:0:
4,276,72400,2,0,P|0:240|24:204,1,70,2|0,0:0|1:0,0:0:0:0:
92,148,72800,2,0,P|125:135|160:124,1,70,10|0,0:0|0:0,0:0:0:0:
236,68,73200,1,2,1:0:0:0:
296,144,73400,1,2,0:0:0:0:
356,68,73600,6,0,P|389:79|421:91,1,70,2|0,0:0|1:0,0:0:0:0:
484,168,74000,2,0,P|471:200|460:233,1,70,2|0,1:0|0:0,0:0:0:0:
428,328,74400,2,0,P|396:344|360:336,1,70,10|0,0:0|1:0,0:0:0:0:
288,276,74800,1,2,0:0:0:0:
220,348,75000,1,2,0:0:0:0:
160,272,75200,6,0,B|108:268|120:320|68:316,1,105,2|0,1:0|0:0,0:0:0:0:
28,292,75600,1,2,0:0:0:0:
8,196,75800,2,0,P|15:162|23:127,1,70,2|8,1:0|0:0,0:0:0:0:
88,52,76200,1,2,0:0:0:0:
164,112,76400,2,0,B|232:128|216:40|288:56,1,140,2|0,1:0|0:0,0:0:0:0:
368,104,77000,5,0,1:0:0:0:
452,52,77200,2,0,P|460:84|468:124,1,70,0|0,1:0|0:0,0:0:0:0:
508,212,77600,2,0,P|499:244|492:284,1,70,8|0,0:0|1:0,0:0:0:0:
432,356,78000,1,2,0:0:0:0:
372,280,78200,1,2,1:0:0:0:
272,344,78400,6,0,P|226:353|180:364,2,94.499997116089,6|2|2,1:0|0:0|0:0,0:0:0:0:
292,256,79200,2,0,P|279:195|264:124,1,125.999996154785,2|2,1:0|1:0,0:0:0:0:
208,64,79800,1,2,0:0:0:0:
128,24,80000,6,0,P|84:8|36:16,2,94.499997116089,2|2|2,1:0|0:0|0:0,0:0:0:0:
108,112,80800,2,0,P|121:173|134:235,1,125.999996154785,2|2,1:0|1:0,0:0:0:0:
128,324,81400,1,2,1:0:0:0:
52,280,81600,6,0,P|41:232|28:176,2,94.499997116089,6|2|2,1:0|0:0|0:0,0:0:0:0:
128,324,82400,2,0,P|152:340|192:340,1,62.9999980773926,2|0,1:0|0:0,0:0:0:0:
256,292,82800,1,2,1:0:0:0:
308,220,83000,6,0,P|344:208|412:268,1,125.999996154785,2|0,0:0|0:0,0:0:0:0:
472,316,83600,2,0,P|480:287|492:252,1,62.9999980773926,0|0,1:0|0:0,0:0:0:0:
452,176,84000,2,0,P|460:147|472:112,1,62.9999980773926,0|0,1:0|0:0,0:0:0:0:
444,32,84400,1,2,1:0:0:0:
444,32,84600,1,2,0:0:0:0:
344,100,84800,6,0,P|333:145|322:192,2,94.499997116089,6|2|2,1:0|0:0|0:0,0:0:0:0:
276,44,85600,2,0,B|216:36|232:104|168:96,1,125.999996154785,10|10,0:0|0:0,0:0:0:0:
92,52,86200,1,2,0:0:0:0:
32,116,86400,6,0,P|8:96|12:24,2,94.499997116089,10|0|2,0:0|0:0|0:0,0:0:0:0:
103,168,87200,2,0,P|165:181|226:196,1,125.999996154785,10|10,0:0|0:0,0:0:0:0:
304,152,87800,1,2,0:0:0:0:
368,212,88000,6,0,L|376:248,3,31.4999990386963,10|0|0|2,0:0|3:0|3:0|3:0,0:0:0:0:
396,280,88400,2,0,L|388:316,3,31.4999990386963,0|0|2|0,3:0|3:0|3:0|3:0,0:0:0:0:
372,352,88800,2,0,L|336:344,3,31.4999990386963,2|0|0|0,3:0|3:0|3:0|3:0,0:0:0:0:
304,336,89200,1,2,3:0:0:0:
232,288,89400,1,2,3:0:0:0:
216,292,89500,1,0,3:0:0:0:
200,296,89600,6,8,P|170:284|141:273,1,62.9999980773926,8|0,0:0|3:0,0:0:0:0:
80,212,90000,1,0,3:0:0:0:
44,132,90200,2,8,P|54:102|66:73,1,62.9999980773926,8|0,0:0|3:0,0:0:0:0:
136,20,90600,1,0,3:0:0:0:
188,92,90800,1,10,0:0:0:0:
376,32,91200,6,0,P|389:98|404:176,1,140,6|0,1:0|0:0,0:0:0:0:
460,248,91800,1,2,0:0:0:0:
392,320,92000,2,0,P|352:324|320:304,1,70,10|0,0:0|0:0,0:0:0:0:
256,240,92400,2,0,P|216:236|184:256,1,70,2|0,1:0|0:0,0:0:0:0:
104,296,92800,6,0,B|68:260|68:260|104:168,1,140,2|2,1:0|1:0,0:0:0:0:
152,92,93400,1,2,0:0:0:0:
236,44,93600,2,0,P|268:55|304:68,1,70,10|2,0:0|0:0,0:0:0:0:
392,28,94000,2,0,P|424:39|460:52,1,70,2|0,1:0|0:0,0:0:0:0:
512,176,94400,6,0,P|492:243|473:310,1,140,6|0,1:0|0:0,0:0:0:0:
392,368,95000,1,2,0:0:0:0:
332,292,95200,2,0,P|341:257|352:220,1,70,10|0,0:0|0:0,0:0:0:0:
404,144,95600,2,0,P|394:109|384:72,1,70,2|0,1:0|0:0,0:0:0:0:
308,16,96000,5,10,0:0:0:0:
292,20,96100,2,0,L|240:32,1,35,10|0,0:0|0:0,0:0:0:0:
200,108,96400,1,10,0:0:0:0:
184,104,96500,2,0,L|132:92,1,35,10|0,0:0|0:0,0:0:0:0:
80,28,96800,1,10,0:0:0:0:
64,32,96900,2,0,L|12:44,1,35,10|0,0:0|0:0,0:0:0:0:
8,136,97200,2,0,P|17:169|25:203,1,70,2|0,1:0|0:0,0:0:0:0:
88,324,97600,6,0,B|156:336|140:260|212:272,1,140,6|0,1:0|0:0,0:0:0:0:
284,336,98200,1,2,0:0:0:0:
352,264,98400,2,0,P|368:228|360:192,1,70,10|0,0:0|0:0,0:0:0:0:
440,140,98800,2,0,P|425:103|394:83,1,70,2|0,1:0|0:0,0:0:0:0:
320,32,99200,6,0,P|253:54|187:78,1,140,2|2,1:0|1:0,0:0:0:0:
88,72,99800,1,2,0:0:0:0:
56,164,100000,2,0,P|52:204|64:232,1,70,10|2,0:0|0:0,0:0:0:0:
128,304,100400,2,0,P|168:308|196:296,1,70,2|0,1:0|0:0,0:0:0:0:
260,180,100800,6,0,P|320:140|392:168,1,140,6|0,1:0|0:0,0:0:0:0:
440,236,101400,1,2,0:0:0:0:
396,324,101600,2,0,P|361:332|324:344,1,70,10|0,0:0|0:0,0:0:0:0:
236,372,102000,2,0,P|202:361|168:353,1,70,2|0,1:0|0:0,0:0:0:0:
72,332,102400,5,10,0:0:0:0:
64,316,102500,2,0,P|64:292|72:272,1,35,8|0,0:0|0:0,0:0:0:0:
148,224,102800,1,10,0:0:0:0:
156,207,102900,2,0,P|156:189|152:172,1,35,10|0,0:0|0:0,0:0:0:0:
72,120,103200,1,10,0:0:0:0:
64,104,103300,2,0,P|64:80|72:60,1,35,10|0,0:0|0:0,0:0:0:0:
152,20,103600,6,0,P|220:12|280:64,1,140,2|4,1:0|1:0,0:0:0:0:
274,53,110400,6,0,P|282:83|292:120,1,62.9999980773926,6|2,0:0|0:0,0:0:0:0:
244,188,110800,2,0,P|252:218|262:255,1,62.9999980773926,2|2,0:0|0:0,0:0:0:0:
304,324,111200,1,8,0:0:0:0:
384,364,111400,1,2,0:0:0:0:
400,356,111500,1,0,0:0:0:0:
412,348,111600,2,0,L|456:360,2,31.4999990386963,2|2|2,0:0|0:0|0:0,0:0:0:0:
380,268,112000,6,0,P|376:232|392:204,1,62.9999980773926,2|2,0:0|0:0,0:0:0:0:
456,152,112400,2,0,P|460:116|444:88,1,62.9999980773926,2|2,0:0|0:0,0:0:0:0:
380,36,112800,1,8,0:0:0:0:
292,24,113000,1,2,0:0:0:0:
284,40,113100,1,0,0:0:0:0:
276,56,113200,2,0,L|284:100,2,31.4999990386963,2|2|2,0:0|0:0|0:0,0:0:0:0:
188,36,113600,5,2,0:0:0:0:
140,116,113800,1,2,0:0:0:0:
148,132,113900,1,2,0:0:0:0:
156,148,114000,1,2,0:0:0:0:
164,164,114100,1,0,0:0:0:0:
172,180,114200,2,0,L|156:248,1,62.9999980773926,2|10,0:0|0:0,0:0:0:0:
124,324,114600,1,2,0:0:0:0:
108,320,114700,1,0,0:0:0:0:
92,316,114800,1,2,0:0:0:0:
32,252,115000,5,2,0:0:0:0:
40,236,115100,1,2,0:0:0:0:
48,220,115200,2,0,P|39:189|31:159,1,62.9999980773926,2|2,0:0|0:0,0:0:0:0:
52,72,115600,2,0,P|82:63|112:55,1,62.9999980773926,2|2,0:0|0:0,0:0:0:0:
200,32,116000,2,0,P|230:40|260:48,1,62.9999980773926,8|2,0:0|0:0,0:0:0:0:
336,100,116400,1,2,0:0:0:0:
336,100,116600,1,2,0:0:0:0:
436,36,116800,6,0,P|445:86|456:140,1,94.499997116089,2|0,1:0|0:0,0:0:0:0:
468,176,117200,1,2,0:0:0:0:
468,176,117400,1,2,1:0:0:0:
424,252,117600,2,0,P|400:272|360:272,1,62.9999980773926,8|2,0:0|0:0,0:0:0:0:
292,228,118000,2,0,P|268:208|228:208,1,62.9999980773926,2|0,1:0|0:0,0:0:0:0:
168,260,118400,1,2,0:0:0:0:
168,260,118600,1,0,1:0:0:0:
116,192,118800,1,2,1:0:0:0:
40,236,119000,6,0,P|32:206|24:176,1,62.9999980773926,2|8,0:0|0:0,0:0:0:0:
64,96,119400,1,2,0:0:0:0:
80,88,119500,1,0,0:0:0:0:
96,80,119600,2,0,P|125:89|155:99,1,62.9999980773926,2|2,1:0|0:0,0:0:0:0:
224,156,120000,5,2,1:0:0:0:
224,156,120200,1,2,0:0:0:0:
272,228,120400,2,0,L|393:260,1,125.999996154785,2|10,0:0|0:0,0:0:0:0:
464,208,121000,1,2,0:0:0:0:
500,128,121200,1,2,1:0:0:0:
500,128,121400,1,2,0:0:0:0:
448,56,121600,6,0,P|416:56|384:72,1,62.9999980773926,2|0,0:0|1:0,0:0:0:0:
316,120,122000,1,2,1:0:0:0:
316,120,122200,1,2,0:0:0:0:
252,180,122400,2,0,P|221:170|184:160,1,62.9999980773926,8|0,0:0|0:0,0:0:0:0:
176,168,122700,1,0,0:0:0:0:
160,176,122800,2,0,P|150:206|140:244,1,62.9999980773926,0|0,1:0|0:0,0:0:0:0:
212,332,123200,5,12,0:0:0:0:
360,368,123600,2,0,P|432:360|460:272,1,167.999994873047
400,140,124800,6,0,P|359:151|319:164,1,83.9999974365235,2|2,0:0|0:0,0:0:0:0:
220,280,125600,2,0,P|192:280|176:272,1,41.9999987182618,2|2,3:0|0:0,0:0:0:0:
104,268,126000,2,0,P|84:248|78:231,1,41.9999987182618,2|0,0:0|0:0,0:0:0:0:
76,132,126400,6,0,P|115:119|156:107,1,83.9999974365235,0|2,3:0|0:0,0:0:0:0:
284,28,127200,2,0,P|324:39|364:52,1,83.9999974365235,2|2,3:0|0:0,0:0:0:0:
436,24,127800,1,2,0:0:0:0:
436,24,128000,1,2,0:0:0:0:
496,168,128400,5,2,0:0:0:0:
496,168,128600,2,0,L|484:212,1,41.9999987182618,2|0,0:0|0:0,0:0:0:0:
420,248,129000,2,0,L|431:288,1,41.9999987182618,2|0,0:0|3:0,0:0:0:0:
476,384,129400,5,2,0:0:0:0:
476,384,129600,2,0,L|428:372,1,41.9999987182618,0|0,1:0|0:0,0:0:0:0:
364,352,130000,2,0,B|320:372|280:344|306:317|252:288|207:307,1,167.999994873047,0|2,0:0|0:0,0:0:0:0:
72,356,131200,6,0,P|64:338|60:315,1,41.9999987182618,2|2,0:0|0:0,0:0:0:0:
100,252,131600,2,0,P|107:234|111:211,1,41.9999987182618,2|2,0:0|0:0,0:0:0:0:
76,144,132000,1,2,3:0:0:0:
180,32,132400,2,0,L|224:40,1,41.9999987182618,2|2,0:0|0:0,0:0:0:0:
224,116,132800,6,0,L|152:104,2,62.9999980773926,2|2|2,3:0|0:0|0:0,0:0:0:0:
276,172,133600,2,0,L|320:180,1,41.9999987182618,2|0,0:0|0:0,0:0:0:0:
388,144,134000,5,2,0:0:0:0:
388,143,134200,2,0,P|413:245|430:349,1,209.999993591309,2|0,3:0|0:0,0:0:0:0:
430,349,136000,6,0,L|396:340,1,31.4999990386963,10|10,0:0|0:0,0:0:0:0:
268,232,136400,6,0,L|234:241,1,31.4999990386963,10|10,0:0|0:0,0:0:0:0:
100,344,136800,5,10,0:0:0:0:
32,288,137000,1,0,1:0:0:0:
36,272,137100,1,0,1:0:0:0:
40,256,137200,2,0,P|33:222|24:184,1,62.9999980773926,10|0,0:0|0:0,0:0:0:0:
108,92,137600,5,14,0:0:0:0:
108,92,142400,6,0,P|169:78|231:66,1,125.999996154785
312,28,143000,1,0,0:0:0:0:
328,36,143100,1,0,0:0:0:0:
340,44,143200,2,0,L|384:32,3,31.4999990386963
412,16,143600,2,0,L|456:28,3,31.4999990386963
484,44,144000,6,0,P|471:88|456:144,1,94.499997116089,10|0,0:0|0:0,0:0:0:0:
428,168,144400,2,0,P|440:212|456:268,1,94.499997116089,10|0,0:0|0:0,0:0:0:0:
468,300,144800,2,0,P|438:309|404:324,1,62.9999980773926,10|0,0:0|0:0,0:0:0:0:
328,356,145200,1,10,0:0:0:0:
312,348,145300,1,0,0:0:0:0:
300,340,145400,1,2,0:0:0:0:
284,332,145500,1,0,0:0:0:0:
272,324,145600,6,0,P|230:334|180:346,1,94.499997116089,10|0,0:0|0:0,0:0:0:0:
140,360,146000,2,0,P|128:314|117:268,1,94.499997116089,10|0,0:0|0:0,0:0:0:0:
96,228,146400,2,0,P|104:197|113:167,1,62.9999980773926,10|0,0:0|0:0,0:0:0:0:
168,96,146800,1,10,0:0:0:0:
184,88,146900,1,8,0:0:0:0:
196,80,147000,1,10,0:0:0:0:
212,72,147100,1,8,0:0:0:0:
224,64,147200,5,6,1:0:0:0:
384,132,147600,1,2,1:0:0:0:
488,52,147800,2,0,B|520:88|520:88|488:172,1,125.999996154785,6|2,1:0|1:0,0:0:0:0:
400,256,148400,6,0,B|320:208|280:104|280:104|320:192|276:236|248:240|220:232,1,377.999988464356,6|0,1:0|0:0,0:0:0:0:
156,176,149800,1,0,1:0:0:0:
140,168,149900,1,0,1:0:0:0:
124,160,150000,2,0,P|112:194|104:224,1,62.9999980773926,10|2,0:0|1:0,0:0:0:0:
96,352,150400,6,0,P|56:356|8:316,2,105,6|2|2,1:0|0:0|1:0,0:0:0:0:
179,300,151200,2,0,P|213:308|247:318,1,70,10|0,0:0|0:0,0:0:0:0:
336,364,151600,1,2,1:0:0:0:
408,296,151800,1,2,0:0:0:0:
348,216,152000,6,0,L|240:240,2,105,2|0|2,0:0|0:0|0:0,0:0:0:0:
416,144,152800,2,0,P|416:104|400:76,1,70,10|0,0:0|1:0,0:0:0:0:
320,24,153200,1,2,0:0:0:0:
252,96,153400,1,2,0:0:0:0:
164,56,153600,6,0,B|112:60|128:12|72:16,2,105,2|2|2,1:0|0:0|1:0,0:0:0:0:
192,152,154400,2,0,P|186:183|180:220,1,70,10|0,0:0|0:0,0:0:0:0:
208,316,154800,1,2,1:0:0:0:
128,372,155000,6,0,P|64:376|20:304,1,140,2|0,0:0|1:0,0:0:0:0:
24,224,155600,2,0,P|32:185|40:152,1,70,0|0,1:0|0:0,0:0:0:0:
80,68,156000,2,0,P|118:76|152:84,1,70,8|0,0:0|1:0,0:0:0:0:
224,144,156400,1,2,0:0:0:0:
296,80,156600,1,2,1:0:0:0:
388,176,156800,6,0,P|438:160|488:145,2,105,2|2|2,1:0|0:0|1:0,0:0:0:0:
316,244,157600,2,0,P|282:254|249:265,1,70,10|0,0:0|0:0,0:0:0:0:
152,244,158000,1,2,1:0:0:0:
84,316,158200,1,2,0:0:0:0:
20,240,158400,6,0,P|8:192|36:140,2,105,2|0|2,0:0|0:0|0:0,0:0:0:0:
84,316,159200,2,0,P|116:323|152:332,1,70,10|0,0:0|1:0,0:0:0:0:
244,368,159600,1,2,0:0:0:0:
312,296,159800,1,2,0:0:0:0:
400,340,160000,6,0,B|452:336|436:384|492:380,2,105,2|2|0,1:0|0:0|1:0,0:0:0:0:
312,296,160800,2,0,P|304:260|316:224,1,70,10|0,0:0|0:0,0:0:0:0:
388,164,161200,1,2,1:0:0:0:
388,164,161400,1,2,1:0:0:0:
356,72,161600,6,8,P|322:62|288:53,1,70,8|0,0:0|3:0,0:0:0:0:
212,116,162000,1,0,3:0:0:0:
140,48,162200,2,8,P|106:38|72:29,1,70,8|0,0:0|3:0,0:0:0:0:
4,100,162600,1,0,3:0:0:0:
52,184,162800,1,10,0:0:0:0:
4,372,163200,6,0,P|48:320|120:324,1,140,6|0,1:0|0:0,0:0:0:0:
204,364,163800,1,2,0:0:0:0:
300,368,164000,2,0,P|334:358|376:348,1,70,10|0,0:0|0:0,0:0:0:0:
444,292,164400,2,0,P|435:258|425:224,1,70,2|0,1:0|0:0,0:0:0:0:
392,132,164800,6,0,B|324:120|340:196|268:184,1,140,2|2,1:0|1:0,0:0:0:0:
188,132,165400,1,2,0:0:0:0:
92,156,165600,2,0,P|80:188|92:228,1,70,10|2,0:0|0:0,0:0:0:0:
144,300,166000,2,0,P|176:312|209:304,1,70,2|0,1:0|0:0,0:0:0:0:
271,184,166400,6,0,P|319:144|403:180,1,140,6|0,1:0|0:0,0:0:0:0:
452,236,167000,1,2,0:0:0:0:
432,332,167200,2,0,P|396:323|360:316,1,70,10|0,0:0|0:0,0:0:0:0:
272,280,167600,2,0,P|237:287|203:295,1,70,2|0,1:0|0:0,0:0:0:0:
112,336,168000,5,10,0:0:0:0:
100,322,168100,2,0,L|92:278,1,35,10|0,0:0|0:0,0:0:0:0:
148,216,168400,1,10,0:0:0:0:
157,201,168500,2,0,L|149:157,1,35,10|0,0:0|0:0,0:0:0:0:
76,116,168800,1,10,0:0:0:0:
70,99,168900,2,0,L|62:55,1,35,10|0,0:0|0:0,0:0:0:0:
156,36,169200,2,0,P|190:28|232:20,1,70,2|0,1:0|0:0,0:0:0:0:
356,36,169600,6,0,P|371:104|386:172,1,140,6|0,1:0|0:0,0:0:0:0:
440,256,170200,1,2,0:0:0:0:
380,332,170400,2,0,P|340:332|312:312,1,70,10|0,0:0|0:0,0:0:0:0:
248,248,170800,2,0,P|208:248|180:268,1,70,2|0,1:0|0:0,0:0:0:0:
100,316,171200,6,0,B|64:284|64:284|100:184,1,140,2|2,1:0|1:0,0:0:0:0:
156,120,171800,1,2,0:0:0:0:
100,40,172000,2,0,P|134:29|168:20,1,70,10|2,0:0|0:0,0:0:0:0:
256,64,172400,2,0,P|290:53|324:44,1,70,2|0,1:0|0:0,0:0:0:0:
456,12,172800,6,0,P|500:60|480:140,1,140,6|0,1:0|0:0,0:0:0:0:
428,208,173400,1,2,0:0:0:0:
344,256,173600,2,0,P|310:245|276:236,1,70,10|2,0:0|0:0,0:0:0:0:
208,168,174000,2,0,P|174:157|140:148,1,70,2|0,1:0|0:0,0:0:0:0:
48,176,174400,5,2,1:0:0:0:
31,183,174500,2,0,P|31:199|39:219,1,35,8|0,0:0|0:0,0:0:0:0:
40,308,174800,1,10,0:0:0:0:
37,325,174900,2,0,P|48:336|68:344,1,35,10|0,0:0|0:0,0:0:0:0:
160,376,175200,1,10,0:0:0:0:
175,383,175300,2,0,P|191:383|211:375,1,35,10|0,0:0|0:0,0:0:0:0:
264,304,175600,6,0,P|297:312|331:322,1,70,2|0,1:0|0:0,0:0:0:0:
448,352,176000,1,6,1:0:0:0:
448,352,176800,2,0,L|432:288,1,62.9999980773926
348,204,177200,1,6,1:0:0:0:
440,52,177600,5,6,1:0:0:0:
264,44,178000,6,0,L|228:32,2,31.4999990386963,8|8|8,0:1|0:1|0:1,0:0:0:0:
236,128,178400,2,0,L|265:137,2,31.4999990386963,8|8|8,0:1|0:1|0:1,0:0:0:0:
196,236,178800,2,0,P|166:225|136:216,1,62.9999980773926,6|0,1:0|0:0,0:0:0:0:
48,140,179200,5,6,1:0:0:0:
