osu file format v14

[General]
AudioFilename: audio.mp3
AudioLeadIn: 0
PreviewTime: 105500
Countdown: 0
SampleSet: Soft
StackLeniency: 0.4
Mode: 0
LetterboxInBreaks: 0
WidescreenStoryboard: 1

[Editor]
Bookmarks: 12800,38400,65600,78400,91200,123200,137600
DistanceSpacing: 1.4
BeatDivisor: 4
GridSize: 32
TimelineZoom: 1.6

[Metadata]
Title:Black Out
TitleUnicode:Black Out
Artist:OBSYDIA
ArtistUnicode:OBSYDIA
Creator:SMOKELIND
Version:Faplus' Insane
Source:
Tags:ペトラ グリン Petra Gurin せれん たつき Selen Tatsuki ろぜみ らぶろっく Rosemi Lovelock にじさんじ Nijisanji EN English Ryushen 緑仙 Giga TeddyLoid Electronic VTuber Pop ロゼミ ラブロック セレン 龍月 -Aqua Laplus- La+- Flake Pepekcz Basensorex
BeatmapID:3346061
BeatmapSetID:1532556

[Difficulty]
HPDrainRate:5
CircleSize:4
OverallDifficulty:8
ApproachRate:9
SliderMultiplier:1.6
SliderTickRate:1

[Events]
//Background and Video events
Video,0,"vid.mp4"
0,0,"BG.jpg",0,0
//Break Periods
2,51400,52200
2,104200,109200
//Storyboard Layer 0 (Background)
//Storyboard Layer 1 (Fail)
//Storyboard Layer 2 (Pass)
//Storyboard Layer 3 (Foreground)
//Storyboard Layer 4 (Overlay)
//Storyboard Sound Samples

[TimingPoints]
0,400,4,2,77,47,1,0
12800,-100,4,2,77,57,0,0
14400,-133.333333333333,4,2,77,57,0,0
16000,-100,4,2,77,57,0,0
18400,-133.333333333333,4,2,77,57,0,0
18700,-133.333333333333,4,2,77,57,0,0
18800,-133.333333333333,4,2,77,57,0,0
19100,-133.333333333333,4,2,77,57,0,0
19200,-133.333333333333,4,2,77,57,0,0
19600,-100,4,2,77,57,0,0
20800,-133.333333333333,4,2,77,57,0,0
22800,-80,4,2,77,57,0,0
24000,-66.6666666666667,4,2,77,67,0,0
24800,-80,4,2,77,67,0,0
25200,-100,4,2,77,67,0,0
25600,-86.9565217391304,4,2,77,67,0,0
26200,-76.9230769230769,4,2,77,67,0,0
32000,-68.9655172413793,4,2,77,67,0,0
37600,-68.9655172413793,4,2,77,57,0,0
38000,-68.9655172413793,4,2,77,67,0,0
38400,-76.9230769230769,4,2,77,67,0,0
38800,-86.9565217391304,4,2,77,67,0,0
40000,-76.9230769230769,4,2,77,67,0,0
51200,-100,4,2,77,57,0,0
52800,-100,4,2,77,47,0,0
57600,-100,4,2,77,57,0,0
58800,-100,4,2,77,47,0,0
64000,-100,4,2,77,67,0,0
65200,-76.9230769230769,4,2,77,67,0,0
65600,-66.6666666666667,4,2,77,87,0,0
68800,-100,4,2,77,87,0,0
69400,-80,4,2,77,87,0,0
70000,-66.6666666666667,4,2,77,87,0,0
70800,-100,4,2,77,87,0,0
71400,-76.9230769230769,4,2,77,87,0,0
72000,-66.6666666666667,4,2,77,87,0,0
75200,-100,4,2,77,87,0,0
75800,-80,4,2,77,87,0,0
76400,-66.6666666666667,4,2,77,87,0,0
78000,-100,4,2,77,87,0,0
78400,-66.6666666666667,4,2,77,67,0,0
88800,-100,4,2,77,67,0,0
91200,-55.5555555555556,4,2,77,77,0,0
92000,-100,4,2,77,77,0,0
94400,-55.5555555555556,4,2,77,77,0,0
97200,-100,4,2,77,77,0,0
97600,-55.5555555555556,4,2,77,77,0,0
98400,-100,4,2,77,77,0,0
100800,-55.5555555555556,4,2,77,77,0,0
102000,-100,4,2,77,77,0,0
102400,-55.5555555555556,4,2,77,77,0,0
104100,-55.5555555555556,4,2,77,47,0,0
110400,-80,4,2,77,57,0,0
123200,-100,4,2,77,57,0,0
124799,-100,4,2,77,47,0,0
129599,-100,4,2,77,57,0,0
130799,-100,4,2,77,47,0,0
135999,-100,4,2,77,67,0,0
137200,-76.9230769230769,4,2,77,67,0,0
137600,-133.333333333333,4,2,77,57,0,0
143200,-133.333333333333,4,2,77,67,0,0
144000,-76.9230769230769,4,2,77,77,0,0
149800,-76.9230769230769,4,2,77,57,0,0
150400,-66.6666666666667,4,2,77,67,0,0
163200,-57.1428571428571,4,2,77,77,0,0

[Colours]
Combo1 : 75,75,75
Combo2 : 131,0,131
Combo3 : 155,0,0
Combo4 : 211,100,0
Combo5 : 183,183,183

[HitObjects]
64,32,12800,22,0,P|120:20|158:63,1,120,8|0,1:0|0:0,0:0:0:0:
155,77,13200,1,2,0:0:0:0:
245,170,13400,2,0,P|172:184|71:208,1,160,2|2,0:0|0:0,0:0:0:0:
21,289,14000,2,0,P|57:296|108:308,1,80,2|0,0:0|0:0,0:0:0:0:
308,382,14400,38,0,B|358:374|370:330|370:330|393:281|458:281,1,180.000006866455,2|8,0:0|0:1,0:0:0:0:
448,273,15100,1,8,0:1:0:0:
454,264,15200,2,0,P|442:210|438:189,1,60.0000022888184,8|0,0:1|0:0,0:0:0:0:
322,146,15600,2,0,P|328:175|334:204,1,60.0000022888184,8|0,0:1|0:0,0:0:0:0:
495,67,16000,22,0,P|410:71|355:-4,1,160,8|2,0:1|0:0,0:0:0:0:
361,20,16600,1,2,0:0:0:0:
213,143,17000,1,2,0:0:0:0:
213,143,17200,2,0,P|169:131|112:119,1,80,2|0,0:0|0:0,0:0:0:0:
268,270,17600,6,0,P|345:248|423:231,1,160,10|2,0:1|0:0,0:0:0:0:
481,154,18200,21,10,0:1:0:0:
481,154,18300,1,8,0:1:0:0:
481,154,18400,2,0,P|522:186|510:240,1,90.0000034332277,10|0,0:1|0:0,0:0:0:0:
401,364,18800,2,0,P|360:332|372:278,1,90.0000034332277,10|0,0:1|0:0,0:0:0:0:
366,285,19200,1,8,0:1:0:0:
200,85,19600,5,2,0:0:0:0:
249,148,19800,2,0,B|202:153|179:120|179:120|157:81|77:89,1,160,2|2,0:0|0:0,0:0:0:0:
31,165,20400,2,0,P|47:214|56:252,1,80,2|0,0:0|0:0,0:0:0:0:
265,50,20800,54,0,P|333:68|440:92,1,180.000006866455,2|0,0:0|0:0,0:0:0:0:
439,91,21600,5,8,0:1:0:0:
294,160,21866,53,8,0:1:0:0:
187,201,22134,5,8,0:1:0:0:
109,233,22400,53,8,0:1:0:0:
187,201,22800,21,2,0:0:0:0:
109,233,23000,2,0,P|165:247|269:276,1,150,2|0,0:0|0:0,0:0:0:0:
255,287,23400,1,2,0:0:0:0:
290,382,23600,1,2,0:0:0:0:
483,222,24000,6,0,P|428:231|387:168,1,120.000004577637,10|0,1:0|0:0,0:0:0:0:
257,136,24266,2,0,P|313:144|351:100,1,120.000004577637,10|0,1:0|0:0,0:0:0:0:
421,54,24533,1,10,1:0:0:0:
292,274,24800,38,0,P|245:265|194:257,1,100,10|0,1:0|0:0,0:0:0:0:
117,98,25200,2,0,P|75:107|19:115,1,80,10|0,1:0|0:0,0:0:0:0:
38,112,25600,1,14,0:0:0:0:
122,328,25800,37,10,0:1:0:0:
120,342,25900,1,0,0:0:0:0:
118,356,26000,1,10,0:1:0:0:
13,354,26200,6,0,B|117:343|58:271|209:241,1,207.999990478516,2|0,3:0|0:0,0:0:0:0:
229,170,26800,1,8,0:0:0:0:
37,53,27000,54,0,L|50:112,1,51.999997619629,8|8,0:1|0:1,0:0:0:0:
3,176,27200,5,10,1:0:0:0:
172,108,27400,1,10,0:1:0:0:
243,318,27600,53,10,0:1:0:0:
373,366,27800,1,2,0:0:0:0:
485,293,28000,5,8,0:0:0:0:
485,293,28200,1,8,0:0:0:0:
233,197,28400,53,8,0:1:0:0:
221,201,28500,1,8,0:1:0:0:
209,205,28600,1,8,0:1:0:0:
340,106,28800,6,0,P|273:105|245:51,1,103.999995239258,10|8,0:0|0:1,0:0:0:0:
249,68,29100,1,0,0:0:0:0:
255,59,29200,1,10,0:1:0:0:
388,211,29400,1,8,0:0:0:0:
302,299,29600,54,0,L|317:361,1,51.999997619629,0|0,3:0|3:0,0:0:0:0:
314,349,29800,1,0,3:0:0:0:
121,233,30000,6,0,L|136:171,1,51.999997619629,8|0,0:0|0:0,0:0:0:0:
32,304,30200,2,0,L|17:242,1,51.999997619629,8|0,0:0|0:0,0:0:0:0:
188,384,30400,54,0,L|213:277,1,103.999995239258,0|8,1:0|0:1,0:0:0:0:
209,275,30700,1,0,0:0:0:0:
206,267,30800,1,10,0:1:0:0:
33,106,31000,1,10,0:1:0:0:
143,36,31200,6,0,L|158:98,1,51.999997619629,0|0,3:0|3:0,0:0:0:0:
155,86,31400,1,0,3:0:0:0:
330,285,31600,37,2,3:0:0:0:
330,285,31700,1,0,0:0:0:0:
330,285,31800,1,0,0:0:0:0:
330,285,31900,1,0,0:0:0:0:
330,285,32000,2,0,P|370:237|346:163,1,116.000003540039,10|10,0:0|0:1,0:0:0:0:
314,128,32300,1,0,0:0:0:0:
306,123,32400,1,0,1:0:0:0:
512,77,32600,6,0,B|409:65|479:33|343:-4,1,174.000005310059,10|0,0:0|3:0,0:0:0:0:
326,21,33000,1,0,1:0:0:0:
201,187,33200,2,0,P|150:171|112:166,1,58.0000017700196,8|0,0:0|0:0,0:0:0:0:
19,90,33400,5,0,3:0:0:0:
19,90,33500,1,0,3:0:0:0:
19,90,33600,2,0,P|94:76|102:4,1,116.000003540039,10|2,0:0|0:0,0:0:0:0:
175,9,33900,1,0,0:0:0:0:
170,0,34000,1,10,0:0:0:0:
353,117,34200,54,0,P|337:168|332:206,1,58.0000017700196,2|0,0:0|0:0,0:0:0:0:
242,311,34400,2,0,P|318:287|375:279,1,116.000003540039,10|10,0:0|0:0,0:0:0:0:
415,333,34700,1,0,0:0:0:0:
422,339,34800,1,0,3:0:0:0:
512,219,35000,2,0,P|461:203|423:198,1,58.0000017700196,0|0,3:0|3:0,0:0:0:0:
167,265,35200,5,8,0:0:0:0:
155,275,35300,1,0,0:0:0:0:
150,291,35400,2,0,L|166:352,1,58.0000017700196,8|0,0:0|0:0,0:0:0:0:
262,259,35600,2,0,L|246:198,1,58.0000017700196,8|0,0:0|0:0,0:0:0:0:
77,112,35800,2,0,L|61:173,1,58.0000017700196,8|0,0:0|0:0,0:0:0:0:
0,224,36000,1,8,0:0:0:0:
0,224,36100,1,8,0:0:0:0:
0,224,36200,1,8,0:0:0:0:
200,80,36400,54,0,P|198:56|171:24,1,58.0000017700196,8|0,0:0|0:0,0:0:0:0:
178,28,36600,1,0,3:0:0:0:
375,162,36800,22,8,L|404:168,4,29.0000008850098,10|8|8|0|2,0:0|0:0|0:0|0:0|3:0,0:0:0:0:
375,162,37200,1,2,3:0:0:0:
484,65,37400,54,8,L|512:59,4,29.0000008850098,8|8|8|0|2,0:0|0:0|0:0|0:0|3:0,0:0:0:0:
484,65,37800,1,0,3:0:0:0:
410,19,38000,5,10,0:0:0:0:
410,19,38200,1,0,0:0:0:0:
512,293,38400,6,0,L|410:271,1,103.999995239258,4|0,1:0|0:0,0:0:0:0:
410,271,38800,1,2,0:0:0:0:
318,365,39000,1,2,1:0:0:0:
234,256,39200,2,0,P|243:214|289:189,1,92.0000017547608,10|2,0:0|0:0,0:0:0:0:
445,83,39600,38,0,P|425:96|402:101,1,46.0000008773804,2|0,1:0|0:0,0:0:0:0:
374,170,39800,2,0,P|352:159|336:141,1,46.0000008773804,2|0,0:0|0:0,0:0:0:0:
336,68,40000,21,2,0:0:0:0:
209,24,40200,1,0,1:0:0:0:
213,152,40400,37,2,1:0:0:0:
124,182,40600,1,2,0:0:0:0:
63,45,40800,22,0,B|121:59|84:90|144:105,1,103.999995239258,10|0,0:0|0:0,0:0:0:0:
197,229,41200,2,0,P|246:225|287:176,1,103.999995239258,2|0,1:0|0:0,0:0:0:0:
282,187,41600,38,0,L|319:190,4,25.9999988098145,0|0|0|0|2,1:0|0:0|0:0|0:0|0:0,0:0:0:0:
464,133,42000,2,0,P|434:140|402:264,1,155.999992858887,2|0,0:0|0:0,0:0:0:0:
400,252,42400,21,10,0:0:0:0:
373,368,42600,1,2,0:0:0:0:
204,353,42800,2,0,L|211:294,1,51.999997619629,2|0,1:0|0:0,0:0:0:0:
191,279,43000,2,0,L|198:220,1,51.999997619629,2|0,0:0|0:0,0:0:0:0:
180,205,43200,38,0,B|100:213|143:284|45:287,1,155.999992858887,2|0,0:0|0:0,0:0:0:0:
13,103,43600,2,0,P|52:107|95:158,1,103.999995239258,2|2,1:0|0:0,0:0:0:0:
180,205,44000,21,10,0:0:0:0:
303,219,44200,1,0,1:0:0:0:
380,118,44400,1,2,1:0:0:0:
380,118,44600,1,2,1:0:0:0:
416,187,44800,38,0,P|467:161|520:165,2,103.999995239258,2|2|2,1:0|0:0|0:0,0:0:0:0:
300,139,45400,1,0,1:0:0:0:
348,277,45600,2,0,P|292:269|241:269,1,103.999995239258,8|2,0:0|0:0,0:0:0:0:
244,268,46000,1,2,1:0:0:0:
166,346,46200,1,2,0:0:0:0:
87,253,46400,22,0,P|98:195|100:145,1,103.999995239258,2|2,0:0|1:0,0:0:0:0:
196,33,46800,2,0,P|198:84|209:135,1,103.999995239258,2|2,1:0|0:0,0:0:0:0:
40,96,47200,37,10,0:0:0:0:
123,76,47400,1,2,0:0:0:0:
183,216,47600,1,2,1:0:0:0:
266,196,47800,1,2,0:0:0:0:
371,125,48000,22,0,P|316:129|272:85,1,103.999995239258,2|2,1:0|0:0,0:0:0:0:
276,283,48400,2,0,P|335:258|488:253,1,207.999990478516,2|8,0:0|0:0,0:0:0:0:
477,250,49000,1,2,0:0:0:0:
440,335,49200,2,0,P|388:334|339:351,1,103.999995239258,2|2,1:0|0:0,0:0:0:0:
194,368,49600,38,0,P|185:304|180:263,1,103.999995239258,2|2,0:0|1:0,0:0:0:0:
101,166,50000,2,0,P|94:217|87:269,1,103.999995239258,2|2,1:0|0:0,0:0:0:0:
87,269,50400,1,10,0:0:0:0:
36,117,50600,1,2,0:0:0:0:
192,181,50800,2,0,B|275:167|232:109|331:97,1,155.999992858887,2|0,1:0|0:0,0:0:0:0:
324,101,51200,21,4,1:0:0:0:
324,101,52800,5,2,0:0:0:0:
333,92,52933,2,0,B|375:85|375:85|408:117,1,80,2|0,0:0|0:0,0:0:0:0:
404,123,53200,1,2,0:0:0:0:
458,180,53333,2,0,P|448:211|439:254,1,53.3333333333333,2|0,0:0|0:0,0:0:0:0:
368,289,53600,5,2,0:0:0:0:
368,289,53800,1,2,0:0:0:0:
386,364,54000,2,0,P|339:361|304:339,1,80,2|2,0:0|0:0,0:0:0:0:
244,208,54400,22,0,P|235:297|227:374,1,160,0|2,0:0|0:0,0:0:0:0:
227,367,55000,1,2,0:0:0:0:
158,278,55200,2,0,B|98:287|134:337|70:351,1,120,2|0,0:0|0:0,0:0:0:0:
66,363,55600,2,0,P|29:344|20:308,1,80,2|2,0:0|0:0,0:0:0:0:
0,223,56000,38,0,P|83:215|164:184,1,160,2|2,0:0|0:0,0:0:0:0:
244,74,56600,2,0,P|327:82|408:113,2,160,2|2|2,0:0|0:0|0:0,0:0:0:0:
178,115,57600,21,4,1:0:0:0:
178,115,58000,2,0,L|193:281,1,160
295,211,58800,1,2,0:0:0:0:
295,211,59000,1,2,0:0:0:0:
439,177,59200,2,0,P|399:176|361:165,1,80,2|2,0:0|0:0,0:0:0:0:
325,286,59600,2,0,P|363:274|403:273,1,80,2|2,0:0|0:0,0:0:0:0:
378,353,60000,1,2,0:0:0:0:
177,253,60400,1,2,0:0:0:0:
177,253,60600,1,2,0:0:0:0:
177,253,60800,38,0,B|132:264|132:264|120:291|120:291|73:305,2,120,2|2|2,0:0|0:0|0:0,0:0:0:0:
241,367,61600,2,0,P|250:287|260:193,1,160,2|2,0:0|0:0,0:0:0:0:
245,133,62200,1,2,0:0:0:0:
245,133,62400,1,0,0:0:0:0:
256,192,62450,12,0,63200,0:0:0:0:
129,121,64000,37,10,0:0:0:0:
129,121,64100,1,10,0:0:0:0:
385,204,64400,53,10,0:0:0:0:
385,204,64500,1,10,0:0:0:0:
189,374,64800,6,0,P|193:354|201:336,1,40,2|2,1:0|0:0,0:0:0:0:
146,262,65000,2,0,P|143:271|139:280,2,20,0|0|0,1:0|1:0|1:0,1:0:0:0:
131,292,65200,2,0,L|292:310,1,155.999992858887,8|0,0:0|0:0,0:0:0:0:
490,323,65600,6,0,B|361:300|447:234|282:183,1,240.000009155274,6|2,1:0|0:0,0:0:0:0:
300,189,66200,1,0,1:0:0:0:
128,92,66400,6,0,B|55:57|41:2|41:2|68:66|12:156,1,240.000009155274,10|2,0:0|1:0,0:0:0:0:
110,189,67000,1,2,0:0:0:0:
9,302,67200,38,0,B|4:268|4:268|-9:270|-9:270|0:341,1,120.000004577637,2|0,0:0|1:0,0:0:0:0:
110,189,67600,2,0,B|115:154|115:154|128:156|128:156|119:227,1,120.000004577637,2|0,1:0|0:0,0:0:0:0:
309,291,68000,6,0,B|396:313|396:313|391:361|391:361|496:386,1,240.000009155274,10|2,0:0|0:0,0:0:0:0:
363,382,68600,1,2,0:0:0:0:
440,121,68800,6,0,B|431:83|479:83|479:83|525:118|478:181,1,160,6|2,1:0|0:0,0:0:0:0:
440,121,69400,38,0,B|429:72|490:73|490:73|549:118|489:198,1,200,2|2,1:0|0:0,0:0:0:0:
440,121,70000,6,0,B|428:67|496:68|496:68|562:118|495:207,1,240.000009155274,2|0,1:0|0:0,0:0:0:0:
502,197,70600,1,0,1:0:0:0:
394,228,70800,2,0,P|339:210|299:197,1,80,0|0,1:0|0:0,0:0:0:0:
165,23,71200,5,8,0:0:0:0:
240,62,71400,2,0,L|188:274,1,207.999990478516,0|0,1:0|1:0,0:0:0:0:
51,315,72000,38,0,B|45:284|13:277|13:277|57:272|104:319|68:339|106:372|160:377,1,240.000009155274,6|2,1:0|0:0,0:0:0:0:
153,376,72600,1,0,1:0:0:0:
395,201,72800,6,0,B|456:159|456:159|396:332,1,240.000009155274,10|2,0:0|1:0,0:0:0:0:
468,374,73400,1,2,0:0:0:0:
187,186,73600,6,0,P|138:147|163:69,1,120.000004577637,2|0,0:0|1:0,0:0:0:0:
256,40,74000,2,0,P|302:74|302:131,1,120.000004577637,2|0,1:0|0:0,0:0:0:0:
62,226,74400,38,0,P|98:202|248:294,1,240.000009155274,10|2,0:0|0:0,0:0:0:0:
247,285,75000,1,2,0:0:0:0:
21,378,75200,6,0,B|117:358|49:314|162:292,1,160,2|2,1:0|0:0,0:0:0:0:
0,274,75800,6,0,B|134:301|39:363|196:394,1,200,2|2,1:0|0:0,0:0:0:0:
252,193,76400,38,0,B|386:165|291:103|448:72,1,240.000009155274,2|0,1:0|0:0,0:0:0:0:
503,154,77000,1,0,1:0:0:0:
503,154,77200,1,0,1:0:0:0:
424,302,77400,5,0,0:0:0:0:
496,338,77600,2,0,P|420:357|358:377,1,120.000004577637,8|0,0:0|1:0,0:0:0:0:
292,265,78000,2,0,P|246:253|209:241,1,80,2|2,0:0|1:0,0:0:0:0:
0,234,78400,38,0,B|66:217|26:177|95:157,1,120.000004577637,6|0,1:0|0:0,0:0:0:0:
80,70,78700,1,2,0:0:0:0:
80,70,78800,2,0,P|102:85|146:92,1,60.0000022888184,0|0,1:0|0:0,0:0:0:0:
252,24,79000,2,0,P|222:30|197:46,1,60.0000022888184,2|0,0:0|0:0,0:0:0:0:
152,200,79200,22,0,P|172:258|181:315,1,120.000004577637,2|0,1:0|0:0,0:0:0:0:
360,184,79600,2,0,P|340:126|331:69,1,120.000004577637,2|2,1:0|0:0,0:0:0:0:
439,105,80000,38,0,B|372:116|391:59|319:69,1,120.000004577637,2|0,1:0|0:0,0:0:0:0:
261,112,80300,1,2,0:0:0:0:
261,112,80400,2,0,P|265:141|275:169,1,60.0000022888184,0|0,1:0|0:0,0:0:0:0:
436,199,80600,2,0,P|426:227|421:256,1,60.0000022888184,2|0,0:0|0:0,0:0:0:0:
391,337,80800,2,0,B|354:322|338:264|338:264|348:322|302:369,1,180.000006866455,2|0,1:0|0:0,0:0:0:0:
210,360,81200,2,0,P|189:337|152:323,1,60.0000022888184,2|0,1:0|0:0,0:0:0:0:
61,307,81400,2,0,P|87:294|107:271,1,60.0000022888184,2|0,1:0|0:0,0:0:0:0:
183,248,81600,38,0,P|169:175|170:114,1,120.000004577637,6|0,1:0|0:0,0:0:0:0:
168,129,81900,1,2,0:0:0:0:
168,129,82000,1,0,1:0:0:0:
69,43,82200,2,0,P|90:59|125:71,1,60.0000022888184,2|0,0:0|0:0,0:0:0:0:
252,140,82400,2,0,P|306:134|370:82,1,120.000004577637,2|0,1:0|0:0,0:0:0:0:
420,53,82800,2,0,P|413:33|412:46,1,60.0000022888184,2|0,1:0|0:0,0:0:0:0:
333,24,83000,1,2,0:0:0:0:
486,193,83200,54,0,B|438:221|401:173|425:153|375:105|328:143,1,180.000006866455,0|0,1:0|0:0,0:0:0:0:
303,208,83600,1,0,1:0:0:0:
303,208,83700,1,0,0:0:0:0:
303,208,83800,2,0,P|314:232|316:269,1,60.0000022888184
157,331,84000,2,0,P|133:281|129:207,1,120.000004577637,0|0,1:0|0:0,0:0:0:0:
177,158,84400,6,0,P|152:146|118:141,1,60.0000022888184,2|0,1:0|0:0,0:0:0:0:
123,26,84600,2,0,P|152:21|179:8,1,60.0000022888184,2|0,0:0|0:0,0:0:0:0:
282,6,84800,22,0,P|256:60|253:119,1,120.000004577637,6|0,1:0|0:0,0:0:0:0:
264,197,85100,1,2,0:0:0:0:
264,197,85200,2,0,P|291:187|321:161,1,60.0000022888184,8|0,0:0|0:0,0:0:0:0:
382,129,85400,2,0,P|409:139|439:165,1,60.0000022888184,2|0,0:0|0:0,0:0:0:0:
455,267,85600,22,0,B|468:250|498:249|498:249|365:235,1,180.000006866455,10|0,0:0|0:0,0:0:0:0:
354,227,86000,1,10,0:0:0:0:
366,303,86200,1,2,0:0:0:0:
301,368,86400,6,0,P|276:310|211:300,1,120.000004577637,10|0,0:0|0:0,0:0:0:0:
233,277,86700,2,0,P|170:282|140:341,1,120.000004577637
117,338,87000,1,2,0:0:0:0:
12,233,87200,70,0,P|72:241|116:199,1,120.000004577637,10|0,0:0|0:0,0:0:0:0:
90,40,87600,2,0,P|109:50|134:83,1,60.0000022888184,10|0,0:0|0:0,0:0:0:0:
189,178,87800,2,0,P|188:156|204:118,1,60.0000022888184,2|0,0:0|0:0,0:0:0:0:
262,65,88000,37,10,0:0:0:0:
273,68,88100,1,0,3:0:0:0:
284,71,88200,1,0,3:0:0:0:
295,74,88300,1,2,3:0:0:0:
373,80,88400,5,0,3:0:0:0:
370,91,88500,1,0,3:0:0:0:
367,102,88600,1,2,3:0:0:0:
364,113,88700,1,0,3:0:0:0:
347,190,88800,54,0,L|394:184,1,40,2|0,3:0|3:0,0:0:0:0:
438,126,89000,2,0,L|485:120,1,40,0|0,3:0|3:0,0:0:0:0:
351,195,89200,2,0,L|398:189,1,40,2|0,3:0|3:0,3:0:0:0:
442,131,89400,2,0,L|489:125,1,40,2|0,3:0|3:0,3:0:0:0:
502,201,89600,6,8,L|495:232,2,20
478,291,89800,1,0,3:0:0:0:
478,291,90000,1,0,3:0:0:0:
336,352,90200,54,8,L|329:321,2,20
312,262,90400,1,0,3:0:0:0:
312,262,90600,1,0,3:0:0:0:
145,179,90800,53,10,0:0:0:0:
145,179,91200,2,0,B|139:147|139:147|45:122|45:122|93:301,1,287.999991210938,6|0,1:0|0:0,0:0:0:0:
20,343,91800,1,2,0:0:0:0:
265,219,92000,6,0,L|418:255,1,120,10|0,0:0|0:0,0:0:0:0:
454,291,92400,6,0,L|337:262,1,120,2|0,1:0|0:0,0:0:0:0:
197,374,92800,54,0,L|313:345,1,120,2|0,1:0|0:0,0:0:0:0:
313,344,93200,1,2,1:0:0:0:
453,200,93400,5,2,0:0:0:0:
431,120,93600,1,10,0:0:0:0:
409,40,93800,1,2,0:0:0:0:
409,40,94000,54,0,P|425:-4|421:40,1,120,2|0,1:0|0:0,0:0:0:0:
326,156,94400,54,0,B|266:187|182:124|260:81|183:20|79:30,1,287.999991210938,6|0,1:0|0:0,0:0:0:0:
40,89,95000,1,2,0:0:0:0:
103,288,95200,54,0,B|141:218|133:183|133:183|139:250|191:375,1,287.999991210938,10|2,0:0|1:0,0:0:0:0:
181,352,95700,1,2,0:0:0:0:
376,239,96000,21,10,0:0:0:0:
397,231,96100,2,0,P|422:175|411:155,1,71.9999978027344,10|0,0:0|0:0,0:0:0:0:
334,105,96400,37,10,0:0:0:0:
343,85,96500,2,0,P|322:28|300:20,1,71.9999978027344,10|0,0:0|0:0,0:0:0:0:
178,49,96800,21,10,0:0:0:0:
170,28,96900,2,0,P|114:2|94:13,1,71.9999978027344,10|0,0:0|0:0,0:0:0:0:
3,235,97200,54,0,P|37:187|95:187,1,120,2|0,1:0|0:0,0:0:0:0:
222,268,97600,6,0,P|368:255|431:385,1,287.999991210938,6|0,1:0|0:0,0:0:0:0:
350,384,98200,1,2,0:0:0:0:
265,121,98400,22,0,B|252:64|252:64|297:6,1,120,10|0,0:0|0:0,0:0:0:0:
380,34,98800,2,0,B|393:91|393:91|348:149,1,120,2|0,1:0|0:0,0:0:0:0:
291,218,99200,38,0,B|268:338,1,120,2|0,1:0|0:0,0:0:0:0:
268,335,99600,1,2,1:0:0:0:
16,263,99800,21,2,0:0:0:0:
22,174,100000,1,10,0:0:0:0:
95,224,100200,1,2,0:0:0:0:
22,174,100400,22,0,B|45:54,1,120,2|0,1:0|0:0,0:0:0:0:
225,0,100800,6,0,B|285:314,1,287.999991210938,6|0,1:0|0:0,0:0:0:0:
215,347,101400,1,2,0:0:0:0:
448,256,101600,22,0,P|496:198|465:267,1,215.999993408203,10|0,0:0|0:0,0:0:0:0:
364,195,102000,38,0,P|397:139|445:123,1,80,2|0,1:0|0:0,0:0:0:0:
336,365,102400,37,10,0:0:0:0:
321,380,102500,2,0,B|238:363,1,71.9999978027344,8|0,0:0|0:0,0:0:0:0:
223,125,102800,37,10,0:0:0:0:
208,110,102900,2,0,B|125:127,1,71.9999978027344,10|0,0:0|0:0,0:0:0:0:
111,280,103200,5,10,0:0:0:0:
96,295,103300,2,0,B|13:278,1,71.9999978027344,10|0,0:0|0:0,0:0:0:0:
0,192,103600,5,2,1:0:0:0:
512,192,104000,1,4,1:0:0:0:
256,192,109800,53,0,0:0:0:0:
293,122,110000,1,0,0:0:0:0:
293,122,110100,1,0,0:0:0:0:
293,122,110200,1,0,0:0:0:0:
281,264,110400,54,0,L|278:296,4,25,6|0|0|0|2,0:0|0:0|0:0|0:0|0:0,0:0:0:0:
320,350,110800,1,2,0:0:0:0:
362,283,111000,1,2,0:0:0:0:
204,266,111200,1,8,0:0:0:0:
224,341,111400,2,0,P|194:345|167:335,1,50,2|0,0:0|0:0,0:0:0:0:
166,334,111600,1,2,0:0:0:0:
161,330,111700,1,2,0:0:0:0:
156,326,111800,1,2,0:0:0:0:
94,369,112000,1,2,0:0:0:0:
22,273,112200,53,2,0:0:0:0:
98,169,112400,1,2,0:0:0:0:
98,169,112600,2,0,L|201:179,1,100,2|8,0:0|0:0,0:0:0:0:
331,240,113000,2,0,P|317:205|320:188,1,50,2|0,0:0|0:0,0:0:0:0:
322,185,113200,1,2,0:0:0:0:
274,298,113400,1,2,0:0:0:0:
397,201,113600,6,0,L|432:207,4,25,2|0|0|0|2,0:0|0:0|0:0|0:0|0:0,0:0:0:0:
484,161,114000,2,0,P|489:148|512:112,1,50,2|0,0:0|0:0,0:0:0:0:
364,30,114200,2,0,P|382:53|384:121,1,100,2|10,0:0|0:0,0:0:0:0:
225,176,114600,1,2,0:0:0:0:
225,176,114700,1,0,0:0:0:0:
225,176,114800,2,0,P|207:153|205:85,1,100,2|2,0:0|0:0,0:0:0:0:
144,31,115100,1,2,0:0:0:0:
144,31,115200,53,2,0:0:0:0:
92,129,115400,2,0,B|9:122|9:122|-6:99,2,100,2|2|2,0:0|0:0|0:0,0:0:0:0:
13,261,116000,1,8,0:0:0:0:
88,219,116200,1,2,0:0:0:0:
88,219,116400,2,0,B|110:262|110:262|88:314,1,100,2|2,0:0|0:0,0:0:0:0:
185,284,116800,22,0,B|231:314|251:366|251:366|250:313|277:263,1,200,2|2,1:0|0:0,0:0:0:0:
413,180,117400,2,0,B|421:210|449:223|449:223|292:198,1,200,2|2,1:0|0:0,0:0:0:0:
83,89,118000,2,0,B|95:31|144:19|195:26|195:26|193:51|205:82|218:91,1,200,2|2,1:0|0:0,0:0:0:0:
281,42,118600,2,0,B|299:26|299:26|271:37,1,50,0|0,1:0|0:0,0:0:0:0:
151,128,118800,2,0,L|266:140,1,100,2|2,1:0|0:0,0:0:0:0:
308,200,119200,38,0,B|288:229|288:229|327:298,1,100,8|2,0:0|0:0,0:0:0:0:
431,264,119600,2,0,B|441:200|441:200|412:179,1,100,2|2,1:0|0:0,0:0:0:0:
284,42,120000,38,0,B|308:45|324:37|324:37|298:100|293:100|183:56,1,200,2|2,1:0|0:0,0:0:0:0:
21,85,120600,2,0,B|10:56|20:25|60:27|60:27|81:154,1,200,0|2,1:0|0:0,0:0:0:0:
44,252,121200,2,0,B|24:188|24:188|157:163,1,200,2|2,1:0|0:0,0:0:0:0:
243,135,121800,2,0,P|233:166|236:187,1,50,0|0,1:0|0:0,0:0:0:0:
303,218,122000,2,0,P|323:156|317:114,1,100,2|2,1:0|0:0,0:0:0:0:
231,301,122400,22,0,B|251:285|251:285|344:300,1,100,8|0,0:0|0:0,0:0:0:0:
412,118,122800,2,0,B|392:134|392:134|299:119,1,100,0|0,1:0|0:0,0:0:0:0:
314,113,123100,1,0,0:0:0:0:
309,106,123200,1,12,0:0:0:0:
170,30,123400,37,0,0:0:0:0:
85,97,123600,2,0,L|94:143,2,26.6666666666667
85,96,123866,1,0,0:0:0:0:
13,176,124000,54,0,P|78:155|142:218,1,160
225,339,124800,37,2,0:0:0:0:
249,329,124900,2,0,P|257:269|269:200,1,120,2|2,0:0|0:0,0:0:0:0:
199,95,125333,21,2,0:0:0:0:
190,63,125466,1,0,0:0:0:0:
182,35,125600,2,0,P|230:28|285:19,1,80,2|2,3:0|0:0,0:0:0:0:
392,107,126000,2,0,P|352:112|312:118,1,80,2|0,0:0|0:0,0:0:0:0:
312,118,126400,1,0,3:0:0:0:
167,287,126800,37,2,0:0:0:0:
137,292,126933,1,0,0:0:0:0:
108,298,127066,1,0,0:0:0:0:
89,284,127200,22,0,P|136:245|172:257,1,80,2|2,3:0|0:0,0:0:0:0:
290,346,127600,2,0,P|337:384|373:372,1,80,2|2,0:0|0:0,0:0:0:0:
454,316,128000,37,2,0:0:0:0:
449,286,128133,1,0,0:0:0:0:
443,257,128266,1,0,3:0:0:0:
366,222,128400,21,2,0:0:0:0:
353,203,128533,2,0,L|368:132,1,53.3333333333333
499,130,128800,37,0,0:0:0:0:
512,111,128933,2,0,L|497:40,1,53.3333333333333
420,52,129200,2,0,L|432:0,2,53.3333333333333,0|0|0,3:0|0:0|0:0,0:0:0:0:
273,89,129600,22,0,B|167:92|239:149|101:146,1,160,0|0,1:0|0:0,0:0:0:0:
82,84,130133,1,0,0:0:0:0:
69,62,130266,1,0,0:0:0:0:
96,62,130400,1,0,0:0:0:0:
47,293,130800,38,0,P|88:296|143:326,1,80,2|2,0:0|0:0,0:0:0:0:
270,198,131200,2,0,P|230:195|193:180,1,80,2|2,0:0|0:0,0:0:0:0:
341,312,131600,21,2,0:0:0:0:
335,275,131733,1,0,0:0:0:0:
372,269,131866,1,0,0:0:0:0:
377,306,132000,1,2,3:0:0:0:
356,290,132266,37,0,3:0:0:0:
356,290,132400,2,0,P|359:330|374:367,1,80,2|2,0:0|0:0,0:0:0:0:
494,255,132800,2,0,P|490:201|471:152,1,106.666666666667,2|0,3:0|0:0,0:0:0:0:
469,25,133200,21,0,0:0:0:0:
463,62,133333,1,0,0:0:0:0:
500,68,133466,1,0,3:0:0:0:
505,31,133600,2,0,B|408:35|467:83|325:83,1,160,2|2,0:0|0:0,0:0:0:0:
289,156,134200,1,2,3:0:0:0:
256,192,134250,12,0,135600,0:0:0:0:
383,263,136000,5,10,0:0:0:0:
383,263,136100,1,10,0:0:0:0:
127,180,136400,21,10,0:0:0:0:
127,180,136500,1,10,0:0:0:0:
295,338,136800,38,0,P|276:329|257:326,1,40,10|10,0:0|0:0,0:0:0:0:
121,363,137000,2,0,P|112:366|103:370,2,20,0|0|0,1:0|1:0|1:0,1:0:0:0:
205,381,137200,22,0,B|203:301|270:346|259:221,1,155.999992858887,10|0,0:0|0:0,0:0:0:0:
258,226,137600,37,14,0:0:0:0:
344,156,138200,1,0,0:0:0:0:
449,188,138800,1,0,0:0:0:0:
449,188,139800,1,0,0:0:0:0:
449,188,140000,2,0,P|437:213|433:262,1,60.0000022888184,2|0,0:0|0:0,0:0:0:0:
502,365,140400,2,0,P|497:335|485:308,1,60.0000022888184,2|0,0:0|0:0,0:0:0:0:
297,265,140800,22,0,P|311:308|380:291,1,120.000004577637,2|0,0:0|0:0,0:0:0:0:
347,137,141400,2,0,P|302:127|282:195,1,120.000004577637,2|0,0:0|0:0,0:0:0:0:
432,244,142000,2,0,P|462:210|413:159,1,120.000004577637,2|0,0:0|0:0,0:0:0:0:
131,270,143000,1,0,0:0:0:0:
131,270,143100,1,0,0:0:0:0:
131,270,143200,2,0,L|114:233,1,30.0000011444092
109,128,143400,2,0,L|116:157,1,30.0000011444092
190,217,143600,2,0,L|187:187,1,30.0000011444092
254,92,143800,2,0,L|251:121,1,30.0000011444092
265,194,144000,38,0,B|333:184|297:154|363:144,1,103.999995239258,10|0,0:0|0:0,0:0:0:0:
359,72,144400,2,0,B|427:82|391:112|457:122,1,103.999995239258,10|0,0:0|0:0,0:0:0:0:
475,276,144800,2,0,B|433:295|429:337|429:337|415:296|360:294,1,155.999992858887,10|0,0:0|0:0,0:0:0:0:
358,292,145200,22,0,P|358:324|346:350,1,51.999997619629,10|0,0:0|0:0,0:0:0:0:
275,332,145400,2,0,P|275:300|287:274,1,51.999997619629,2|0,0:0|0:0,0:0:0:0:
221,237,145600,38,0,P|172:248|104:271,1,103.999995239258,10|0,0:0|0:0,0:0:0:0:
89,53,146000,2,0,P|139:57|210:56,1,103.999995239258,10|0,0:0|1:0,0:0:0:0:
60,343,146400,22,0,P|75:292|71:172,1,155.999992858887,10|0,0:0|0:0,0:0:0:0:
72,173,146800,1,10,0:0:0:0:
271,181,147000,1,10,0:0:0:0:
221,237,147200,38,0,P|281:214|420:268,1,207.999990478516,6|2,1:0|1:0,0:0:0:0:
409,269,147800,2,0,P|317:223|218:247,1,207.999990478516,6|2,1:0|1:0,0:0:0:0:
218,258,148400,2,0,P|317:234|408:279,1,207.999990478516,6|0,1:0|0:0,0:0:0:0:
409,39,149800,1,0,1:0:0:0:
409,39,149900,1,0,1:0:0:0:
409,39,150000,2,0,B|372:43|372:43|354:68|354:68|305:74,1,103.999995239258,10|2,0:0|1:0,0:0:0:0:
107,34,150400,38,0,P|158:16|211:113,1,180.000006866455,6|2,1:0|0:0,0:0:0:0:
209,117,150800,1,0,0:0:0:0:
129,111,151000,1,2,1:0:0:0:
123,120,151200,2,0,B|134:175|134:175|129:186|129:186|142:247,1,120.000004577637,10|0,0:0|0:0,0:0:0:0:
200,356,151600,54,0,P|172:346|131:345,1,60.0000022888184,2|0,1:0|0:0,0:0:0:0:
23,303,151800,2,0,P|52:300|81:290,1,60.0000022888184,2|0,0:0|0:0,0:0:0:0:
261,178,152000,6,0,P|241:233|242:305,1,120.000004577637,2|0,0:0|1:0,0:0:0:0:
339,149,152400,1,2,1:0:0:0:
389,315,152600,1,2,0:0:0:0:
389,315,152700,1,0,0:0:0:0:
389,315,152800,2,0,P|409:260|408:188,1,120.000004577637,10|0,0:0|1:0,0:0:0:0:
485,129,153200,53,2,0:0:0:0:
339,149,153400,1,2,0:0:0:0:
415,4,153600,2,0,B|427:20|427:20|405:123,1,120.000004577637,2|0,1:0|0:0,0:0:0:0:
409,126,153900,1,2,0:0:0:0:
414,134,154000,2,0,L|342:122,1,60.0000022888184
344,39,154200,2,0,L|272:51,1,60.0000022888184,2|0,1:0|0:0,0:0:0:0:
90,51,154400,2,0,P|130:12|204:86,1,180.000006866455,10|0,0:0|0:0,0:0:0:0:
202,89,154800,6,0,P|190:118|159:140,1,60.0000022888184,2|0,1:0|0:0,0:0:0:0:
31,130,155000,2,0,P|62:125|96:141,1,60.0000022888184,2|0,0:0|0:0,0:0:0:0:
154,317,155200,2,0,P|124:256|126:202,1,120.000004577637,0|0,0:0|1:0,0:0:0:0:
125,205,155600,1,0,1:0:0:0:
389,260,155800,1,0,0:0:0:0:
389,260,156000,2,0,P|388:200|360:148,1,120.000004577637,8|0,0:0|1:0,0:0:0:0:
360,148,156400,6,0,B|391:152|391:152|419:135,1,60.0000022888184,2|0,0:0|0:0,0:0:0:0:
396,60,156600,2,0,B|365:56|365:56|337:73,1,60.0000022888184,2|0,1:0|0:0,0:0:0:0:
273,29,156800,38,0,B|264:82|264:82|274:100|274:100|264:164,1,120.000004577637,2|0,1:0|0:0,0:0:0:0:
266,145,157100,1,2,0:0:0:0:
266,145,157200,1,0,0:0:0:0:
203,189,157400,1,2,1:0:0:0:
130,224,157600,2,0,L|6:214,1,120.000004577637,10|0,0:0|0:0,0:0:0:0:
88,143,158000,37,2,1:0:0:0:
117,309,158200,1,2,0:0:0:0:
123,303,158400,2,0,L|242:312,1,120.000004577637,2|0,0:0|1:0,0:0:0:0:
242,312,158700,1,0,0:0:0:0:
242,312,158800,1,2,1:0:0:0:
300,213,159000,1,2,0:0:0:0:
331,334,159200,2,0,B|385:339|406:380|406:380|411:331|456:308,1,180.000006866455,10|0,0:0|0:0,0:0:0:0:
458,299,159600,38,0,B|436:278|436:278|437:233,1,60.0000022888184,2|0,0:0|0:0,0:0:0:0:
440,104,159800,2,0,B|462:125|462:125|461:170,1,60.0000022888184,2|0,0:0|0:0,0:0:0:0:
506,215,160000,54,0,P|447:195|376:189,1,120.000004577637,2|0,1:0|0:0,0:0:0:0:
350,45,160300,1,2,0:0:0:0:
350,45,160400,2,0,P|291:65|220:71,1,120.000004577637,0|0,0:0|1:0,0:0:0:0:
44,72,160800,2,0,B|79:28|132:36|159:55|159:55|151:82|170:113,1,180.000006866455,10|0,0:0|0:0,0:0:0:0:
169,114,161200,6,0,P|152:142|146:172,1,60.0000022888184,2|0,1:0|0:0,0:0:0:0:
61,172,161400,2,0,P|78:200|84:230,1,60.0000022888184,2|0,1:0|0:0,0:0:0:0:
93,299,161600,54,8,L|59:295,4,30.0000011444092,8|8|8|0|0,0:0|0:0|0:0|0:0|3:0,0:0:0:0:
119,370,162000,1,0,3:0:0:0:
304,179,162200,6,8,L|338:175,4,30.0000011444092,8|8|8|0|0,0:0|0:0|0:0|0:0|3:0,0:0:0:0:
278,250,162600,1,0,3:0:0:0:
164,40,162800,37,10,0:0:0:0:
164,40,163200,6,0,B|208:94|279:93|311:63|311:63|298:12,1,210.000002002716,6|0,1:0|0:0,0:0:0:0:
297,9,163600,1,0,0:0:0:0:
475,107,163800,6,0,B|444:87|444:87|406:99,1,70.000000667572,2|0,0:0|0:0,0:0:0:0:
341,185,164000,2,0,B|355:299|449:226|462:350,1,210.000002002716,10|0,0:0|0:0,0:0:0:0:
373,359,164400,2,0,B|344:246|458:282|432:170,1,210.000002002716,2|0,1:0|0:0,0:0:0:0:
324,103,164800,53,2,1:0:0:0:
324,103,165200,2,0,P|286:84|243:158,1,140.000001335144,2|2,1:0|0:0,0:0:0:0:
203,242,165600,2,0,P|165:260|122:186,1,140.000001335144,10|2,0:0|0:0,0:0:0:0:
126,87,166000,2,0,B|84:82|60:12|60:12|75:86|43:112,1,210.000002002716,2|0,1:0|0:0,0:0:0:0:
8,175,166400,6,0,B|87:149|87:149|51:300,1,210.000002002716,6|0,1:0|0:0,0:0:0:0:
56,285,166800,1,0,0:0:0:0:
324,319,167000,1,2,0:0:0:0:
297,243,167200,2,0,B|302:212|356:165|460:183|432:271|399:279|381:268,1,210.000002002716,10|0,0:0|0:0,0:0:0:0:
398,361,167600,1,2,1:0:0:0:
389,357,167700,2,0,P|307:345|244:343,1,140.000001335144,2|0,0:0|0:0,0:0:0:0:
74,347,168000,21,10,0:0:0:0:
76,357,168100,2,0,P|131:370|177:296,1,140.000001335144,10|0,0:0|0:0,0:0:0:0:
212,241,168400,1,10,0:0:0:0:
202,238,168500,2,0,B|152:231|152:231|144:203|144:203|74:193,1,140.000001335144,10|0,0:0|0:0,0:0:0:0:
20,143,168800,21,10,0:0:0:0:
16,153,168900,1,10,0:0:0:0:
227,164,169200,2,0,B|256:98|256:98|202:39,1,140.000001335144,2|0,1:0|0:0,0:0:0:0:
142,17,169600,22,0,B|325:37|325:37|350:71,1,210.000002002716,6|0,1:0|0:0,0:0:0:0:
347,67,170000,1,0,0:0:0:0:
485,32,170200,1,2,0:0:0:0:
450,160,170400,38,0,B|418:137|418:99|418:99|400:135|350:142,1,140.000001335144,10|0,0:0|0:0,0:0:0:0:
340,288,170800,2,0,B|308:311|308:349|308:349|290:313|255:309,1,140.000001335144,2|0,1:0|0:0,0:0:0:0:
74,253,171200,22,0,B|192:226|119:143|241:121,1,210.000002002716,2|0,1:0|0:0,0:0:0:0:
238,125,171600,1,2,1:0:0:0:
379,175,171800,1,2,0:0:0:0:
340,288,172000,1,10,0:0:0:0:
481,238,172200,1,2,0:0:0:0:
424,361,172400,38,0,B|410:341|417:310|417:310|369:288|327:302|300:337|298:378,1,210.000002002716,2|0,1:0|0:0,0:0:0:0:
234,239,172800,2,0,P|271:260|161:289,1,280.000002670288,6|0,1:0|0:0,0:0:0:0:
87,319,173400,1,2,0:0:0:0:
14,207,173600,37,10,0:0:0:0:
131,222,173800,1,2,0:0:0:0:
103,86,174000,1,2,1:0:0:0:
220,101,174200,1,0,0:0:0:0:
219,116,174400,38,0,P|285:95|370:92,1,140.000001335144,2|0,1:0|0:0,0:0:0:0:
467,307,174800,5,10,0:0:0:0:
467,307,174900,1,10,0:0:0:0:
315,180,175200,5,10,0:0:0:0:
315,180,175300,1,10,0:0:0:0:
182,260,175600,2,0,B|184:321|122:338|122:338|75:306|94:241,1,210.000002002716,2|0,1:0|0:0,0:0:0:0:
0,312,176000,38,0,P|115:303|276:359,1,280.000002670288,6|0,1:0|0:0,0:0:0:0:
269,354,176800,1,0,0:0:0:0:
269,354,177000,1,0,0:0:0:0:
396,374,177200,2,0,P|370:335|350:227,1,140.000001335144,6|0,1:0|0:0,0:0:0:0:
142,153,177600,2,0,P|168:114|188:6,1,140.000001335144,6|0,1:0|0:0,0:0:0:0:
188,24,178000,5,8,0:1:0:0:
207,36,178100,1,8,0:1:0:0:
222,30,178200,1,8,0:1:0:0:
322,94,178400,5,8,0:1:0:0:
340,82,178500,1,8,0:1:0:0:
355,88,178600,1,8,0:1:0:0:
477,153,178800,38,0,B|422:146|422:146|400:171|400:171|341:161,1,140.000001335144,6|0,1:0|0:0,0:0:0:0:
35,231,179200,2,0,B|90:238|90:238|112:213|112:213|171:223,1,140.000001335144,6|0,1:0|0:0,0:0:0:0:
