osu file format v14

[General]
AudioFilename: audio.mp3
AudioLeadIn: 0
PreviewTime: 105500
Countdown: 0
SampleSet: Soft
StackLeniency: 0.4
Mode: 0
LetterboxInBreaks: 0
WidescreenStoryboard: 0

[Editor]
DistanceSpacing: 1.4
BeatDivisor: 4
GridSize: 32
TimelineZoom: 1.2

[Metadata]
Title:Black Out
TitleUnicode:Black Out
Artist:OBSYDIA
ArtistUnicode:OBSYDIA
Creator:SMOKELIND
Version:EX
Source:
Tags:ペトラ グリン Petra Gurin せれん たつき Selen Tatsuki ろぜみ らぶろっく Rosemi Lovelock にじさんじ Nijisanji EN English Ryushen 緑仙 Giga TeddyLoid Electronic VTuber Pop ロゼミ ラブロック セレン 龍月 -Aqua Laplus- La+- Flake Pepekcz Basensorex
BeatmapID:3134174
BeatmapSetID:1532556

[Difficulty]
HPDrainRate:5.7
CircleSize:4.2
OverallDifficulty:8.7
ApproachRate:9
SliderMultiplier:2.77
SliderTickRate:1

[Events]
//Background and Video events
Video,0,"vid.mp4"
0,0,"BG.jpg",0,0
//Break Periods
2,137800,141800
//Storyboard Layer 0 (Background)
//Storyboard Layer 1 (Fail)
//Storyboard Layer 2 (Pass)
//Storyboard Layer 3 (Foreground)
//Storyboard Layer 4 (Overlay)
//Storyboard Sound Samples

[TimingPoints]
0,400,4,2,77,47,1,0
12400,-370.370370370372,4,2,77,47,0,0
12700,-588.23529411765,4,2,77,5,0,0
12800,-129.87012987013,4,2,77,57,0,0
13200,-85.4700854700855,4,2,77,57,0,0
13300,-588.23529411765,4,2,77,5,0,0
13400,-212.765957446809,4,2,77,57,0,0
13800,-129.87012987013,4,2,77,57,0,0
14900,-588.23529411765,4,2,77,5,0,0
15000,-129.87012987013,4,2,77,57,0,0
15600,-212.765957446809,4,2,77,57,0,0
16000,-129.87012987013,4,2,77,57,0,0
16500,-588.23529411765,4,2,77,5,0,0
16600,-129.87012987013,4,2,77,57,0,0
17500,-588.23529411765,4,2,77,5,0,0
17600,-129.87012987013,4,2,77,57,0,0
18100,-588.23529411765,4,2,77,5,0,0
18200,-129.87012987013,4,2,77,57,0,0
18800,-212.765957446809,4,2,77,57,0,0
19200,-129.87012987013,4,2,77,57,0,0
20000,-588.23529411765,4,2,77,5,0,0
20100,-129.87012987013,4,2,77,57,0,0
20300,-588.23529411765,4,2,77,5,0,0
20400,-129.87012987013,4,2,77,57,0,0
20800,-175.438596491228,4,2,77,57,0,0
21500,-588.23529411765,4,2,77,5,0,0
21600,-175.438596491228,4,2,77,57,0,0
22800,-85.4700854700855,4,2,77,57,0,0
22900,-588.23529411765,4,2,77,5,0,0
23000,-212.765957446809,4,2,77,57,0,0
23300,-588.23529411765,4,2,77,5,0,0
23400,-212.765957446809,4,2,77,57,0,0
23900,-588.23529411765,4,2,77,5,0,0
24000,-212.765957446809,4,2,77,67,0,0
24066,-588.23529411765,4,2,77,5,0,0
24266,-212.765957446809,4,2,77,67,0,0
24333,-588.23529411765,4,2,77,5,0,0
24533,-212.765957446809,4,2,77,67,0,0
24600,-588.23529411765,4,2,77,5,0,0
24800,-212.765957446809,4,2,77,67,0,0
24866,-588.23529411765,4,2,77,5,0,0
25200,-588.23529411765,4,2,77,67,0,0
25400,-588.23529411765,4,2,77,5,0,0
25600,-114.942528735632,4,2,77,67,0,0
26200,-212.765957446808,4,2,77,67,0,0
27200,-114.942528735632,4,2,77,67,0,0
28000,-85.4700854700854,4,2,77,67,0,0
28400,-114.942528735632,4,2,77,67,0,0
30000,-85.4700854700854,4,2,77,67,0,0
30600,-212.765957446808,4,2,77,67,0,0
32000,-114.942528735632,4,2,77,67,0,0
35600,-103.092783505155,4,2,77,67,0,0
36000,-93.4579439252336,4,2,77,67,0,0
36400,-85.4700854700855,4,2,77,67,0,0
36800,-78.7401574803149,4,2,77,67,0,0
37100,-93.4579439252336,4,2,77,67,0,0
37600,-149.253731343284,4,2,77,57,0,0
38000,-149.253731343284,4,2,77,67,0,0
38400,-78.7401574803151,4,2,77,67,0,0
38500,-588.23529411765,4,2,77,5,0,0
38600,-103.092783505155,4,2,77,67,0,0
38700,-588.23529411765,4,2,77,5,0,0
38800,-103.092783505155,4,2,77,67,0,0
39100,-588.23529411765,4,2,77,5,0,0
39200,-103.092783505155,4,2,77,67,0,0
40300,-588.23529411765,4,2,77,5,0,0
40400,-103.092783505155,4,2,77,67,0,0
41500,-588.23529411765,4,2,77,5,0,0
41600,-103.092783505155,4,2,77,67,0,0
43500,-588.23529411765,4,2,77,5,0,0
43600,-103.092783505155,4,2,77,67,0,0
44100,-588.23529411765,4,2,77,5,0,0
44200,-103.092783505155,4,2,77,67,0,0
44300,-588.23529411765,4,2,77,5,0,0
44400,-103.092783505155,4,2,77,67,0,0
46500,-588.23529411765,4,2,77,5,0,0
46600,-103.092783505155,4,2,77,67,0,0
46900,-588.23529411765,4,2,77,5,0,0
47000,-103.092783505155,4,2,77,67,0,0
47300,-588.23529411765,4,2,77,5,0,0
47400,-103.092783505155,4,2,77,67,0,0
49700,-588.23529411765,4,2,77,5,0,0
49800,-103.092783505155,4,2,77,67,0,0
50100,-588.23529411765,4,2,77,5,0,0
50200,-103.092783505155,4,2,77,67,0,0
51200,-270.270270270272,4,2,77,57,0,0
52800,-212.765957446809,4,2,77,47,0,0
56300,-588.23529411765,4,2,77,5,0,0
56400,-212.765957446809,4,2,77,47,0,0
57600,-270.270270270272,4,2,77,57,0,0
58800,-212.765957446809,4,2,77,47,0,0
64000,-103.092783505155,4,2,77,67,0,0
65000,-175.438596491229,4,2,77,67,0,0
65600,-93.4579439252336,4,2,77,87,0,0
65900,-588.23529411765,4,2,77,5,0,0
66000,-93.4579439252336,4,2,77,87,0,0
66700,-588.23529411765,4,2,77,5,0,0
66800,-93.4579439252336,4,2,77,87,0,0
66900,-588.23529411765,4,2,77,5,0,0
67000,-93.4579439252336,4,2,77,87,0,0
67100,-588.23529411765,4,2,77,5,0,0
67200,-93.4579439252336,4,2,77,87,0,0
69100,-588.23529411765,4,2,77,5,0,0
69200,-93.4579439252336,4,2,77,87,0,0
69300,-588.23529411765,4,2,77,5,0,0
69400,-93.4579439252336,4,2,77,87,0,0
69700,-588.23529411765,4,2,77,5,0,0
69800,-93.4579439252336,4,2,77,87,0,0
69900,-588.23529411765,4,2,77,5,0,0
70000,-93.4579439252336,4,2,77,87,0,0
70500,-588.23529411765,4,2,77,5,0,0
70600,-93.4579439252336,4,2,77,87,0,0
71100,-588.23529411765,4,2,77,5,0,0
71200,-93.4579439252336,4,2,77,87,0,0
71500,-588.23529411765,4,2,77,5,0,0
71600,-93.4579439252336,4,2,77,87,0,0
71700,-588.23529411765,4,2,77,5,0,0
71800,-93.4579439252336,4,2,77,87,0,0
71900,-588.23529411765,4,2,77,5,0,0
72000,-93.4579439252336,4,2,77,87,0,0
72300,-588.23529411765,4,2,77,5,0,0
72400,-93.4579439252336,4,2,77,87,0,0
73100,-588.23529411765,4,2,77,5,0,0
73200,-93.4579439252336,4,2,77,87,0,0
73300,-588.23529411765,4,2,77,5,0,0
73400,-93.4579439252336,4,2,77,87,0,0
73500,-588.23529411765,4,2,77,5,0,0
73600,-93.4579439252336,4,2,77,87,0,0
75500,-588.23529411765,4,2,77,5,0,0
75600,-93.4579439252336,4,2,77,87,0,0
75700,-588.23529411765,4,2,77,5,0,0
75800,-93.4579439252336,4,2,77,87,0,0
76100,-588.23529411765,4,2,77,5,0,0
76200,-93.4579439252336,4,2,77,87,0,0
76300,-588.23529411765,4,2,77,5,0,0
76400,-93.4579439252336,4,2,77,87,0,0
77500,-588.23529411765,4,2,77,5,0,0
77600,-93.4579439252336,4,2,77,87,0,0
78400,-103.092783505155,4,2,77,67,0,0
78600,-588.23529411765,4,2,77,5,0,0
78700,-103.092783505155,4,2,77,67,0,0
79500,-588.23529411765,4,2,77,5,0,0
79600,-103.092783505155,4,2,77,67,0,0
79700,-588.23529411765,4,2,77,5,0,0
79800,-103.092783505155,4,2,77,67,0,0
79900,-588.23529411765,4,2,77,5,0,0
80000,-103.092783505155,4,2,77,67,0,0
80200,-588.23529411765,4,2,77,5,0,0
80300,-103.092783505155,4,2,77,67,0,0
80500,-588.23529411765,4,2,77,5,0,0
80600,-103.092783505155,4,2,77,67,0,0
81800,-588.23529411765,4,2,77,5,0,0
81900,-103.092783505155,4,2,77,67,0,0
82100,-588.23529411765,4,2,77,5,0,0
82200,-103.092783505155,4,2,77,67,0,0
82300,-588.23529411765,4,2,77,5,0,0
82400,-103.092783505155,4,2,77,67,0,0
89599,-78.7401574803149,4,2,77,67,0,0
90399,-175.438596491229,4,2,77,67,0,0
91100,-588.23529411765,4,2,77,5,0,0
91200,-93.4579439252339,4,2,77,77,0,0
91900,-588.23529411765,4,2,77,5,0,0
92000,-212.765957446809,4,2,77,77,0,0
92300,-588.23529411765,4,2,77,5,0,0
92400,-212.765957446809,4,2,77,77,0,0
92700,-588.23529411765,4,2,77,5,0,0
92800,-212.765957446809,4,2,77,77,0,0
93200,-93.4579439252337,4,2,77,77,0,0
93300,-588.23529411765,4,2,77,5,0,0
93400,-93.4579439252337,4,2,77,77,0,0
93500,-588.23529411765,4,2,77,5,0,0
93600,-93.4579439252337,4,2,77,77,0,0
93700,-588.23529411765,4,2,77,5,0,0
93800,-93.4579439252337,4,2,77,77,0,0
94000,-175.438596491229,4,2,77,77,0,0
94300,-588.23529411765,4,2,77,5,0,0
94400,-93.4579439252339,4,2,77,77,0,0
95100,-588.23529411765,4,2,77,5,0,0
95200,-212.765957446809,4,2,77,77,0,0
96000,-93.4579439252337,4,2,77,77,0,0
97200,-175.438596491229,4,2,77,77,0,0
97500,-588.23529411765,4,2,77,5,0,0
97599,-93.4579439252339,4,2,77,77,0,0
97900,-588.23529411765,4,2,77,5,0,0
98000,-93.4579439252339,4,2,77,77,0,0
98300,-588.23529411765,4,2,77,5,0,0
98399,-212.765957446809,4,2,77,77,0,0
98700,-588.23529411765,4,2,77,5,0,0
98800,-212.765957446809,4,2,77,77,0,0
99100,-588.23529411765,4,2,77,5,0,0
99200,-212.765957446809,4,2,77,77,0,0
99500,-588.23529411765,4,2,77,5,0,0
99599,-93.4579439252337,4,2,77,77,0,0
99700,-588.23529411765,4,2,77,5,0,0
99800,-93.4579439252337,4,2,77,77,0,0
99900,-588.23529411765,4,2,77,5,0,0
100000,-93.4579439252337,4,2,77,77,0,0
100100,-588.23529411765,4,2,77,5,0,0
100200,-93.4579439252337,4,2,77,77,0,0
100399,-175.438596491229,4,2,77,77,0,0
100700,-588.23529411765,4,2,77,5,0,0
100799,-93.4579439252339,4,2,77,77,0,0
101100,-588.23529411765,4,2,77,5,0,0
101200,-93.4579439252339,4,2,77,77,0,0
101500,-588.23529411765,4,2,77,5,0,0
101599,-212.765957446809,4,2,77,77,0,0
101900,-588.23529411765,4,2,77,5,0,0
102000,-212.765957446809,4,2,77,77,0,0
102300,-588.23529411765,4,2,77,5,0,0
102399,-93.4579439252337,4,2,77,77,0,0
103600,-370.370370370372,4,2,77,77,0,0
104100,-212.765957446809,4,2,77,47,0,0
105600,-588.23529411765,4,2,77,27,0,0
110400,-149.253731343284,4,2,77,57,0,0
116200,-212.765957446809,4,2,77,57,0,0
116800,-114.942528735632,4,2,77,57,0,0
118700,-588.23529411765,4,2,77,5,0,0
118800,-114.942528735632,4,2,77,57,0,0
121900,-588.23529411765,4,2,77,5,0,0
122000,-114.942528735632,4,2,77,57,0,0
122400,-149.253731343283,4,2,77,57,0,0
122800,-212.765957446807,4,2,77,57,0,0
123100,-588.23529411765,4,2,77,5,0,0
123199,-270.270270270272,4,2,77,57,0,0
124799,-212.765957446809,4,2,77,47,0,0
129599,-270.270270270272,4,2,77,57,0,0
130700,-588.23529411765,4,2,77,5,0,0
130799,-212.765957446809,4,2,77,47,0,0
135999,-103.092783505155,4,2,77,67,0,0
136999,-175.438596491229,4,2,77,67,0,0
137599,-212.765957446809,4,2,77,57,0,0
142400,-175.438596491228,4,2,77,57,0,0
143200,-149.253731343284,4,2,77,67,0,0
144000,-114.942528735632,4,2,77,77,0,0
146400,-103.092783505155,4,2,77,77,0,0
147200,-93.4579439252339,4,2,77,77,0,0
148100,-588.23529411765,4,2,77,5,0,0
148200,-93.4579439252339,4,2,77,77,0,0
148700,-588.23529411765,4,2,77,5,0,0
148800,-93.4579439252339,4,2,77,77,0,0
149800,-175.438596491228,4,2,77,57,0,0
150399,-78.7401574803151,4,2,77,67,0,0
150600,-588.23529411765,4,2,77,5,0,0
150700,-103.092783505155,4,2,77,67,0,0
150900,-588.23529411765,4,2,77,5,0,0
151000,-103.092783505155,4,2,77,67,0,0
152300,-588.23529411765,4,2,77,5,0,0
152400,-103.092783505155,4,2,77,67,0,0
154300,-588.23529411765,4,2,77,5,0,0
154400,-103.092783505155,4,2,77,67,0,0
160200,-588.23529411765,4,2,77,5,0,0
160300,-103.092783505155,4,2,77,67,0,0
161598,-78.7401574803149,4,2,77,67,0,0
162398,-175.438596491229,4,2,77,67,0,0
163100,-588.23529411765,4,2,77,5,0,0
163199,-93.4579439252339,4,2,77,77,0,0
163900,-588.23529411765,4,2,77,5,0,0
163999,-212.765957446809,4,2,77,77,0,0
164300,-588.23529411765,4,2,77,5,0,0
164400,-212.765957446809,4,2,77,77,0,0
164700,-588.23529411765,4,2,77,5,0,0
164800,-212.765957446809,4,2,77,77,0,0
165199,-93.4579439252337,4,2,77,77,0,0
165300,-588.23529411765,4,2,77,5,0,0
165400,-93.4579439252337,4,2,77,77,0,0
165500,-588.23529411765,4,2,77,5,0,0
165600,-93.4579439252337,4,2,77,77,0,0
165700,-588.23529411765,4,2,77,5,0,0
165800,-93.4579439252337,4,2,77,77,0,0
165999,-175.438596491229,4,2,77,77,0,0
166300,-588.23529411765,4,2,77,5,0,0
166399,-93.4579439252339,4,2,77,77,0,0
167100,-588.23529411765,4,2,77,5,0,0
167199,-212.765957446809,4,2,77,77,0,0
167999,-93.4579439252337,4,2,77,77,0,0
169199,-175.438596491229,4,2,77,77,0,0
169500,-588.23529411765,4,2,77,5,0,0
169598,-93.4579439252339,4,2,77,77,0,0
169900,-588.23529411765,4,2,77,5,0,0
170000,-93.4579439252339,4,2,77,77,0,0
170300,-588.23529411765,4,2,77,5,0,0
170398,-212.765957446809,4,2,77,77,0,0
170700,-588.23529411765,4,2,77,5,0,0
170800,-212.765957446809,4,2,77,77,0,0
171100,-588.23529411765,4,2,77,5,0,0
171200,-212.765957446809,4,2,77,77,0,0
171500,-588.23529411765,4,2,77,5,0,0
171598,-93.4579439252337,4,2,77,77,0,0
171700,-588.23529411765,4,2,77,5,0,0
171800,-93.4579439252337,4,2,77,77,0,0
171900,-588.23529411765,4,2,77,5,0,0
172000,-93.4579439252337,4,2,77,77,0,0
172100,-588.23529411765,4,2,77,5,0,0
172200,-93.4579439252337,4,2,77,77,0,0
172398,-175.438596491229,4,2,77,77,0,0
172700,-588.23529411765,4,2,77,5,0,0
172798,-93.4579439252339,4,2,77,77,0,0
173100,-588.23529411765,4,2,77,5,0,0
173200,-93.4579439252339,4,2,77,77,0,0
173500,-588.23529411765,4,2,77,5,0,0
173600,-93.4579439252339,4,2,77,77,0,0
173700,-588.23529411765,4,2,77,5,0,0
173800,-93.4579439252339,4,2,77,77,0,0
173900,-588.23529411765,4,2,77,5,0,0
174000,-93.4579439252339,4,2,77,77,0,0
174100,-588.23529411765,4,2,77,5,0,0
174200,-93.4579439252339,4,2,77,77,0,0
174398,-93.4579439252337,4,2,77,77,0,0
175599,-370.370370370372,4,2,77,77,0,0
176000,-68.0272108843538,4,2,77,77,0,0
177500,-588.23529411765,4,2,77,5,0,0
177600,-68.0272108843538,4,2,77,77,0,0
177900,-588.23529411765,4,2,77,5,0,0
178000,-68.0272108843538,4,2,77,77,0,0
179100,-588.23529411765,4,2,77,5,0,0
179200,-68.0272108843538,4,2,77,77,0,0
179600,-588.235294117647,4,2,77,5,0,0

[Colours]
Combo1 : 75,75,75
Combo2 : 131,0,131
Combo3 : 155,0,0
Combo4 : 211,100,0
Combo5 : 183,183,183

[HitObjects]
28,47,12400,22,0,L|94:53,1,56.0925013694458
137,104,12800,37,8,1:0:0:0:
134,121,12900,1,0,0:0:0:0:
291,274,13200,22,0,P|358:267|417:262,1,121.533750463614,2|0,0:0|0:0,0:0:0:0:
470,227,13400,2,0,P|437:229|418:257,1,65.0949990067291,2|0,0:0|0:0,0:0:0:0:
257,348,13800,37,2,0:0:0:0:
214,282,14000,2,0,P|206:226|196:166,1,106.644997884544,2|0,0:0|0:0,0:0:0:0:
443,95,14400,22,0,B|334:131|370:-13|257:23|257:23|287:23|311:43,1,266.612494711361,2|0,0:0|0:0,0:0:0:0:
263,131,15000,37,8,0:1:0:0:
261,115,15100,1,8,0:1:0:0:
259,99,15200,1,8,0:1:0:0:
259,99,15600,22,0,L|242:234,1,130.189998013458,8|8,0:1|0:1,0:0:0:0:
18,346,16300,5,2,0:0:0:0:
22,336,16400,2,0,P|51:328|83:322,1,53.3224989422722,2|0,0:0|0:0,0:0:0:0:
72,236,16600,2,0,P|118:262|165:292,1,106.644997884544,2|0,0:0|0:0,0:0:0:0:
384,134,17000,21,2,0:0:0:0:
453,116,17200,2,0,P|479:158|414:241,1,159.967496826817,2|0,0:0|0:0,0:0:0:0:
351,208,17600,37,10,0:1:0:0:
72,104,18000,22,0,P|96:118|120:135,1,53.3224989422722,2|0,0:0|0:0,0:0:0:0:
233,53,18200,2,0,P|209:67|185:84,1,53.3224989422722,10|8,0:1|0:1,0:0:0:0:
189,159,18400,1,10,0:1:0:0:
189,159,18800,38,0,P|232:184|290:135,1,130.189998013458,10|8,0:1|0:1,0:0:0:0:
483,179,19600,37,2,0:0:0:0:
447,243,19800,2,0,L|427:364,1,106.644997884544,2|0,0:0|0:0,0:0:0:0:
351,367,20100,1,0,0:0:0:0:
342,360,20200,2,0,L|335:303,1,53.3224989422722,2|0,0:0|0:0,0:0:0:0:
280,252,20400,1,2,0:0:0:0:
80,218,20800,54,0,B|136:217|155:268|155:268|146:225|193:191|193:191|160:237|191:290,1,276.307496627106,2|0,0:0|0:0,0:0:0:0:
244,323,21600,5,8,0:1:0:0:
355,130,21866,53,8,0:1:0:0:
128,145,22133,5,8,0:1:0:0:
398,284,22400,53,8,0:1:0:0:
472,86,22800,22,0,P|438:104|392:97,1,81.0225003090763,2|0,0:0|0:0,0:0:0:0:
351,169,23000,2,0,P|321:135|317:81,1,97.6424985100937,2|0,0:0|0:0,0:0:0:0:
371,31,23400,5,2,0:0:0:0:
217,179,23600,2,0,P|170:173|121:163,1,97.6424985100937,2|0,0:0|0:0,0:0:0:0:
19,238,24000,38,0,L|24:267,1,21.698333002243,10|0,1:0|0:0,0:0:0:0:
226,306,24266,6,0,L|221:335,1,21.698333002243,10|0,1:0|0:0,0:0:0:0:
500,87,24533,6,0,L|495:116,1,21.698333002243,10|0,1:0|0:0,0:0:0:0:
293,155,24800,38,0,L|298:184,1,21.698333002243,10|0,1:0|0:0,0:0:0:0:
19,40,25200,6,0,L|13:80,1,39.2416669061788,10|0,1:0|0:0,0:0:0:0:
60,134,25600,22,0,P|96:128|143:124,1,60.2475005056171,14|0,0:0|0:0,0:0:0:0:
224,44,25800,2,0,P|211:76|191:120,1,60.2475005056171,10|0,0:1|0:0,0:0:0:0:
220,227,26000,2,0,P|196:197|169:160,1,60.2475005056171,10|0,0:1|0:0,0:0:0:0:
343,306,26200,6,0,L|446:287,1,97.6424985100937,2|0,3:0|0:0,0:0:0:0:
483,227,26600,54,0,L|487:189,1,32.5474995033646
417,125,26800,2,0,L|413:157,1,32.5474995033646,8|0,0:0|0:0,0:0:0:0:
310,69,27000,5,8,0:1:0:0:
293,73,27100,1,8,0:1:0:0:
222,54,27200,54,0,P|217:25|208:-6,1,60.2475005056171,10|0,1:0|0:0,0:0:0:0:
124,146,27400,2,0,P|135:118|144:88,1,60.2475005056171,10|0,0:1|0:0,0:0:0:0:
0,157,27600,2,0,P|24:140|49:119,1,60.2475005056171,10|0,0:1|0:0,0:0:0:0:
73,226,27800,1,2,0:0:0:0:
403,353,28000,6,0,P|445:360|505:370,1,81.0225003090763,8|0,0:0|0:0,0:0:0:0:
213,318,28200,2,0,P|171:311|111:301,1,81.0225003090763,8|0,0:0|0:0,0:0:0:0:
328,157,28400,53,8,0:1:0:0:
330,180,28500,1,8,0:1:0:0:
333,204,28600,1,8,0:1:0:0:
118,111,28800,6,0,B|101:78|134:46|134:46|118:78|134:111,1,120.495001011234,10|8,0:0|0:1,0:0:0:0:
127,94,29100,1,0,0:0:0:0:
127,94,29200,1,10,0:1:0:0:
317,46,29400,54,0,P|352:50|394:58,1,60.2475005056171,8|0,0:0|0:0,0:0:0:0:
477,173,29600,5,0,3:0:0:0:
480,149,29700,1,0,3:0:0:0:
482,126,29800,1,0,3:0:0:0:
116,200,30000,54,0,P|76:207|37:214,1,81.0225003090763,8|0,0:0|0:0,0:0:0:0:
307,166,30200,2,0,P|347:159|387:153,1,81.0225003090763,8|0,0:0|0:0,0:0:0:0:
280,290,30400,5,0,1:0:0:0:
267,279,30500,1,0,0:0:0:0:
267,262,30600,2,0,L|327:252,1,32.5474995033646,8|0,0:1|0:0,0:0:0:0:
158,368,30800,54,0,L|118:363,1,32.5474995033646,10|0,0:1|0:0,0:0:0:0:
66,286,31000,2,0,L|98:290,1,32.5474995033646,10|0,0:1|0:0,0:0:0:0:
177,191,31200,5,0,3:0:0:0:
176,184,31300,1,0,3:0:0:0:
175,178,31400,1,0,3:0:0:0:
175,171,31500,1,0,3:0:0:0:
174,165,31600,37,2,3:0:0:0:
280,34,31800,1,0,0:0:0:0:
278,46,31900,1,0,0:0:0:0:
277,55,32000,1,10,0:0:0:0:
437,190,32200,5,10,0:1:0:0:
424,176,32300,2,0,L|348:164,1,60.2475005056171,0|0,0:0|1:0,0:0:0:0:
267,256,32500,1,0,0:0:0:0:
279,243,32600,2,0,P|283:211|292:176,1,60.2475005056171,10|0,0:0|0:0,0:0:0:0:
176,323,32800,5,0,1:0:0:0:
158,318,32900,1,0,3:0:0:0:
101,265,33000,1,0,1:0:0:0:
83,270,33100,1,0,3:0:0:0:
38,330,33200,1,8,0:0:0:0:
174,233,33400,53,0,3:0:0:0:
169,203,33500,1,0,3:0:0:0:
164,173,33600,2,0,P|174:139|184:103,1,60.2475005056171,10|0,0:0|0:0,0:0:0:0:
407,58,33800,5,2,0:0:0:0:
405,69,33900,1,0,0:0:0:0:
402,80,34000,22,0,P|370:87|331:101,1,60.2475005056171,10|0,0:0|0:0,0:0:0:0:
229,11,34200,2,0,P|251:34|282:61,1,60.2475005056171,2|0,0:0|0:0,0:0:0:0:
261,195,34400,2,0,P|269:163|278:123,1,60.2475005056171,10|0,0:0|0:0,0:0:0:0:
410,253,34600,2,0,P|378:260|339:274,1,60.2475005056171,10|0,0:0|0:0,0:0:0:0:
114,356,34800,21,0,3:0:0:0:
121,327,34900,1,0,3:0:0:0:
143,307,35000,1,0,3:0:0:0:
172,304,35100,1,0,3:0:0:0:
198,319,35200,6,0,P|194:288|189:254,1,60.2475005056171,8|0,0:0|0:0,0:0:0:0:
353,174,35400,2,0,P|356:143|362:109,1,60.2475005056171,8|0,0:0|0:0,0:0:0:0:
423,364,35600,54,0,P|426:330|432:293,1,67.1725015887051,8|0,0:0|0:0,0:0:0:0:
269,222,35800,2,0,P|264:187|259:149,1,67.1725015887051,8|0,0:0|0:0,0:0:0:0:
50,297,36000,5,8,0:0:0:0:
64,299,36100,1,8,0:0:0:0:
78,301,36200,1,8,0:0:0:0:
91,303,36300,1,8,0:0:0:0:
156,258,36400,54,0,L|141:125,1,121.533750463614,8|0,0:0|0:0,0:0:0:0:
134,134,36600,2,0,L|144:218,1,81.0225003090763,0|0,3:0|0:0,0:0:0:0:
355,34,36800,22,8,L|396:29,4,21.9868748322535,10|8|8|8|8,0:0|0:0|0:0|0:0|0:0,0:0:0:0:
309,98,37000,1,2,3:0:0:0:
363,147,37100,2,0,L|367:192,2,37.0487488693619,0|0|2,3:0|3:0|3:0,0:0:0:0:
276,221,37300,1,0,3:0:0:0:
287,233,37400,2,8,L|308:235,4,18.524374434681
156,135,37600,54,0,L|80:147,1,61.8633304070589,2|0,3:0|3:0,0:0:0:0:
49,201,37800,1,0,3:0:0:0:
55,206,37866,2,0,L|109:199,1,30.9316652035294,0|0,3:0|3:0,0:0:0:0:
252,315,38000,6,0,L|247:355,3,30.9316652035294,10|0|0|0,0:0|0:0|0:0|0:0,0:0:0:0:
512,150,38400,6,0,B|431:123|458:203|378:176,1,131.921248993521,4|0,1:0|0:0,0:0:0:0:
343,129,38600,2,0,L|334:22,1,100.758752383058
334,16,38800,1,2,0:0:0:0:
494,228,39000,38,0,P|483:280|475:336,1,100.758752383058,2|0,1:0|0:0,0:0:0:0:
480,337,39200,1,10,0:0:0:0:
196,177,39400,1,2,0:0:0:0:
138,228,39600,22,0,P|129:258|123:293,1,67.1725015887051,2|0,1:0|0:0,0:0:0:0:
127,144,39800,2,0,P|94:129|66:115,1,67.1725015887051,2|0,0:0|0:0,0:0:0:0:
210,265,40000,38,0,P|276:236|407:185,1,201.517504766115,2|0,0:0|0:0,0:0:0:0:
475,55,40400,22,0,P|458:86|446:126,1,67.1725015887051,2|0,1:0|0:0,0:0:0:0:
309,118,40600,2,0,P|318:152|337:189,1,67.1725015887051,2|0,0:0|0:0,0:0:0:0:
472,306,40800,37,10,0:0:0:0:
472,306,41200,2,0,B|535:298|523:202|424:182|372:285,1,235.103755560468,2|0,1:0|0:0,0:0:0:0:
334,336,41600,2,0,P|355:348|384:352,3,33.5862507943526,0|0|0|0,1:0|0:0|0:0|0:0,0:0:0:0:
301,267,41800,1,2,0:0:0:0:
49,352,42000,22,0,P|100:309|66:235,1,134.34500317741,2|0,0:0|1:0,0:0:0:0:
11,127,42300,1,0,0:0:0:0:
7,139,42400,1,10,0:0:0:0:
145,189,42600,1,2,0:0:0:0:
284,81,42800,38,0,P|289:45|298:3,1,67.1725015887051,2|0,1:0|0:0,0:0:0:0:
371,150,43000,2,0,P|399:172|431:201,1,67.1725015887051,2|0,0:0|0:0,0:0:0:0:
256,190,43200,22,0,B|220:295|361:260|326:366,1,201.517504766115,2|0,0:0|0:0,0:0:0:0:
254,357,43600,38,0,B|211:346|211:346|215:344|215:344|236:349,1,67.1725015887051,2|0,1:0|0:0,0:0:0:0:
400,282,43800,2,0,B|442:292|442:292|438:294|438:294|417:289,1,67.1725015887051,2|0,0:0|0:0,0:0:0:0:
246,187,44000,22,0,L|121:208,1,100.758752383058,10|0,0:0|0:0,0:0:0:0:
134,198,44200,2,0,L|233:181,1,100.758752383058,0|0,1:0|0:0,0:0:0:0:
245,179,44400,1,2,1:0:0:0:
325,41,44600,37,2,1:0:0:0:
311,38,44700,1,0,0:0:0:0:
297,36,44800,2,0,P|301:68|306:107,1,67.1725015887051,2|0,1:0|0:0,0:0:0:0:
457,171,45000,2,0,P|426:158|391:143,1,67.1725015887051,2|0,0:0|0:0,0:0:0:0:
254,271,45200,2,0,P|318:260|308:185,1,134.34500317741,2|0,0:0|1:0,0:0:0:0:
252,159,45500,21,0,0:0:0:0:
248,172,45600,2,0,P|226:190|173:183,1,67.1725015887051,8|0,0:0|0:0,0:0:0:0:
60,104,45800,37,2,0:0:0:0:
58,117,45900,1,0,0:0:0:0:
57,130,46000,2,0,L|48:212,1,67.1725015887051,2|0,1:0|0:0,0:0:0:0:
268,68,46200,2,0,L|275:1,1,67.1725015887051,2|0,0:0|0:0,0:0:0:0:
379,223,46400,22,0,P|431:214|460:177,1,100.758752383058,2|0,0:0|0:0,0:0:0:0:
454,172,46600,2,0,P|431:204|402:214,1,67.1725015887051,2|0,1:0|0:0,0:0:0:0:
291,286,46800,38,0,P|328:324|375:325,1,100.758752383058,2|0,1:0|0:0,0:0:0:0:
375,318,47000,2,0,P|335:317|310:299,1,67.1725015887051,2|0,0:0|0:0,0:0:0:0:
183,257,47200,22,0,P|172:309|198:348,1,100.758752383058,10|0,0:0|0:0,0:0:0:0:
204,344,47400,2,0,P|181:311|182:280,1,67.1725015887051,2|0,0:0|0:0,0:0:0:0:
223,110,47600,37,2,1:0:0:0:
221,124,47700,1,0,0:0:0:0:
167,174,47800,1,2,0:0:0:0:
169,187,47900,1,0,0:0:0:0:
245,219,48000,22,0,P|278:211|318:199,1,67.1725015887051,2|0,1:0|0:0,0:0:0:0:
369,46,48200,2,0,P|358:78|349:119,1,67.1725015887051,2|0,0:0|0:0,0:0:0:0:
512,253,48400,2,0,P|458:217|381:182,1,134.34500317741,2|0,0:0|1:0,0:0:0:0:
367,255,48700,37,0,0:0:0:0:
369,268,48800,2,0,P|405:256|448:245,1,67.1725015887051,8|0,0:0|0:0,0:0:0:0:
256,352,49000,21,2,0:0:0:0:
258,338,49100,1,0,0:0:0:0:
258,324,49200,2,0,L|249:247,1,67.1725015887051,2|0,1:0|0:0,0:0:0:0:
219,49,49400,2,0,L|226:115,1,67.1725015887051,2|0,0:0|0:0,0:0:0:0:
135,258,49600,38,0,P|85:242|34:231,1,100.758752383058,2|0,0:0|0:0,0:0:0:0:
36,222,49800,2,0,P|79:232|106:240,1,67.1725015887051,2|0,1:0|0:0,0:0:0:0:
258,324,50000,22,0,P|210:347|166:374,1,100.758752383058,2|0,1:0|0:0,0:0:0:0:
161,366,50200,2,0,P|198:343|223:330,1,67.1725015887051,2|0,0:0|0:0,0:0:0:0:
403,352,50400,38,0,L|396:285,1,67.1725015887051,10|0,0:0|0:0,0:0:0:0:
287,205,50600,2,0,L|280:138,1,67.1725015887051,2|0,0:0|0:0,0:0:0:0:
450,102,50800,21,2,1:0:0:0:
448,89,50900,1,0,0:0:0:0:
447,76,51000,1,0,0:0:0:0:
446,62,51100,1,0,0:0:0:0:
445,53,51200,2,0,B|501:53|501:137|416:165|360:81|360:81|317:14|256:64|256:64|294:52|325:74,1,409.960010008789,4|2,1:0|0:0,0:0:0:0:
283,133,52933,5,2,0:0:0:0:
99,275,53200,21,2,0:0:0:0:
122,202,53333,2,0,L|190:187,1,43.3966660044861,2|0,0:0|0:0,0:0:0:0:
280,276,53600,37,2,0:0:0:0:
318,337,53800,1,2,0:0:0:0:
356,267,54000,21,2,0:0:0:0:
228,349,54200,2,0,L|146:335,1,65.0949990067291,2|0,0:0|0:0,0:0:0:0:
466,166,54800,37,2,0:0:0:0:
396,194,55000,1,2,0:0:0:0:
330,88,55200,21,2,0:0:0:0:
400,116,55400,1,2,0:0:0:0:
230,208,55600,37,2,0:0:0:0:
278,151,55800,1,2,0:0:0:0:
312,218,56000,2,0,P|308:266|297:334,1,97.6424985100937,2|0,0:0|0:0,0:0:0:0:
294,321,56400,1,2,0:0:0:0:
207,207,56600,2,0,P|138:198|71:185,2,130.189998013458,2|2|2,0:0|0:0|0:0,0:0:0:0:
275,168,57500,21,0,0:0:0:0:
284,163,57600,2,0,B|290:139|274:114|274:114|315:145|291:232|291:232|333:165|419:192,1,307.470007506592,4|2,1:0|0:0,0:0:0:0:
402,187,59000,1,2,0:0:0:0:
300,312,59200,37,2,0:0:0:0:
230,281,59400,1,2,0:0:0:0:
309,325,59600,21,2,0:0:0:0:
379,294,59800,1,2,0:0:0:0:
439,339,60000,1,2,0:0:0:0:
64,335,60400,37,2,0:0:0:0:
122,284,60600,1,2,0:0:0:0:
65,193,60800,21,2,0:0:0:0:
276,109,61100,37,2,0:0:0:0:
512,186,61400,21,2,0:0:0:0:
485,79,61600,1,2,0:0:0:0:
316,318,62000,37,2,0:0:0:0:
254,275,62200,2,0,B|208:139|389:184|342:46|342:46|313:71|325:107,1,325.474995033646,2|0,0:0|0:0,0:0:0:0:
383,69,64000,37,10,0:0:0:0:
383,116,64100,1,10,0:0:0:0:
160,109,64400,53,10,0:0:0:0:
179,96,64500,1,10,0:0:0:0:
283,276,64800,5,2,1:0:0:0:
272,271,64900,1,2,0:0:0:0:
261,266,65000,2,0,L|228:271,4,19.736249759079,0|0|0|0|8,1:0|1:0|1:0|1:0|0:0,1:0:0:0:
48,50,65600,6,0,B|122:70|133:156|133:156|150:103|219:92,1,222.292493216171,6|0,1:0|0:0,0:0:0:0:
317,144,66000,2,0,P|269:201|200:163,1,148.194995477448,2|0,0:0|1:0,0:0:0:0:
405,61,66400,2,0,B|442:173|292:136|329:249,1,222.292493216171,10|0,0:0|0:0,0:0:0:0:
454,314,66800,2,0,P|438:283|389:267,1,74.0974977387238,2|0,1:0|0:0,0:0:0:0:
277,356,67000,2,0,P|311:357|350:323,1,74.0974977387238,2|0,0:0|0:0,0:0:0:0:
203,196,67200,5,2,0:0:0:0:
72,330,67400,1,0,1:0:0:0:
130,378,67600,2,0,P|118:305|103:226,1,148.194995477448,2|0,1:0|0:0,0:0:0:0:
3,58,68000,37,10,0:0:0:0:
142,124,68200,1,0,1:0:0:0:
96,65,68400,5,2,0:0:0:0:
37,179,68600,1,2,0:0:0:0:
179,49,68800,6,0,P|263:38|405:9,1,222.292493216171,6|0,1:0|0:0,0:0:0:0:
489,114,69200,2,0,P|451:105|403:90,1,74.0974977387238,2|0,0:0|0:0,0:0:0:0:
283,215,69400,38,0,B|267:277|360:300|414:214|337:129,1,222.292493216171,2|0,1:0|0:0,0:0:0:0:
384,251,69800,2,0,P|420:258|466:269,1,74.0974977387238,2|0,0:0|0:0,0:0:0:0:
265,128,70000,6,0,B|119:79|168:272|41:238|41:238|96:238|118:190,1,370.487488693619,2|0,1:0|0:0,0:0:0:0:
64,141,70600,5,0,1:0:0:0:
306,336,70800,2,0,B|381:337|400:256|400:256|386:311|443:347,1,222.292493216171,0|0,1:0|0:0,0:0:0:0:
498,324,71200,1,8,0:0:0:0:
313,246,71400,38,0,P|304:210|294:168,1,74.0974977387238,0|0,1:0|0:0,0:0:0:0:
426,66,71600,2,0,P|399:90|367:121,1,74.0974977387238
217,57,71800,2,0,P|251:67|294:79,1,74.0974977387238,0|0,1:0|0:0,0:0:0:0:
233,284,72000,6,0,B|176:260|176:197|176:197|159:257|99:267,1,222.292493216171,6|0,1:0|0:0,0:0:0:0:
23,328,72400,2,0,B|-5:294|23:246|23:246|13:289|42:323,1,148.194995477448,2|0,0:0|1:0,0:0:0:0:
254,368,72800,2,0,P|359:342|473:317,1,222.292493216171,10|0,0:0|0:0,0:0:0:0:
505,243,73200,6,0,P|471:230|430:246,1,74.0974977387238,2|0,1:0|0:0,0:0:0:0:
327,327,73400,2,0,P|355:304|361:260,1,74.0974977387238,2|0,0:0|0:0,0:0:0:0:
372,187,73600,37,2,0:0:0:0:
190,94,73800,1,0,1:0:0:0:
271,54,74000,2,0,B|289:91|252:128|252:128|271:91|252:54,1,148.194995477448,2|0,1:0|0:0,0:0:0:0:
64,174,74400,5,10,0:0:0:0:
190,94,74600,1,0,1:0:0:0:
120,70,74800,5,2,0:0:0:0:
193,177,75000,1,2,0:0:0:0:
0,319,75200,38,0,P|92:274|208:335,1,222.292493216171,2|0,1:0|0:0,0:0:0:0:
262,301,75600,2,0,P|233:330|190:311,1,74.0974977387238,2|0,0:0|0:0,0:0:0:0:
324,140,75800,6,0,B|427:137|453:227|381:278|347:229,1,222.292493216171,2|0,1:0|0:0,0:0:0:0:
316,135,76200,2,0,P|313:94|310:60,1,74.0974977387238,2|0,0:0|0:0,0:0:0:0:
512,4,76400,6,0,P|497:139|481:308,1,296.389990954895,2|0,1:0|0:0,0:0:0:0:
481,298,77000,37,0,1:0:0:0:
160,320,77200,2,0,B|99:304|122:214|220:206|258:312,1,222.292493216171,0|0,1:0|0:0,0:0:0:0:
218,366,77600,5,8,0:0:0:0:
52,175,77800,1,0,1:0:0:0:
159,70,78000,37,2,0:0:0:0:
145,144,78200,1,2,1:0:0:0:
33,51,78400,22,0,P|102:37|166:26,1,134.34500317741,6|0,1:0|0:0,0:0:0:0:
238,16,78700,2,0,P|218:38|222:91,1,67.1725015887051,2|0,0:0|1:0,0:0:0:0:
423,218,79000,37,2,0:0:0:0:
368,268,79200,2,0,B|262:303|297:162|191:197,1,201.517504766115,2|0,1:0|0:0,0:0:0:0:
179,267,79600,38,0,L|162:340,1,67.1725015887051,2|0,1:0|0:0,0:0:0:0:
224,114,79800,2,0,L|239:48,1,67.1725015887051,2|0,0:0|0:0,0:0:0:0:
417,192,80000,22,0,B|500:181|500:181|502:176|502:176|457:182,1,134.34500317741,2|0,1:0|0:0,0:0:0:0:
411,120,80300,2,0,B|314:131|314:131|302:180,1,134.34500317741,2|0,0:0|0:0,0:0:0:0:
306,179,80600,1,2,0:0:0:0:
274,375,80800,37,2,1:0:0:0:
157,346,81000,1,0,1:0:0:0:
116,149,81200,53,2,1:0:0:0:
232,293,81400,1,2,1:0:0:0:
116,149,81600,6,0,P|135:76|148:15,1,134.34500317741,6|0,1:0|0:0,0:0:0:0:
211,62,81900,1,2,0:0:0:0:
207,74,82000,2,0,P|180:94|131:85,1,67.1725015887051,0|0,1:0|0:0,0:0:0:0:
99,157,82200,2,0,P|65:152|36:112,1,67.1725015887051,2|0,0:0|0:0,0:0:0:0:
194,177,82400,54,0,B|230:287|120:250|157:361,1,201.517504766115,2|0,1:0|0:0,0:0:0:0:
226,327,82800,2,0,L|297:343,1,67.1725015887051,2|0,1:0|0:0,0:0:0:0:
479,255,83000,5,2,0:0:0:0:
477,268,83100,1,0,0:0:0:0:
475,281,83200,1,0,1:0:0:0:
406,312,83400,1,0,0:0:0:0:
284,150,83600,53,0,1:0:0:0:
282,163,83700,1,0,0:0:0:0:
280,176,83800,1,0,0:0:0:0:
277,189,83900,1,0,0:0:0:0:
275,202,84000,6,0,L|264:121,1,67.1725015887051,0|0,1:0|0:0,0:0:0:0:
295,295,84200,2,0,L|304:361,1,67.1725015887051
117,250,84400,53,2,1:0:0:0:
213,264,84600,1,2,0:0:0:0:
9,124,84800,38,0,P|80:102|152:77,1,134.34500317741,6|0,1:0|0:0,0:0:0:0:
197,145,85100,2,0,P|162:135|123:126,1,67.1725015887051,2|8,0:0|0:0,0:0:0:0:
269,78,85300,1,0,0:0:0:0:
280,85,85400,2,0,P|287:117|297:149,1,67.1725015887051,2|0,0:0|0:0,0:0:0:0:
434,252,85600,21,10,0:0:0:0:
421,247,85700,1,0,0:0:0:0:
421,234,85800,1,0,0:0:0:0:
434,230,85900,1,0,0:0:0:0:
441,241,86000,5,10,0:0:0:0:
346,279,86200,1,2,0:0:0:0:
252,319,86400,22,0,P|217:312|176:304,1,67.1725015887051,10|0,0:0|0:0,0:0:0:0:
31,358,86600,1,0,0:0:0:0:
43,362,86700,1,0,0:0:0:0:
56,363,86800,2,0,P|62:328|71:287,1,67.1725015887051,10|0,0:0|0:0,0:0:0:0:
145,196,87000,2,0,P|138:161|130:120,1,67.1725015887051,2|0,0:0|0:0,0:0:0:0:
281,13,87200,37,10,0:0:0:0:
293,8,87300,1,0,0:0:0:0:
300,20,87400,1,0,0:0:0:0:
291,29,87500,1,0,0:0:0:0:
279,25,87600,38,0,L|356:13,1,67.1725015887051,10|0,0:0|0:0,0:0:0:0:
151,40,87800,2,0,L|84:50,1,67.1725015887051,2|0,0:0|0:0,0:0:0:0:
243,160,88000,53,10,0:0:0:0:
241,172,88100,1,0,3:0:0:0:
240,185,88200,1,0,3:0:0:0:
295,244,88300,6,0,P|329:250|367:258,1,67.1725015887051,2|0,3:0|3:0,3:0:0:0:
483,142,88500,1,0,3:0:0:0:
476,130,88600,2,0,P|452:155|425:183,1,67.1725015887051,2|0,3:0|3:0,3:0:0:0:
485,330,88800,53,2,3:0:0:0:
480,317,88900,1,0,3:0:0:0:
476,304,89000,1,0,3:0:0:0:
472,291,89100,1,0,3:0:0:0:
468,278,89200,2,0,L|460:358,1,67.1725015887051,2|0,3:0|3:0,3:0:0:0:
237,380,89400,2,0,L|243:313,1,67.1725015887051,2|0,3:0|3:0,3:0:0:0:
82,186,89600,6,8,L|57:191,4,21.9868748322535
124,119,89800,53,0,3:0:0:0:
198,239,90000,1,0,3:0:0:0:
391,56,90200,6,0,L|416:61,4,21.9868748322535,8|8|8|8|8,0:0|0:0|0:0|0:0|0:0,0:0:0:0:
344,117,90400,53,0,3:0:0:0:
415,295,90600,1,0,3:0:0:0:
145,305,90800,54,0,B|72:312|72:312|69:318|69:318|107:314,1,118.417498554474,10|0,0:0|0:0,0:0:0:0:
181,377,91200,6,0,B|130:226|331:276|281:126,1,296.389990954895,6|0,1:0|0:0,0:0:0:0:
50,38,91800,6,0,P|45:91|93:110,1,111.146246608086,2|0,0:0|0:0,0:0:0:0:
150,62,92000,2,0,L|256:50,1,97.6424985100937,10|0,0:0|0:0,0:0:0:0:
469,154,92400,2,0,L|363:142,1,97.6424985100937,2|0,1:0|0:0,0:0:0:0:
258,332,92800,53,2,1:0:0:0:
258,332,93200,6,0,B|274:312|257:285|257:285|263:310|247:329,1,74.0974977387238,2|0,1:0|0:0,0:0:0:0:
69,260,93400,2,0,B|76:284|108:284|108:284|84:276|77:252,1,74.0974977387238,2|0,0:0|0:0,0:0:0:0:
229,109,93600,2,0,B|204:102|187:129|187:129|206:113|231:120,1,74.0974977387238,10|0,0:0|0:0,0:0:0:0:
185,223,93800,53,2,0:0:0:0:
466,363,94000,54,0,L|477:239,1,118.417498554474,2|0,1:0|0:0,0:0:0:0:
511,164,94400,6,0,B|425:140|390:230|390:230|331:149|256:195,1,296.389990954895,6|0,1:0|0:0,0:0:0:0:
190,350,95000,38,0,L|209:232,1,111.146246608086,2|0,0:0|0:0,0:0:0:0:
191,165,95200,2,0,P|153:136|99:141,1,97.6424985100937,10|0,0:0|0:0,0:0:0:0:
313,174,95600,1,2,1:0:0:0:
321,168,95700,2,0,P|322:133|297:103,1,65.0949990067291,2|0,0:0|0:0,0:0:0:0:
125,218,96000,21,10,0:0:0:0:
130,225,96100,2,0,L|146:378,1,148.194995477448,10|0,0:0|0:0,0:0:0:0:
439,382,96400,37,10,0:0:0:0:
434,375,96500,2,0,L|418:222,1,148.194995477448,10|0,0:0|0:0,0:0:0:0:
174,9,96800,21,10,0:0:0:0:
179,16,96900,2,0,L|195:169,1,148.194995477448,10|0,0:0|0:0,0:0:0:0:
508,72,97200,54,0,P|449:64|368:50,1,118.417498554474,2|0,1:0|0:0,0:0:0:0:
292,71,97600,6,0,B|276:8|369:-14|423:71|346:156,1,222.292493216171,6|0,1:0|0:0,0:0:0:0:
350,140,98000,1,0,0:0:0:0:
218,248,98200,22,0,P|270:260|328:278,1,111.146246608086,2|0,0:0|0:0,0:0:0:0:
284,186,98400,2,0,P|230:202|176:215,1,97.6424985100937,10|0,0:0|0:0,0:0:0:0:
187,316,98800,2,0,P|137:290|89:262,1,97.6424985100937,2|0,1:0|0:0,0:0:0:0:
38,343,99200,2,0,P|19:290|5:236,1,97.6424985100937,2|0,1:0|0:0,0:0:0:0:
96,32,99600,38,0,P|99:5|102:32,1,74.0974977387238,2|0,1:0|0:0,0:0:0:0:
192,120,99800,2,0,P|212:136|188:125,1,74.0974977387238,2|0,0:0|0:0,0:0:0:0:
68,172,100000,2,0,P|43:181|64:166,1,74.0974977387238,10|0,0:0|0:0,0:0:0:0:
114,110,100200,21,2,0:0:0:0:
480,86,100400,22,0,P|442:41|375:61,1,118.417498554474,2|0,1:0|0:0,0:0:0:0:
299,124,100800,6,0,B|359:121|383:59|383:59|375:125|427:156,1,222.292493216171,6|0,1:0|0:0,0:0:0:0:
433,151,101200,1,0,0:0:0:0:
300,41,101400,22,0,P|246:34|185:25,1,111.146246608086,2|0,0:0|0:0,0:0:0:0:
108,7,101600,2,0,P|94:54|74:110,1,97.6424985100937,10|0,0:0|0:0,0:0:0:0:
135,247,102000,2,0,P|151:200|165:154,1,97.6424985100937,2|0,1:0|0:0,0:0:0:0:
114,334,102400,5,10,0:0:0:0:
117,340,102500,2,0,B|156:348|187:322|187:322|161:366|121:357,1,148.194995477448,8|0,0:0|0:0,0:0:0:0:
296,105,102800,37,10,0:0:0:0:
289,105,102900,2,0,B|260:134|266:174|266:174|243:128|271:99,1,148.194995477448,10|0,0:0|0:0,0:0:0:0:
446,356,103200,5,10,0:0:0:0:
449,350,103300,2,0,B|436:311|398:297|398:297|449:298|462:337,1,148.194995477448,10|0,0:0|0:0,0:0:0:0:
297,384,103600,6,0,L|375:373,1,74.7900018259278,2|4,1:0|1:0,0:0:0:0:
47,82,105600,54,0,P|111:91|208:116,1,164.815001005951,2|0,0:0|0:0,0:0:0:0:
47,82,107200,54,0,P|111:91|208:116,1,164.815001005951,10|0,0:0|0:0,0:0:0:0:
47,82,108800,22,0,P|111:91|208:116,1,164.815001005951,2|0,0:0|0:0,0:0:0:0:
377,113,110400,38,0,P|383:85|388:55,1,46.3974978052941,6|0,0:0|0:0,0:0:0:0:
307,163,110600,2,0,P|280:172|251:184,1,46.3974978052941,2|0,0:0|0:0,0:0:0:0:
382,199,110800,2,0,P|404:216|429:234,1,46.3974978052941,2|0,0:0|0:0,0:0:0:0:
304,300,111000,53,2,0:0:0:0:
306,291,111100,1,0,0:0:0:0:
308,282,111200,1,8,0:0:0:0:
228,336,111400,2,0,P|183:325|133:316,1,92.7949956105883,2|2,0:0|0:0,0:0:0:0:
61,323,111700,5,2,0:0:0:0:
63,313,111800,1,2,0:0:0:0:
175,168,112000,1,2,0:0:0:0:
234,231,112200,54,0,P|249:208|266:181,1,46.3974978052941,2|0,0:0|0:0,0:0:0:0:
152,96,112400,2,0,P|156:69|163:38,1,46.3974978052941,2|0,0:0|0:0,0:0:0:0:
31,171,112600,2,0,P|15:148|-1:121,1,46.3974978052941,2|0,0:0|0:0,0:0:0:0:
130,236,112800,5,8,0:0:0:0:
304,100,113000,2,0,P|355:92|402:85,1,92.7949956105883,2|2,0:0|0:0,0:0:0:0:
465,52,113300,53,2,0:0:0:0:
472,57,113400,1,2,0:0:0:0:
455,158,113600,6,0,L|459:127,4,23.1987489026471,2|0|0|0|2,0:0|0:0|0:0|0:0|0:0,0:0:0:0:
377,191,113900,1,2,0:0:0:0:
471,277,114000,53,2,0:0:0:0:
403,315,114200,1,2,0:0:0:0:
267,288,114400,6,0,L|259:234,1,46.3974978052941,10|0,0:0|0:0,0:0:0:0:
260,296,114600,2,0,L|252:242,1,46.3974978052941,2|0,0:0|0:0,0:0:0:0:
178,188,114800,1,2,0:0:0:0:
301,29,115000,53,2,0:0:0:0:
310,30,115100,1,2,0:0:0:0:
319,30,115200,1,2,0:0:0:0:
272,153,115400,1,2,0:0:0:0:
118,47,115600,6,0,P|90:38|58:29,1,46.3974978052941,2|0,0:0|0:0,0:0:0:0:
67,116,115800,2,0,P|98:101|171:78,1,92.7949956105883,2|8,0:0|0:0,0:0:0:0:
476,93,116200,6,0,L|482:28,2,65.0949990067291,2|2|2,0:0|0:0|0:0,0:0:0:0:
462,165,116800,38,0,B|440:186|397:186|376:143|376:143|354:100|354:100|360:100|360:100|373:126,1,180.742501516851,2|0,1:0|0:0,0:0:0:0:
328,204,117200,2,0,L|261:193,1,60.2475005056171,2|0,0:0|0:0,0:0:0:0:
121,113,117400,2,0,B|174:131|185:193|185:193|179:151|217:129,1,180.742501516851,2|0,1:0|0:0,0:0:0:0:
224,128,117800,21,2,0:0:0:0:
64,235,118000,2,0,B|39:254|29:285|29:285|44:224|8:145,1,180.742501516851,2|0,1:0|0:0,0:0:0:0:
8,165,118400,37,2,0:0:0:0:
111,312,118600,2,0,P|152:328|201:342,1,90.3712507584257,0|0,1:0|0:0,0:0:0:0:
206,335,118800,2,0,P|172:326|140:313,1,60.2475005056171,2|0,1:0|0:0,0:0:0:0:
334,243,119000,2,0,P|298:281|339:320,1,120.495001011234,2|8,0:0|0:0,0:0:0:0:
468,159,119400,38,0,P|460:128|452:91,1,60.2475005056171,2|0,0:0|0:0,0:0:0:0:
293,21,119600,2,0,P|299:50|306:79,1,60.2475005056171,2|0,1:0|0:0,0:0:0:0:
199,197,119800,2,0,P|191:167|185:138,1,60.2475005056171,2|0,0:0|0:0,0:0:0:0:
417,225,120000,22,0,P|448:234|482:246,1,60.2475005056171,2|0,1:0|0:0,0:0:0:0:
261,266,120200,2,0,P|230:275|196:287,1,60.2475005056171,2|0,0:0|0:0,0:0:0:0:
25,185,120400,37,2,0:0:0:0:
26,172,120500,1,0,0:0:0:0:
28,159,120600,1,0,1:0:0:0:
29,146,120700,1,0,0:0:0:0:
31,133,120800,2,0,P|58:120|97:113,1,60.2475005056171,10|0,0:0|0:0,0:0:0:0:
118,4,121000,2,2,P|144:18|172:46,1,60.2475005056171,2|0,0:0|0:0,0:0:0:0:
284,7,121200,2,0,P|286:36|280:75,1,60.2475005056171,2|0,1:0|0:0,0:0:0:0:
370,144,121400,2,0,P|347:163|311:180,1,60.2475005056171,2|0,0:0|0:0,0:0:0:0:
194,151,121600,21,2,0:0:0:0:
392,338,121800,2,0,P|440:326|475:294,1,90.3712507584257,0|0,1:0|0:0,0:0:0:0:
465,296,122000,2,0,P|435:319|398:328,1,60.2475005056171,2|0,1:0|0:0,0:0:0:0:
178,261,122200,37,2,0:0:0:0:
167,265,122300,1,0,0:0:0:0:
156,269,122400,2,0,L|270:280,1,92.7949956105883,8|0,0:0|0:0,0:0:0:0:
322,213,122700,1,0,0:0:0:0:
317,208,122800,2,0,L|196:196,1,113.916248261776,0|0,1:0|0:0,0:0:0:0:
195,196,123200,1,12,0:0:0:0:
26,29,123600,54,0,B|63:65|47:118|47:118|69:58|145:33|196:93,1,281.847506881043
200,166,124800,37,2,0:0:0:0:
222,161,124900,1,2,0:0:0:0:
406,199,125200,21,2,0:0:0:0:
342,159,125333,2,0,L|338:105,1,43.3966660044861,2|0,0:0|0:0,0:0:0:0:
474,335,125600,37,2,3:0:0:0:
417,279,125800,1,2,0:0:0:0:
334,366,126000,21,2,0:0:0:0:
270,319,126200,2,0,P|275:273|282:227,1,65.0949990067291,2|0,0:0|3:0,0:0:0:0:
56,256,126800,37,2,0:0:0:0:
77,331,127000,1,2,0:0:0:0:
44,258,127200,21,2,3:0:0:0:
65,183,127400,1,2,0:0:0:0:
36,103,127600,37,2,0:0:0:0:
57,178,127800,1,2,0:0:0:0:
117,125,128000,2,0,P|168:120|220:112,1,86.7933320089722,2|0,0:0|0:0,0:0:0:0:
271,145,128400,1,2,0:0:0:0:
383,32,128600,2,0,P|336:53|353:128,2,130.189998013458,2|2|2,0:0|0:0|0:0,0:0:0:0:
456,62,129500,21,0,3:0:0:0:
460,68,129600,2,0,P|449:140|416:365,1,281.847506881043,0|0,1:0|0:0,0:0:0:0:
408,349,130800,37,2,0:0:0:0:
340,313,131000,1,2,0:0:0:0:
268,182,131200,21,2,0:0:0:0:
341,230,131400,1,2,0:0:0:0:
207,327,131600,37,2,0:0:0:0:
233,259,131800,1,2,0:0:0:0:
154,157,132000,1,2,3:0:0:0:
41,222,132400,21,2,0:0:0:0:
47,298,132600,1,2,0:0:0:0:
135,358,132800,37,2,3:0:0:0:
363,334,133100,21,2,0:0:0:0:
232,139,133400,37,2,0:0:0:0:
243,265,133600,1,2,0:0:0:0:
472,72,134000,21,2,0:0:0:0:
413,124,134200,2,0,P|337:102|75:61,1,325.474995033646,2|0,3:0|0:0,0:0:0:0:
94,62,136000,5,10,0:0:0:0:
82,107,136100,1,10,0:0:0:0:
82,107,136400,21,10,0:0:0:0:
87,130,136500,1,10,0:0:0:0:
87,130,136800,37,10,0:0:0:0:
86,138,136900,1,10,0:0:0:0:
84,146,137000,2,0,L|87:180,4,19.736249759079,0|0|0|0|10,1:0|1:0|1:0|1:0|0:0,1:0:0:0:
256,192,137600,21,14,0:0:0:0:
466,45,142400,38,0,L|460:90,5,39.472499518158
379,110,143000,21,0,0:0:0:0:
380,117,143100,1,0,0:0:0:0:
382,126,143200,1,0,0:0:0:0:
370,160,143300,1,0,0:0:0:0:
343,185,143400,1,0,0:0:0:0:
307,192,143500,1,0,0:0:0:0:
272,180,143600,2,0,L|280:117,1,46.3974978052941
160,35,143800,2,0,L|154:81,1,46.3974978052941
21,268,144000,37,10,0:0:0:0:
17,247,144100,1,0,0:0:0:0:
14,226,144200,1,0,0:0:0:0:
9,205,144300,1,0,0:0:0:0:
8,183,144400,2,0,P|51:148|117:182,1,120.495001011234,10|0,0:0|0:0,0:0:0:0:
164,291,144700,1,0,0:0:0:0:
169,301,144800,2,0,P|223:320|268:285,1,120.495001011234,10|0,0:0|0:0,0:0:0:0:
298,211,145100,1,0,0:0:0:0:
288,203,145200,2,0,P|266:189|225:183,1,60.2475005056171,10|0,0:0|0:0,0:0:0:0:
90,70,145400,2,0,P|89:96|106:134,1,60.2475005056171,2|0,0:0|0:0,0:0:0:0:
277,35,145600,21,10,0:0:0:0:
307,39,145700,1,0,0:0:0:0:
337,43,145800,1,0,0:0:0:0:
368,48,145900,1,0,0:0:0:0:
430,97,146000,38,0,P|437:127|452:169,1,60.2475005056171,10|0,0:0|0:0,0:0:0:0:
285,343,146200,2,0,P|275:314|268:285,1,60.2475005056171,0|0,1:0|0:0,0:0:0:0:
102,45,146400,22,0,P|70:34|37:26,1,67.1725015887051,10|0,0:0|0:0,0:0:0:0:
119,290,146600,2,0,P|152:298|184:309,1,67.1725015887051
335,112,146800,37,10,0:0:0:0:
289,125,146900,1,8,0:0:0:0:
244,137,147000,1,10,0:0:0:0:
198,149,147100,1,8,0:0:0:0:
153,159,147200,1,6,1:0:0:0:
153,159,147600,21,2,1:0:0:0:
445,305,147800,2,0,B|507:289|483:196|382:188|344:297,1,222.292493216171,6|0,1:0|0:0,0:0:0:0:
381,345,148200,37,2,1:0:0:0:
88,153,148400,2,0,B|25:137|49:44|150:36|188:145,1,222.292493216171,6|0,1:0|0:0,0:0:0:0:
148,207,148800,21,0,0:0:0:0:
146,220,149000,37,0,0:0:0:0:
144,234,149200,21,0,0:0:0:0:
142,248,149400,37,0,0:0:0:0:
442,46,149800,37,0,1:0:0:0:
441,52,149900,1,0,1:0:0:0:
440,59,150000,1,10,0:0:0:0:
480,122,150200,1,2,1:0:0:0:
362,289,150400,54,0,B|339:311|293:311|270:266|270:266|248:220|202:220|179:243,1,219.868748322535,6|0,1:0|0:0,0:0:0:0:
172,236,150700,2,0,P|209:219|281:269,1,134.34500317741,2|0,0:0|0:0,0:0:0:0:
14,340,151000,6,0,P|27:306|40:261,1,67.1725015887051,2|0,1:0|0:0,0:0:0:0:
40,94,151200,2,0,P|61:122|93:157,1,67.1725015887051,10|0,0:0|0:0,0:0:0:0:
346,74,151400,53,0,0:0:0:0:
347,60,151500,1,0,0:0:0:0:
350,47,151600,2,0,P|313:36|259:16,1,67.1725015887051,2|0,1:0|0:0,0:0:0:0:
369,230,151800,2,0,P|400:240|432:250,1,67.1725015887051,2|0,0:0|0:0,0:0:0:0:
220,113,152000,6,0,B|197:140|156:145|156:145|209:205|196:323,1,235.103755560468,2|0,0:0|0:0,0:0:0:0:
190,297,152400,2,0,P|191:260|184:214,1,67.1725015887051,2|0,1:0|0:0,0:0:0:0:
291,378,152600,2,0,P|317:352|344:314,1,67.1725015887051,2|0,0:0|0:0,0:0:0:0:
488,114,152800,53,10,0:0:0:0:
344,180,153000,1,0,1:0:0:0:
178,35,153200,5,2,0:0:0:0:
281,77,153400,1,2,0:0:0:0:
154,260,153600,54,0,B|114:246|101:193|101:193|94:220|67:233,1,134.34500317741,2|0,1:0|0:0,0:0:0:0:
0,119,153900,2,0,P|29:142|34:174,1,67.1725015887051,2|0,0:0|0:0,0:0:0:0:
293,339,154200,2,0,P|252:315|259:238,1,100.758752383058,2|0,1:0|0:0,0:0:0:0:
254,255,154400,2,0,L|395:231,1,134.34500317741,10|0,0:0|0:0,0:0:0:0:
448,184,154700,5,0,0:0:0:0:
456,174,154800,2,0,P|439:146|397:123,1,67.1725015887051,2|0,1:0|0:0,0:0:0:0:
373,7,155000,2,0,P|341:17|310:53,1,67.1725015887051,2|0,0:0|0:0,0:0:0:0:
319,138,155200,53,0,0:0:0:0:
190,321,155400,1,0,1:0:0:0:
67,107,155600,5,0,1:0:0:0:
191,160,155800,1,0,0:0:0:0:
23,328,156000,54,0,P|55:313|95:301,1,67.1725015887051,8|0,0:0|0:0,0:0:0:0:
191,160,156200,2,0,P|187:195|178:235,1,67.1725015887051,0|0,1:0|0:0,0:0:0:0:
259,384,156400,22,0,P|230:362|201:333,1,67.1725015887051,2|0,0:0|0:0,0:0:0:0:
378,158,156600,2,0,P|374:193|365:233,1,67.1725015887051,2|0,1:0|0:0,0:0:0:0:
113,59,156800,38,0,P|184:46|258:31,1,134.34500317741,2|0,1:0|0:0,0:0:0:0:
321,59,157100,2,0,P|289:48|247:39,1,67.1725015887051,2|0,0:0|0:0,0:0:0:0:
43,335,157400,22,0,P|53:306|64:268,1,67.1725015887051,2|0,1:0|0:0,0:0:0:0:
81,184,157600,2,0,P|104:262|132:322,1,134.34500317741,10|0,0:0|0:0,0:0:0:0:
180,364,157900,1,0,0:0:0:0:
190,355,158000,6,0,P|225:348|262:341,1,67.1725015887051,2|0,1:0|0:0,0:0:0:0:
296,164,158200,2,0,P|263:170|230:176,1,67.1725015887051,2|0,0:0|0:0,0:0:0:0:
363,317,158400,22,0,B|417:298|435:226|435:226|446:264|490:280,1,201.517504766115,2|0,0:0|0:0,0:0:0:0:
506,207,158800,2,0,L|498:126,1,67.1725015887051,2|0,1:0|0:0,0:0:0:0:
434,84,159000,1,2,0:0:0:0:
195,253,159200,37,10,0:0:0:0:
343,207,159400,1,0,1:0:0:0:
172,67,159600,37,2,0:0:0:0:
252,161,159800,1,2,0:0:0:0:
45,334,160000,54,0,B|134:363|104:244|193:274,1,167.931253971763,2|0,1:0|0:0,0:0:0:0:
186,265,160300,2,0,P|144:267|125:282,1,67.1725015887051,2|0,0:0|0:0,0:0:0:0:
259,194,160500,2,0,P|227:166|203:163,1,67.1725015887051,2|0,0:0|1:0,0:0:0:0:
280,300,160700,5,0,0:0:0:0:
284,294,160800,2,0,P|380:272|494:252,1,201.517504766115,10|0,0:0|0:0,0:0:0:0:
509,323,161200,53,2,1:0:0:0:
275,153,161400,1,2,1:0:0:0:
411,48,161600,6,8,L|416:23,4,21.9868748322535,0|0|0|0|0,0:0|0:0|0:0|0:0|0:0,0:0:0:0:
392,119,161800,53,0,3:0:0:0:
364,240,162000,1,0,3:0:0:0:
101,48,162200,6,8,L|96:23,4,21.9868748322535,0|0|0|0|0,0:0|0:0|0:0|0:0|0:0,0:0:0:0:
120,119,162400,53,0,3:0:0:0:
148,240,162600,1,0,3:0:0:0:
246,363,162800,54,0,L|254:235,1,118.417498554474,10|0,0:0|0:0,0:0:0:0:
324,165,163200,6,0,B|248:146|220:259|324:325|427:230,1,296.389990954895,6|0,1:0|0:0,0:0:0:0:
492,31,163800,6,0,P|472:81|419:70,1,111.146246608086,2|0,0:0|0:0,0:0:0:0:
375,17,164000,2,0,P|329:28|275:38,1,97.6424985100937,10|0,0:0|0:0,0:0:0:0:
122,207,164400,2,0,P|170:198|217:186,1,97.6424985100937,2|0,1:0|0:0,0:0:0:0:
42,21,164800,53,2,1:0:0:0:
42,21,165200,6,0,P|37:58|29:95,1,74.0974977387238,2|0,1:0|0:0,0:0:0:0:
145,149,165400,2,0,P|150:186|158:223,1,74.0974977387238,2|0,0:0|0:0,0:0:0:0:
34,276,165600,2,0,P|29:313|21:350,1,74.0974977387238,10|0,0:0|0:0,0:0:0:0:
197,372,165800,53,2,0:0:0:0:
252,124,166000,54,0,P|312:140|382:155,1,118.417498554474,2|0,1:0|0:0,0:0:0:0:
408,82,166400,6,0,B|377:112|377:173|438:204|438:204|499:235|499:296|469:326,1,296.389990954895,6|0,1:0|0:0,0:0:0:0:
177,313,167000,38,0,P|229:292|275:324,1,111.146246608086,2|0,0:0|0:0,0:0:0:0:
325,368,167200,2,0,L|312:258,1,97.6424985100937,10|0,0:0|0:0,0:0:0:0:
243,200,167600,1,2,1:0:0:0:
250,194,167700,2,0,L|259:119,1,65.0949990067291,2|0,0:0|0:0,0:0:0:0:
152,103,168000,21,10,0:0:0:0:
151,109,168100,2,0,B|117:128|80:115|80:115|113:93|150:102,1,148.194995477448,10|0,0:0|0:0,0:0:0:0:
290,65,168400,37,10,0:0:0:0:
285,60,168500,2,0,B|285:22|317:-3|317:-3|318:36|291:62,1,148.194995477448,10|0,0:0|0:0,0:0:0:0:
250,194,168800,21,10,0:0:0:0:
256,192,168900,2,0,B|288:213|292:252|292:252|258:232|250:195,1,148.194995477448,10|0,0:0|0:0,0:0:0:0:
31,261,169200,54,0,B|15:291|46:321|46:321|31:291|46:261,1,118.417498554474,2|0,1:0|0:0,0:0:0:0:
114,289,169600,6,0,B|228:250|190:403|304:365,1,222.292493216171,6|0,1:0|0:0,0:0:0:0:
306,357,170000,1,0,0:0:0:0:
460,139,170200,22,0,P|430:172|460:231,1,111.146246608086,2|0,0:0|0:0,0:0:0:0:
443,231,170400,2,0,P|419:173|445:140,1,97.6424985100937,10|0,0:0|0:0,0:0:0:0:
243,109,170800,2,0,P|304:119|319:158,1,97.6424985100937,2|0,1:0|0:0,0:0:0:0:
435,10,171200,2,0,P|393:56|352:48,1,97.6424985100937,2|0,1:0|0:0,0:0:0:0:
220,33,171600,38,0,P|182:38|146:44,1,74.0974977387238,2|0,1:0|0:0,0:0:0:0:
288,214,171800,2,0,P|303:179|317:146,1,74.0974977387238,2|0,0:0|0:0,0:0:0:0:
82,176,172000,2,0,P|103:207|124:237,1,74.0974977387238,10|0,0:0|0:0,0:0:0:0:
196,156,172200,21,2,0:0:0:0:
377,355,172400,2,0,B|458:370|458:370|457:365|457:365|426:359,1,118.417498554474,2|0,1:0|0:0,0:0:0:0:
366,276,172800,38,0,B|314:279|298:337|298:337|272:233|170:257,1,259.341242085533,6|0,1:0|0:0,0:0:0:0:
174,265,173200,1,0,0:0:0:0:
49,341,173400,22,0,P|36:306|53:338,1,111.146246608086,2|0,0:0|0:0,0:0:0:0:
39,320,173600,6,0,P|52:288|60:244,1,74.0974977387238,10|0,0:0|0:0,0:0:0:0:
167,214,173800,2,0,P|148:184|116:153,1,74.0974977387238,2|0,0:0|0:0,0:0:0:0:
163,53,174000,2,0,P|128:51|84:59,1,74.0974977387238,2|0,1:0|0:0,0:0:0:0:
237,123,174200,1,0,0:0:0:0:
411,144,174400,37,2,1:0:0:0:
417,139,174500,2,0,B|431:41|431:41|424:45|424:45|418:92,1,148.194995477448,8|0,0:0|0:0,0:0:0:0:
331,188,174800,5,10,0:0:0:0:
323,185,174900,2,0,B|231:220|231:220|238:224|238:224|281:207,1,148.194995477448,10|0,0:0|0:0,0:0:0:0:
415,231,175200,5,10,0:0:0:0:
416,239,175300,2,0,B|492:300|492:300|492:292|492:292|455:263,1,148.194995477448,10|0,0:0|0:0,0:0:0:0:
309,357,175600,37,2,1:0:0:0:
72,80,176000,6,0,B|41:66|1:80|1:80|36:44|107:44|142:115|142:115|177:185|247:185|282:150,1,407.189981049661,6|0,1:0|0:0,0:0:0:0:
459,47,176800,5,0,0:0:0:0:
456,66,177000,37,0,0:0:0:0:
323,336,177200,6,0,B|379:320|387:240|387:240|403:224|403:224|379:320|483:368,1,305.392485787245,6|0,1:0|0:0,0:0:0:0:
289,247,177600,2,0,B|265:223|217:223|193:270|193:270|169:318|121:318|97:294|97:294|121:270|170:270|170:294,1,305.392485787245,6|0,1:0|0:0,0:0:0:0:
256,153,178000,5,8,0:1:0:0:
257,143,178100,1,8,0:1:0:0:
259,134,178200,1,8,0:1:0:0:
342,75,178400,37,8,0:1:0:0:
341,65,178500,1,8,0:1:0:0:
339,56,178600,1,8,0:1:0:0:
32,140,178800,6,0,B|-45:120|-16:4|109:-5|157:130,1,305.392485787245,6|0,1:0|0:0,0:0:0:0:
114,308,179200,2,0,B|79:224|165:149|165:149|203:192|203:192|289:117|254:34,1,407.189981049661,6|0,1:0|0:0,0:0:0:0:
