osu file format v14

[General]
AudioFilename: audio.mp3
AudioLeadIn: 0
PreviewTime: 105500
Countdown: 0
SampleSet: Soft
StackLeniency: 0.4
Mode: 0
LetterboxInBreaks: 0
WidescreenStoryboard: 1

[Editor]
DistanceSpacing: 1
BeatDivisor: 2
GridSize: 32
TimelineZoom: 1.1

[Metadata]
Title:Black Out
TitleUnicode:Black Out
Artist:OBSYDIA
ArtistUnicode:OBSYDIA
Creator:SMOKELIND
Version:Basen's Normal
Source:
Tags:ペトラ グリン Petra Gurin せれん たつき Selen Tatsuki ろぜみ らぶろっく Rosemi Lovelock にじさんじ Nijisanji EN English Ryushen 緑仙 Giga TeddyLoid Electronic VTuber Pop ロゼミ ラブロック セレン 龍月 -Aqua Laplus- La+- Flake Pepekcz Basensorex
BeatmapID:3324345
BeatmapSetID:1532556

[Difficulty]
HPDrainRate:3.8
CircleSize:3.6
OverallDifficulty:4.2
ApproachRate:5.6
SliderMultiplier:1
SliderTickRate:1

[Events]
//Background and Video events
0,0,"BG.jpg",0,0
Video,0,"vid.mp4"
//Break Periods
2,104200,109290
2,137800,141290
//Storyboard Layer 0 (Background)
//Storyboard Layer 1 (Fail)
//Storyboard Layer 2 (Pass)
//Storyboard Layer 3 (Foreground)
//Storyboard Layer 4 (Overlay)
//Storyboard Sound Samples

[TimingPoints]
0,400,4,2,77,47,1,0
12800,-125,4,2,77,57,0,0
24000,-111.111111111111,4,2,77,67,0,0
32000,-100,4,2,77,67,0,0
37600,-100,4,2,77,57,0,0
38000,-100,4,2,77,67,0,0
51200,-125,4,2,77,57,0,0
52800,-125,4,2,77,47,0,0
57600,-125,4,2,77,57,0,0
58800,-125,4,2,77,47,0,0
64000,-111.111111111111,4,2,77,67,0,0
65600,-90.9090909090909,4,2,77,87,0,1
78400,-90.9090909090909,4,2,77,67,0,0
91200,-83.3333333333333,4,2,77,77,0,1
104000,-83.3333333333333,4,2,77,77,0,0
104100,-83.3333333333333,4,2,77,47,0,0
110400,-125,4,2,77,57,0,0
116800,-111.111111111111,4,2,77,57,0,0
123200,-125,4,2,77,57,0,0
124799,-125,4,2,77,47,0,0
129599,-125,4,2,77,57,0,0
130799,-125,4,2,77,47,0,0
136000,-111.111111111111,4,2,77,67,0,0
137599,-111.111111111111,4,2,77,57,0,0
143200,-111.111111111111,4,2,77,67,0,0
144000,-111.111111111111,4,2,77,77,0,0
149800,-111.111111111111,4,2,77,57,0,0
150400,-90.9090909090909,4,2,77,67,0,0
163200,-83.3333333333333,4,2,77,77,0,1
176000,-83.3333333333333,4,2,77,77,0,0
177200,-83.3333333333333,4,2,77,77,0,1
177600,-83.3333333333333,4,2,77,77,0,0
178800,-83.3333333333333,4,2,77,77,0,1
179200,-83.3333333333333,4,2,77,77,0,0

[Colours]
Combo1 : 75,75,75
Combo2 : 131,0,131
Combo3 : 155,0,0
Combo4 : 211,100,0
Combo5 : 183,183,183

[HitObjects]
24,30,12800,21,8,1:0:0:0:
92,80,13200,1,2,0:0:0:0:
92,80,13400,2,0,P|134:73|187:68,1,80,2|2,0:0|0:0,0:0:0:0:
211,65,14000,1,2,0:0:0:0:
272,13,14400,2,0,B|421:55|338:115|469:155,1,240,2|8,0:0|0:1,0:0:0:0:
504,217,16000,5,8,0:1:0:0:
475,294,16400,1,2,0:0:0:0:
475,294,16600,2,0,P|436:309|392:302,1,80,2|2,0:0|0:0,0:0:0:0:
361,291,17200,1,2,0:0:0:0:
294,335,17600,2,0,P|255:319|211:326,1,80,10|2,0:1|0:0,0:0:0:0:
146,358,18400,1,10,0:1:0:0:
66,346,18800,1,10,0:1:0:0:
24,277,19200,37,8,0:1:0:0:
57,206,19600,1,2,0:0:0:0:
57,206,19800,2,0,P|52:166|46:126,1,80,2|2,0:0|0:0,0:0:0:0:
39,87,20400,1,2,0:0:0:0:
95,29,20800,2,0,P|205:19|235:125,1,240,2|0,0:0|0:0,0:0:0:0:
185,188,22400,53,8,0:1:0:0:
203,270,22800,1,2,0:0:0:0:
203,270,23000,2,0,P|242:263|282:259,1,80,2|2,0:0|0:0,0:0:0:0:
322,256,23600,1,2,0:0:0:0:
398,303,24000,22,0,P|393:332|389:362,2,59.9999981689454,10|10|10,1:0|1:0|1:0,0:0:0:0:
453,279,24800,2,0,P|470:237|465:193,1,89.9999972534181,10|10,1:0|1:0,0:0:0:0:
434,109,25600,22,0,P|411:104|389:103,1,44.999998626709,14|10,0:0|0:1,0:0:0:0:
359,77,26000,1,10,0:1:0:0:
359,77,26200,2,0,P|314:84|269:88,1,89.9999972534181,2|0,3:0|0:0,0:0:0:0:
224,87,26800,1,8,0:0:0:0:
162,21,27200,2,0,P|117:16|76:33,1,89.9999972534181,10|10,1:0|0:1,0:0:0:0:
39,117,28000,1,8,0:0:0:0:
39,117,28200,1,8,0:0:0:0:
124,221,28800,6,0,P|146:216|168:215,1,44.999998626709,10|8,0:0|0:1,0:0:0:0:
200,184,29200,1,10,0:1:0:0:
200,184,29400,2,0,P|244:191|289:195,1,89.9999972534181,8|0,0:0|3:0,0:0:0:0:
335,194,30000,1,8,0:0:0:0:
416,233,30400,2,0,P|433:274|428:318,1,89.9999972534181,0|10,1:0|0:1,0:0:0:0:
359,375,31200,1,0,3:0:0:0:
359,375,31400,1,0,3:0:0:0:
231,296,32000,54,0,P|181:288|131:282,1,100,10|0,0:0|1:0,0:0:0:0:
64,208,32800,2,0,P|71:158|77:108,1,100,0|8,1:0|0:0,0:0:0:0:
137,28,33600,1,10,0:0:0:0:
230,62,34000,1,10,0:0:0:0:
314,8,34400,1,10,0:0:0:0:
407,42,34800,1,0,3:0:0:0:
444,134,35200,6,0,P|438:158|437:183,1,50,8|8,0:0|0:0,0:0:0:0:
442,233,35600,1,8,0:0:0:0:
404,325,36000,2,0,P|379:330|354:331,1,50,8|8,0:0|0:0,0:0:0:0:
320,368,36400,2,0,P|295:362|270:361,1,50,8|0,0:0|3:0,0:0:0:0:
236,324,36800,2,8,B|147:314|182:373|87:359,2,150,10|8|10,0:0|0:0|0:0,0:0:0:0:
256,226,38400,22,0,P|206:205|152:211,1,100,4|2,1:0|0:0,0:0:0:0:
68,247,39200,1,10,0:0:0:0:
2,171,39600,1,2,1:0:0:0:
38,77,40000,2,0,P|87:56|141:62,1,100,2|2,0:0|1:0,0:0:0:0:
180,38,40600,1,2,0:0:0:0:
180,38,40800,2,0,P|229:58|283:52,1,100,10|2,0:0|1:0,0:0:0:0:
371,27,41600,38,0,P|378:77|384:127,1,100,0|2,1:0|0:0,0:0:0:0:
475,166,42400,1,10,0:0:0:0:
489,264,42800,1,2,1:0:0:0:
413,329,43200,2,0,P|363:349|309:343,1,100,2|2,0:0|1:0,0:0:0:0:
277,326,43800,1,2,0:0:0:0:
277,326,44000,2,0,P|282:276|289:226,1,100,10|2,0:0|1:0,0:0:0:0:
255,196,44600,1,2,1:0:0:0:
255,196,44800,22,0,P|249:146|242:96,1,100,2|2,1:0|0:0,0:0:0:0:
157,44,45600,1,8,0:0:0:0:
96,123,46000,2,0,P|101:147|102:172,1,50,2|2,1:0|0:0,0:0:0:0:
101,222,46400,2,0,P|55:241|6:239,2,100,2|2|10,0:0|1:0|0:0,0:0:0:0:
175,288,47600,2,0,P|199:293|224:294,1,50,2|2,1:0|0:0,0:0:0:0:
254,334,48000,38,0,P|303:327|353:321,1,100,2|2,1:0|0:0,0:0:0:0:
439,371,48800,1,8,0:0:0:0:
505,296,49200,2,0,P|506:271|511:246,1,50,2|2,1:0|0:0,0:0:0:0:
480,207,49600,2,0,P|434:226|385:224,2,100,2|2|10,0:0|1:0|0:0,0:0:0:0:
511,112,50800,1,2,1:0:0:0:
458,31,51200,22,0,B|310:32|379:109|241:112,1,240,4|0,1:0|0:0,0:0:0:0:
183,171,52800,2,0,P|143:165|103:160,1,80,2|2,0:0|0:0,0:0:0:0:
36,204,53600,1,2,0:0:0:0:
28,283,54000,1,2,0:0:0:0:
86,337,54400,6,0,P|124:320|166:322,1,80,0|2,0:0|0:0,0:0:0:0:
229,278,55200,2,0,P|267:294|309:292,1,80,2|2,0:0|0:0,0:0:0:0:
374,254,56000,1,2,0:0:0:0:
445,300,56400,1,2,0:0:0:0:
445,300,56600,2,0,P|439:339|434:379,2,80,2|2|2,0:0|0:0|0:0,0:0:0:0:
479,279,57600,22,0,P|468:197|457:116,1,160,4|0,1:0|0:0,0:0:0:0:
390,77,58800,1,2,0:0:0:0:
323,121,59200,2,0,P|306:159|308:201,2,80,2|2|2,0:0|0:0|0:0,0:0:0:0:
262,68,60400,1,2,0:0:0:0:
197,115,60800,38,0,P|201:146|205:178,2,60,2|2|2,0:0|0:0|0:0,0:0:0:0:
164,91,61600,1,2,0:0:0:0:
98,133,62000,1,2,0:0:0:0:
98,133,62200,2,0,B|74:258|134:207|112:332,1,200,2|0,0:0|0:0,0:0:0:0:
112,328,64000,37,10,0:0:0:0:
189,373,64400,1,10,0:0:0:0:
253,310,64800,2,0,P|275:307|297:304,1,44.999998626709,2|0,1:0|1:0,0:0:0:0:
342,306,65200,1,8,0:0:0:0:
441,353,65600,6,0,P|464:301|461:243,1,110.000003356934,6|2,1:0|0:0,0:0:0:0:
511,149,66400,1,10,0:0:0:0:
433,71,66800,2,0,P|405:67|378:64,1,55.0000016784668,2|2,1:0|0:0,0:0:0:0:
343,21,67200,2,0,P|288:28|233:35,1,110.000003356934,2|2,0:0|1:0,0:0:0:0:
129,1,68000,1,10,0:0:0:0:
43,70,68400,2,0,P|46:97|49:124,1,55.0000016784668,2|2,0:0|0:0,0:0:0:0:
63,177,68800,6,0,P|114:153|172:156,1,110.000003356934,6|2,1:0|0:0,0:0:0:0:
215,129,69400,2,0,P|266:152|324:149,1,110.000003356934,2|2,1:0|0:0,0:0:0:0:
370,133,70000,2,0,P|473:142|499:242,1,220.000006713867,2|0,1:0|1:0,0:0:0:0:
477,350,71200,2,0,P|449:346|422:343,1,55.0000016784668,8|0,0:0|1:0,0:0:0:0:
367,338,71600,1,0,0:0:0:0:
294,255,72000,38,0,P|239:262|184:269,1,110.000003356934,6|2,1:0|0:0,0:0:0:0:
114,353,72800,1,10,0:0:0:0:
21,293,73200,2,0,P|24:265|27:238,1,55.0000016784668,2|2,1:0|0:0,0:0:0:0:
71,204,73600,2,0,P|63:149|56:94,1,110.000003356934,2|2,0:0|1:0,0:0:0:0:
136,19,74400,1,10,0:0:0:0:
238,60,74800,2,0,P|265:56|292:53,1,55.0000016784668,2|2,0:0|0:0,0:0:0:0:
347,48,75200,6,0,P|370:99|367:157,1,110.000003356934,2|2,1:0|0:0,0:0:0:0:
410,187,75800,2,0,P|386:238|389:296,1,110.000003356934,2|2,1:0|0:0,0:0:0:0:
365,341,76400,2,0,B|226:325|313:270|164:255,1,220.000006713867,2|0,1:0|1:0,0:0:0:0:
60,266,77600,2,0,P|56:238|53:211,1,55.0000016784668,8|0,0:0|1:0,0:0:0:0:
42,157,78000,1,2,0:0:0:0:
140,107,78400,38,0,P|142:66|160:29,2,82.5000025177003,6|2|2,1:0|0:0|0:0,0:0:0:0:
178,146,79200,1,2,1:0:0:0:
287,159,79600,2,0,P|290:131|293:104,1,55.0000016784668,2|2,1:0|0:0,0:0:0:0:
343,80,80000,2,0,P|337:39|331:-1,2,82.5000025177003,2|2|2,1:0|0:0|0:0,0:0:0:0:
391,106,80800,1,2,1:0:0:0:
485,162,81200,2,0,P|488:189|491:216,1,55.0000016784668,2|2,1:0|1:0,0:0:0:0:
455,257,81600,22,0,P|449:297|443:338,2,82.5000025177003,6|2|2,1:0|0:0|0:0,0:0:0:0:
407,229,82400,1,2,1:0:0:0:
328,305,82800,1,2,1:0:0:0:
328,305,83000,2,0,B|231:299|269:357|174:347,1,165.000005035401,2|0,0:0|1:0,0:0:0:0:
67,373,84000,1,0,1:0:0:0:
11,277,84400,2,0,P|7:249|4:222,1,55.0000016784668,2|2,1:0|0:0,0:0:0:0:
46,186,84800,38,0,P|51:145|57:104,2,82.5000025177003,6|2|2,1:0|0:0|0:0,0:0:0:0:
94,212,85600,1,10,0:0:0:0:
202,228,86000,2,0,P|205:255|208:282,1,55.0000016784668,10|2,0:0|0:0,0:0:0:0:
212,337,86400,2,0,P|175:354|134:357,2,82.5000025177003,10|0|2,0:0|0:0|0:0,0:0:0:0:
262,359,87200,1,10,0:0:0:0:
326,269,87600,2,0,P|353:265|380:262,1,55.0000016784668,10|2,0:0|0:0,0:0:0:0:
433,278,88000,6,0,P|427:318|421:359,2,82.5000025177003,10|2|2,0:0|3:0|3:0,0:0:0:0:
481,252,88800,1,2,3:0:0:0:
507,145,89200,2,0,P|503:117|500:90,1,55.0000016784668,2|2,3:0|3:0,3:0:0:0:
465,47,89600,2,8,B|375:75|420:110|319:137,1,165.000005035401
204,25,90800,1,10,0:0:0:0:
85,45,91200,38,0,P|17:98|23:185,1,179.999994506836,6|2,1:0|0:0,0:0:0:0:
47,240,92000,1,10,0:0:0:0:
125,330,92400,1,2,1:0:0:0:
229,271,92800,2,0,P|288:262|347:254,1,119.999996337891,2|2,1:0|1:0,0:0:0:0:
386,210,93400,1,2,0:0:0:0:
386,210,93600,2,0,P|415:213|445:217,1,59.9999981689454,10|2,0:0|0:0,0:0:0:0:
504,230,94000,1,2,1:0:0:0:
512,108,94400,6,0,B|410:90|464:44|357:28,1,179.999994506836,6|2,1:0|0:0,0:0:0:0:
296,35,95200,1,10,0:0:0:0:
220,128,95600,1,2,1:0:0:0:
309,208,96000,2,0,P|334:261|334:321,1,119.999996337891,10|10,0:0|0:0,0:0:0:0:
225,371,96800,2,0,P|195:367|165:363,1,59.9999981689454,10|0,0:0|0:0,0:0:0:0:
106,355,97200,1,2,1:0:0:0:
28,263,97600,54,0,B|5:164|59:184|35:86,1,179.999994506836,6|2,1:0|0:0,0:0:0:0:
65,34,98400,1,10,0:0:0:0:
162,103,98800,1,2,1:0:0:0:
262,37,99200,2,0,P|315:11|375:11,1,119.999996337891,2|2,1:0|1:0,0:0:0:0:
434,39,99800,1,2,0:0:0:0:
434,39,100000,2,0,P|430:68|426:98,1,59.9999981689454,10|2,0:0|0:0,0:0:0:0:
418,157,100400,1,2,1:0:0:0:
492,251,100800,6,0,P|454:328|368:341,1,179.999994506836,6|2,1:0|0:0,0:0:0:0:
314,315,101600,1,10,0:0:0:0:
207,370,102000,1,2,1:0:0:0:
97,321,102400,2,0,P|89:261|80:202,1,119.999996337891,10|10,0:0|0:0,0:0:0:0:
4,109,103200,2,0,P|7:79|11:49,1,59.9999981689454,10|0,0:0|0:0,0:0:0:0:
52,5,103600,1,2,1:0:0:0:
169,30,104000,21,4,1:0:0:0:
14,364,110400,54,0,B|114:356|56:313|161:299,1,160,6|8,0:0|0:0,0:0:0:0:
233,283,111600,1,2,0:0:0:0:
291,337,112000,2,0,P|365:355|425:307,1,160,2|8,0:0|0:0,0:0:0:0:
485,254,113200,1,2,0:0:0:0:
458,178,113600,54,0,P|462:138|469:98,1,80,2|2,0:0|0:0,0:0:0:0:
415,39,114400,2,0,P|375:34|335:27,1,80,10|2,0:0|0:0,0:0:0:0:
265,66,115200,1,2,0:0:0:0:
116,6,116000,1,8,0:0:0:0:
46,46,116400,2,0,P|50:65|52:85,1,40,2|2,0:0|0:0,0:0:0:0:
57,130,116800,22,0,P|97:148|143:146,1,89.9999972534181,2|2,1:0|0:0,0:0:0:0:
179,119,117400,2,0,P|219:100|265:102,1,89.9999972534181,2|2,1:0|0:0,0:0:0:0:
306,116,118000,1,2,1:0:0:0:
443,139,118600,1,0,1:0:0:0:
443,139,118800,2,0,P|435:183|430:228,1,89.9999972534181,2|8,1:0|0:0,0:0:0:0:
459,313,119600,1,2,1:0:0:0:
386,366,120000,6,0,P|346:348|300:350,1,89.9999972534181,2|2,1:0|0:0,0:0:0:0:
257,336,120600,2,0,P|217:355|171:353,1,89.9999972534181,0|2,1:0|0:0,0:0:0:0:
130,336,121200,1,2,1:0:0:0:
41,241,121800,1,0,1:0:0:0:
41,241,122000,2,0,P|48:196|53:151,1,89.9999972534181,2|8,1:0|0:0,0:0:0:0:
18,61,122800,1,0,1:0:0:0:
105,18,123200,22,0,B|279:25|169:96|336:107,1,240,12|0,0:0|0:0,0:0:0:0:
397,94,124800,2,0,P|404:138|409:183,1,80,2|2,0:0|0:0,0:0:0:0:
476,215,125600,1,2,3:0:0:0:
490,293,126000,1,2,0:0:0:0:
434,350,126400,22,0,P|398:367|358:368,1,80,0|2,3:0|0:0,0:0:0:0:
292,323,127200,2,0,P|274:287|273:247,1,80,2|2,3:0|0:0,0:0:0:0:
288,168,128000,1,2,0:0:0:0:
229,122,128400,1,2,0:0:0:0:
229,122,128600,2,0,P|224:82|217:42,2,80,2|2|2,0:0|0:0|0:0,0:0:0:0:
192,139,129600,38,0,P|117:118|59:168,1,160,0|0,1:0|0:0,0:0:0:0:
48,247,130800,1,2,0:0:0:0:
107,300,131200,2,0,P|114:339|118:379,2,80,2|2|2,0:0|0:0|3:0,0:0:0:0:
173,255,132400,1,2,0:0:0:0:
232,308,132800,22,0,P|225:338|222:370,2,60,2|2|2,3:0|0:0|0:0,0:0:0:0:
267,288,133600,1,2,0:0:0:0:
332,342,134000,1,2,0:0:0:0:
332,342,134200,2,0,P|425:338|468:249,1,200,2|0,3:0|0:0,0:0:0:0:
468,251,136000,5,10,0:0:0:0:
505,169,136400,1,10,0:0:0:0:
457,92,136800,2,0,P|435:95|413:98,1,44.999998626709,10|0,0:0|1:0,0:0:0:0:
367,99,137200,1,10,0:0:0:0:
300,38,137600,21,14,0:0:0:0:
506,12,142400,38,0,P|496:88|487:160,1,134.999995880127
483,190,143200,1,0,0:0:0:0:
410,243,143600,2,0,P|414:266|417:291,1,44.999998626709
422,332,144000,22,0,P|463:351|508:353,2,89.9999972534181,10|10|10,0:0|0:0|0:0,0:0:0:0:
338,365,145200,1,10,0:0:0:0:
264,313,145600,2,0,P|219:305|174:300,1,89.9999972534181,10|10,0:0|0:0,0:0:0:0:
100,351,146400,1,10,0:0:0:0:
30,293,146800,2,0,P|27:270|22:248,1,44.999998626709,10|10,0:0|0:0,0:0:0:0:
40,207,147200,38,0,P|54:143|121:127,1,134.999995880127,6|6,1:0|1:0,0:0:0:0:
175,199,148200,1,2,1:0:0:0:
175,199,148400,2,0,B|345:220|209:340|367:363,1,269.999991760254,6|0,1:0|0:0,0:0:0:0:
425,301,150000,2,0,P|422:278|417:256,1,44.999998626709,10|2,0:0|1:0,0:0:0:0:
434,204,150400,38,0,P|470:186|511:184,2,82.5000025177003,6|2|2,1:0|0:0|1:0,0:0:0:0:
402,159,151200,1,10,0:0:0:0:
332,74,151600,2,0,P|305:79|277:82,1,55.0000016784668,2|2,1:0|0:0,0:0:0:0:
232,114,152000,2,0,P|227:155|221:196,2,82.5000025177003,2|0|2,0:0|0:0|0:0,0:0:0:0:
184,88,152800,1,10,0:0:0:0:
111,170,153200,2,0,P|116:196|119:224,1,55.0000016784668,2|2,0:0|0:0,0:0:0:0:
123,279,153600,54,0,P|86:296|45:298,2,82.5000025177003,2|2|2,1:0|0:0|1:0,0:0:0:0:
171,305,154400,1,10,0:0:0:0:
272,359,154800,1,2,1:0:0:0:
272,359,155000,2,0,B|368:374|338:313|435:330,1,165.000005035401,2|0,0:0|1:0,0:0:0:0:
499,244,156000,1,8,0:0:0:0:
421,166,156400,2,0,P|417:138|412:111,1,55.0000016784668,2|2,0:0|1:0,0:0:0:0:
431,60,156800,22,0,P|472:55|513:49,2,82.5000025177003,2|2|2,1:0|0:0|1:0,0:0:0:0:
397,16,157600,1,10,0:0:0:0:
315,89,158000,2,0,P|288:83|260:80,1,55.0000016784668,2|2,1:0|0:0,0:0:0:0:
205,79,158400,2,0,P|187:42|185:1,2,82.5000025177003,2|0|2,0:0|0:0|0:0,0:0:0:0:
179,127,159200,1,10,0:0:0:0:
268,191,159600,2,0,P|273:217|276:245,1,55.0000016784668,2|2,0:0|0:0,0:0:0:0:
276,300,160000,54,0,P|312:317|353:319,2,82.5000025177003,2|2|0,1:0|0:0|1:0,0:0:0:0:
226,325,160800,1,10,0:0:0:0:
141,254,161200,2,0,P|113:257|86:262,1,55.0000016784668,2|2,1:0|1:0,0:0:0:0:
45,226,161600,2,8,P|4:157|32:79,1,165.000005035401
178,8,162800,1,10,0:0:0:0:
231,115,163200,38,0,B|333:97|279:51|386:35,1,179.999994506836,6|2,1:0|0:0,0:0:0:0:
444,51,164000,1,10,0:0:0:0:
399,162,164400,1,2,1:0:0:0:
500,225,164800,2,0,P|491:284|483:343,1,119.999996337891,2|2,1:0|1:0,0:0:0:0:
431,372,165400,1,2,0:0:0:0:
431,372,165600,2,0,P|402:369|372:365,1,59.9999981689454,10|2,0:0|0:0,0:0:0:0:
311,361,166000,1,2,1:0:0:0:
191,359,166400,6,0,P|104:364|51:296,1,179.999994506836,6|2,1:0|0:0,0:0:0:0:
47,236,167200,1,10,0:0:0:0:
2,124,167600,1,2,1:0:0:0:
105,63,168000,2,0,P|164:72|223:80,1,119.999996337891,10|10,0:0|0:0,0:0:0:0:
328,20,168800,2,0,P|357:17|387:13,1,59.9999981689454,10|0,0:0|0:0,0:0:0:0:
446,2,169200,1,2,1:0:0:0:
505,106,169600,54,0,P|488:194|475:283,1,179.999994506836,6|2,1:0|0:0,0:0:0:0:
466,342,170400,1,10,0:0:0:0:
351,379,170800,1,2,1:0:0:0:
240,332,171200,2,0,P|231:272|222:213,1,119.999996337891,2|2,1:0|1:0,0:0:0:0:
280,188,171800,1,2,0:0:0:0:
280,188,172000,2,0,P|283:159|287:129,1,59.9999981689454,10|2,0:0|0:0,0:0:0:0:
296,68,172400,1,2,1:0:0:0:
196,0,172800,38,0,B|94:40|157:81|52:120,1,179.999994506836,6|2,1:0|0:0,0:0:0:0:
42,171,173600,1,10,0:0:0:0:
0,283,174000,1,2,1:0:0:0:
83,368,174400,2,0,P|142:368|196:343,1,119.999996337891,2|10,1:0|0:0,0:0:0:0:
288,266,175200,2,0,P|317:269|347:273,1,59.9999981689454,10|0,0:0|0:0,0:0:0:0:
407,281,175600,1,2,1:0:0:0:
491,195,176000,5,6,1:0:0:0:
491,195,176800,2,0,P|494:166|498:136,1,59.9999981689454
508,75,177200,37,6,1:0:0:0:
410,4,177600,1,6,1:0:0:0:
309,69,178000,2,0,P|318:128|326:187,1,119.999996337891,8|8,0:1|0:1,0:0:0:0:
334,307,178800,5,6,1:0:0:0:
230,368,179200,2,0,P|170:368|116:343,1,119.999996337891,6|0,1:0|0:0,0:0:0:0:
