osu file format v14

[General]
AudioFilename: audio.mp3
AudioLeadIn: 0
PreviewTime: 275507
Countdown: 0
SampleSet: Normal
StackLeniency: 0.5
Mode: 0
LetterboxInBreaks: 0
WidescreenStoryboard: 0

[Editor]
Bookmarks: 10449,16728,17600,18007,20159,22135,23182,23414,31321,32252,33356,38298,42019,45740,46670,46786,48065,48182,48298,48414,51438,51903,61903,69926,87135,87600,90391,92949,95972,102252,104345,104577,105159,111786,113647,114577,116903,118879,121321,124810,126670,130391,130856,131321,134112,137833,141089,142252,148996,152717,163879,173182,173879,175042,238298,245275,321089,327600,408531,414577
DistanceSpacing: 0.4
BeatDivisor: 4
GridSize: 4
TimelineZoom: 6.399996

[Metadata]
Title:Shredda
TitleUnicode:Shredda
Artist:OBSCURUM
ArtistUnicode:OBSCURUM
Creator:Hasheem
Version:Derangement
Source:
Tags:Psycore Experimental Psychedelic Music Marathon
BeatmapID:1225389
BeatmapSetID:578786

[Difficulty]
HPDrainRate:5
CircleSize:4
OverallDifficulty:9.4
ApproachRate:9.7
SliderMultiplier:2.4
SliderTickRate:1

[Events]
//Background and Video events
0,0,"dark_evil_cyborg_robot_fantasy_psychedelic_1920x1080.jpg",0,0
//Break Periods
2,152917,162454
//Storyboard Layer 0 (Background)
//Storyboard Layer 1 (Fail)
//Storyboard Layer 2 (Pass)
//Storyboard Layer 3 (Foreground)
//Storyboard Sound Samples

[TimingPoints]
159,232.558139534884,4,1,0,45,1,0
333,-100,4,1,0,5,0,0
391,-100,4,1,0,45,0,0
449,-100,4,1,0,5,0,0
507,-66.6666666666667,4,1,0,45,0,0
536,-66.6666666666667,4,1,0,5,0,0
565,-66.6666666666667,4,1,0,45,0,0
595,-66.6666666666667,4,1,0,5,0,0
624,-100,4,1,0,45,0,0
740,-100,4,1,0,30,0,0
1786,-50,4,1,0,50,0,0
2019,-100,4,1,0,45,0,0
2193,-100,4,1,0,5,0,0
2252,-100,4,1,0,45,0,0
2310,-100,4,1,0,5,0,0
2368,-100,4,1,0,45,0,0
2426,-100,4,1,0,5,0,0
2484,-100,4,1,0,45,0,0
2775,-100,4,1,0,5,0,0
2949,-100,4,1,0,45,0,0
3007,-100,4,1,0,5,0,0
3065,-100,4,1,0,45,0,0
3124,-100,4,1,0,5,0,0
3298,-100,4,1,0,45,0,0
5740,-66.6666666666667,4,1,0,45,0,0
5798,-66.6666666666667,4,1,0,5,0,0
5856,-66.6666666666667,4,1,0,45,0,0
5914,-66.6666666666667,4,1,0,5,0,0
5972,-50,4,1,0,45,0,0
6089,-66.6666666666667,4,1,0,45,0,0
6786,-100,4,1,0,45,0,0
6845,-100,4,1,0,5,0,0
6903,-66.6666666666667,4,1,0,45,0,0
6961,-66.6666666666667,4,1,0,5,0,0
7019,-100,4,1,0,45,0,0
7252,-100,4,1,0,45,0,0
7310,-100,4,1,0,5,0,0
7368,-66.6666666666667,4,1,0,45,0,0
7426,-100,4,1,0,5,0,0
7484,-133.333333333333,4,1,0,45,0,0
9228,-90.9090909090909,4,1,0,45,0,0
9345,-133.333333333333,4,1,0,45,0,0
9810,-100,4,1,0,45,0,0
9868,-100,4,1,0,5,0,0
9926,-100,4,1,0,45,0,0
9984,-100,4,1,0,5,0,0
10042,-100,4,1,0,45,0,0
11612,-100,4,1,0,5,0,0
11670,-100,4,1,0,45,0,0
11961,-100,4,1,0,5,0,0
12019,-100,4,1,0,45,0,0
12252,-75.187969924812,4,1,0,45,0,0
12484,-100,4,1,0,45,0,0
14926,-100,4,1,0,5,0,0
15042,-66.6666666666667,4,1,0,50,0,0
15856,-100,4,1,0,50,0,0
17600,-66.6666666666667,4,1,0,50,0,0
17717,-100,4,1,0,50,0,0
27310,-100,4,1,0,5,0,0
27368,-100,4,1,0,50,0,0
28065,-66.6666666666667,4,1,0,50,0,0
28240,-66.6666666666667,4,1,0,5,0,0
28298,-66.6666666666667,4,1,0,50,0,0
28472,-66.6666666666667,4,1,0,5,0,0
28531,-66.6666666666667,4,1,0,50,0,0
28705,-66.6666666666667,4,1,0,5,0,0
28763,-66.6666666666667,4,1,0,50,0,0
28938,-66.6666666666667,4,1,0,5,0,0
28996,-100,4,1,0,50,0,0
29461,-100,4,1,0,90,0,0
29926,-100,4,1,0,50,0,0
34752,-100,4,1,0,5,0,0
34810,-100,4,1,0,50,0,0
38472,-100,4,1,0,5,0,0
38531,-100,4,1,0,50,0,0
39461,-133.333333333333,4,1,0,50,0,0
40159,-100,4,1,0,50,0,0
41263,-100,4,1,0,5,0,0
41321,-100,4,1,0,50,0,0
44810,-100,4,1,0,40,0,0
47135,-111.111111111111,4,1,0,35,0,0
47368,-125,4,1,0,30,0,0
47600,-142.857142857143,4,1,0,25,0,0
47717,-166.666666666667,4,1,0,20,0,0
47833,-200,4,1,0,15,0,0
48065,-100,4,1,0,40,0,0
58647,-100,4,1,0,5,0,0
58763,-100,4,1,0,50,0,0
61903,-100,4,1,0,30,0,0
62368,-100,4,1,0,50,0,0
65740,-100,4,1,0,15,0,0
66205,-100,4,1,0,50,0,0
68298,-75.187969924812,4,1,0,50,0,0
68472,-75.187969924812,4,1,0,5,0,0
68531,-100,4,1,0,50,0,0
71786,-100,4,1,0,40,0,0
72252,-133.333333333333,4,1,0,30,0,0
72717,-200,4,1,0,50,0,0
73531,-200,4,1,0,5,0,0
73647,-100,4,1,0,50,0,0
78472,-100,4,1,0,5,0,0
78531,-100,4,1,0,50,0,0
78705,-100,4,1,0,5,0,0
78763,-100,4,1,0,50,0,0
78938,-100,4,1,0,5,0,0
78996,-100,4,1,0,50,0,0
79170,-100,4,1,0,5,0,0
79228,-100,4,1,0,50,0,0
80159,-100,4,1,0,40,0,0
81089,-133.333333333333,4,1,0,30,0,0
82019,-133.333333333333,4,1,0,50,0,0
82949,-100,4,1,0,15,0,0
83298,-100,4,1,0,50,0,0
89403,-100,4,1,0,5,0,0
89461,-100,4,1,0,50,0,0
89635,-100,4,1,0,5,0,0
89693,-100,4,1,0,50,0,0
92891,-100,4,1,0,5,0,0
92949,-100,4,1,0,20,0,0
93182,-100,4,1,0,50,0,0
93356,-100,4,1,0,5,0,0
93414,-100,4,1,0,50,0,0
95042,-200,4,1,0,50,0,0
95856,-200,4,1,0,5,0,0
95972,-100,4,1,0,50,0,0
98938,-100,4,1,0,5,0,0
98996,-100,4,1,0,50,0,0
100798,-100,4,1,0,5,0,0
100856,-100,4,1,0,50,0,0
101554,-100,4,1,0,20,0,0
102019,-100,4,1,0,50,0,0
102659,-100,4,1,0,5,0,0
102717,-100,4,1,0,50,0,0
107135,-100,4,1,0,40,0,0
107368,-100,4,1,0,5,0,0
107426,-100,4,1,0,40,0,0
107659,-100,4,1,0,5,0,0
107717,-100,4,1,0,40,0,0
107775,-100,4,1,0,5,0,0
107833,-100,4,1,0,40,0,0
108065,-100,4,1,0,50,0,0
108443,-100,4,1,0,15,0,0
108763,-100,4,1,0,50,0,0
109635,-100,4,1,0,15,0,0
109868,-100,4,1,0,50,0,0
111496,-100,4,1,0,5,0,0
111554,-100,4,1,0,50,0,0
111612,-100,4,1,0,5,0,0
111670,-100,4,1,0,50,0,0
111728,-100,4,1,0,5,0,0
111786,-100,4,1,0,50,0,0
112949,-100,4,1,0,45,0,0
113182,-100,4,1,0,40,0,0
113414,-100,4,1,0,35,0,0
113647,-100,4,1,0,30,0,0
114112,-100,4,1,0,30,0,0
114635,-100,4,1,0,40,0,0
115275,-83.3333333333333,4,1,0,60,0,0
115333,-83.3333333333333,4,1,0,5,0,0
115391,-100,4,1,0,40,0,0
117600,-100,4,1,0,35,0,0
118065,-100,4,1,0,30,0,0
118531,-100,4,1,0,25,0,0
118879,-100,4,1,0,50,0,0
118938,-100,4,1,0,5,0,0
118996,-100,4,1,0,50,0,0
119054,-100,4,1,0,5,0,0
119112,-100,4,1,0,50,0,0
119170,-100,4,1,0,5,0,0
119228,-100,4,1,0,50,0,0
120314,-100,4,1,0,5,0,0
120391,-100,4,1,0,50,0,0
122310,-100,4,1,0,5,0,0
122368,-90.9090909090909,4,1,0,50,0,0
122426,-90.9090909090909,4,1,0,5,0,0
122484,-83.3333333333333,4,1,0,50,0,0
122542,-83.3333333333333,4,1,0,5,0,0
122600,-76.9230769230769,4,1,0,50,0,0
122659,-76.9230769230769,4,1,0,5,0,0
122717,-83.3333333333333,4,1,0,50,0,0
122775,-83.3333333333333,4,1,0,5,0,0
122833,-90.9090909090909,4,1,0,50,0,0
122891,-90.9090909090909,4,1,0,5,0,0
122949,-100,4,1,0,50,0,0
123240,-100,4,1,0,5,0,0
123298,-100,4,1,0,50,0,0
130159,-100,4,1,0,35,0,0
131321,-100,4,1,0,50,0,0
132426,-100,4,1,0,5,0,0
132484,-100,4,1,0,50,0,0
133356,-100,4,1,0,5,0,0
133414,-100,4,1,0,50,0,0
137717,-100,4,1,0,5,0,0
137833,-100,4,1,0,50,0,0
138938,-100,4,1,0,5,0,0
138996,-100,4,1,0,50,0,0
142426,-100,4,1,0,5,0,0
142484,-100,4,1,0,50,0,0
143007,-100,4,1,0,5,0,0
143182,-100,4,1,0,20,0,0
143414,-100,4,1,0,50,0,0
143938,-100,4,1,0,5,0,0
144112,-100,4,1,0,50,0,0
148065,-100,4,1,0,40,0,0
148298,-100,4,1,0,30,0,0
150391,-100,4,1,0,25,0,0
150624,-100,4,1,0,20,0,0
150856,-100,4,1,0,30,0,0
151031,-100,4,1,0,5,0,0
151089,-100,4,1,0,30,0,0
151321,-100,4,1,0,40,0,0
151554,-100,4,1,0,50,0,0
151786,-100,4,1,0,30,0,0
151961,-100,4,1,0,5,0,0
152019,-100,4,1,0,30,0,0
152193,-100,4,1,0,5,0,0
152252,-133.333333333333,4,1,0,20,0,0
152426,-133.333333333333,4,1,0,5,0,0
152484,-133.333333333333,4,1,0,20,0,0
152659,-133.333333333333,4,1,0,5,0,0
152717,-133.333333333333,4,1,0,20,0,0
163763,-133.333333333333,4,1,0,5,0,0
163879,-100,4,1,0,50,0,0
167600,-75.187969924812,4,1,0,80,0,0
167775,-75.187969924812,4,1,0,5,0,0
167833,-100,4,1,0,50,0,0
167891,-100,4,1,0,5,0,0
167949,-100,4,1,0,50,0,0
168124,-100,4,1,0,5,0,0
168182,-100,4,1,0,50,0,0
169403,-100,4,1,0,5,0,0
169461,-100,4,1,0,50,0,0
170856,-76.9230769230769,4,1,0,50,0,0
171089,-100,4,1,0,30,0,0
171321,-100,4,1,0,50,0,0
171438,-100,4,1,0,5,0,0
171476,-100,4,1,0,50,0,0
171631,-100,4,1,0,5,0,0
171709,-100,4,1,0,20,0,0
172252,-100,4,1,0,50,0,0
172639,-100,4,1,0,5,0,0
172717,-100,4,1,0,50,0,0

[Colours]
Combo1 : 255,255,255
Combo2 : 36,35,34
Combo3 : 202,202,202
Combo4 : 0,0,0

[HitObjects]
96,112,159,5,0,0:0:0:0:
176,59,275,2,0,L|189:151,1,60
229,101,391,2,0,L|194:187,1,60
254,164,507,6,0,L|212:195,1,45.0000017166138
254,197,565,6,0,L|212:228,1,45.0000017166138
254,230,624,6,0,B|268:261|317:299,1,60
325,307,740,6,0,B|351:347|351:347|355:340|356:329,1,60
392,271,856,2,0,B|438:281|438:281|437:273|430:265,1,60
413,198,972,2,0,B|453:171|453:171|446:167|435:166,1,60
376,131,1089,6,0,L|386:84,2,30
310,91,1205,6,0,B|292:95|274:96|274:96|274:120|306:121,1,60
236,120,1321,2,0,B|220:110|207:98|207:98|190:115|211:138,1,60
163,88,1438,2,0,B|158:70|157:52|157:52|133:52|133:84,1,60
94,81,1554,1,0,0:0:0:0:
73,93,1612,1,0,0:0:0:0:
55,109,1670,1,0,0:0:0:0:
41,128,1728,1,0,0:0:0:0:
30,150,1786,6,0,L|17:191,12,30
110,162,2019,6,0,L|164:205,1,60
204,194,2135,6,0,P|183:192|203:195,1,60
268,152,2252,2,0,P|280:134|267:150,1,60
272,228,2368,2,0,P|281:247|274:228,1,60
204,194,2484,6,0,P|183:192|203:195,3,60
200,117,2717,6,0,P|183:87|170:58,1,60
382,186,2949,6,0,P|399:216|412:245,1,60
413,119,3065,2,0,P|437:143|457:168,1,60
121,124,3298,6,0,P|104:94|91:65,2,60
90,191,3531,2,0,P|65:166|45:141,2,60
422,246,3879,6,0,P|439:276|452:305,2,60
453,179,4112,2,0,P|477:203|497:228,2,60
170,64,4461,6,0,B|170:36|137:38|137:38|136:67,2,60
87,109,4693,2,0,B|87:137|120:135|120:135|121:106,2,60
339,291,5042,6,0,B|339:319|372:317|372:317|373:288,2,60
422,246,5274,2,0,B|422:218|389:220|389:220|388:249,2,60
52,168,5624,6,0,B|10:195|10:195|18:168,1,60
9,107,5740,6,0,P|66:94|118:129,1,90.0000034332277
126,125,5856,2,0,B|159:64|159:64|204:56,1,90.0000034332277
224,61,5972,6,0,B|225:118|255:160|255:160|278:138,1,120
292,130,6089,1,0,0:0:0:0:
327,108,6147,1,0,0:0:0:0:
369,103,6205,1,0,0:0:0:0:
409,115,6263,1,0,0:0:0:0:
440,142,6321,6,0,B|452:169|483:191|483:191|457:197|439:219,1,90.0000034332277
435,206,6438,1,0,0:0:0:0:
395,217,6496,1,0,0:0:0:0:
362,243,6554,1,0,0:0:0:0:
342,280,6612,1,0,0:0:0:0:
335,321,6670,6,0,P|301:353|248:344,1,90
241,340,6786,6,0,B|220:297|220:297|208:317,1,60
153,343,6903,2,0,P|144:297|178:246,1,90.0000034332277
194,231,7019,1,0,0:0:0:0:
236,218,7077,1,0,0:0:0:0:
266,185,7135,1,0,0:0:0:0:
276,141,7193,1,0,0:0:0:0:
262,99,7252,6,0,B|261:71|238:56|238:56|234:68,1,60
178,107,7368,2,0,P|165:70|181:15,1,90.0000034332277
121,57,7484,2,0,L|100:102,4,45.0000017166138
101,97,8182,5,0,0:0:0:0:
81,137,8647,5,0,0:0:0:0:
43,257,8879,6,0,L|75:306,1,45.0000017166138
116,237,8996,2,0,L|173:249,1,45.0000017166138
153,171,9112,2,0,L|202:139,1,45.0000017166138
132,98,9228,6,0,B|177:71|177:71|220:82,1,66.0000020141602
65,61,9345,6,0,L|20:87,5,45.0000017166138
14,213,9810,6,0,L|61:271,1,60
60,216,9926,2,0,L|90:284,1,60
103,230,10042,6,0,L|114:303,1,60
141,255,10159,2,0,L|133:329,1,60
171,289,10275,2,0,L|144:358,1,60
240,269,10449,6,0,P|230:239|223:197,2,60
299,225,10624,6,0,P|309:255|316:297,2,60
402,147,10856,6,0,L|438:20,1,120
380,223,11089,1,0,0:0:0:0:
243,80,11205,1,0,0:0:0:0:
299,225,11321,2,0,B|321:281|321:281|394:311,1,120
454,335,11554,6,0,L|490:285,1,60
447,284,11670,6,0,L|468:226,1,60
437,256,11786,2,0,L|458:198,1,60
427,228,11903,2,0,L|448:170,1,60
410,203,12019,6,0,L|415:141,2,60
339,160,12193,5,0,0:0:0:0:
339,160,12252,2,0,P|301:201|266:207,1,79.7999967123414
231,218,12368,2,0,P|182:222|137:256,1,79.7999967123414
124,268,12484,5,0,0:0:0:0:
107,303,12542,1,0,0:0:0:0:
71,320,12600,1,0,0:0:0:0:
33,312,12658,1,0,0:0:0:0:
8,281,12717,6,0,P|1:242|2:197,1,60
71,198,12833,2,0,P|78:158|77:113,1,60
151,117,12949,2,0,P|143:77|144:32,2,60
217,74,13124,5,0,0:0:0:0:
217,74,13182,2,0,L|315:155,2,120
306,53,13472,5,0,0:0:0:0:
306,53,13531,2,0,L|355:93,1,60
360,50,13647,6,0,L|396:101,3,60
413,61,13879,6,0,L|435:120,2,60
256,192,14112,12,0,14926,0:0:0:0:
328,229,15042,6,0,P|348:165|379:144,1,90
399,139,15159,1,0,0:0:0:0:
433,132,15217,1,0,0:0:0:0:
460,108,15275,1,0,0:0:0:0:
471,74,15333,1,0,0:0:0:0:
462,40,15391,1,0,0:0:0:0:
438,14,15449,1,0,0:0:0:0:
403,5,15507,1,0,0:0:0:0:
369,15,15565,1,0,0:0:0:0:
345,41,15624,1,0,0:0:0:0:
337,76,15682,1,0,0:0:0:0:
361,106,15740,6,0,B|377:151|366:180|366:180|345:172,1,90
287,146,15856,2,0,P|281:175|293:215,2,60
209,76,16089,5,0,0:0:0:0:
173,70,16147,1,0,0:0:0:0:
139,81,16205,1,0,0:0:0:0:
114,106,16263,1,0,0:0:0:0:
102,140,16321,1,0,0:0:0:0:
108,175,16379,1,0,0:0:0:0:
128,204,16438,5,0,0:0:0:0:
148,233,16496,1,0,0:0:0:0:
153,268,16554,1,0,0:0:0:0:
141,302,16612,1,0,0:0:0:0:
116,327,16670,1,0,0:0:0:0:
82,338,16728,1,0,0:0:0:0:
77,260,16845,5,0,0:0:0:0:
124,252,16903,1,0,0:0:0:0:
171,244,16961,1,0,0:0:0:0:
219,236,17019,1,0,0:0:0:0:
199,193,17077,5,0,0:0:0:0:
246,185,17135,1,0,0:0:0:0:
293,177,17193,1,0,0:0:0:0:
341,169,17251,1,0,0:0:0:0:
321,126,17310,5,0,0:0:0:0:
363,93,17368,1,0,0:0:0:0:
415,85,17426,1,0,0:0:0:0:
465,105,17484,1,0,0:0:0:0:
498,147,17542,1,0,0:0:0:0:
505,200,17600,6,0,B|513:242|513:242|505:266|505:266|490:257|470:252,1,90
442,248,17717,5,0,0:0:0:0:
413,239,17775,1,0,0:0:0:0:
383,235,17833,1,0,0:0:0:0:
353,237,17891,1,0,0:0:0:0:
324,245,17949,1,0,0:0:0:0:
297,258,18007,1,0,0:0:0:0:
172,331,18124,6,0,B|155:344|152:361|152:361|168:362|190:356,2,60
71,51,18763,6,0,B|60:83|58:120|58:120|41:144|41:144|26:119,1,120
84,261,18996,2,0,B|95:229|97:192|97:192|114:168|114:168|129:193,1,120
235,93,19228,5,0,0:0:0:0:
195,232,19345,1,0,0:0:0:0:
150,70,19461,5,0,0:0:0:0:
280,255,19577,1,0,0:0:0:0:
311,49,19693,6,0,L|317:1,6,30
395,104,19926,6,0,L|446:66,3,60
413,182,20159,6,0,L|364:217,3,60
473,257,20391,6,0,L|459:318,1,60
416,293,20507,2,0,L|387:346,1,60
351,313,20624,6,0,B|318:300|283:317|283:317|283:274|232:328,1,120
285,166,20856,2,0,B|252:180|239:216|239:216|209:186|211:260,1,120
167,369,21089,5,0,0:0:0:0:
80,254,21205,1,0,0:0:0:0:
99,111,21321,1,0,0:0:0:0:
187,226,21438,1,0,0:0:0:0:
206,83,21554,5,0,0:0:0:0:
274,341,21670,1,0,0:0:0:0:
268,111,21786,5,0,0:0:0:0:
211,316,21902,1,0,0:0:0:0:
206,83,22019,5,0,0:0:0:0:
274,341,22135,1,0,0:0:0:0:
274,341,22484,5,0,0:0:0:0:
310,320,22542,1,0,0:0:0:0:
337,288,22600,1,0,0:0:0:0:
354,250,22658,1,0,0:0:0:0:
363,208,22717,5,0,0:0:0:0:
358,162,22775,1,0,0:0:0:0:
317,140,22833,1,0,0:0:0:0:
277,162,22891,1,0,0:0:0:0:
271,208,22949,5,0,0:0:0:0:
266,254,23007,1,0,0:0:0:0:
226,276,23065,1,0,0:0:0:0:
186,254,23123,1,0,0:0:0:0:
181,208,23182,6,0,L|197:144,1,60
146,173,23298,2,0,L|144:107,1,60
87,97,23414,6,0,P|80:125|72:108,1,60
202,114,23531,2,0,P|209:86|217:103,1,60
311,42,23647,6,0,B|291:27|278:34|278:34|286:66|311:42,3,60
409,110,23879,6,0,B|431:100|432:85|432:85|400:76|409:110,3,60
301,160,24112,6,0,B|298:184|310:192|310:192|334:169|301:160,3,60
343,221,24345,5,0,0:0:0:0:
334,255,24403,1,0,0:0:0:0:
317,287,24461,1,0,0:0:0:0:
292,313,24519,1,0,0:0:0:0:
262,332,24577,5,0,0:0:0:0:
224,347,24635,1,0,0:0:0:0:
189,327,24693,1,0,0:0:0:0:
184,287,24751,1,0,0:0:0:0:
213,259,24810,5,0,0:0:0:0:
251,231,24868,1,0,0:0:0:0:
263,185,24926,1,0,0:0:0:0:
246,142,24984,1,0,0:0:0:0:
205,118,25042,5,0,0:0:0:0:
152,121,25100,1,0,0:0:0:0:
100,105,25158,1,0,0:0:0:0:
57,73,25216,1,0,0:0:0:0:
256,192,25275,12,0,26089,0:0:0:0:
168,84,26205,5,0,0:0:0:0:
296,341,26321,1,0,0:0:0:0:
243,102,26438,5,0,0:0:0:0:
221,323,26554,1,0,0:0:0:0:
93,66,26670,5,0,0:0:0:0:
318,120,26786,1,0,0:0:0:0:
158,287,26903,5,0,0:0:0:0:
358,185,27019,1,0,0:0:0:0:
106,235,27135,6,0,P|93:322|190:353,1,180
164,360,27368,2,0,P|208:340|193:369,1,120
347,264,27600,2,0,P|303:284|318:255,1,120
179,182,27833,5,0,0:0:0:0:
159,151,27891,1,0,0:0:0:0:
148,117,27949,1,0,0:0:0:0:
145,81,28007,1,0,0:0:0:0:
152,47,28065,6,0,P|97:151|221:207,1,270.000010299683
207,212,28298,6,0,B|228:143|235:80|235:80|230:143|245:215,1,270.000010299683
244,213,28531,6,0,P|359:173|322:56,1,270.000010299683
330,66,28763,6,0,P|279:133|322:56,1,270.000010299683
320,54,28996,6,0,L|395:34,1,60
344,90,29112,2,0,L|411:51,1,60
376,118,29228,2,0,L|430:63,1,60
414,137,29345,2,0,L|452:69,1,60
456,145,29461,5,8,0:0:0:0:
412,333,29577,1,8,0:0:0:0:
412,333,29926,5,0,0:0:0:0:
372,318,29984,1,0,0:0:0:0:
333,303,30042,1,0,0:0:0:0:
293,289,30100,1,0,0:0:0:0:
254,274,30159,5,0,0:0:0:0:
233,239,30216,1,0,0:0:0:0:
215,200,30274,1,0,0:0:0:0:
197,162,30332,1,0,0:0:0:0:
179,124,30391,6,0,L|145:48,3,60
260,99,30624,6,0,L|284:153,3,60
302,191,30856,5,0,0:0:0:0:
336,224,30914,1,0,0:0:0:0:
351,269,30972,1,0,0:0:0:0:
343,316,31030,1,0,0:0:0:0:
314,354,31088,1,0,0:0:0:0:
271,374,31146,1,0,0:0:0:0:
224,372,31204,1,0,0:0:0:0:
183,349,31262,1,0,0:0:0:0:
157,309,31321,5,0,0:0:0:0:
160,265,31379,1,0,0:0:0:0:
144,226,31437,1,0,0:0:0:0:
111,200,31495,1,0,0:0:0:0:
71,183,31554,5,0,0:0:0:0:
38,157,31612,1,0,0:0:0:0:
22,118,31670,1,0,0:0:0:0:
25,74,31728,1,0,0:0:0:0:
49,39,31786,6,0,P|94:25|123:33,3,60
145,42,32019,5,0,0:0:0:0:
185,86,32077,1,0,0:0:0:0:
234,119,32135,1,0,0:0:0:0:
290,141,32193,1,0,0:0:0:0:
350,149,32252,5,2,0:0:0:0:
350,172,32310,1,2,0:0:0:0:
346,196,32368,1,2,0:0:0:0:
340,219,32426,1,2,0:0:0:0:
331,242,32484,1,2,0:0:0:0:
320,263,32542,1,2,0:0:0:0:
305,282,32600,1,2,0:0:0:0:
288,299,32658,1,2,0:0:0:0:
270,314,32717,1,2,0:0:0:0:
249,326,32775,1,2,0:0:0:0:
227,336,32833,1,2,0:0:0:0:
204,342,32891,1,2,0:0:0:0:
180,346,32949,1,2,0:0:0:0:
156,347,33007,1,2,0:0:0:0:
133,344,33065,1,2,0:0:0:0:
109,339,33124,1,2,0:0:0:0:
87,330,33182,1,2,0:0:0:0:
66,319,33240,1,2,0:0:0:0:
46,305,33298,1,2,0:0:0:0:
29,289,33356,1,2,0:0:0:0:
200,44,33647,6,0,L|224:119,3,60
339,79,33879,6,0,L|315:154,3,60
159,138,34112,6,0,L|195:250,3,60
367,190,34344,6,0,L|331:302,3,60
315,288,34577,6,0,P|226:317|176:259,1,180
176,259,34810,2,0,B|116:238|116:238|87:164,1,120
286,116,35042,2,0,B|346:137|346:137|375:211,1,120
176,259,35275,1,0,0:0:0:0:
147,249,35333,1,0,0:0:0:0:
119,239,35391,1,0,0:0:0:0:
106,213,35449,1,0,0:0:0:0:
95,185,35507,6,0,B|95:162|86:146|86:146|104:156|124:157,3,60
183,78,35740,6,0,B|206:77|222:69|222:69|212:86|211:106,3,60
290,165,35972,6,0,B|290:188|298:204|298:204|281:194|261:193,3,60
203,272,36205,6,0,B|179:272|163:280|163:280|173:263|174:243,3,60
129,225,36438,5,0,0:0:0:0:
124,183,36496,1,0,0:0:0:0:
106,145,36554,1,0,0:0:0:0:
79,114,36612,1,0,0:0:0:0:
43,92,36670,5,0,0:0:0:0:
85,88,36729,1,0,0:0:0:0:
123,70,36787,1,0,0:0:0:0:
154,43,36845,1,0,0:0:0:0:
176,7,36903,5,0,0:0:0:0:
180,49,36961,1,0,0:0:0:0:
198,87,37019,1,0,0:0:0:0:
225,118,37077,1,0,0:0:0:0:
261,140,37135,5,0,0:0:0:0:
219,144,37193,1,0,0:0:0:0:
181,162,37251,1,0,0:0:0:0:
150,188,37309,1,0,0:0:0:0:
128,225,37368,6,0,B|114:262|78:297|78:297|102:299|128:313,1,120
152,318,37542,1,0,0:0:0:0:
199,313,37600,1,0,0:0:0:0:
245,300,37658,1,0,0:0:0:0:
288,277,37716,1,0,0:0:0:0:
325,247,37775,1,0,0:0:0:0:
362,217,37833,1,0,0:0:0:0:
405,194,37891,1,0,0:0:0:0:
451,181,37949,1,0,0:0:0:0:
498,176,38007,1,0,0:0:0:0:
455,150,38066,1,0,0:0:0:0:
414,126,38124,1,0,0:0:0:0:
379,92,38182,1,0,0:0:0:0:
349,53,38240,1,0,0:0:0:0:
330,12,38298,6,0,B|276:42|222:2|199:47|199:47|258:44,1,180
237,45,38531,6,0,B|232:72|215:90|215:90|223:117|216:144|216:144|190:118,1,120
274,338,38763,6,0,B|280:312|297:294|297:294|289:267|296:240|296:240|322:266,1,120
138,252,38996,5,0,0:0:0:0:
99,236,39054,1,0,0:0:0:0:
66,210,39112,1,0,0:0:0:0:
42,175,39170,1,0,0:0:0:0:
29,136,39228,6,0,L|19:59,3,60
114,67,39461,2,0,L|120:111,11,45.0000017166138
208,79,40159,6,0,L|325:169,1,120
383,130,40391,6,0,P|386:192|414:219,1,80
319,281,40546,2,0,P|263:252|226:263,2,80
220,150,40798,5,0,0:0:0:0:
220,150,40856,2,0,L|276:108,1,60
173,76,40972,2,0,L|125:112,1,60
260,72,41089,6,0,B|299:68|323:35|323:35|333:62|333:62|364:40|397:47|397:47|372:69,1,180
385,85,41321,5,0,0:0:0:0:
357,117,41379,1,0,0:0:0:0:
336,153,41437,1,0,0:0:0:0:
322,192,41495,1,0,0:0:0:0:
315,234,41554,5,0,0:0:0:0:
281,236,41612,1,0,0:0:0:0:
249,244,41670,1,0,0:0:0:0:
218,259,41728,1,0,0:0:0:0:
191,278,41786,5,0,0:0:0:0:
170,259,41844,1,0,0:0:0:0:
148,246,41902,1,0,0:0:0:0:
121,237,41960,1,0,0:0:0:0:
95,232,42019,5,0,0:0:0:0:
28,100,42135,1,0,0:0:0:0:
98,311,42252,5,0,0:0:0:0:
25,21,42368,1,0,0:0:0:0:
95,232,42484,5,0,0:0:0:0:
28,100,42600,1,0,0:0:0:0:
92,153,42717,1,0,0:0:0:0:
231,37,42949,5,0,0:0:0:0:
270,50,43007,1,0,0:0:0:0:
307,70,43065,1,0,0:0:0:0:
341,95,43123,1,0,0:0:0:0:
371,124,43182,6,0,B|393:152|393:152|398:182,1,60
455,241,43298,2,0,B|435:255|435:255|399:259,1,60
358,261,43414,5,0,0:0:0:0:
317,254,43473,1,0,0:0:0:0:
276,241,43531,1,0,0:0:0:0:
237,223,43589,1,0,0:0:0:0:
203,198,43647,6,0,L|179:180,6,30
234,127,43879,5,0,0:0:0:0:
276,59,43957,1,0,0:0:0:0:
356,50,44034,1,0,0:0:0:0:
412,106,44112,1,0,0:0:0:0:
403,186,44190,1,0,0:0:0:0:
335,228,44267,1,0,0:0:0:0:
260,202,44345,6,0,L|198:217,2,60
275,275,44519,2,0,L|261:333,4,60
216,344,44810,5,0,0:0:0:0:
168,338,44868,1,0,0:0:0:0:
126,315,44926,1,0,0:0:0:0:
95,279,44984,1,0,0:0:0:0:
84,232,45042,5,0,0:0:0:0:
104,220,45100,1,0,0:0:0:0:
125,208,45158,1,0,0:0:0:0:
146,196,45216,1,0,0:0:0:0:
167,184,45275,5,0,0:0:0:0:
146,178,45334,1,0,0:0:0:0:
125,172,45392,1,0,0:0:0:0:
104,167,45450,1,0,0:0:0:0:
84,162,45507,5,0,0:0:0:0:
99,152,45565,1,0,0:0:0:0:
116,142,45623,1,0,0:0:0:0:
133,132,45681,1,0,0:0:0:0:
149,122,45740,6,0,L|201:92,1,60,8|0,0:0|0:0,0:0:0:0:
234,78,45856,1,0,0:0:0:0:
269,79,45914,1,0,0:0:0:0:
301,94,45972,1,0,0:0:0:0:
325,121,46030,1,0,0:0:0:0:
335,155,46088,1,0,0:0:0:0:
330,191,46146,1,0,0:0:0:0:
309,220,46205,5,0,0:0:0:0:
309,181,46263,1,0,0:0:0:0:
325,149,46321,1,0,0:0:0:0:
352,127,46379,1,0,0:0:0:0:
386,117,46438,5,0,0:0:0:0:
354,133,46497,1,0,0:0:0:0:
320,137,46555,1,0,0:0:0:0:
286,126,46613,1,0,0:0:0:0:
258,98,46670,6,0,L|206:27,1,60,8|0,0:0|0:0,0:0:0:0:
147,69,46786,2,0,L|183:118,1,60,8|0,0:0|0:0,0:0:0:0:
128,173,46903,6,0,L|207:204,3,60
125,251,47135,6,0,L|155:321,3,53.9999983520508
67,304,47368,6,0,L|41:367,3,48
128,173,47600,6,0,L|179:192,1,41.9999987182618
125,251,47717,6,0,L|146:300,1,35.9999989013672
67,304,47833,6,0,L|49:348,3,30
52,229,48065,6,0,L|0:172,1,60,8|0,0:0|0:0,0:0:0:0:
191,214,48182,2,0,L|231:169,1,60,8|0,0:0|0:0,0:0:0:0:
47,124,48298,2,0,L|-12:58,1,60,8|0,0:0|0:0,0:0:0:0:
205,106,48415,2,0,L|251:55,1,60,8|0,0:0|0:0,0:0:0:0:
52,229,48531,5,2,0:0:0:0:
245,61,48647,1,2,0:0:0:0:
191,214,48763,1,2,0:0:0:0:
6,79,48879,1,2,0:0:0:0:
125,254,48996,5,2,0:0:0:0:
79,104,49112,1,2,0:0:0:0:
191,214,49228,5,2,0:0:0:0:
64,28,49345,1,2,0:0:0:0:
216,141,49461,5,2,0:0:0:0:
6,79,49577,1,2,0:0:0:0:
58,292,49693,5,2,0:0:0:0:
188,69,49810,1,2,0:0:0:0:
266,199,49926,5,2,0:0:0:0:
21,155,50042,1,2,0:0:0:0:
125,332,50159,5,2,0:0:0:0:
141,157,50275,1,2,0:0:0:0:
204,340,50391,5,2,0:0:0:0:
174,166,50507,1,2,0:0:0:0:
282,327,50624,5,2,0:0:0:0:
208,166,50740,1,2,0:0:0:0:
331,267,50856,5,2,0:0:0:0:
240,157,50972,1,2,0:0:0:0:
204,340,51089,5,2,0:0:0:0:
380,133,51205,1,2,0:0:0:0:
358,339,51321,5,2,0:0:0:0:
255,254,51438,1,2,0:0:0:0:
304,194,51554,1,2,0:0:0:0:
228,182,51670,1,2,0:0:0:0:
276,122,51786,1,2,0:0:0:0:
201,111,51903,1,2,0:0:0:0:
256,192,52252,12,0,53647,0:0:0:0:
256,192,55275,12,0,58647,0:0:0:0:
172,108,58763,6,0,B|147:92|147:92|169:77|201:92,1,60
339,275,58879,2,0,B|364:291|364:291|341:305|310:290,1,60
256,74,58996,2,0,B|249:45|249:45|276:50|287:83,1,60
255,309,59112,2,0,B|261:337|261:337|234:332|223:299,1,60
339,108,59228,2,0,B|355:83|355:83|369:105|355:137,1,60
172,275,59345,2,0,B|156:300|156:300|141:277|156:246,1,60
373,191,59461,2,0,B|401:184|401:184|396:211|363:222,1,60
138,192,59577,2,0,B|109:198|109:198|114:171|147:160,1,60
339,275,59693,6,0,B|364:291|364:291|341:305|310:290,3,60
284,178,59926,2,0,B|259:162|259:162|281:147|313:162,3,60
324,93,60159,5,0,0:0:0:0:
283,84,60217,1,0,0:0:0:0:
242,92,60275,1,0,0:0:0:0:
207,114,60333,1,0,0:0:0:0:
184,149,60391,5,0,0:0:0:0:
160,183,60449,1,0,0:0:0:0:
125,206,60507,1,0,0:0:0:0:
84,214,60565,1,0,0:0:0:0:
44,205,60624,5,0,0:0:0:0:
13,177,60682,1,0,0:0:0:0:
12,136,60740,1,0,0:0:0:0:
41,108,60798,1,0,0:0:0:0:
82,109,60856,5,0,0:0:0:0:
122,110,60914,1,0,0:0:0:0:
151,81,60972,1,0,0:0:0:0:
150,40,61030,1,0,0:0:0:0:
120,13,61089,6,0,P|82:4|39:29,3,60
222,56,61321,6,0,P|260:65|303:40,3,60
324,40,61554,5,0,0:0:0:0:
370,28,61612,1,0,0:0:0:0:
416,39,61670,1,0,0:0:0:0:
450,72,61728,1,0,0:0:0:0:
466,117,61786,1,0,0:0:0:0:
457,164,61844,1,0,0:0:0:0:
423,198,61903,6,0,P|374:248|257:202,1,180
190,197,62135,6,0,P|239:147|356:193,1,180
423,198,62368,6,0,P|450:222|463:268,5,60
480,287,62717,5,0,0:0:0:0:
481,333,62775,1,0,0:0:0:0:
449,368,62833,1,0,0:0:0:0:
402,371,62891,1,0,0:0:0:0:
367,340,62950,5,0,0:0:0:0:
348,310,63008,1,0,0:0:0:0:
323,284,63066,1,0,0:0:0:0:
293,265,63124,1,0,0:0:0:0:
259,253,63182,1,0,0:0:0:0:
223,249,63240,1,0,0:0:0:0:
187,252,63298,1,0,0:0:0:0:
153,264,63356,1,0,0:0:0:0:
123,283,63414,6,0,B|146:200|225:119|225:119|201:138|162:152,1,240
162,167,63705,1,0,0:0:0:0:
129,181,63763,1,0,0:0:0:0:
93,182,63821,1,0,0:0:0:0:
60,169,63879,6,0,P|35:157|8:126,3,60
79,91,64112,6,0,L|119:46,1,60,8|0,0:0|0:0,0:0:0:0:
210,48,64228,2,0,L|170:93,1,60,8|0,0:0|0:0,0:0:0:0:
147,128,64345,5,0,0:0:0:0:
136,168,64403,1,0,0:0:0:0:
136,210,64461,1,0,0:0:0:0:
148,250,64519,1,0,0:0:0:0:
171,285,64577,1,0,0:0:0:0:
202,313,64635,1,0,0:0:0:0:
240,330,64693,1,0,0:0:0:0:
282,336,64752,1,0,0:0:0:0:
323,328,64810,5,0,0:0:0:0:
296,294,64869,1,0,0:0:0:0:
262,270,64927,1,0,0:0:0:0:
221,257,64985,1,0,0:0:0:0:
179,253,65043,1,0,0:0:0:0:
139,265,65101,1,0,0:0:0:0:
103,285,65159,1,0,0:0:0:0:
74,315,65217,1,0,0:0:0:0:
67,356,65275,6,0,B|43:315|8:298|8:298|46:258|21:185|21:185|22:210|15:233,1,240
53,223,65565,1,0,0:0:0:0:
85,208,65623,1,0,0:0:0:0:
103,177,65681,1,0,0:0:0:0:
103,142,65740,6,0,B|81:124|81:124|76:72,7,60
157,22,66205,6,0,L|149:94,3,60
254,123,66438,6,0,L|260:182,3,60
77,92,66670,6,0,L|66:187,3,60
216,238,66903,6,0,L|224:316,3,60
250,343,67135,5,0,0:0:0:0:
300,362,67193,1,0,0:0:0:0:
353,360,67251,1,0,0:0:0:0:
402,338,67309,1,0,0:0:0:0:
439,299,67367,1,0,0:0:0:0:
458,249,67425,1,0,0:0:0:0:
456,195,67483,1,0,0:0:0:0:
434,146,67541,1,0,0:0:0:0:
390,114,67600,6,0,B|361:95|361:95|354:52,3,60
281,61,67833,6,0,L|294:135,1,60
212,95,67949,2,0,L|225:169,1,60
133,95,68065,6,0,L|146:21,1,60
64,61,68181,2,0,L|77:-13,1,60
70,138,68298,6,0,B|105:167|117:218|117:218|135:157|223:160|214:228|187:222,1,240
202,195,68531,5,0,0:0:0:0:
224,176,68589,1,0,0:0:0:0:
252,166,68647,1,0,0:0:0:0:
282,166,68705,1,0,0:0:0:0:
310,178,68763,1,0,0:0:0:0:
332,198,68821,1,0,0:0:0:0:
345,224,68879,1,0,0:0:0:0:
348,254,68938,1,0,0:0:0:0:
340,283,68996,6,0,B|328:311|328:311|290:324,3,60
265,332,69228,5,0,0:0:0:0:
229,337,69286,1,0,0:0:0:0:
193,335,69344,1,0,0:0:0:0:
158,327,69402,1,0,0:0:0:0:
126,312,69461,5,0,0:0:0:0:
113,277,69519,1,0,0:0:0:0:
94,246,69577,1,0,0:0:0:0:
70,220,69635,1,0,0:0:0:0:
42,198,69693,5,0,0:0:0:0:
37,162,69751,1,0,0:0:0:0:
39,127,69809,1,0,0:0:0:0:
47,91,69867,1,0,0:0:0:0:
63,57,69926,6,0,B|75:29|75:29|113:16,3,60
156,7,70159,5,0,0:0:0:0:
202,7,70217,1,0,0:0:0:0:
229,45,70275,1,0,0:0:0:0:
216,89,70333,1,0,0:0:0:0:
173,105,70391,5,0,0:0:0:0:
130,122,70449,1,0,0:0:0:0:
117,166,70507,1,0,0:0:0:0:
144,203,70565,1,0,0:0:0:0:
190,204,70624,5,0,0:0:0:0:
236,205,70682,1,0,0:0:0:0:
263,242,70740,1,0,0:0:0:0:
250,286,70798,1,0,0:0:0:0:
207,303,70856,6,0,B|172:320|132:303|132:303|154:335|154:335|114:309|57:327|57:327|79:308|79:286,1,240
95,275,71147,5,0,0:0:0:0:
105,235,71205,1,0,0:0:0:0:
100,193,71263,1,0,0:0:0:0:
79,157,71321,6,0,B|68:128|68:128|37:91,1,60
144,113,71438,2,0,B|140:81|140:81|119:37,1,60
217,86,71554,2,0,B|221:54|221:54|212:7,1,60
294,79,71670,2,0,B|306:49|306:49|310:1,1,60
371,92,71786,6,0,L|406:21,1,60
400,137,71903,2,0,L|416:59,1,60
439,172,72019,2,0,L|434:93,1,60
485,195,72135,2,0,L|460:119,1,60
426,249,72252,6,0,L|408:304,1,45.0000017166138
378,262,72368,2,0,L|346:310,1,45.0000017166138
328,262,72484,2,0,L|284:300,1,45.0000017166138
279,249,72600,2,0,L|227:275,1,45.0000017166138
235,223,72717,6,0,B|164:223|90:264|90:264|129:224|136:196|136:196|84:217|84:217|128:162|80:173|80:173|64:161|55:146|55:146|93:168,1,420
163,120,73647,5,0,0:0:0:0:
303,28,73763,2,0,P|375:22|414:72,2,120
132,33,74112,5,0,0:0:0:0:
272,115,74228,1,0,0:0:0:0:
313,271,74345,5,0,0:0:0:0:
343,89,74461,1,0,0:0:0:0:
242,245,74577,6,0,L|194:315,7,60
165,328,75042,5,0,0:0:0:0:
117,349,75100,1,0,0:0:0:0:
70,326,75158,1,0,0:0:0:0:
60,275,75216,1,0,0:0:0:0:
93,234,75275,5,0,0:0:0:0:
126,194,75333,1,0,0:0:0:0:
116,143,75391,1,0,0:0:0:0:
69,120,75449,1,0,0:0:0:0:
22,141,75507,5,0,0:0:0:0:
48,116,75565,1,0,0:0:0:0:
74,91,75623,1,0,0:0:0:0:
101,67,75681,1,0,0:0:0:0:
127,42,75740,5,0,0:0:0:0:
98,57,75798,1,0,0:0:0:0:
69,72,75856,1,0,0:0:0:0:
41,88,75914,1,0,0:0:0:0:
12,103,75972,5,0,0:0:0:0:
31,85,76030,1,0,0:0:0:0:
49,67,76088,1,0,0:0:0:0:
68,49,76146,1,0,0:0:0:0:
88,32,76205,5,0,0:0:0:0:
69,40,76263,1,0,0:0:0:0:
50,50,76321,1,0,0:0:0:0:
32,61,76379,1,0,0:0:0:0:
14,71,76438,6,0,L|5:134,3,60
85,140,76670,6,0,L|76:203,3,60
156,209,76903,6,0,L|147:272,3,60
227,278,77135,6,0,L|218:341,3,60
305,303,77368,6,0,L|314:240,3,60
305,303,77833,6,0,L|314:240,3,60
456,40,78298,6,0,B|428:62|428:62|400:40|384:75|384:75|401:113|360:112|360:112|352:78|384:75,1,180
363,83,78531,6,0,P|312:34|292:111,1,180
289,108,78763,6,0,B|251:113|212:123|212:123|220:147|203:171|203:171|177:162|170:135,1,180
170,136,78996,6,0,B|170:202|207:259|207:259|185:242|157:235,1,180
162,236,79228,6,0,P|126:284|68:333,1,120
230,232,79461,2,0,P|182:268|113:300,1,120
296,244,79693,2,0,P|240:266|165:280,1,120
356,273,79926,2,0,P|296:280|220:274,1,120
407,317,80159,6,0,P|347:308|300:355,1,120
419,289,80391,2,0,P|363:265|305:298,1,120
437,265,80624,2,0,P|389:228|325:244,1,120
461,246,80856,2,0,P|424:198|358:197,1,120
488,234,81089,6,0,B|503:162|503:162|486:180,1,90.0000034332277
454,198,81321,2,0,B|487:132|487:132|466:145,1,90.0000034332277
431,154,81554,2,0,B|479:99|479:99|456:106,1,90.0000034332277
419,105,81786,2,0,B|480:64|480:64|455:65,1,90.0000034332277
421,56,82019,6,0,L|438:4,2,45.0000017166138
259,87,82252,6,0,L|245:44,2,45.0000017166138
417,196,82484,6,0,L|437:133,2,45.0000017166138
222,233,82717,6,0,L|205:181,2,45.0000017166138
339,144,82949,6,8,L|355:79,4,60
298,302,83298,5,0,0:0:0:0:
181,187,83414,1,0,0:0:0:0:
146,162,83472,1,0,0:0:0:0:
105,153,83530,1,0,0:0:0:0:
64,161,83588,1,0,0:0:0:0:
30,184,83646,1,0,0:0:0:0:
116,45,83763,1,0,0:0:0:0:
105,240,83879,6,0,B|111:273|101:308|101:308|115:328|121:357|121:357|158:331|211:326|211:326|195:323|184:317,1,240
187,273,84170,1,0,0:0:0:0:
216,235,84229,1,0,0:0:0:0:
262,226,84287,1,0,0:0:0:0:
303,250,84345,5,0,0:0:0:0:
318,294,84403,1,0,0:0:0:0:
346,331,84462,1,0,0:0:0:0:
392,340,84520,1,0,0:0:0:0:
433,316,84577,5,0,0:0:0:0:
448,272,84635,1,0,0:0:0:0:
426,230,84693,1,0,0:0:0:0:
383,213,84751,1,0,0:0:0:0:
334,216,84810,6,0,P|306:198|292:157,1,60
304,24,84926,2,0,P|329:39|344:65,1,60
362,109,85042,5,0,0:0:0:0:
367,155,85100,1,0,0:0:0:0:
352,201,85158,1,0,0:0:0:0:
317,234,85216,1,0,0:0:0:0:
272,247,85275,6,0,B|241:254|241:254|195:246,1,60,8|0,0:0|0:0,0:0:0:0:
129,151,85391,2,0,B|160:144|160:144|206:152,1,60,8|0,0:0|0:0,0:0:0:0:
228,159,85507,5,0,0:0:0:0:
269,169,85565,1,0,0:0:0:0:
310,178,85623,1,0,0:0:0:0:
351,187,85681,1,0,0:0:0:0:
392,196,85740,6,0,B|450:204|485:224|485:224|441:149|444:101|444:101|476:134,1,240
411,121,86031,5,0,0:0:0:0:
370,113,86089,1,0,0:0:0:0:
338,88,86147,1,0,0:0:0:0:
320,50,86205,6,0,P|306:19|308:-13,1,60
216,61,86321,2,0,P|230:92|228:124,1,60
208,160,86438,5,0,0:0:0:0:
171,190,86496,1,0,0:0:0:0:
161,236,86554,1,0,0:0:0:0:
181,278,86612,1,0,0:0:0:0:
223,300,86670,5,0,0:0:0:0:
260,273,86728,1,0,0:0:0:0:
308,278,86786,1,0,0:0:0:0:
342,309,86844,1,0,0:0:0:0:
360,354,86903,6,0,B|385:356|398:364|398:364|414:344|437:329,3,60
437,316,87136,5,0,0:0:0:0:
457,279,87194,1,0,0:0:0:0:
469,238,87252,1,0,0:0:0:0:
474,197,87310,1,0,0:0:0:0:
470,155,87368,1,0,0:0:0:0:
459,114,87426,1,0,0:0:0:0:
440,77,87484,1,0,0:0:0:0:
415,43,87543,1,0,0:0:0:0:
256,192,87600,12,0,88531,0:0:0:0:
264,203,88938,6,0,L|292:141,3,60
381,126,89228,2,0,P|329:60|209:92,1,180
209,86,89461,6,0,B|165:84|125:61|125:61|155:104|152:131|152:131|134:124,1,180
94,150,89693,5,0,0:0:0:0:
94,150,89771,2,0,P|83:189|62:228,1,80
83,265,89926,5,0,0:0:0:0:
131,253,89984,1,0,0:0:0:0:
176,270,90042,1,0,0:0:0:0:
208,303,90100,1,0,0:0:0:0:
222,350,90159,5,0,0:0:0:0:
180,325,90217,1,0,0:0:0:0:
160,281,90275,1,0,0:0:0:0:
161,235,90333,1,0,0:0:0:0:
184,192,90391,6,0,B|215:137|215:137|278:86,1,120
140,115,90624,2,0,B|109:170|109:170|46:221,1,120
187,4,90856,5,0,0:0:0:0:
275,186,90972,1,0,0:0:0:0:
478,152,91089,5,0,0:0:0:0:
229,92,91205,1,0,0:0:0:0:
389,19,91321,5,0,0:0:0:0:
372,194,91438,1,0,0:0:0:0:
187,4,91554,5,0,0:0:0:0:
316,274,91670,1,0,0:0:0:0:
400,108,91786,5,0,0:0:0:0:
295,161,91903,1,0,0:0:0:0:
421,96,92019,5,0,0:0:0:0:
250,192,92135,1,0,0:0:0:0:
419,293,92252,5,0,0:0:0:0:
372,194,92368,1,0,0:0:0:0:
316,274,92484,1,0,0:0:0:0:
433,305,92600,5,0,0:0:0:0:
374,175,92717,1,0,0:0:0:0:
374,175,92775,2,0,P|339:119|330:51,1,120
262,39,92949,6,0,L|257:80,6,30
189,57,93182,6,0,B|108:188|108:188|153:161,1,180
162,159,93414,5,0,0:0:0:0:
198,154,93473,1,0,0:0:0:0:
233,161,93531,1,0,0:0:0:0:
265,178,93589,1,0,0:0:0:0:
289,203,93647,5,0,0:0:0:0:
275,235,93706,1,0,0:0:0:0:
251,262,93764,1,0,0:0:0:0:
221,281,93822,1,0,0:0:0:0:
188,290,93879,5,0,0:0:0:0:
167,262,93938,1,0,0:0:0:0:
156,228,93996,1,0,0:0:0:0:
154,193,94054,1,0,0:0:0:0:
162,159,94112,6,0,L|183:92,1,60,8|0,0:0|0:0,0:0:0:0:
212,85,94228,5,0,0:0:0:0:
247,78,94286,1,0,0:0:0:0:
282,71,94344,1,0,0:0:0:0:
318,65,94402,1,0,0:0:0:0:
353,58,94460,1,0,0:0:0:0:
389,52,94518,1,0,0:0:0:0:
424,45,94578,6,0,L|375:96,1,60,8|0,0:0|0:0,0:0:0:0:
384,123,94694,5,0,0:0:0:0:
396,156,94752,1,0,0:0:0:0:
407,190,94810,2,0,L|417:219,6,30
487,231,95042,6,0,B|481:293|395:314|358:262|358:262|383:322|358:367|358:367|308:311|256:313|256:313|290:348,1,420
214,374,95972,6,0,L|170:321,7,60
94,305,96438,6,0,L|161:241,1,60
70,229,96554,2,0,B|108:195|108:195|137:198,1,60
187,213,96670,2,0,P|170:147|112:125,1,120
254,117,96903,6,0,P|276:217|383:278,1,180
375,280,97135,5,0,0:0:0:0:
409,250,97193,1,0,0:0:0:0:
399,205,97251,1,0,0:0:0:0:
355,192,97309,1,0,0:0:0:0:
323,225,97368,5,0,0:0:0:0:
291,251,97426,1,0,0:0:0:0:
252,266,97484,1,0,0:0:0:0:
210,268,97542,1,0,0:0:0:0:
170,256,97600,5,0,0:0:0:0:
140,221,97658,1,0,0:0:0:0:
96,231,97716,1,0,0:0:0:0:
83,275,97774,1,0,0:0:0:0:
115,308,97833,5,0,0:0:0:0:
233,344,97949,1,0,0:0:0:0:
233,344,98007,1,0,0:0:0:0:
233,344,98065,1,0,0:0:0:0:
353,318,98182,1,0,0:0:0:0:
353,318,98240,1,0,0:0:0:0:
353,318,98298,1,0,0:0:0:0:
419,214,98414,1,0,0:0:0:0:
419,214,98472,1,0,0:0:0:0:
419,214,98531,5,0,0:0:0:0:
428,185,98589,1,0,0:0:0:0:
431,155,98647,1,0,0:0:0:0:
427,126,98705,1,0,0:0:0:0:
415,100,98763,6,0,B|380:95|350:53|350:53|343:84|266:116|292:76,1,180
265,37,98996,5,0,0:0:0:0:
220,22,99054,1,0,0:0:0:0:
175,36,99112,1,0,0:0:0:0:
148,75,99170,1,0,0:0:0:0:
150,122,99228,6,0,L|197:178,1,60
155,238,99345,2,0,L|116:192,1,60
70,180,99462,5,0,0:0:0:0:
28,200,99520,1,0,0:0:0:0:
9,243,99578,1,0,0:0:0:0:
22,288,99636,1,0,0:0:0:0:
61,314,99693,6,0,L|159:302,1,60
107,345,99809,2,0,L|162:322,1,60
158,362,99926,2,0,L|205:325,3,60
263,246,100159,6,0,L|275:318,1,60,8|0,0:0|0:0,0:0:0:0:
303,268,100275,2,0,L|315:340,1,60,8|0,0:0|0:0,0:0:0:0:
343,290,100391,2,0,L|355:362,3,60,8|0|0|0,0:0|0:0|0:0|0:0,0:0:0:0:
383,312,100624,6,0,P|439:226|465:140,1,180
471,107,100856,5,0,0:0:0:0:
443,70,100914,1,0,0:0:0:0:
396,68,100972,1,0,0:0:0:0:
365,103,101030,1,0,0:0:0:0:
370,149,101089,5,0,0:0:0:0:
375,195,101147,1,0,0:0:0:0:
344,229,101205,1,0,0:0:0:0:
297,227,101263,1,0,0:0:0:0:
268,191,101321,5,0,0:0:0:0:
239,155,101379,1,0,0:0:0:0:
192,153,101437,1,0,0:0:0:0:
161,187,101495,1,0,0:0:0:0:
166,233,101554,6,0,L|181:269,14,30
111,284,102019,6,0,P|196:329|248:260,1,180
314,260,102252,6,0,L|302:232,6,30
370,207,102484,6,0,B|422:337|422:337|414:303|420:272,1,180
436,260,102717,5,0,0:0:0:0:
444,218,102775,1,0,0:0:0:0:
440,177,102833,1,0,0:0:0:0:
425,138,102891,1,0,0:0:0:0:
400,104,102949,1,0,0:0:0:0:
366,80,103007,1,0,0:0:0:0:
327,65,103065,1,0,0:0:0:0:
284,63,103124,1,0,0:0:0:0:
244,76,103182,5,0,0:0:0:0:
221,104,103240,1,0,0:0:0:0:
192,125,103298,1,0,0:0:0:0:
158,137,103356,1,0,0:0:0:0:
123,139,103414,1,0,0:0:0:0:
87,132,103472,1,0,0:0:0:0:
55,116,103530,1,0,0:0:0:0:
29,91,103589,1,0,0:0:0:0:
11,61,103647,5,0,0:0:0:0:
11,91,103705,1,0,0:0:0:0:
13,121,103763,1,0,0:0:0:0:
16,150,103821,1,0,0:0:0:0:
21,180,103879,1,0,0:0:0:0:
28,209,103937,1,0,0:0:0:0:
35,238,103995,1,0,0:0:0:0:
44,267,104053,1,0,0:0:0:0:
55,295,104112,6,0,P|68:328|88:360,2,60,8|0|0,0:0|0:0|0:0,0:0:0:0:
184,284,104345,6,0,L|164:216,1,60
222,157,104461,2,0,L|238:214,1,60
251,248,104577,5,0,0:0:0:0:
273,275,104635,1,0,0:0:0:0:
306,289,104693,1,0,0:0:0:0:
341,284,104752,6,0,B|384:262|420:253|420:253|412:224|418:203,1,120
447,202,104926,6,0,B|424:180|424:180|418:135,1,60
351,160,105042,2,0,B|350:128|350:128|377:92,1,60
434,83,105159,6,0,L|458:60,2,30
380,36,105275,6,0,P|346:38|312:62,1,60
282,108,105391,2,0,P|261:86|252:58,1,60
186,18,105507,6,0,B|175:50|175:50|185:90,3,60
105,67,105740,6,0,L|126:140,1,60
44,110,105856,6,0,P|17:131|-18:176,1,60
68,181,105972,6,0,L|89:254,1,60
144,192,106089,6,0,L|153:224,2,30
234,221,106205,6,0,L|286:162,1,60
351,198,106321,2,0,L|311:243,1,60
285,269,106438,5,0,0:0:0:0:
256,290,106496,1,0,0:0:0:0:
222,303,106554,1,0,0:0:0:0:
187,306,106612,1,0,0:0:0:0:
151,299,106670,6,0,B|107:264|56:273|56:273|67:286|90:290,1,120
66,301,106815,6,0,L|67:348,10,30
2,273,107135,6,0,L|2:197,1,60
18,143,107252,2,0,B|55:156|67:186|67:186|90:166|128:171,1,120
163,177,107426,5,0,0:0:0:0:
206,196,107484,1,0,0:0:0:0:
253,193,107542,6,0,B|289:157|344:158|344:158|325:171|323:190,1,120
332,220,107717,2,0,P|366:233|391:257,1,60
469,230,107833,2,0,P|430:183|424:48,1,180
328,17,108065,6,0,B|329:46|338:88|338:88|319:65|292:49,3,120
234,42,108443,6,0,P|233:62|238:88,10,30
168,100,108763,6,0,B|177:116|200:135|200:135|158:126|122:144|105:158|105:158|127:156|153:146,1,180
134,152,109228,6,0,L|141:222,1,60
182,265,109345,2,0,L|176:205,1,60
228,146,109461,2,0,L|252:211,2,60
306,145,109635,6,0,L|316:126,12,15
383,158,109868,5,0,0:0:0:0:
383,158,109926,2,0,L|356:231,1,60
414,275,110042,2,0,L|434:218,1,60
449,178,110159,5,0,0:0:0:0:
448,136,110217,1,0,0:0:0:0:
425,102,110275,1,0,0:0:0:0:
386,88,110333,1,0,0:0:0:0:
346,97,110391,6,0,P|310:116|263:131,1,60
225,95,110507,6,0,B|221:129|221:129|234:175,1,60
160,169,110624,6,0,P|123:187|76:202,1,60
94,124,110740,6,0,L|52:140,2,30
28,200,110856,6,0,L|66:272,1,60
19,252,110972,2,0,L|87:295,1,60
105,306,111089,5,0,0:0:0:0:
142,325,111147,1,0,0:0:0:0:
183,332,111205,1,0,0:0:0:0:
224,325,111263,1,0,0:0:0:0:
261,305,111321,6,0,B|283:282|283:282|327:268,1,60
377,259,111438,6,0,P|373:303|346:332,1,60,8|0,0:0|0:0,0:0:0:0:
388,251,111554,2,0,P|384:295|357:324,1,60,8|0,0:0|0:0,0:0:0:0:
399,243,111670,2,0,P|395:287|368:316,1,60,8|0,0:0|0:0,0:0:0:0:
410,235,111786,5,0,0:0:0:0:
418,194,111844,1,0,0:0:0:0:
398,158,111902,1,0,0:0:0:0:
360,143,111960,1,0,0:0:0:0:
321,156,112019,5,0,0:0:0:0:
281,168,112077,1,0,0:0:0:0:
243,153,112135,1,0,0:0:0:0:
224,117,112193,1,0,0:0:0:0:
232,77,112252,6,0,B|240:62|245:50|245:50|252:71|263:88,1,60
181,23,112368,2,0,B|173:38|168:50|168:50|161:29|150:12,1,60
99,67,112484,6,0,P|123:104|163:120,1,60
65,149,112600,2,0,P|88:167|101:194,1,60
122,249,112717,5,0,0:0:0:0:
174,275,112775,1,0,0:0:0:0:
230,258,112833,1,0,0:0:0:0:
259,207,112891,1,0,0:0:0:0:
245,150,112949,5,0,0:0:0:0:
246,108,113007,1,0,0:0:0:0:
271,75,113065,1,0,0:0:0:0:
310,63,113123,1,0,0:0:0:0:
350,75,113181,1,0,0:0:0:0:
375,107,113239,1,0,0:0:0:0:
378,149,113297,1,0,0:0:0:0:
356,184,113355,1,0,0:0:0:0:
336,221,113414,5,0,0:0:0:0:
320,246,113472,1,0,0:0:0:0:
317,276,113530,1,0,0:0:0:0:
326,304,113588,1,0,0:0:0:0:
346,326,113647,5,0,0:0:0:0:
357,340,113705,1,0,0:0:0:0:
372,349,113763,1,0,0:0:0:0:
390,351,113821,1,0,0:0:0:0:
407,344,113879,1,0,0:0:0:0:
419,332,113937,1,0,0:0:0:0:
426,315,113995,1,0,0:0:0:0:
424,297,114053,1,0,0:0:0:0:
415,282,114112,1,0,0:0:0:0:
406,267,114171,1,0,0:0:0:0:
404,249,114229,1,0,0:0:0:0:
410,232,114287,1,0,0:0:0:0:
423,220,114345,1,0,0:0:0:0:
440,213,114403,1,0,0:0:0:0:
457,215,114461,1,0,0:0:0:0:
473,224,114519,1,0,0:0:0:0:
495,155,114635,6,0,L|443:107,2,60
433,134,114868,2,0,L|395:74,2,60
378,97,115100,2,0,L|356:29,2,60
296,86,115275,6,0,L|280:182,1,71.9999978027344,8|0,0:0|0:0,0:0:0:0:
260,104,115391,6,0,L|244:191,1,60
171,148,115507,6,0,B|172:179|206:234|206:234|185:213|165:205,1,120
54,164,115740,2,0,B|53:133|19:78|19:78|40:99|60:107,1,120
185,127,115972,2,0,B|178:157|196:219|196:219|181:193|164:181,1,120
68,112,116205,2,0,B|75:82|56:20|56:20|71:46|88:59,1,120
101,61,116379,5,0,0:0:0:0:
133,76,116438,1,0,0:0:0:0:
168,86,116496,1,0,0:0:0:0:
203,92,116554,1,0,0:0:0:0:
239,93,116612,1,0,0:0:0:0:
275,89,116670,1,0,0:0:0:0:
310,81,116728,1,0,0:0:0:0:
343,67,116787,1,0,0:0:0:0:
375,50,116845,1,0,0:0:0:0:
403,28,116903,1,0,0:0:0:0:
470,111,117019,5,8,0:0:0:0:
470,111,117077,1,8,0:0:0:0:
414,277,117252,6,0,L|365:237,5,60
328,211,117600,5,0,0:0:0:0:
290,193,117658,1,0,0:0:0:0:
248,197,117716,1,0,0:0:0:0:
214,220,117774,1,0,0:0:0:0:
196,258,117832,1,0,0:0:0:0:
199,299,117890,1,0,0:0:0:0:
222,334,117948,1,0,0:0:0:0:
259,352,118007,1,0,0:0:0:0:
306,352,118065,5,0,0:0:0:0:
302,316,118123,1,0,0:0:0:0:
285,284,118181,1,0,0:0:0:0:
257,262,118239,1,0,0:0:0:0:
223,251,118297,1,0,0:0:0:0:
188,254,118355,1,0,0:0:0:0:
156,270,118413,1,0,0:0:0:0:
132,297,118471,1,0,0:0:0:0:
121,331,118532,5,0,0:0:0:0:
105,312,118590,1,0,0:0:0:0:
91,292,118648,1,0,0:0:0:0:
79,272,118706,1,0,0:0:0:0:
68,250,118764,1,0,0:0:0:0:
60,228,118822,1,0,0:0:0:0:
54,205,118879,6,0,P|43:166|39:134,1,60,8|0,0:0|0:0,0:0:0:0:
62,169,118996,2,0,P|51:130|47:98,1,60,8|0,0:0|0:0,0:0:0:0:
70,133,119112,2,0,P|59:94|55:62,1,60,8|0,0:0|0:0,0:0:0:0:
78,97,119228,5,0,0:0:0:0:
100,62,119286,1,0,0:0:0:0:
139,49,119344,1,0,0:0:0:0:
179,61,119402,1,0,0:0:0:0:
202,95,119461,5,0,0:0:0:0:
225,128,119519,1,0,0:0:0:0:
264,141,119577,1,0,0:0:0:0:
303,127,119635,1,0,0:0:0:0:
326,93,119693,5,0,0:0:0:0:
349,59,119751,1,0,0:0:0:0:
388,45,119809,1,0,0:0:0:0:
427,58,119868,1,0,0:0:0:0:
450,91,119926,5,0,0:0:0:0:
459,131,119984,1,0,0:0:0:0:
453,173,120042,1,0,0:0:0:0:
442,213,120100,1,0,0:0:0:0:
444,255,120159,5,0,0:0:0:0:
444,255,120236,2,0,L|385:319,1,80
324,345,120391,6,0,P|318:297|344:256,2,80
248,327,120624,6,0,L|203:280,3,60
132,312,120856,2,0,L|173:355,3,60
148,242,121089,6,0,L|137:195,4,30
68,204,121263,5,0,0:0:0:0:
68,204,121321,2,0,P|112:148|178:151,1,120
313,184,121554,2,0,P|357:189|322:168,1,120
216,62,121786,2,0,L|241:193,1,120
279,337,122019,6,0,P|314:305|275:326,1,120
385,282,122252,6,0,P|394:260|380:277,1,60
399,188,122368,6,0,P|395:162|392:186,1,66.0000020141602
365,99,122484,6,0,P|349:78|358:100,1,71.9999978027344
290,39,122600,6,0,P|263:27|284:44,1,77.9999964294435
195,24,122717,6,0,P|172:41|196:30,1,71.9999978027344
105,58,122833,6,0,P|93:84|110:63,1,66.0000020141602
50,141,122949,6,0,L|80:200,3,60
35,195,123182,6,0,L|79:244,1,60
34,251,123298,6,0,L|89:287,5,60
47,305,123647,6,0,L|78:315,6,30
153,326,123879,6,0,L|172:237,2,90
116,160,124112,5,8,0:0:0:0:
248,342,124228,1,8,0:0:0:0:
340,137,124345,1,0,0:0:0:0:
360,101,124403,1,0,0:0:0:0:
357,60,124461,1,0,0:0:0:0:
331,27,124519,1,0,0:0:0:0:
291,16,124577,1,0,0:0:0:0:
252,29,124635,1,0,0:0:0:0:
227,62,124693,1,0,0:0:0:0:
226,103,124751,1,0,0:0:0:0:
248,138,124810,6,0,B|249:173|249:173|225:217,3,60
149,219,125042,6,0,B|148:184|148:184|172:140,3,60
298,233,125275,6,0,B|274:258|274:258|226:272,3,60
99,124,125507,6,0,B|122:98|122:98|170:84,3,60
243,56,125740,6,0,P|288:61|334:56,6,80
195,59,126263,5,0,0:0:0:0:
151,79,126321,1,0,0:0:0:0:
117,113,126379,1,0,0:0:0:0:
96,156,126437,1,0,0:0:0:0:
91,203,126495,1,0,0:0:0:0:
102,249,126553,1,0,0:0:0:0:
129,289,126611,1,0,0:0:0:0:
167,318,126670,6,0,B|201:351|243:366|243:366|259:357|259:357|214:340,1,120
374,308,126903,2,0,B|340:275|298:260|298:260|282:269|282:269|327:286,1,120
177,186,127135,5,0,0:0:0:0:
360,112,127252,1,0,0:0:0:0:
248,239,127368,5,0,0:0:0:0:
289,59,127484,1,0,0:0:0:0:
241,266,127600,6,0,L|229:325,7,60
311,303,128065,6,0,B|331:253|331:253|320:257,1,60
401,240,128182,2,0,B|379:190|379:190|374:201,1,60
420,131,128298,2,0,B|370:110|370:110|374:121,1,60
356,41,128414,2,0,B|306:62|306:62|317:67,1,60
247,22,128531,6,0,P|221:44|165:77,3,60
169,79,128763,5,0,0:0:0:0:
140,100,128821,1,0,0:0:0:0:
111,121,128879,1,0,0:0:0:0:
81,142,128938,1,0,0:0:0:0:
52,163,128996,5,0,0:0:0:0:
86,151,129054,1,0,0:0:0:0:
121,139,129113,1,0,0:0:0:0:
155,126,129171,1,0,0:0:0:0:
188,113,129228,5,0,0:0:0:0:
159,134,129286,1,0,0:0:0:0:
130,155,129344,1,0,0:0:0:0:
99,176,129403,1,0,0:0:0:0:
69,196,129461,5,0,0:0:0:0:
93,229,129519,1,0,0:0:0:0:
131,246,129577,1,0,0:0:0:0:
173,244,129635,1,0,0:0:0:0:
208,222,129693,5,0,0:0:0:0:
243,200,129751,1,0,0:0:0:0:
284,197,129809,1,0,0:0:0:0:
322,215,129867,1,0,0:0:0:0:
347,248,129926,5,0,0:0:0:0:
372,281,129985,1,0,0:0:0:0:
410,299,130043,1,0,0:0:0:0:
451,296,130101,1,0,0:0:0:0:
486,274,130159,6,0,L|545:207,1,60
490,138,130275,2,0,L|463:191,1,60
419,116,130391,5,0,0:0:0:0:
419,116,130449,2,8,L|431:58,1,60
357,55,130546,6,0,B|319:77|319:77|278:128,1,80
202,81,130701,2,0,B|240:59|240:59|281:8,1,80
236,149,130856,6,0,L|249:229,1,60
211,196,130972,2,0,L|224:276,1,60
186,243,131089,2,0,L|199:323,2,60
90,219,131321,6,0,B|100:236|103:252|103:252|69:254|67:229,7,60
34,156,131786,6,0,B|119:116|119:116|94:115|76:111,1,120
230,49,132019,2,0,B|198:137|198:137|216:120|232:110,1,120
377,54,132252,6,0,P|441:75|434:180,1,180
450,221,132484,2,0,B|412:226|374:178|374:178|388:233,1,120
421,347,132717,5,0,0:0:0:0:
283,190,132833,1,0,0:0:0:0:
242,337,132949,5,0,0:0:0:0:
381,205,133065,1,0,0:0:0:0:
198,151,133182,6,0,B|154:152|102:112|102:112|108:127|91:136|91:136|59:117|74:171,1,180
75,208,133414,2,0,B|45:204|45:204|37:177|4:158|4:158|26:198,1,120
41,330,133647,5,8,0:0:0:0:
55,340,133705,1,8,0:0:0:0:
71,349,133763,1,8,0:0:0:0:
87,356,133821,1,8,0:0:0:0:
105,361,133879,1,8,0:0:0:0:
122,364,133937,1,8,0:0:0:0:
140,365,133995,1,8,0:0:0:0:
158,364,134053,1,8,0:0:0:0:
256,192,135972,12,0,137717,0:0:0:0:
221,180,137833,6,0,P|217:136|166:76,2,80
352,168,138065,2,0,P|356:212|407:272,2,80
296,85,138298,6,0,P|279:68|283:86,3,60
277,263,138531,2,0,P|293:279|290:262,3,60
132,157,138763,6,0,B|105:146|93:127|93:127|109:40|43:71|43:71|64:102,1,180
16,116,138996,6,0,B|15:147|26:166|26:166|1:180|14:206|14:206|30:212|62:218,1,120
147,258,139228,2,0,B|169:236|175:215|175:215|202:223|212:195|212:195|204:180|186:153,1,120
130,34,139461,5,0,0:0:0:0:
314,71,139577,1,0,0:0:0:0:
132,157,139693,5,0,0:0:0:0:
207,9,139810,1,0,0:0:0:0:
192,211,139926,5,0,0:0:0:0:
79,96,140042,1,0,0:0:0:0:
36,252,140159,5,0,0:0:0:0:
50,20,140275,1,0,0:0:0:0:
209,131,140391,5,0,0:0:0:0:
378,209,140507,1,0,0:0:0:0:
192,211,140624,1,0,0:0:0:0:
358,129,140740,1,0,0:0:0:0:
245,276,140856,1,0,0:0:0:0:
283,95,140972,1,0,0:0:0:0:
328,274,141089,6,0,B|341:303|341:303|376:317,7,60
396,247,141554,6,0,B|388:195|412:152|412:152|375:149|375:149|414:108|412:71|412:71|396:82|370:89,1,240
370,102,141845,5,0,0:0:0:0:
341,122,141903,1,0,0:0:0:0:
309,140,141961,1,0,0:0:0:0:
277,155,142019,1,0,0:0:0:0:
242,166,142077,1,0,0:0:0:0:
207,174,142135,1,0,0:0:0:0:
172,179,142193,1,0,0:0:0:0:
136,180,142252,6,0,B|113:173|77:192|77:192|67:147|32:137|32:137|34:173|77:191,1,180
60,222,142484,6,0,P|92:264|105:326,1,80
210,322,142639,2,0,P|178:280|165:218,1,80
250,252,142794,2,0,P|298:231|340:184,1,80
378,147,142949,6,0,L|399:211,1,60,8|0,0:0|0:0,0:0:0:0:
214,94,143182,6,0,L|195:36,3,60
126,89,143414,6,0,P|123:133|103:179,1,80
41,135,143569,2,0,P|37:174|46:213,1,80
115,237,143724,2,0,P|90:273|50:303,1,80
161,310,143879,6,0,L|211:352,1,60,8|0,0:0|0:0,0:0:0:0:
312,197,144112,5,0,0:0:0:0:
329,165,144170,1,0,0:0:0:0:
351,137,144228,1,0,0:0:0:0:
377,112,144286,1,0,0:0:0:0:
408,93,144345,6,0,P|445:73|486:63,2,80
344,40,144577,2,0,P|307:60|266:70,2,80
425,175,144810,6,0,L|423:244,3,60
382,275,145042,2,0,L|384:206,3,60
342,175,145275,6,0,B|319:211|254:206|272:184|205:153|183:171|183:171|254:206|239:246,1,240
269,272,145585,6,0,P|253:309|220:342,1,80
156,342,145740,5,0,0:0:0:0:
130,326,145798,1,0,0:0:0:0:
102,317,145856,1,0,0:0:0:0:
72,314,145914,1,0,0:0:0:0:
43,320,145972,1,0,0:0:0:0:
43,320,146205,6,0,L|-3:253,1,60
65,231,146321,2,0,L|42:157,1,60
124,133,146438,6,0,P|93:105|48:83,2,80
186,72,146670,5,0,0:0:0:0:
218,45,146728,1,0,0:0:0:0:
258,35,146786,1,0,0:0:0:0:
300,41,146844,1,0,0:0:0:0:
335,62,146903,5,0,0:0:0:0:
370,83,146961,1,0,0:0:0:0:
411,89,147019,1,0,0:0:0:0:
451,78,147077,1,0,0:0:0:0:
484,52,147135,6,0,B|493:40|512:33|512:33|516:55|487:109|487:109|485:126|498:149|498:149|497:171|499:193|499:193|486:176|464:161,1,240
442,158,147426,5,0,0:0:0:0:
413,163,147484,1,0,0:0:0:0:
389,181,147542,1,0,0:0:0:0:
376,208,147600,6,0,L|343:293,1,60
268,289,147716,2,0,L|289:233,1,60
301,186,147833,5,0,0:0:0:0:
297,138,147891,1,0,0:0:0:0:
265,104,147949,1,0,0:0:0:0:
219,97,148007,1,0,0:0:0:0:
178,120,148065,5,0,0:0:0:0:
145,138,148123,1,0,0:0:0:0:
108,134,148181,1,0,0:0:0:0:
82,105,148239,1,0,0:0:0:0:
80,67,148298,5,0,0:0:0:0:
61,91,148356,1,0,0:0:0:0:
49,118,148414,1,0,0:0:0:0:
42,147,148472,1,0,0:0:0:0:
42,176,148531,5,2,0:0:0:0:
42,176,148763,5,2,0:0:0:0:
42,176,148996,6,0,L|39:268,7,60
121,232,149461,6,0,B|131:257|163:281|163:281|181:313|181:313|181:279,1,120
287,127,149693,2,0,B|277:102|245:78|245:78|227:46|227:46|227:80,1,120
378,82,149926,6,0,P|374:220|438:317,1,240
348,329,150197,6,0,L|312:274,4,40
254,296,150391,2,0,L|267:231,5,40
210,206,150624,2,0,L|265:170,5,40
242,111,150856,6,0,P|171:128|73:228,1,180
68,234,151089,6,0,B|73:265|101:269|101:269|90:318|131:327|123:283,1,120
126,267,151264,5,0,0:0:0:0:
139,240,151322,1,0,0:0:0:0:
160,219,151380,1,0,0:0:0:0:
187,207,151438,1,0,0:0:0:0:
217,205,151496,1,0,0:0:0:0:
246,213,151554,1,0,0:0:0:0:
270,231,151612,1,0,0:0:0:0:
286,256,151671,1,0,0:0:0:0:
293,285,151729,1,0,0:0:0:0:
290,314,151786,6,0,P|244:277|310:296,1,180
384,285,152019,2,0,P|445:311|405:257,1,180
374,192,152252,6,0,P|329:184|379:172,1,135.000005149841
452,155,152484,2,0,P|496:162|446:174,1,135.000005149841
410,97,152717,5,4,0:0:0:0:
256,192,162949,12,0,163763,0:0:0:0:
300,200,163879,6,0,L|272:148,7,60
246,112,164345,5,0,0:0:0:0:
217,81,164403,1,0,0:0:0:0:
177,73,164461,1,0,0:0:0:0:
139,89,164519,1,0,0:0:0:0:
117,124,164577,1,0,0:0:0:0:
114,165,164635,1,0,0:0:0:0:
90,197,164693,1,0,0:0:0:0:
50,210,164751,1,0,0:0:0:0:
10,198,164810,6,0,B|-5:165|-5:165|-2:145|39:135,1,60,8|0,0:0|0:0,0:0:0:0:
42,121,164926,1,0,0:0:0:0:
82,110,164984,1,0,0:0:0:0:
124,114,165042,1,0,0:0:0:0:
161,132,165100,1,0,0:0:0:0:
189,163,165158,1,0,0:0:0:0:
204,202,165216,1,0,0:0:0:0:
204,244,165275,6,0,L|226:175,1,60,8|0,0:0|0:0,0:0:0:0:
238,148,165391,1,0,0:0:0:0:
266,117,165449,1,0,0:0:0:0:
303,97,165507,1,0,0:0:0:0:
344,90,165565,1,0,0:0:0:0:
385,82,165624,1,0,0:0:0:0:
421,62,165682,1,0,0:0:0:0:
450,32,165740,6,0,B|453:65|453:65|471:119,1,60,8|0,0:0|0:0,0:0:0:0:
487,123,165856,1,0,0:0:0:0:
504,161,165914,1,0,0:0:0:0:
511,203,165972,1,0,0:0:0:0:
509,245,166030,1,0,0:0:0:0:
497,285,166088,1,0,0:0:0:0:
476,321,166146,1,0,0:0:0:0:
448,352,166205,6,0,B|428:362|408:372|408:372|401:359|381:337,1,60,8|0,0:0|0:0,0:0:0:0:
373,327,166321,1,0,0:0:0:0:
348,293,166379,1,0,0:0:0:0:
308,283,166437,1,0,0:0:0:0:
271,300,166495,1,0,0:0:0:0:
233,315,166554,1,0,0:0:0:0:
193,305,166612,1,0,0:0:0:0:
169,272,166670,6,0,B|150:242|150:242|147:199,1,60,8|0,0:0|0:0,0:0:0:0:
145,175,166786,1,0,0:0:0:0:
141,133,166844,1,0,0:0:0:0:
137,91,166903,6,0,B|172:89|172:89|211:108,1,60,8|0,0:0|0:0,0:0:0:0:
232,117,167019,1,0,0:0:0:0:
271,134,167077,1,0,0:0:0:0:
310,151,167135,6,0,B|293:182|293:182|257:206,1,60,8|0,0:0|0:0,0:0:0:0:
294,264,167252,2,0,B|258:265|258:265|219:246,1,60,8|0,0:0|0:0,0:0:0:0:
188,306,167368,2,0,B|169:276|169:276|166:233,1,60,8|0,0:0|0:0,0:0:0:0:
188,306,167600,6,0,P|295:264|306:142,1,240,10|0,0:0|0:0,0:0:0:0:
350,121,167833,6,0,L|437:82,1,60,2|0,0:0|0:0,0:0:0:0:
398,48,167949,2,0,P|314:51|201:99,1,180,2|0,0:0|0:0,0:0:0:0:
203,95,168182,5,0,0:0:0:0:
182,106,168240,1,0,0:0:0:0:
166,124,168298,1,0,0:0:0:0:
148,148,168356,1,0,0:0:0:0:
140,176,168414,1,0,0:0:0:0:
143,217,168472,1,0,0:0:0:0:
165,267,168531,6,0,P|151:304|108:350,2,80
245,325,168763,6,0,L|303:270,3,60
383,292,168996,2,0,L|339:333,3,60
343,207,169228,6,0,B|394:173|404:117|404:117|419:180|457:205,1,180
488,135,169461,6,0,P|476:109|473:54,1,60,8|0,0:0|0:0,0:0:0:0:
443,47,169578,1,0,0:0:0:0:
405,29,169636,1,0,0:0:0:0:
363,28,169694,1,0,0:0:0:0:
325,44,169752,1,0,0:0:0:0:
296,74,169810,1,0,0:0:0:0:
281,113,169868,1,0,0:0:0:0:
284,155,169926,6,0,B|246:195|246:195|217:189,1,60,8|0,0:0|0:0,0:0:0:0:
199,188,170043,1,0,0:0:0:0:
208,228,170101,1,0,0:0:0:0:
197,268,170159,1,0,0:0:0:0:
169,299,170217,1,0,0:0:0:0:
130,313,170275,1,0,0:0:0:0:
88,308,170333,1,0,0:0:0:0:
54,284,170391,6,0,P|45:248|19:218,1,60,8|0,0:0|0:0,0:0:0:0:
4,199,170507,1,0,0:0:0:0:
44,210,170565,1,0,0:0:0:0:
83,225,170623,1,0,0:0:0:0:
120,245,170681,1,0,0:0:0:0:
154,269,170739,1,0,0:0:0:0:
186,297,170797,1,0,0:0:0:0:
214,328,170856,6,0,B|239:309|239:309|249:285|249:285|254:318,1,77.9999964294435,2|0,0:0|0:0,0:0:0:0:
357,250,170972,2,0,B|332:269|332:269|322:293|322:293|317:260,1,77.9999964294435,2|0,0:0|0:0,0:0:0:0:
293,186,171089,6,0,L|272:259,1,60
276,151,171205,2,0,L|255:224,1,60
223,103,171321,6,0,P|280:80|342:124,1,120
397,132,171476,6,0,B|412:98|390:61|390:61|415:67|434:67|434:67|437:91|447:109,1,160
476,172,171709,2,0,P|474:192|484:178,12,40
398,221,172252,6,0,L|350:289,1,60,8|0,0:0|0:0,0:0:0:0:
318,202,172368,1,8,0:0:0:0:
318,202,172407,6,0,B|352:169|356:116|317:142|317:142|331:102|323:71|323:71|291:84|273:133,1,240
212,169,172717,6,0,L|139:223,1,60
204,209,172833,2,0,L|131:263,1,60
130,270,172949,5,0,0:0:0:0:
96,279,173007,1,0,0:0:0:0:
62,271,173065,1,0,0:0:0:0:
36,247,173123,1,0,0:0:0:0:
25,213,173182,6,0,B|18:187|18:187|25:129,6,60
27,80,173589,2,0,B|53:86|53:86|100:121,2,60
168,42,173879,6,0,L|221:142,1,60
210,64,173996,2,0,L|235:174,1,60
244,96,174112,2,0,L|239:209,1,60
269,136,174228,2,0,L|235:244,1,60
282,180,174344,2,0,L|221:275,1,60
284,227,174461,2,0,L|201:304,1,60
274,273,174577,2,0,L|174:326,1,60
251,314,174693,2,0,L|140:339,2,60
