osu file format v14

[General]
AudioFilename: audio.mp3
AudioLeadIn: 0
PreviewTime: 62907
Countdown: 0
SampleSet: Soft
StackLeniency: 0.3
Mode: 0
LetterboxInBreaks: 0
WidescreenStoryboard: 1

[Editor]
Bookmarks: 5826,11015,13609,16204,19447,26582,31772,36961,41501,61447,68096,73285,78474,83664,84961,85934,88528,90150,92745,93069
DistanceSpacing: 0.5
BeatDivisor: 4
GridSize: 8
TimelineZoom: 2.599998

[Metadata]
Title:TSLove
TitleUnicode:TSLove
Artist:O2i3
ArtistUnicode:O2i3
Creator:Yugu
Version:Loooooooooove!!!!!!!
Source:
Tags:
BeatmapID:1267954
BeatmapSetID:599989

[Difficulty]
HPDrainRate:5
CircleSize:4
OverallDifficulty:8.2
ApproachRate:9.3
SliderMultiplier:1.8
SliderTickRate:1

[Events]
//Background and Video events
0,0,"61961575_p0_master1200.jpg",0,0
//Break Periods
//Storyboard Layer 0 (Background)
//Storyboard Layer 1 (Fail)
//Storyboard Layer 2 (Pass)
//Storyboard Layer 3 (Foreground)
//Storyboard Sound Samples

[TimingPoints]
637,324.324324324324,4,2,1,70,1,0
637,-200,4,2,1,70,0,0
1285,-100,4,2,1,70,0,0
3231,-200,4,2,1,70,0,0
6474,-100,4,2,1,70,0,0
8420,-200,4,2,1,70,0,0
10366,-100,4,2,1,70,0,0
11015,-100,4,2,1,70,0,0
11339,-66.6666666666667,4,2,1,70,0,0
11664,-100,4,2,1,70,0,0
12474,-50,4,2,1,70,0,0
12961,-100,4,2,1,70,0,0
13285,-66.6666666666667,4,2,1,70,0,0
13609,-100,4,2,1,70,0,0
13934,-66.6666666666667,4,2,1,70,0,0
14258,-100,4,2,1,70,0,0
15069,-50,4,2,1,70,0,0
15555,-100,4,2,1,70,0,0
15880,-66.6666666666667,4,2,1,70,0,0
20096,-1428.57142857143,4,2,1,70,0,0
21393,-66.6666666666667,4,2,1,85,0,1
23015,-200,4,2,1,85,0,1
24312,-66.6666666666667,4,2,1,85,0,1
26258,-50,4,2,1,85,0,1
26420,-50,4,2,1,5,0,1
26582,-66.6666666666667,4,2,1,85,0,1
28204,-200,4,2,1,85,0,1
29501,-66.6666666666667,4,2,1,85,0,1
29664,-100,4,2,1,85,0,1
31772,-66.6666666666667,4,2,1,85,0,1
33393,-200,4,2,1,85,0,1
34691,-66.6666666666667,4,2,1,85,0,1
36636,-50,4,2,1,85,0,1
36799,-50,4,2,1,5,0,1
36961,-66.6666666666667,4,2,1,85,0,1
38582,-200,4,2,1,85,0,1
39880,-66.6666666666667,4,2,1,85,0,1
40042,-100,4,2,1,85,0,1
40204,-66.6666666666667,4,2,1,85,0,1
41501,-100,4,2,1,85,0,0
42069,-100,4,2,1,5,0,0
42150,-133.333333333333,4,2,1,85,0,0
43772,-133.333333333333,4,2,1,50,0,0
52528,-100,4,2,1,70,0,0
53339,-100,4,2,1,70,0,0
53664,-83.3333333333333,4,2,1,70,0,0
53988,-66.6666666666667,4,2,1,70,0,0
54312,-133.333333333333,4,2,1,70,0,0
54636,-66.6666666666667,4,2,1,70,0,0
54880,-133.333333333333,4,2,1,70,0,0
55285,-100,4,2,1,70,0,0
55609,-66.6666666666667,4,2,1,70,0,0
55853,-100,4,2,1,70,0,0
56177,-66.6666666666667,4,2,1,70,0,0
56582,-100,4,2,1,70,0,0
56907,-66.6666666666667,4,2,1,70,0,0
57231,-100,4,2,1,70,0,0
57555,-66.6666666666667,4,2,1,70,0,0
60312,-100,4,2,1,70,0,0
61609,-50,4,2,1,70,0,0
62258,-100,4,2,1,70,0,0
62582,-50,4,2,1,70,0,0
62907,-66.6666666666667,4,2,1,85,0,1
67123,-62.5,4,2,1,85,0,1
67447,-66.6666666666667,4,2,1,85,0,1
68096,-66.6666666666667,4,2,1,85,0,1
72231,-66.6666666666667,4,2,1,5,0,1
72312,-66.6666666666667,4,2,1,85,0,1
72555,-66.6666666666667,4,2,1,5,0,1
72636,-66.6666666666667,4,2,1,85,0,1
74582,-83.3333333333333,4,2,1,85,0,1
75069,-66.6666666666667,4,2,1,85,0,1
77501,-71.4285714285714,4,2,1,85,0,1
77826,-66.6666666666667,4,2,1,85,0,1
80745,-50,4,2,1,85,0,1
81069,-66.6666666666667,4,2,1,85,0,1
82609,-66.6666666666667,4,2,1,5,0,1
82691,-66.6666666666667,4,2,1,85,0,1
82934,-66.6666666666667,4,2,1,5,0,1
83015,-66.6666666666667,4,2,1,85,0,1
83664,-66.6666666666667,4,2,1,85,0,0
85934,-133.333333333333,4,2,3,85,0,0
86258,-133.333333333333,4,2,2,85,0,0
86420,-133.333333333333,4,2,1,85,0,0
87880,-66.6666666666667,4,2,1,85,0,0
88528,-25,4,2,4,30,0,0
88609,-25,4,2,1,5,0,0
88691,-25,4,2,4,30,0,0
88772,-25,4,2,1,5,0,0
88853,-66.6666666666667,4,2,1,85,0,0
91123,-200,4,2,3,85,0,0
91447,-100,4,2,1,85,0,0
91772,-66.6666666666667,4,2,1,85,0,0
93069,-100,4,2,1,85,0,0
93393,-200,4,2,1,85,0,0
93555,-200,4,2,5,85,0,0

[Colours]
Combo1 : 107,221,254
Combo2 : 255,210,74
Combo3 : 175,95,95
Combo4 : 0,255,255

[HitObjects]
74,62,637,5,0,0:0:0:0:
250,97,799,1,0,0:0:0:0:
250,97,961,2,0,L|234:152,1,45,2|0,0:0|0:0,0:0:0:0:
250,202,1285,6,0,P|306:226|344:125,1,180,0|2,0:0|0:0,0:0:0:0:
250,97,1772,5,2,0:0:0:0:
353,138,1934,2,0,P|389:113|433:117,1,90,2|0,0:0|0:0,0:0:0:0:
483,301,2258,1,0,0:0:0:0:
508,124,2420,1,0,0:0:0:0:
508,124,2582,6,0,L|487:28,1,90,2|0,0:0|0:0,0:0:0:0:
409,49,2907,1,0,0:0:0:0:
409,49,3069,1,0,0:0:0:0:
332,73,3231,6,0,L|349:129,1,45,2|0,0:0|0:0,0:0:0:0:
397,144,3555,2,0,L|447:138,2,45,2|0|0,0:0|0:0|0:0,0:0:0:0:
321,193,4042,6,0,L|286:236,1,45,2|0,0:0|0:0,0:0:0:0:
332,73,4366,1,0,0:0:0:0:
251,33,4528,2,0,L|197:11,2,45,2|0|0,0:0|0:0|0:0,0:0:0:0:
251,123,5015,2,0,P|250:150|234:179,1,45,2|0,0:0|0:0,0:0:0:0:
161,126,5339,1,0,0:0:0:0:
251,33,5501,1,2,0:0:0:0:
251,33,5582,1,2,0:0:0:0:
251,33,5664,1,2,0:0:0:0:
314,221,5826,5,0,0:0:0:0:
172,331,5988,1,0,0:0:0:0:
172,331,6150,2,0,L|130:305,1,45,2|0,0:0|0:0,0:0:0:0:
107,249,6474,6,0,P|141:198|235:268,1,180,0|2,0:0|0:0,0:0:0:0:
172,331,6961,5,2,0:0:0:0:
233,238,7123,2,0,P|261:174|248:137,1,90,2|0,0:0|0:0,0:0:0:0:
172,52,7447,1,0,0:0:0:0:
38,173,7609,1,0,0:0:0:0:
38,173,7772,6,0,L|49:297,1,90,2|0,0:0|0:0,0:0:0:0:
102,332,8096,1,0,0:0:0:0:
102,332,8258,1,0,0:0:0:0:
156,260,8420,6,0,L|145:212,1,45,2|0,0:0|0:0,0:0:0:0:
38,173,8745,2,0,L|92:177,2,45,2|0|0,0:0|0:0|0:0,0:0:0:0:
171,51,9231,6,0,L|127:47,1,45,2|0,0:0|0:0,0:0:0:0:
158,140,9555,1,0,0:0:0:0:
307,92,9718,5,0,0:0:0:0:
307,92,9880,1,0,0:0:0:0:
307,92,10042,2,0,L|263:98,1,45,2|0,0:0|0:0,0:0:0:0:
253,174,10366,6,0,P|340:208|386:140,1,180,0|2,0:0|0:0,0:0:0:0:
382,59,10853,1,0,0:0:0:0:
455,93,11015,6,0,P|475:158|452:209,1,90,2|0,0:0|0:0,0:0:0:0:
253,174,11339,6,0,B|312:132|386:147|386:147|317:175,1,202.500007724762,0|2,0:0|0:0,0:0:0:0:
331,193,11664,1,2,0:0:0:0:
416,297,11826,5,0,0:0:0:0:
470,177,11988,1,2,0:0:0:0:
470,177,12150,1,0,0:0:0:0:
380,372,12312,5,2,0:0:0:0:
314,263,12474,2,0,B|267:184|305:128|305:128|326:189,1,180,2|0,0:0|0:0,0:0:0:0:
300,343,12799,1,0,0:0:0:0:
293,45,12961,6,0,B|255:48|223:97|199:164,1,135,2|0,0:0|0:0,0:0:0:0:
236,124,13285,6,0,B|171:94|130:100|130:100|194:140,1,135.000005149842,0|2,0:0|0:0,0:0:0:0:
34,160,13609,6,0,P|89:206|132:202,1,90,2|0,0:0|0:0,0:0:0:0:
151,113,13934,6,0,B|150:55|113:14|113:14|106:77|70:73,1,135.000005149842,0|2,0:0|0:0,0:0:0:0:
36,39,14258,1,2,0:0:0:0:
34,160,14420,5,0,0:0:0:0:
151,113,14582,1,2,0:0:0:0:
151,113,14745,1,0,0:0:0:0:
178,361,14907,5,2,0:0:0:0:
154,275,15069,2,0,P|88:235|0:302,1,180
85,324,15393,5,0,0:0:0:0:
178,361,15555,2,0,P|235:315|235:267,1,90,2|0,0:0|0:0,0:0:0:0:
225,226,15880,6,0,P|237:192|330:215,1,135.000005149842,0|2,0:0|0:0,0:0:0:0:
385,284,16204,6,0,L|386:364,1,67.5000025749208,2|0,0:0|0:0,0:0:0:0:
414,268,16366,2,0,L|448:339,1,67.5000025749208
431,239,16528,2,0,L|487:286,1,67.5000025749208,2|0,0:0|0:0,0:0:0:0:
433,205,16691,2,0,L|518:240,1,67.5000025749208
425,173,16853,6,0,L|351:215,1,67.5000025749208,2|0,0:0|0:0,0:0:0:0:
411,142,17015,2,0,L|344:213,1,67.5000025749208
385,120,17177,2,0,L|354:209,1,67.5000025749208,2|0,0:0|0:0,0:0:0:0:
351,114,17339,2,0,L|359:200,1,67.5000025749208
273,237,17501,6,0,L|274:150,1,67.5000025749208,2|0,0:0|0:0,0:0:0:0:
240,230,17664,2,0,L|274:146,1,67.5000025749208
211,211,17826,2,0,L|276:142,1,67.5000025749208,2|0,0:0|0:0,0:0:0:0:
193,182,17988,2,0,L|274:149,1,67.5000025749208
190,148,18150,6,0,L|121:205,1,67.5000025749208,2|0,0:0|0:0,0:0:0:0:
171,119,18312,2,0,L|118:209,1,67.5000025749208
140,103,18474,2,0,L|127:205,1,67.5000025749208,2|0,0:0|0:0,0:0:0:0:
106,103,18636,2,0,L|126:210,1,67.5000025749208
45,240,18799,5,2,0:0:0:0:
66,265,18880,1,0,0:0:0:0:
91,288,18961,1,2,0:0:0:0:
120,305,19042,1,0,0:0:0:0:
151,318,19123,1,2,0:0:0:0:
184,326,19204,1,0,0:0:0:0:
218,328,19285,1,2,0:0:0:0:
251,324,19366,1,0,0:0:0:0:
284,315,19447,6,0,L|283:266,1,33.7500012874604,2|0,0:0|0:0,0:0:0:0:
314,301,19528,2,0,L|284:255,1,33.7500012874604
342,282,19609,2,0,L|293:256,1,33.7500012874604,2|0,0:0|0:0,0:0:0:0:
367,259,19691,2,0,L|317:253,1,33.7500012874604
386,232,19772,2,0,L|328:246,1,33.7500012874604,2|0,0:0|0:0,0:0:0:0:
402,202,19853,2,0,L|344:233,1,33.7500012874604
413,170,19934,2,0,L|378:204,1,33.7500012874604,2|0,0:0|0:0,0:0:0:0:
418,136,20015,2,0,L|390:192,1,33.7500012874604
418,103,20096,6,0,L|417:50,1,54,2|0,0:0|0:0,0:0:0:0:
146,44,21393,6,0,B|85:114|105:172|105:172|119:118|152:106,1,202.500007724762,6|0,0:0|0:0,0:0:0:0:
163,106,21718,1,0,0:0:0:0:
331,132,21880,5,0,0:0:0:0:
360,95,21961,1,0,0:0:0:0:
414,156,22042,2,0,P|383:205|283:204,1,135.000005149842
105,171,22366,5,0,0:0:0:0:
120,126,22447,1,0,0:0:0:0:
163,106,22528,2,0,L|260:137,1,67.5000025749208
80,15,22691,6,0,P|21:60|5:130,1,135.000005149842,2|0,0:0|0:0,0:0:0:0:
105,171,22934,1,0,0:0:0:0:
105,171,23015,6,0,L|161:197,2,45,0|0|2,0:0|0:0|0:0,0:0:0:0:
288,167,23664,1,2,0:0:0:0:
288,167,23988,2,0,P|331:149|352:170,1,67.5,2|0,0:0|0:0,0:0:0:0:
353,204,24312,6,0,B|352:229|352:229|382:233|457:149|390:82|322:89,1,202.500007724762
360,61,24636,1,2,0:0:0:0:
489,102,24799,5,0,0:0:0:0:
486,149,24880,1,0,0:0:0:0:
480,195,24961,2,0,P|481:231|489:189,1,135.000005149842
360,61,25285,5,2,0:0:0:0:
266,240,25447,1,0,0:0:0:0:
310,224,25528,1,0,0:0:0:0:
232,158,25609,6,0,P|174:215|211:306,1,135.000005149842
364,342,25934,1,2,0:0:0:0:
480,195,26096,6,0,L|465:121,1,67.5000025749208,2|0,0:0|0:0,0:0:0:0:
461,218,26258,6,0,P|472:271|478:209,1,180,2|0,0:0|0:0,0:0:0:0:
360,61,26582,6,0,B|276:70|243:139|243:139|268:112|323:104,1,202.500007724762,2|0,0:0|0:0,0:0:0:0:
310,138,26907,1,0,0:0:0:0:
364,342,27069,1,0,0:0:0:0:
317,332,27150,1,0,0:0:0:0:
372,247,27231,6,0,P|438:276|445:374,1,135.000005149842,2|0,0:0|0:0,0:0:0:0:
176,263,27555,1,0,0:0:0:0:
189,217,27636,1,0,0:0:0:0:
167,174,27718,1,0,0:0:0:0:
208,150,27799,1,0,0:0:0:0:
225,106,27880,1,2,0:0:0:0:
344,52,28042,6,0,L|422:32,1,67.5000025749208
297,33,28204,6,0,P|271:20|236:22,2,45,0|0|2,0:0|0:0|0:0,0:0:0:0:
372,247,28853,1,0,0:0:0:0:
372,247,29177,6,0,P|423:268|423:269,1,67.5,2|0,0:0|0:0,0:0:0:0:
411,311,29501,5,0,0:0:0:0:
408,317,29582,1,0,0:0:0:0:
405,323,29664,2,0,L|370:379,1,45
250,327,29826,6,0,L|176:297,1,45,2|0,0:0|0:0,0:0:0:0:
167,229,29988,2,0,L|98:249,1,45
44,199,30150,2,0,L|72:145,1,45
138,107,30312,2,0,L|108:49,1,45
79,352,30474,5,2,0:0:0:0:
79,352,30799,1,2,0:0:0:0:
260,299,31123,5,2,0:0:0:0:
327,305,31285,1,2,0:0:0:0:
391,325,31447,1,2,0:0:0:0:
449,358,31609,1,2,0:0:0:0:
422,225,31772,6,0,B|435:164|435:164|429:104|429:104|465:136|465:136|468:186,1,202.500007724762,6|0,0:0|0:0,0:0:0:0:
483,197,32096,1,0,0:0:0:0:
356,167,32258,5,0,0:0:0:0:
351,120,32339,1,0,0:0:0:0:
422,225,32420,2,0,P|359:250|277:210,1,135.000005149842,2|0,0:0|0:0,0:0:0:0:
203,132,32745,5,0,0:0:0:0:
212,85,32826,1,0,0:0:0:0:
247,53,32907,2,0,L|328:51,1,67.5000025749208
150,24,33069,6,0,P|89:81|79:158,1,135.000005149842,2|0,0:0|0:0,0:0:0:0:
208,176,33312,1,0,0:0:0:0:
208,176,33393,6,0,L|201:120,2,45,0|0|2,0:0|0:0|0:0,0:0:0:0:
252,20,34042,1,0,0:0:0:0:
252,20,34366,6,0,P|268:77|266:78,1,67.5,2|0,0:0|0:0,0:0:0:0:
235,89,34691,6,0,B|236:134|236:134|266:155|266:155|316:155|316:155|339:129|339:129|349:109|349:109|343:86,1,202.500007724762
391,70,35015,1,2,0:0:0:0:
501,18,35177,5,0,0:0:0:0:
496,64,35258,1,0,0:0:0:0:
491,110,35339,2,0,P|474:138|500:109,1,135.000005149842
391,70,35664,5,2,0:0:0:0:
363,270,35826,1,0,0:0:0:0:
407,253,35907,1,0,0:0:0:0:
321,198,35988,6,0,P|282:272|297:318,1,135.000005149842
378,364,36312,5,2,0:0:0:0:
177,340,36474,2,0,L|97:348,1,67.5000025749208,2|0,0:0|0:0,0:0:0:0:
99,331,36636,6,0,P|53:306|110:321,1,180,2|0,0:0|0:0,0:0:0:0:
46,200,36961,6,0,B|30:146|55:68|55:68|55:117|97:136,1,202.500007724762,2|0,0:0|0:0,0:0:0:0:
111,90,37285,1,0,0:0:0:0:
267,67,37447,5,0,0:0:0:0:
313,77,37528,1,0,0:0:0:0:
237,143,37609,2,0,P|192:92|208:14,1,135.000005149842,2|0,0:0|0:0,0:0:0:0:
337,177,37934,1,0,0:0:0:0:
348,222,38015,1,0,0:0:0:0:
315,256,38096,1,0,0:0:0:0:
345,292,38177,1,0,0:0:0:0:
339,338,38258,1,2,0:0:0:0:
191,282,38420,6,0,L|94:286,1,67.5000025749208
223,349,38582,6,0,P|251:366|280:359,2,45,0|0|2,0:0|0:0|0:0,0:0:0:0:
337,177,39231,1,2,0:0:0:0:
337,177,39555,6,0,P|373:150|372:114,1,67.5,2|0,0:0|0:0,0:0:0:0:
353,88,39880,5,0,0:0:0:0:
347,84,39961,1,0,0:0:0:0:
341,80,40042,2,0,L|285:26,1,45,2|0,0:0|0:0,0:0:0:0:
196,91,40204,6,0,P|161:125|164:163,1,67.5000025749208,2|0,0:0|0:0,0:0:0:0:
73,34,40366,2,0,P|41:11|2:29,1,67.5000025749208
16,156,40528,2,0,P|34:199|82:210,1,67.5000025749208
182,204,40691,2,0,P|224:213|245:255,1,67.5000025749208
161,296,40853,5,2,0:0:0:0:
161,296,41177,1,2,0:0:0:0:
182,204,41501,6,0,L|184:190,8,11.25,2|0|0|0|0|0|0|0|0,0:0|0:0|0:0|0:0|0:0|0:0|0:0|0:0|0:0,0:0:0:0:
254,349,41826,2,0,B|296:382|329:309|372:380|423:354,1,135
419,300,42150,5,2,0:0:0:0:
256,192,42312,12,0,43772,0:0:0:0:
419,300,44096,6,0,P|378:268|378:229,1,67.5000025749208,2|0,0:0|0:0,0:0:0:0:
423,166,44420,2,0,P|452:180|467:210,1,67.5000025749208
374,255,44745,2,0,P|345:215|347:172,2,67.5000025749208,2|0|0,0:0|0:0|0:0,0:0:0:0:
423,166,45231,1,2,0:0:0:0:
433,157,45555,1,2,0:0:0:0:
443,148,45880,1,2,0:0:0:0:
453,139,46204,1,2,0:0:0:0:
427,68,48150,6,0,P|407:127|346:137,1,101.250003862381,2|0,0:0|0:0,0:0:0:0:
364,154,48474,2,0,P|359:249|404:283,1,135.000005149842,2|0,0:0|0:0,0:0:0:0:
483,259,48961,5,2,0:0:0:0:
439,350,49123,2,0,P|397:368|357:364,1,67.5000025749208,2|0,0:0|0:0,0:0:0:0:
288,317,49447,2,0,P|237:308|203:322,1,67.5000025749208,2|0,0:0|0:0,0:0:0:0:
130,353,49772,1,0,0:0:0:0:
123,337,49853,1,0,0:0:0:0:
117,321,49934,2,0,L|88:244,1,67.5000025749208,2|0,0:0|0:0,0:0:0:0:
155,178,50258,5,0,0:0:0:0:
146,156,50339,1,0,0:0:0:0:
137,134,50420,2,0,L|105:48,1,67.5000025749208,2|0,0:0|0:0,0:0:0:0:
203,23,50745,5,0,0:0:0:0:
216,53,50826,1,0,0:0:0:0:
229,83,50907,2,0,L|260:162,1,67.5000025749208,2|0,0:0|0:0,0:0:0:0:
256,192,51150,12,0,52204,0:0:0:0:
38,202,52528,6,0,B|93:240|93:240|75:202,1,90,2|0,0:0|0:0,0:0:0:0:
98,324,52772,1,0,0:0:0:0:
98,324,52853,2,0,P|54:344|18:323,1,90,2|0,0:0|0:0,0:0:0:0:
178,296,53177,5,0,0:0:0:0:
206,287,53258,1,0,0:0:0:0:
223,311,53339,6,0,P|266:323|295:289,1,90,2|2,0:0|0:0,0:0:0:0:
394,297,53582,1,0,0:0:0:0:
394,297,53664,6,0,B|374:373|374:373|394:349,1,107.999996704102,2|0,0:0|0:0,0:0:0:0:
464,355,53988,6,0,P|499:316|461:350,1,135.000005149842,2|0,0:0|0:0,0:0:0:0:
394,297,54312,6,0,B|357:301|357:301|422:266,1,101.250003862381,2|0,0:0|0:0,0:0:0:0:
405,248,54636,6,0,B|390:155|390:155|410:201,1,135.000005149842,2|0,0:0|0:0,0:0:0:0:
491,189,54880,6,0,L|482:245,1,33.7500012874604,2|0,0:0|0:0,0:0:0:0:
502,243,55042,1,2,0:0:0:0:
472,110,55285,6,0,L|453:21,1,90,2|0,0:0|0:0,0:0:0:0:
344,80,55609,6,0,B|315:123|315:123|406:83,1,135.000005149842,2|0,0:0|0:0,0:0:0:0:
239,41,55853,6,0,L|251:88,1,45,2|0,0:0|0:0,0:0:0:0:
209,41,56015,2,0,L|198:84,1,45,2|0,0:0|0:0,0:0:0:0:
118,92,56177,6,0,P|80:89|124:85,1,135.000005149842,2|0,0:0|0:0,0:0:0:0:
93,179,56420,5,0,0:0:0:0:
82,218,56501,1,2,0:0:0:0:
66,269,56582,2,0,L|34:372,1,90,2|0,0:0|0:0,0:0:0:0:
161,273,56907,6,0,B|203:224|180:176|180:176|181:229,1,135.000005149842
208,344,57231,6,0,L|329:344,1,90,2|0,0:0|0:0,0:0:0:0:
351,273,57555,6,0,B|363:187|363:187|378:245,1,135.000005149842,2|0,0:0|0:0,0:0:0:0:
456,361,57880,1,0,0:0:0:0:
490,230,58042,2,0,B|463:198|463:198|483:154|483:154|470:93,1,135.000005149842,2|0,0:0|0:0,0:0:0:0:
350,55,58366,6,0,P|328:45|356:77,1,135.000005149842,2|0,0:0|0:0,0:0:0:0:
227,31,58691,1,2,0:0:0:0:
250,163,58853,1,0,0:0:0:0:
473,110,59015,6,0,L|340:52,1,135.000005149842,2|0,0:0|0:0,0:0:0:0:
370,293,59339,2,0,L|512:217|512:217,1,135.000005149842,2|0,0:0|0:0,0:0:0:0:
250,163,59664,5,2,0:0:0:0:
251,294,59826,1,0,0:0:0:0:
370,293,59988,1,2,0:0:0:0:
370,160,60150,1,0,0:0:0:0:
227,31,60312,5,2,0:0:0:0:
213,29,60393,1,0,0:0:0:0:
195,29,60474,1,2,0:0:0:0:
178,35,60555,1,0,0:0:0:0:
161,49,60636,1,2,0:0:0:0:
149,68,60718,1,0,0:0:0:0:
146,94,60799,1,2,0:0:0:0:
153,124,60880,1,0,0:0:0:0:
178,149,60961,1,2,0:0:0:0:
218,154,61042,1,0,0:0:0:0:
261,142,61123,1,2,0:0:0:0:
299,119,61204,1,0,0:0:0:0:
343,110,61285,1,2,0:0:0:0:
386,120,61366,1,0,0:0:0:0:
422,145,61447,1,2,0:0:0:0:
486,273,61609,6,0,L|342:297,1,90
328,265,61772,2,0,L|450:248,1,90
422,145,61934,1,0,0:0:0:0:
425,118,62015,1,0,0:0:0:0:
420,91,62096,1,0,0:0:0:0:
409,66,62177,1,0,0:0:0:0:
390,45,62258,6,0,L|315:64,1,45
281,147,62420,2,0,L|353:164,1,45
209,81,62582,6,0,P|217:216|377:171,1,270
209,81,62907,6,0,P|111:98|97:150,1,135.000005149842,6|0,0:0|0:0,0:0:0:0:
281,147,63231,1,0,0:0:0:0:
328,265,63393,5,0,0:0:0:0:
336,283,63474,1,0,0:0:0:0:
344,301,63555,2,0,B|324:329|328:375|328:375|297:355|286:309,1,135.000005149842,2|0,0:0|0:0,0:0:0:0:
281,147,63880,5,0,0:0:0:0:
310,110,63961,1,0,0:0:0:0:
355,97,64042,1,0,0:0:0:0:
401,104,64123,1,0,0:0:0:0:
441,128,64204,2,0,L|441:209,1,67.5000025749208
321,249,64366,5,0,0:0:0:0:
243,246,64447,1,0,0:0:0:0:
186,192,64528,1,0,0:0:0:0:
182,179,64609,5,0,0:0:0:0:
178,165,64691,2,0,P|191:99|248:47,1,135.000005149842,0|2,0:0|0:0,0:0:0:0:
361,186,65177,1,0,0:0:0:0:
361,186,65501,5,2,0:0:0:0:
71,167,65826,2,0,P|63:103|104:38,1,135.000005149842
160,120,66069,1,0,0:0:0:0:
160,120,66150,2,0,L|161:201,2,67.5000025749208,2|0|0,0:0|0:0|0:0,0:0:0:0:
110,345,66474,1,0,0:0:0:0:
254,245,66636,5,0,0:0:0:0:
78,223,66799,2,0,L|3:213,1,67.5000025749208,2|0,0:0|0:0,0:0:0:0:
254,245,66961,1,0,0:0:0:0:
109,229,67123,6,0,P|72:214|10:244,1,72
286,250,67285,1,0,0:0:0:0:
386,261,67447,2,0,L|480:272,1,67.5000025749208,2|0,0:0|0:0,0:0:0:0:
454,269,67609,6,0,L|548:280,1,67.5000025749208,2|0,0:0|0:0,0:0:0:0:
427,237,67771,2,0,P|399:200|439:235,1,135.000005149842,2|0,0:0|0:0,0:0:0:0:
254,245,68096,6,0,P|188:217|106:243,1,135.000005149842,2|0,0:0|0:0,0:0:0:0:
176,352,68420,1,0,0:0:0:0:
254,245,68582,2,0,L|275:167,1,67.5000025749208
333,261,68745,2,0,B|315:364|315:364|302:332,1,135.000005149842,2|0,0:0|0:0,0:0:0:0:
271,179,69069,1,0,0:0:0:0:
312,156,69150,1,0,0:0:0:0:
359,157,69231,1,0,0:0:0:0:
399,181,69312,1,0,0:0:0:0:
419,223,69393,1,2,0:0:0:0:
157,352,69555,6,0,L|150:264,2,67.5000025749208
142,148,69880,1,0,0:0:0:0:
512,182,70042,2,0,P|479:236|417:223,1,135.000005149842,2|0,0:0|0:0,0:0:0:0:
293,156,70366,1,0,0:0:0:0:
293,156,70691,6,0,B|293:266|293:268|319:201,1,135.000005149842,2|0,0:0|0:0,0:0:0:0:
376,85,71015,1,0,0:0:0:0:
202,112,71177,1,0,0:0:0:0:
318,309,71339,2,0,L|355:373,2,67.5000025749208,2|0|0,0:0|0:0|0:0,0:0:0:0:
495,182,71664,2,0,L|395:182,2,67.5000025749208
293,156,71988,5,2,0:0:0:0:
384,254,72150,2,0,P|403:298|388:344,1,67.5000025749208
293,156,72312,5,2,0:0:0:0:
371,275,72474,2,0,P|382:321|359:364,1,67.5000025749208
293,156,72636,6,0,P|281:109|304:66,1,67.5000025749208,2|0,0:0|0:0,0:0:0:0:
297,129,72799,2,0,P|298:81|331:45,1,67.5000025749208,2|0,0:0|0:0,0:0:0:0:
314,108,72961,2,0,P|327:62|368:36,1,67.5000025749208,2|0,0:0|0:0,0:0:0:0:
337,94,73123,2,0,P|362:53|408:39,1,67.5000025749208,2|0,0:0|0:0,0:0:0:0:
359,218,73285,6,0,P|277:245|208:184,1,135.000005149842,6|0,0:0|0:0,0:0:0:0:
337,94,73609,1,0,0:0:0:0:
359,218,73772,5,0,0:0:0:0:
358,238,73853,1,0,0:0:0:0:
357,258,73934,2,0,B|358:307|325:338|325:338|334:304|307:274,1,135.000005149842,2|0,0:0|0:0,0:0:0:0:
206,220,74258,5,0,0:0:0:0:
161,204,74339,1,0,0:0:0:0:
113,208,74420,1,0,0:0:0:0:
74,235,74501,1,0,0:0:0:0:
52,277,74582,2,0,L|52:343,1,53.9999983520508
185,300,74745,5,0,0:0:0:0:
238,254,74826,1,0,0:0:0:0:
245,184,74907,1,0,0:0:0:0:
244,167,74988,5,0,0:0:0:0:
243,153,75069,2,0,B|231:58|231:58|207:104,1,135.000005149842,0|2,0:0|0:0,0:0:0:0:
445,299,75555,1,0,0:0:0:0:
445,299,75880,5,2,0:0:0:0:
487,114,76204,2,0,B|497:74|481:23|481:23|446:80,1,135.000005149842
424,58,76447,1,0,0:0:0:0:
424,58,76528,2,0,L|331:56,2,67.5000025749208,2|0|0,0:0|0:0|0:0,0:0:0:0:
220,48,76853,1,0,0:0:0:0:
347,204,77015,5,0,0:0:0:0:
453,120,77177,2,0,P|490:110|534:124,1,67.5000025749208,2|0,0:0|0:0,0:0:0:0:
347,204,77339,5,0,0:0:0:0:
453,120,77501,2,0,L|530:112,1,62.9999980773926
347,204,77664,5,0,0:0:0:0:
165,281,77826,6,0,L|52:288,1,67.5000025749208,2|0,0:0|0:0,0:0:0:0:
233,277,77988,6,0,L|120:284,1,67.5000025749208
263,256,78150,2,0,P|299:275|249:271,1,135.000005149842
54,182,78474,6,0,P|77:97|148:61,1,135.000005149842,2|0,0:0|0:0,0:0:0:0:
161,169,78799,1,0,0:0:0:0:
233,277,78961,2,0,L|216:355,1,67.5000025749208
305,259,79123,2,0,B|286:157|286:157|324:206,1,135.000005149842,2|0,0:0|0:0,0:0:0:0:
412,263,79447,1,0,0:0:0:0:
451,236,79528,1,0,0:0:0:0:
474,195,79609,1,0,0:0:0:0:
475,147,79691,1,0,0:0:0:0:
463,101,79772,1,2,0:0:0:0:
219,210,79934,6,0,L|233:277,2,67.5000025749208
54,182,80258,1,0,0:0:0:0:
233,75,80420,2,0,L|215:246,1,135.000005149842,2|0,0:0|0:0,0:0:0:0:
432,210,80745,6,0,L|435:149,4,45
449,76,81069,6,0,P|379:55|316:93,1,135.000005149842,2|0,0:0|0:0,0:0:0:0:
353,212,81393,1,0,0:0:0:0:
157,160,81555,1,0,0:0:0:0:
254,109,81718,2,0,L|250:187,2,67.5000025749208,2|0|0,0:0|0:0|0:0,0:0:0:0:
195,230,82042,2,0,L|205:324,2,67.5000025749208
291,325,82366,5,2,0:0:0:0:
353,212,82528,2,0,P|369:167|356:122,1,67.5000025749208
291,325,82691,5,2,0:0:0:0:
354,186,82853,2,0,P|358:138|334:98,1,67.5000025749208
291,325,83015,5,10,0:0:0:0:
252,351,83096,1,0,0:0:0:0:
204,349,83177,1,0,0:0:0:0:
165,321,83258,1,8,0:0:0:0:
144,228,83339,5,10,0:0:0:0:
102,206,83420,1,0,0:0:0:0:
55,215,83501,1,8,0:0:0:0:
19,137,83664,5,2,0:0:0:0:
21,123,83745,1,0,0:0:0:0:
24,109,83826,1,0,0:0:0:0:
27,95,83907,1,0,0:0:0:0:
30,81,83988,2,0,L|45:10,2,67.5000025749208,2|0|0,0:0|0:0|0:0,0:0:0:0:
123,93,84312,5,2,0:0:0:0:
163,117,84393,1,0,0:0:0:0:
209,123,84474,1,2,0:0:0:0:
255,117,84555,1,0,0:0:0:0:
300,76,84636,5,2,0:0:0:0:
355,49,84718,1,0,0:0:0:0:
414,62,84799,1,2,0:0:0:0:
461,99,84880,1,0,0:0:0:0:
482,155,84961,1,2,0:0:0:0:
479,289,85123,5,0,0:0:0:0:
479,295,85204,1,2,0:0:0:0:
479,301,85285,1,0,0:0:0:0:
479,307,85366,1,2,0:0:0:0:
479,313,85447,1,2,0:0:0:0:
479,319,85528,1,2,0:0:0:0:
479,325,85609,1,2,0:0:0:0:
479,331,85691,1,2,0:0:0:0:
479,337,85772,1,2,0:0:0:0:
479,343,85853,1,0,0:0:0:0:
479,349,85934,5,0,0:0:0:0:
401,211,86258,6,2,L|377:126,1,67.5000025749208,10|2,0:0|0:0,0:0:0:0:
374,113,86501,1,0,0:0:0:0:
351,88,86582,1,0,0:0:0:0:
319,75,86664,1,0,0:0:0:0:
285,78,86745,1,0,0:0:0:0:
260,101,86826,1,0,0:0:0:0:
262,141,86907,5,2,0:0:0:0:
225,158,86988,1,0,0:0:0:0:
185,148,87069,1,0,0:0:0:0:
154,121,87150,1,0,0:0:0:0:
115,109,87231,1,0,0:0:0:0:
75,116,87312,1,0,0:0:0:0:
50,147,87393,1,0,0:0:0:0:
45,187,87474,1,0,0:0:0:0:
62,223,87555,6,0,L|94:269,1,33.7500012874604,2|0,0:0|0:0,0:0:0:0:
152,258,87718,2,0,L|135:311,1,33.7500012874604,2|0,0:0|0:0,0:0:0:0:
70,345,87880,5,2,0:0:0:0:
86,356,87961,1,0,0:0:0:0:
103,366,88042,1,2,0:0:0:0:
123,367,88123,1,0,0:0:0:0:
142,362,88204,1,2,0:0:0:0:
160,353,88285,1,0,0:0:0:0:
173,337,88366,1,2,0:0:0:0:
185,157,88528,6,0,P|174:113|201:162,1,180,2|0,0:0|0:0,0:0:0:0:
185,139,88691,2,0,P|174:95|201:144,1,180,2|0,0:0|0:0,0:0:0:0:
253,234,88853,5,2,0:0:0:0:
324,348,89015,1,0,0:0:0:0:
428,321,89177,5,2,0:0:0:0:
437,295,89258,1,0,0:0:0:0:
426,270,89339,1,2,0:0:0:0:
433,244,89420,1,0,0:0:0:0:
423,218,89501,1,2,0:0:0:0:
432,192,89582,1,0,0:0:0:0:
422,166,89664,1,2,0:0:0:0:
431,140,89745,1,0,0:0:0:0:
417,116,89826,1,2,0:0:0:0:
429,92,89907,1,0,0:0:0:0:
412,70,89988,1,2,0:0:0:0:
423,45,90069,1,0,0:0:0:0:
400,29,90150,6,0,P|333:29|301:105,1,135.000005149842,2|0,0:0|0:0,0:0:0:0:
277,198,90474,1,0,0:0:0:0:
246,212,90555,1,0,0:0:0:0:
212,208,90636,1,0,0:0:0:0:
183,189,90718,1,0,0:0:0:0:
171,157,90799,2,2,B|187:62|187:62|212:122,1,135.000005149842
286,297,91123,6,0,L|283:374,1,67.5,6|0,0:0|0:0,0:0:0:0:
373,352,91447,1,2,0:0:0:0:
413,213,91609,1,2,0:0:0:0:
277,198,91772,5,2,0:0:0:0:
229,198,91853,1,0,0:0:0:0:
181,198,91934,1,0,0:0:0:0:
133,198,92015,1,0,0:0:0:0:
85,198,92096,2,0,L|1:198,2,67.5000025749208,2|0|2,0:0|0:0|0:0,0:0:0:0:
115,308,92420,5,2,0:0:0:0:
123,318,92501,1,0,0:0:0:0:
135,323,92582,1,0,0:0:0:0:
148,322,92664,1,0,0:0:0:0:
159,314,92745,2,2,L|212:268,3,67.5000025749208
285,266,93069,6,2,L|333:222,3,45
393,221,93393,6,2,L|423:196,4,22.5,6|2|2|2|0,0:0|0:0|0:0|0:0|0:0,0:0:0:0:
