osu file format v14

[General]
AudioFilename: audio.mp3
AudioLeadIn: 0
PreviewTime: 62907
Countdown: 0
SampleSet: Soft
StackLeniency: 0.5
Mode: 0
LetterboxInBreaks: 0
WidescreenStoryboard: 1

[Editor]
Bookmarks: 5826,11015,13609,16204,19447,26582,31772,36961,41501,61447,68096,73285,78474,83664,84961,85934,88528,90150,92745,93069
DistanceSpacing: 1
BeatDivisor: 4
GridSize: 32
TimelineZoom: 2.099999

[Metadata]
Title:TSLove
TitleUnicode:TSLove
Artist:O2i3
ArtistUnicode:O2i3
Creator:Yugu
Version:Hard
Source:
Tags:
BeatmapID:1272529
BeatmapSetID:599989

[Difficulty]
HPDrainRate:5.5
CircleSize:4
OverallDifficulty:7
ApproachRate:8
SliderMultiplier:1
SliderTickRate:1

[Events]
//Background and Video events
0,0,"61961575_p0_master1200.jpg",0,0
//Break Periods
//Storyboard Layer 0 (Background)
//Storyboard Layer 1 (Fail)
//Storyboard Layer 2 (Pass)
//Storyboard Layer 3 (Foreground)
//Storyboard Sound Samples

[TimingPoints]
637,324.324324324324,4,2,1,70,1,0
637,-200,4,2,1,70,0,0
11015,-100,4,2,1,70,0,0
16204,-83.3333333333333,4,2,1,70,0,0
21393,-83.3333333333333,4,2,1,85,0,1
42150,-133.333333333333,4,2,1,50,0,0
52528,-100,4,2,1,70,0,0
53664,-133.333333333333,4,2,1,70,0,0
53988,-66.6666666666667,4,2,1,70,0,0
54799,-100,4,2,1,70,0,0
60312,-50,4,2,1,70,0,0
62907,-66.6666666666667,4,2,1,85,0,1
83664,-66.6666666666667,4,2,1,70,0,0
85934,-66.6666666666667,4,2,2,70,0,0
86258,-66.6666666666667,4,2,1,70,0,0
88528,-50,4,2,4,70,0,0
88853,-66.6666666666667,4,2,1,70,0,0
91123,-133.333333333333,4,2,3,70,0,0
91447,-66.6666666666667,4,2,1,70,0,0
92745,-83.3333333333333,4,2,1,70,0,0
93069,-133.333333333333,4,2,1,70,0,0
93393,-200,4,2,1,70,0,0
93718,-200,4,2,5,70,0,0

[Colours]
Combo1 : 107,221,254
Combo2 : 255,210,74
Combo3 : 175,95,95
Combo4 : 0,255,255

[HitObjects]
66,58,637,6,0,L|77:115,1,50,8|0,0:0|0:0,0:0:0:0:
120,196,1285,2,0,L|105:253,1,50,8|0,0:0|0:0,0:0:0:0:
55,330,1934,1,8,0:0:0:0:
153,313,2258,2,0,L|212:318,2,50,0|8|0,0:0|0:0|0:0,0:0:0:0:
222,240,3231,6,0,L|218:184,1,50,8|0,0:0|0:0,0:0:0:0:
185,95,3880,2,0,L|203:37,1,50,8|0,0:0|0:0,0:0:0:0:
292,83,4528,1,8,0:0:0:0:
389,58,4853,2,0,L|447:54,2,50,0|8|0,0:0|0:0|0:0,0:0:0:0:
432,148,5826,6,0,L|452:197,1,50,8|0,0:0|0:0,0:0:0:0:
428,291,6474,2,0,L|477:275,1,50,8|0,0:0|0:0,0:0:0:0:
456,373,7123,1,8,0:0:0:0:
356,369,7447,2,0,L|297:366,2,50,0|8|0,0:0|0:0|0:0,0:0:0:0:
326,273,8420,6,0,L|276:272,1,50,8|0,0:0|0:0,0:0:0:0:
210,347,9069,2,0,L|156:348,1,50,8|0,0:0|0:0,0:0:0:0:
173,248,9718,1,8,0:0:0:0:
78,279,10042,2,0,P|74:248|83:224,2,50,0|8|0,0:0|0:0|0:0,0:0:0:0:
173,248,11015,5,2,0:0:0:0:
199,151,11339,6,0,P|162:117|104:117,1,100,2|0,0:0|0:0,0:0:0:0:
134,186,11826,1,2,0:0:0:0:
173,248,11988,2,0,L|166:311,1,50,2|0,0:0|0:0,0:0:0:0:
236,327,12312,6,2,L|248:224,1,100
297,170,12799,1,0,0:0:0:0:
371,170,12961,2,0,L|438:169,2,50,0|2|2,0:0|0:0|0:0,0:0:0:0:
413,313,13609,6,2,P|463:325|490:282,1,100
485,215,14096,1,0,0:0:0:0:
443,152,14258,2,0,L|457:89,1,50,0|2,0:0|0:0,0:0:0:0:
459,66,14501,1,0,0:0:0:0:
445,31,14582,1,2,0:0:0:0:
302,78,14907,6,0,B|223:66|223:66|256:54,1,100,2|0,0:0|0:0,0:0:0:0:
350,162,15555,2,0,B|330:242|330:242|321:216,1,100,2|0,0:0|0:0,0:0:0:0:
119,136,16204,6,0,P|178:128|237:142,1,119.999996337891,2|0,0:0|0:0,0:0:0:0:
174,207,16691,1,2,0:0:0:0:
133,288,16853,6,0,L|97:342,1,59.9999981689454,8|0,0:0|0:0,0:0:0:0:
49,255,17177,2,0,L|84:206,1,59.9999981689454,8|0,0:0|0:0,0:0:0:0:
174,207,17501,6,0,P|239:194|269:136,1,119.999996337891,2|0,0:0|0:0,0:0:0:0:
183,116,17988,1,2,0:0:0:0:
101,77,18150,6,0,L|35:45,1,59.9999981689454,8|0,0:0|0:0,0:0:0:0:
32,139,18474,2,0,L|94:169,1,59.9999981689454,8|0,0:0|0:0,0:0:0:0:
256,192,18799,12,0,19772,0:0:0:0:
256,192,19853,12,2,21393,0:0:0:0:
97,278,21718,6,0,L|92:327,2,29.9999990844727
162,325,22042,2,0,L|158:384,1,59.9999981689454,2|0,0:0|0:0,0:0:0:0:
225,285,22366,2,0,L|229:233,3,29.9999990844727
301,298,22691,2,0,L|430:319,1,119.999996337891,2|0,0:0|0:0,0:0:0:0:
478,218,23339,6,0,P|496:155|472:97,1,119.999996337891,2|0,0:0|0:0,0:0:0:0:
376,42,23988,5,2,0:0:0:0:
258,64,24312,2,0,L|210:71,2,29.9999990844727
311,128,24636,6,0,L|327:188,1,59.9999981689454,2|0,0:0|0:0,0:0:0:0:
426,210,24961,2,0,L|410:150,1,59.9999981689454,2|0,0:0|0:0,0:0:0:0:
486,105,25285,2,0,P|442:67|383:65,1,119.999996337891,2|0,0:0|0:0,0:0:0:0:
411,212,25934,6,0,L|410:153,1,59.9999981689454,2|0,0:0|0:0,0:0:0:0:
411,302,26258,1,0,0:0:0:0:
236,350,26582,6,0,L|103:350,1,119.999996337891,2|0,0:0|0:0,0:0:0:0:
43,295,27069,1,0,0:0:0:0:
43,295,27231,2,0,L|44:217,1,59.9999981689454,2|0,0:0|0:0,0:0:0:0:
125,198,27555,6,0,L|127:254,2,29.9999990844727
126,107,27880,1,2,0:0:0:0:
196,51,28042,1,0,0:0:0:0:
265,107,28204,2,0,L|264:231,1,119.999996337891,0|2,0:0|0:0,0:0:0:0:
396,349,28853,1,0,0:0:0:0:
471,185,29177,6,0,L|471:51,1,119.999996337891,2|0,0:0|0:0,0:0:0:0:
389,25,29664,1,0,0:0:0:0:
320,83,29826,2,0,P|353:111|384:117,1,59.9999981689454,2|0,0:0|0:0,0:0:0:0:
398,194,30150,2,0,P|357:198|325:189,1,59.9999981689454
350,292,30474,6,0,L|351:336,2,29.9999990844727,10|0|0,0:0|0:0|0:0,0:0:0:0:
282,352,30799,2,0,L|281:308,2,29.9999990844727,8|0|0,0:0|0:0|0:0,0:0:0:0:
192,355,31123,6,0,L|190:304,1,29.9999990844727,10|0,0:0|0:0,0:0:0:0:
147,356,31286,2,0,L|145:305,1,29.9999990844727,10|0,0:0|0:0,0:0:0:0:
102,357,31448,2,0,L|100:306,1,29.9999990844727,10|0,0:0|0:0,0:0:0:0:
57,359,31610,2,0,L|55:308,1,29.9999990844727,10|0,0:0|0:0,0:0:0:0:
54,284,31772,1,2,0:0:0:0:
77,105,32096,6,0,L|79:58,2,29.9999990844727
160,138,32420,2,0,L|154:208,1,59.9999981689454,2|0,0:0|0:0,0:0:0:0:
229,81,32745,2,0,L|227:24,3,29.9999990844727
321,83,33069,2,0,L|448:74,1,119.999996337891,2|0,0:0|0:0,0:0:0:0:
481,161,33718,6,0,P|497:229|485:280,1,119.999996337891,2|0,0:0|0:0,0:0:0:0:
386,343,34366,5,2,0:0:0:0:
265,338,34691,2,0,L|210:337,2,29.9999990844727
331,251,35015,6,0,L|403:251,1,59.9999981689454,2|0,0:0|0:0,0:0:0:0:
245,203,35339,2,0,L|165:202,1,59.9999981689454
321,138,35664,6,0,P|343:206|318:273,1,119.999996337891,2|0,0:0|0:0,0:0:0:0:
185,202,36312,6,0,L|245:203,1,59.9999981689454,2|0,0:0|0:0,0:0:0:0:
95,202,36636,1,0,0:0:0:0:
215,67,36961,6,0,L|340:45,1,119.999996337891,2|0,0:0|0:0,0:0:0:0:
418,75,37447,1,0,0:0:0:0:
418,75,37609,2,0,L|418:155,1,59.9999981689454,2|0,0:0|0:0,0:0:0:0:
342,184,37934,6,0,L|341:147,2,29.9999990844727
343,273,38258,1,2,0:0:0:0:
408,334,38420,1,0,0:0:0:0:
478,278,38582,2,0,L|478:147,1,119.999996337891,0|2,0:0|0:0,0:0:0:0:
333,46,39231,1,0,0:0:0:0:
153,30,39555,6,0,P|134:94|163:160,1,119.999996337891,2|0,0:0|0:0,0:0:0:0:
222,196,40042,1,0,0:0:0:0:
314,177,40204,2,0,P|305:149|283:130,1,59.9999981689454,2|0,0:0|0:0,0:0:0:0:
210,76,40528,2,0,P|251:46|286:45,1,59.9999981689454
343,77,40853,2,0,L|380:94,2,29.9999990844727,10|0|0,0:0|0:0|0:0,0:0:0:0:
425,41,41177,2,0,L|462:22,2,29.9999990844727,8|0|0,0:0|0:0|0:0,0:0:0:0:
462,122,41501,5,2,0:0:0:0:
462,122,41664,1,2,0:0:0:0:
395,182,41826,2,2,P|385:227|406:184,1,119.999996337891,2|6,0:0|0:0,0:0:0:0:
395,182,44096,6,0,L|395:229,1,37.5000014305115,2|0,0:0|0:0,0:0:0:0:
472,257,44420,2,0,L|472:220,1,37.5000014305115,2|0,0:0|0:0,0:0:0:0:
471,144,44745,2,0,L|471:63,1,75.0000028610231,2|0,0:0|0:0,0:0:0:0:
403,35,45231,1,8,0:0:0:0:
403,35,45555,1,8,0:0:0:0:
403,35,45880,1,8,0:0:0:0:
403,35,46204,1,12,0:0:0:0:
256,48,48150,6,0,L|256:96,1,37.5000014305115,2|0,0:0|0:0,0:0:0:0:
308,139,48474,2,2,P|357:158|411:137,1,112.500004291535
358,84,49123,1,2,0:0:0:0:
358,84,49285,2,0,L|358:29,1,37.5000014305115,2|0,0:0|0:0,0:0:0:0:
423,9,49609,1,2,0:0:0:0:
488,136,49934,6,0,P|480:182|463:198,1,56.2500021457673,2|0,0:0|0:0,0:0:0:0:
446,209,50258,2,2,L|459:284,1,75.0000028610231
414,343,50745,6,2,P|387:312|383:268,1,75.0000028610231
256,192,51231,12,0,52204,0:0:0:0:
470,355,52528,6,0,L|408:346,1,50,2|0,0:0|0:0,0:0:0:0:
326,331,52853,2,0,L|236:347,1,75,2|0,0:0|0:0,0:0:0:0:
117,299,53339,2,2,P|108:262|117:232,1,50
155,191,53664,6,2,P|198:182|237:192,1,75.0000028610231
367,134,54312,6,0,L|416:134,1,37.5000014305115,2|0,0:0|0:0,0:0:0:0:
333,109,54474,2,0,P|312:71|327:29,1,75.0000028610231,0|2,0:0|0:0,0:0:0:0:
298,190,54799,6,2,L|294:257,1,50
473,328,55285,5,2,0:0:0:0:
274,346,55609,1,2,0:0:0:0:
125,322,55853,2,2,L|129:285,1,25
131,247,56015,1,0,0:0:0:0:
152,151,56177,1,0,0:0:0:0:
152,151,56258,6,0,P|114:131|69:138,1,75,2|0,0:0|0:0,0:0:0:0:
131,247,56582,2,2,P|177:244|236:200,1,100
358,105,57150,1,0,0:0:0:0:
358,105,57231,2,2,P|405:88|457:105,1,100
406,191,57718,6,0,L|406:233,2,25,8|0|0,0:0|0:0|0:0,0:0:0:0:
477,214,58042,2,0,L|477:256,2,25,8|0|0,0:0|0:0|0:0,0:0:0:0:
422,297,58366,6,0,L|380:297,2,25,8|0|0,0:0|0:0|0:0,0:0:0:0:
390,365,58691,2,0,L|348:365,2,25,8|0|0,0:0|0:0|0:0,0:0:0:0:
265,365,59015,6,0,L|307:365,2,25,8|0|0,0:0|0:0|0:0,0:0:0:0:
232,297,59339,2,0,L|274:297,2,25,8|0|0,0:0|0:0|0:0,0:0:0:0:
268,230,59664,2,8,P|302:188|296:126,1,100
221,163,60312,6,0,L|179:143,28,25,8|0|0|0|8|0|0|0|8|0|0|0|8|0|0|0|8|0|0|0|8|0|0|0|8|0|0|0|8,0:0|0:0|0:0|0:0|0:0|0:0|0:0|0:0|0:0|0:0|0:0|0:0|0:0|0:0|0:0|0:0|0:0|0:0|0:0|0:0|0:0|0:0|0:0|0:0|0:0|0:0|0:0|0:0|0:0,0:0:0:0:
221,163,62907,5,6,0:0:0:0:
89,91,63231,2,0,L|50:68,2,37.5000014305115
82,165,63555,2,0,L|79:248,1,75.0000028610231,2|0,0:0|0:0,0:0:0:0:
195,319,63880,6,0,L|194:362,3,37.5000014305115
254,278,64204,2,0,P|264:231|254:195,1,75.0000028610231,2|0,0:0|0:0,0:0:0:0:
301,143,64528,1,0,0:0:0:0:
373,37,64691,2,0,P|363:84|373:120,1,75.0000028610231,0|2,0:0|0:0,0:0:0:0:
476,101,65177,5,10,0:0:0:0:
476,101,65501,5,2,0:0:0:0:
329,68,65826,1,0,0:0:0:0:
292,60,65907,1,0,0:0:0:0:
255,52,65988,1,0,0:0:0:0:
297,148,66150,6,0,P|350:153|381:140,1,75.0000028610231,2|0,0:0|0:0,0:0:0:0:
476,101,66474,2,0,P|494:155|470:198,1,75.0000028610231
424,252,66799,5,2,0:0:0:0:
478,354,66961,2,0,L|516:358,2,37.5000014305115
375,307,67285,1,0,0:0:0:0:
277,251,67447,2,0,P|297:167|384:144,1,150.000005722046,2|0,0:0|0:0,0:0:0:0:
358,223,68096,5,14,0:0:0:0:
265,341,68420,2,0,L|217:348,2,37.5000014305115
173,275,68745,5,2,0:0:0:0:
173,275,68907,1,0,0:0:0:0:
173,275,69069,2,0,P|137:309|130:353,1,75.0000028610231
43,260,69393,2,0,L|43:164,1,75.0000028610231,2|0,0:0|0:0,0:0:0:0:
90,82,69718,1,0,0:0:0:0:
191,130,69880,1,0,0:0:0:0:
146,233,70042,1,2,0:0:0:0:
146,233,70366,5,0,0:0:0:0:
339,347,70691,2,0,P|382:301|382:237,1,112.500004291535,2|0,0:0|0:0,0:0:0:0:
424,211,71015,2,0,L|507:210,1,75.0000028610231
426,124,71339,5,2,0:0:0:0:
318,92,71501,1,0,0:0:0:0:
407,160,71664,1,0,0:0:0:0:
345,65,71826,1,0,0:0:0:0:
369,174,71988,6,0,P|373:219|357:253,1,75.0000028610231,2|0,0:0|0:0,0:0:0:0:
243,260,72312,2,0,P|244:223|263:191,1,75.0000028610231
308,293,72636,6,2,L|301:377,1,75.0000028610231
415,364,72961,2,2,L|408:280,1,75.0000028610231
308,293,73285,5,6,0:0:0:0:
130,144,73609,2,0,L|136:90,2,37.5000014305115
206,61,73934,2,0,L|217:152,1,75.0000028610231,2|0,0:0|0:0,0:0:0:0:
276,182,74258,2,0,L|274:220,3,37.5000014305115
355,160,74582,6,2,P|357:107|327:64,1,75.0000028610231,0|2,0:0|0:0,0:0:0:0:
422,72,74907,1,0,0:0:0:0:
473,126,75069,2,0,L|466:209,1,75.0000028610231,0|2,0:0|0:0,0:0:0:0:
488,349,75555,1,0,0:0:0:0:
488,349,75880,5,2,0:0:0:0:
338,337,76204,1,0,0:0:0:0:
300,337,76285,1,0,0:0:0:0:
262,338,76366,1,0,0:0:0:0:
151,358,76528,2,0,L|48:335,1,75.0000028610231,2|0,0:0|0:0,0:0:0:0:
29,239,76853,2,0,P|33:180|62:140,1,75.0000028610231
123,214,77177,5,2,0:0:0:0:
163,100,77339,2,0,L|176:55,2,37.5000014305115
197,207,77664,1,0,0:0:0:0:
237,312,77826,2,2,P|171:366|99:353,1,150.000005722046
155,278,78474,5,2,0:0:0:0:
283,200,78799,2,0,L|336:211,2,37.5000014305115
316,294,79123,5,2,0:0:0:0:
316,294,79285,1,0,0:0:0:0:
316,294,79447,2,0,P|365:286|395:244,1,75.0000028610231
452,181,79772,2,0,P|492:221|495:255,1,75.0000028610231,2|0,0:0|0:0,0:0:0:0:
465,345,80096,1,0,0:0:0:0:
357,316,80258,1,0,0:0:0:0:
386,207,80420,1,2,0:0:0:0:
386,207,80745,5,0,0:0:0:0:
227,48,81069,2,0,P|165:64|131:128,1,112.500004291535,2|0,0:0|0:0,0:0:0:0:
96,139,81393,6,0,L|1:95,1,75.0000028610231
52,217,81718,5,2,0:0:0:0:
128,299,81880,1,0,0:0:0:0:
84,195,82042,1,0,0:0:0:0:
92,307,82204,1,0,0:0:0:0:
122,198,82366,6,2,P|157:171|197:169,1,75.0000028610231
297,186,82691,2,2,P|296:148|280:115,1,75.0000028610231
142,56,83015,5,2,0:0:0:0:
107,70,83096,1,2,0:0:0:0:
93,104,83177,1,2,0:0:0:0:
62,238,83339,2,2,L|94:313,1,75.0000028610231
157,343,83664,6,0,L|217:342,2,37.5000014305115,6|0|0,0:0|0:0|0:0,0:0:0:0:
257,291,83988,1,0,0:0:0:0:
479,302,84312,6,0,P|481:339|466:373,1,75.0000028610231,2|0,0:0|0:0,0:0:0:0:
387,292,84636,1,0,0:0:0:0:
393,254,84718,1,0,0:0:0:0:
400,217,84799,1,0,0:0:0:0:
481,139,84961,1,2,0:0:0:0:
338,49,85204,1,0,0:0:0:0:
338,49,85285,2,0,P|286:49|240:80,1,75.0000028610231
315,160,85609,5,2,0:0:0:0:
309,235,85772,1,2,0:0:0:0:
304,309,85934,1,2,0:0:0:0:
153,347,86258,6,0,L|88:331,2,37.5000014305115,2|0|0,0:0|0:0|0:0,0:0:0:0:
65,276,86582,2,0,P|45:204|77:133,1,150.000005722046,2|0,0:0|0:0,0:0:0:0:
51,60,86988,1,0,0:0:0:0:
51,60,87069,6,0,L|35:15,2,37.5000014305115,2|0|0,0:0|0:0|0:0,0:0:0:0:
159,90,87393,1,0,0:0:0:0:
267,61,87555,6,0,L|317:56,1,37.5000014305115,2|0,0:0|0:0,0:0:0:0:
296,113,87718,2,0,L|346:108,1,37.5000014305115,2|0,0:0|0:0,0:0:0:0:
388,101,87880,6,0,P|453:91|460:33,1,112.500004291535,2|0,0:0|0:0,0:0:0:0:
507,90,88204,2,0,L|500:173,1,75.0000028610231
467,272,88528,2,0,P|452:301|474:274,1,100
394,353,88853,5,2,0:0:0:0:
284,329,89015,1,2,0:0:0:0:
174,304,89177,2,0,P|137:285|128:233,1,75.0000028610231,2|0,0:0|0:0,0:0:0:0:
228,212,89501,2,0,L|228:262,2,37.5000014305115
332,170,89826,2,2,P|337:118|307:90,1,75.0000028610231
228,43,90150,6,0,L|143:45,1,75.0000028610231,2|0,0:0|0:0,0:0:0:0:
71,122,90474,2,0,L|62:177,2,37.5000014305115
50,233,90799,2,2,L|36:319,1,75.0000028610231
106,338,91123,6,0,L|196:337,1,75.0000028610231,4|0,0:0|0:0,0:0:0:0:
271,302,91609,5,2,0:0:0:0:
271,302,91772,2,0,L|270:352,2,37.5000014305115
348,220,92096,1,2,0:0:0:0:
348,220,92258,1,2,0:0:0:0:
348,107,92420,2,0,L|395:106,2,37.5000014305115,2|0|0,0:0|0:0|0:0,0:0:0:0:
257,107,92745,6,0,L|200:106,3,29.9999990844727,2|0|0|0,0:0|0:0|0:0|0:0,0:0:0:0:
157,106,93069,6,0,L|123:106,3,18.7500007152558,2|0|0|0,0:0|0:0|0:0|0:0,0:0:0:0:
68,104,93393,6,0,L|48:104,4,12.5,6|0|0|0|0,0:0|0:0|0:0|0:0|0:0,0:0:0:0:
