osu file format v14

[General]
AudioFilename: audio.mp3
AudioLeadIn: 0
PreviewTime: 62907
Countdown: 0
SampleSet: Soft
StackLeniency: 0.8
Mode: 0
LetterboxInBreaks: 0
WidescreenStoryboard: 1

[Editor]
Bookmarks: 5826,11015,13609,16204,19447,26582,31772,36961,41501,61447,68096,73285,78474,83664,84961,85934,88528,91123,92745,93069
DistanceSpacing: 1.8
BeatDivisor: 2
GridSize: 4
TimelineZoom: 2.099999

[Metadata]
Title:TSLove
TitleUnicode:TSLove
Artist:O2i3
ArtistUnicode:O2i3
Creator:Yugu
Version:Easy
Source:
Tags:
BeatmapID:1273306
BeatmapSetID:599989

[Difficulty]
HPDrainRate:2
CircleSize:2.5
OverallDifficulty:3
ApproachRate:2
SliderMultiplier:0.5
SliderTickRate:1

[Events]
//Background and Video events
0,0,"61961575_p0_master1200.jpg",0,0
//Break Periods
2,52728,56158
//Storyboard Layer 0 (Background)
//Storyboard Layer 1 (Fail)
//Storyboard Layer 2 (Pass)
//Storyboard Layer 3 (Foreground)
//Storyboard Sound Samples

[TimingPoints]
637,324.324324324324,4,2,1,70,1,0
16204,-100,4,2,1,70,0,0
21393,-100,4,2,1,80,0,1
42150,-100,4,2,1,50,0,0
61447,-100,4,2,1,50,0,0
62907,-100,4,2,1,80,0,1
83664,-100,4,2,1,70,0,0
85934,-100,4,2,2,70,0,0
86258,-100,4,2,1,70,0,0
88528,-100,4,2,4,70,0,0
88853,-100,4,2,1,70,0,0
91123,-100,4,2,3,70,0,0
91447,-100,4,2,1,70,0,0
93718,-100,4,2,5,70,0,0

[Colours]
Combo1 : 3,198,254
Combo2 : 255,210,74
Combo3 : 175,95,95
Combo4 : 0,255,255

[HitObjects]
68,76,637,6,2,B|53:117|59:144|75:163|75:163|46:201|79:233,1,150
116,286,1934,2,2,B|148:329|148:329|165:317|185:311|203:319|215:333|215:333|241:330,1,150
278,256,3231,2,2,P|320:324|296:388,1,150
236,330,4528,1,8,0:0:0:0:
150,330,4853,2,2,L|35:330,1,100
50,244,5826,6,2,L|50:78,1,150
104,28,7123,2,0,P|164:66|257:78,1,150
317,41,8420,2,2,P|319:114|261:162,1,150
241,79,9718,1,8,0:0:0:0:
165,118,10042,2,2,P|159:190|183:232,1,100
240,160,11015,5,8,0:0:0:0:
296,92,11339,2,2,P|344:72|400:92,1,100
348,164,12312,2,2,L|348:256,2,75
436,188,13609,5,8,0:0:0:0:
436,280,13934,2,2,P|496:256|524:212,1,100
508,136,14907,2,2,L|500:44,2,75
420,113,16204,6,0,L|414:51,2,50
427,202,17177,1,0,0:0:0:0:
435,291,17501,6,0,L|441:353,2,50
346,309,18474,1,0,0:0:0:0:
302,230,18799,6,0,L|241:202,2,50
388,204,19772,1,8,0:0:0:0:
496,204,20096,6,2,P|428:104|356:102,1,200,2|6,0:0|0:0,0:0:0:0:
275,65,21718,6,2,P|267:118|295:167,1,100
344,227,22691,1,8,0:0:0:0:
432,244,23015,2,2,L|430:175,1,50
432,103,23664,1,8,0:0:0:0:
483,29,23988,6,2,P|517:73|522:108,2,75
393,22,25285,2,2,L|336:22,1,50
365,109,25934,2,2,P|390:110|427:99,1,50
496,68,26582,5,8,0:0:0:0:
496,160,26907,2,2,L|496:276,1,100
432,320,27880,5,8,0:0:0:0:
348,352,28204,2,2,L|280:352,1,50
256,271,28853,1,8,0:0:0:0:
256,181,29177,6,2,P|294:188|329:217,2,75
176,224,30474,2,2,P|165:254|163:277,1,50
207,350,31123,2,2,P|245:362|317:342,1,100
380,304,32096,6,2,L|380:216,2,75
467,283,33393,2,2,L|467:171,1,100
420,105,34366,5,8,0:0:0:0:
331,88,34691,2,2,P|330:127|381:188,1,100
442,216,35664,2,2,P|403:255|305:246,1,150
252,185,36961,5,8,0:0:0:0:
206,107,37285,2,2,L|214:15,2,75
140,168,38582,2,2,L|157:278,1,100
230,316,39555,5,8,0:0:0:0:
310,275,39880,2,2,L|325:176,1,100
410,206,40853,6,2,L|399:273,1,50
485,289,41501,6,2,L|496:222,2,50
485,289,44096,6,2,L|368:289,1,100
169,222,45555,2,0,L|169:157,2,50
48,87,46853,2,0,L|48:137,1,50
256,308,48150,5,8,0:0:0:0:
334,264,48474,2,2,P|268:220|183:257,1,175
128,183,49934,5,8,0:0:0:0:
172,104,50258,2,2,B|120:81|64:93|16:153|51:229|51:229|53:246|52:360,1,350
256,192,57718,12,0,60312,0:0:0:0:
96,88,61609,5,8,0:0:0:0:
131,264,62258,1,8,0:0:0:0:
96,88,62907,6,2,L|208:88,1,100
373,59,64204,2,2,P|390:97|377:165,1,100
301,111,65177,1,8,0:0:0:0:
301,200,65501,6,2,P|339:246|382:247,1,100
486,104,66799,2,2,P|449:61|401:43,1,100
400,134,67772,1,8,0:0:0:0:
400,223,68096,6,2,L|400:339,1,100
222,354,69393,2,2,L|112:355,1,100
74,278,70366,1,8,0:0:0:0:
107,194,70691,6,2,P|159:244|165:286,1,100
267,120,71988,2,2,P|327:104|379:117,1,100
334,288,73285,5,8,0:0:0:0:
256,334,73609,2,2,P|246:304|253:251,2,75
334,288,74907,5,8,0:0:0:0:
414,248,75231,2,2,L|414:185,1,50
414,107,75880,5,8,0:0:0:0:
342,52,76204,2,2,P|328:77|328:136,2,75
252,39,77501,5,8,0:0:0:0:
161,35,77826,2,2,L|161:104,1,50
182,172,78474,6,2,P|187:191|182:235,1,50
91,200,79123,2,2,P|91:242|126:298,1,100
196,337,80096,2,2,L|249:337,1,50
336,336,80745,1,8,0:0:0:0:
415,293,81069,6,2,L|415:233,1,50
466,169,81718,2,2,P|427:157|358:173,1,100
325,88,82691,1,8,0:0:0:0:
239,60,83015,2,2,L|168:59,1,50
115,111,83664,6,2,B|79:175|139:247|191:227|191:227|223:155|223:155|327:187,1,350
383,126,86258,2,2,B|408:149|423:190|407:246|351:270|351:270|351:346|351:346|415:326|415:326|459:350,1,350
512,281,88853,2,2,B|488:221|488:221|488:141|488:141|512:97|512:97|512:29|512:29|460:45|416:29,1,350,2|6,0:0|0:0,0:0:0:0:
337,45,91447,2,2,B|337:89|365:125|405:133|405:133|405:257|405:257|377:345|377:345|409:337,1,350
