osu file format v14

[General]
AudioFilename: audio.mp3
AudioLeadIn: 0
PreviewTime: 62815
Countdown: 0
SampleSet: Soft
StackLeniency: 0.6
Mode: 0
LetterboxInBreaks: 0
WidescreenStoryboard: 1

[Editor]
Bookmarks: 93707,96625
DistanceSpacing: 1
BeatDivisor: 4
GridSize: 16
TimelineZoom: 2.2

[Metadata]
Title:TSLove
TitleUnicode:TSLove
Artist:O2i3
ArtistUnicode:O2i3
Creator:Seolv
Version:Normal
Source:osu!
Tags:featured artist fa quest mpg mappers' mappers guild instrumental electronic nymphe kiyoshi guarden alphabet aistre venax lukas [_l_u_k_a_s_]
BeatmapID:2495114
BeatmapSetID:1197928

[Difficulty]
HPDrainRate:3
CircleSize:3
OverallDifficulty:4
ApproachRate:5
SliderMultiplier:1
SliderTickRate:1

[Events]
//Background and Video events
0,0,"Cherry-flowers-blossom-tree-twigs-spring_2560x1440.jpg",0,0
//Break Periods
//Storyboard Layer 0 (Background)
//Storyboard Layer 1 (Fail)
//Storyboard Layer 2 (Pass)
//Storyboard Layer 3 (Foreground)
//Storyboard Layer 4 (Overlay)
//Storyboard Sound Samples

[TimingPoints]
626,324.324324324324,4,2,1,50,1,0
5815,-100,4,2,1,54,0,0
7112,-100,4,2,1,58,0,0
8409,-100,4,2,1,62,0,0
9707,-100,4,2,1,66,0,0
11004,-100,4,2,2,70,0,0
16193,-100,4,2,2,74,0,0
17490,-100,4,2,2,78,0,0
18788,-100,4,2,2,82,0,0
19436,-100,4,2,2,86,0,0
20085,-100,4,2,2,60,0,0
20409,-100,4,2,2,40,0,0
21382,-90.9090909090909,4,2,3,90,0,0
31112,-90.9090909090909,4,2,3,74,0,0
31274,-90.9090909090909,4,2,3,78,0,0
31436,-90.9090909090909,4,2,3,82,0,0
31598,-90.9090909090909,4,2,3,86,0,0
31761,-90.9090909090909,4,2,3,90,0,0
42139,-90.9090909090909,4,2,1,50,0,0
42301,-90.9090909090909,4,2,4,50,0,0
42463,-90.9090909090909,4,2,5,50,0,0
42625,-90.9090909090909,4,2,4,50,0,0
43274,-90.9090909090909,4,2,5,50,0,0
44085,-100,4,2,5,54,0,0
44247,-100,4,2,4,58,0,0
44409,-100,4,2,6,62,0,0
44571,-100,4,2,6,66,0,0
44734,-100,4,2,7,70,0,0
45220,-100,4,2,6,70,0,0
45382,-100,4,2,6,50,0,0
45544,-100,4,2,6,70,0,0
45707,-100,4,2,6,50,0,0
45869,-100,4,2,6,70,0,0
46031,-100,4,2,6,50,0,0
46193,-100,4,2,4,70,0,0
46842,-100,4,2,8,75,0,0
47166,-100,4,2,7,75,0,0
47328,-100,4,2,5,30,0,0
47490,-100,4,2,4,50,0,0
48139,-100,4,2,4,70,0,0
48463,-100,4,2,5,70,0,0
48950,-100,4,2,4,70,0,0
49112,-100,4,2,5,70,0,0
49274,-100,4,2,4,70,0,0
49436,-100,4,2,5,70,0,0
49598,-100,4,2,4,70,0,0
49923,-100,4,2,6,75,0,0
50247,-100,4,2,4,75,0,0
50409,-100,4,2,6,80,0,0
50734,-100,4,2,9,90,0,0
50896,-100,4,2,9,100,0,0
52193,-100,4,2,9,50,0,0
52517,-100,4,2,1,50,0,0
57707,-100,4,2,2,74,0,0
59004,-100,4,2,2,78,0,0
60302,-100,4,2,2,82,0,0
60950,-100,4,2,2,86,0,0
61598,-100,4,2,2,40,0,0
62895,-100,4,2,3,90,0,0
62896,-90.9090909090909,4,2,3,90,0,0
72625,-90.9090909090909,4,2,3,74,0,0
72787,-90.9090909090909,4,2,3,78,0,0
72949,-90.9090909090909,4,2,3,82,0,0
73111,-90.9090909090909,4,2,3,86,0,0
73274,-90.9090909090909,4,2,3,90,0,0
83004,-90.9090909090909,4,2,3,50,0,0
83653,-90.9090909090909,4,2,3,90,0,0
85923,-90.9090909090909,4,2,10,90,0,0
86247,-90.9090909090909,4,2,3,90,0,0
88517,-90.9090909090909,4,2,10,90,0,0
88842,-90.9090909090909,4,2,3,90,0,0
91112,-90.9090909090909,4,2,10,60,0,0
91436,-90.9090909090909,4,2,3,90,0,0
94031,-90.9090909090909,4,2,3,80,0,0
94355,-90.9090909090909,4,2,3,70,0,0
94680,-90.9090909090909,4,2,3,55,0,0
95004,-90.9090909090909,4,2,3,40,0,0
95328,-90.9090909090909,4,2,3,20,0,0
95653,-90.9090909090909,4,2,3,5,0,0

[Colours]
Combo1 : 255,255,128
Combo2 : 128,255,128
Combo3 : 106,203,255
Combo4 : 255,149,223

[HitObjects]
447,68,626,6,0,B|394:64|365:105|382:134|339:185|291:167,1,200,2|2,0:2|0:2,0:0:0:0:
199,131,1598,1,10,0:2:0:0:
128,201,1923,2,0,P|160:235|153:293,2,100,2|10|2,0:2|0:2|0:2,0:0:0:0:
267,57,3220,6,0,B|306:74|306:74|333:145|280:233,1,200,2|2,0:2|0:2,0:0:0:0:
217,300,4193,1,10,0:2:0:0:
288,370,4517,2,0,B|327:336|327:336|376:344,2,100,2|10|2,0:2|0:2|0:2,0:0:0:0:
217,300,5490,1,10,1:2:0:0:
256,192,5815,12,2,10355,0:2:0:0:
57,373,11004,6,0,P|51:343|40:314,1,50,6|0,3:2|0:0,0:0:0:0:
27,277,11328,2,0,P|69:300|122:292,1,100,10|2,0:2|3:2,0:0:0:0:
189,221,11977,1,8,0:2:0:0:
121,147,12301,6,0,P|105:78|100:47,2,100,2|8|2,3:2|0:2|3:2,0:0:0:0:
189,221,13274,1,10,0:2:0:0:
272,168,13598,6,0,L|325:177,1,50,2|2,3:2|0:0,0:0:0:0:
356,212,13923,2,0,L|461:196,1,100,10|2,0:2|3:2,0:0:0:0:
497,106,14571,1,10,0:2:0:0:
427,33,14896,2,0,L|328:48,2,100,2|10|2,3:2|0:2|3:2,0:0:0:0:
497,106,15869,1,10,0:2:0:0:
454,196,16193,6,0,L|445:256,1,50,6|2,1:2|1:2,0:0:0:0:
441,295,16517,2,0,L|333:311,1,100,10|2,1:2|1:2,0:0:0:0:
293,323,17004,1,2,1:2:0:0:
293,323,17166,1,10,1:2:0:0:
205,273,17490,2,0,P|182:226|187:177,1,100,2|10,1:2|1:2,0:0:0:0:
213,137,17977,1,2,1:2:0:0:
213,137,18139,2,0,L|266:129,2,50,2|2|10,1:2|1:2|1:2,0:0:0:0:
114,119,18788,6,0,L|96:17,2,100,2|0|0,1:2|1:2|1:2,0:0:0:0:
152,315,20085,1,8,1:2:0:0:
482,24,21382,6,0,P|416:38|383:80,1,110.000003356934,6|10,3:2|3:2,0:0:0:0:
363,118,21869,1,2,0:0:0:0:
363,118,22031,2,0,L|381:174,2,55.0000016784668,2|2|10,3:2|0:0|3:2,0:0:0:0:
269,60,22680,2,0,P|231:27|163:31,1,110.000003356934,2|10,3:2|3:2,0:0:0:0:
127,51,23166,1,2,0:0:0:0:
127,51,23328,2,0,P|117:99|156:159,1,110.000003356934,2|4,3:2|3:0,0:0:0:0:
241,203,23977,6,0,L|236:316,1,110.000003356934,6|10,3:2|3:2,0:0:0:0:
236,371,24463,1,2,0:0:0:0:
236,371,24625,2,0,L|353:376,1,110.000003356934,2|10,3:2|3:2,0:0:0:0:
411,286,25274,2,0,B|428:241|428:241|413:176,1,110.000003356934,2|10,3:2|3:2,0:0:0:0:
397,133,25761,1,2,0:0:0:0:
397,133,25923,2,0,L|328:146,1,55.0000016784668,2|4,3:2|2:3,0:0:0:0:
290,159,26247,1,4,3:0:0:0:
191,112,26571,6,0,P|138:92|79:102,1,110.000003356934,6|10,3:2|3:2,0:0:0:0:
33,195,27220,2,0,P|42:250|81:300,1,110.000003356934,2|10,3:2|3:2,0:0:0:0:
130,310,27707,1,2,0:0:0:0:
130,310,27869,2,0,P|175:282|232:278,1,110.000003356934,2|10,3:2|3:2,0:0:0:0:
318,343,28517,2,0,P|359:370|422:369,1,110.000003356934,2|4,3:2|3:0,0:0:0:0:
467,271,29166,6,0,L|449:146,1,110.000003356934,6|10,3:2|3:2,0:0:0:0:
413,129,29653,1,2,0:0:0:0:
413,129,29815,2,0,L|355:136,2,55.0000016784668,2|2|10,3:2|0:0|3:2,0:0:0:0:
480,42,30463,1,4,3:3:0:0:
377,1,30788,1,4,3:3:0:0:
282,57,31112,2,0,L|227:49,1,55.0000016784668,4|4,3:3|3:3,0:0:0:0:
175,39,31436,1,4,3:3:0:0:
67,56,31761,6,0,P|41:118|70:168,1,110.000003356934,6|10,3:2|3:2,0:0:0:0:
103,182,32248,1,2,0:0:0:0:
103,182,32410,2,0,L|159:168,2,55.0000016784668,2|0|10,3:2|0:0|3:2,0:0:0:0:
4,231,33058,2,0,L|28:344,1,110.000003356934,2|10,3:2|3:2,0:0:0:0:
65,384,33545,1,2,0:0:0:0:
65,384,33707,2,0,P|113:349|173:359,1,110.000003356934,2|4,3:2|3:0,0:0:0:0:
266,383,34356,6,0,L|270:266,1,110.000003356934,6|10,3:2|3:2,0:0:0:0:
275,222,34842,1,2,0:0:0:0:
275,222,35004,2,0,B|330:206|330:206|380:229,1,110.000003356934,2|10,3:2|3:2,0:0:0:0:
479,271,35653,2,0,B|496:219|496:219|481:158,1,110.000003356934,2|10,3:2|3:2,0:0:0:0:
480,114,36140,1,2,0:0:0:0:
480,114,36302,2,0,L|410:110,1,55.0000016784668,2|0,3:2|0:0,0:0:0:0:
370,104,36626,1,4,3:0:0:0:
284,172,36950,6,0,L|274:303,1,110.000003356934,6|10,3:2|3:2,0:0:0:0:
165,277,37598,2,0,L|173:167,1,110.000003356934,2|10,3:2|3:2,0:0:0:0:
181,115,38086,1,2,0:0:0:0:
181,115,38248,2,0,P|222:74|292:65,1,110.000003356934,2|8,3:2|3:2,0:0:0:0:
364,120,38896,2,0,P|379:176|352:238,1,110.000003356934,2|4,3:2|3:0,0:0:0:0:
266,276,39545,6,0,L|154:289,1,110.000003356934,6|10,3:2|3:2,0:0:0:0:
105,294,40032,1,2,0:0:0:0:
105,294,40194,2,0,L|95:225,2,55.0000016784668,2|0|8,3:2|0:0|3:2,0:0:0:0:
171,381,40842,1,4,3:3:0:0:
280,372,41167,1,4,3:3:0:0:
389,361,41491,2,0,L|401:241,2,110.000003356934,0|0|6,3:2|3:2|3:2,0:0:0:0:
55,39,44085,6,0,L|171:49,1,100,8|2,0:0|0:0,0:0:0:0:
243,94,44734,2,0,P|270:161|234:237,1,150,8|8,0:0|0:0,0:0:0:0:
174,303,45544,1,2,0:0:0:0:
76,279,45869,2,0,L|63:180,1,100,8|2,0:0|0:0,0:0:0:0:
243,94,46842,2,0,L|312:97,2,50,8|2|8,0:0|0:0|0:0,0:0:0:0:
51,324,48139,5,8,0:0:0:0:
134,378,48463,2,0,P|185:328|320:338,1,200,8|8,0:0|0:0,0:0:0:0:
392,382,49436,2,0,L|461:370,1,50,8|2,0:0|0:0,0:0:0:0:
486,284,49923,2,0,B|497:97,2,150,2|8|8,0:0|0:0|0:0,0:0:0:0:
25,88,52517,6,0,B|104:65|147:130|115:148|179:204|268:157,1,250,6|2,0:2|0:2,0:0:0:0:
317,101,53653,2,0,P|386:106|423:135,2,100,2|2|2,0:2|0:2|0:2,0:0:0:0:
241,167,54625,1,2,0:2:0:0:
342,339,55274,6,0,B|416:331|416:331|431:304,2,100,2|2|2,0:2|0:2|0:2,0:0:0:0:
243,357,56247,1,2,0:2:0:0:
157,305,56571,2,0,L|128:140,1,150,2|2,0:2|1:2,0:0:0:0:
108,59,57382,1,2,1:2:0:0:
199,18,57707,6,0,L|306:20,1,100,6|10,1:2|1:2,0:0:0:0:
348,23,58193,2,0,P|310:75|343:182,1,150,2|10,1:2|1:2,0:0:0:0:
385,232,59004,2,0,L|279:251,1,100,2|10,1:2|1:2,0:0:0:0:
238,261,59490,1,2,1:2:0:0:
238,261,59653,2,0,L|230:200,2,50,2|2|10,1:2|1:2|1:2,0:0:0:0:
182,343,60301,6,0,P|82:342|44:240,1,200,2|0,1:2|1:2,0:0:0:0:
73,64,61598,1,2,0:0:0:0:
433,316,62896,6,0,L|418:204,1,110.000003356934,6|10,3:2|3:2,0:0:0:0:
409,157,63383,1,2,0:0:0:0:
409,157,63545,2,0,L|469:146,2,55.0000016784668,2|2|10,3:2|0:0|3:2,0:0:0:0:
333,237,64193,2,0,L|210:229,1,110.000003356934,2|8,3:2|3:2,0:0:0:0:
173,225,64680,1,2,0:0:0:0:
173,225,64842,1,2,3:2:0:0:
125,126,65166,1,4,3:0:0:0:
195,41,65491,6,0,L|304:45,1,110.000003356934,6|10,3:2|3:2,0:0:0:0:
363,50,65977,1,2,0:0:0:0:
363,50,66139,2,0,P|381:104|344:155,1,110.000003356934,2|10,3:2|3:2,0:0:0:0:
271,217,66788,2,0,P|245:264|264:314,1,110.000003356934,2|10,3:2|3:2,0:0:0:0:
308,356,67275,1,2,0:0:0:0:
308,356,67437,2,0,L|377:343,1,55.0000016784668,2|0,3:2|0:0,0:0:0:0:
416,340,67761,1,4,3:0:0:0:
492,260,68085,6,0,B|503:206|503:206|485:152,1,110.000003356934,6|10,3:2|3:2,0:0:0:0:
393,92,68734,2,0,B|340:109|340:109|302:152,1,110.000003356934,2|10,3:2|3:2,0:0:0:0:
284,202,69221,1,2,0:0:0:0:
284,202,69382,2,0,L|170:189,1,110.000003356934,2|10,3:2|3:2,0:0:0:0:
65,178,70031,2,0,L|52:287,1,110.000003356934,2|4,3:2|3:0,0:0:0:0:
130,364,70680,6,0,P|197:369|236:332,1,110.000003356934,6|10,3:2|3:2,0:0:0:0:
266,305,71167,1,2,0:0:0:0:
266,305,71329,2,0,L|259:247,2,55.0000016784668,2|0|10,3:2|0:0|3:2,0:0:0:0:
351,374,71977,1,4,3:3:0:0:
448,322,72302,1,4,3:3:0:0:
460,212,72626,2,0,L|405:204,1,55.0000016784668,4|4,3:3|3:3,0:0:0:0:
350,199,72950,1,4,3:3:0:0:
240,191,73274,6,0,L|225:79,1,110.000003356934,6|10,3:2|3:2,0:0:0:0:
219,28,73761,1,2,0:0:0:0:
219,28,73923,2,0,L|279:17,2,55.0000016784668,2|2|10,3:2|0:0|3:2,0:0:0:0:
110,45,74571,2,0,B|37:41|37:41|17:84,1,110.000003356934,2|10,3:2|3:2,0:0:0:0:
11,128,75058,1,2,0:0:0:0:
11,128,75220,1,2,3:2:0:0:
85,208,75544,1,4,3:0:0:0:
185,162,75869,6,0,P|239:149|293:173,1,110.000003356934,6|10,3:2|3:2,0:0:0:0:
307,219,76355,1,2,0:0:0:0:
307,219,76517,2,0,P|357:238|409:225,1,110.000003356934,2|10,3:2|3:2,0:0:0:0:
464,129,77166,2,0,P|455:75|418:36,1,110.000003356934,2|10,3:2|3:2,0:0:0:0:
363,27,77653,1,2,0:0:0:0:
363,27,77815,2,0,L|308:37,1,55.0000016784668,2|4,3:2|2:3,0:0:0:0:
255,50,78139,1,4,3:0:0:0:
153,91,78463,6,0,B|142:145|142:145|160:199,1,110.000003356934,6|10,3:2|3:2,0:0:0:0:
265,226,79112,2,0,B|276:280|276:280|258:334,1,110.000003356934,2|10,3:2|3:2,0:0:0:0:
233,383,79599,1,2,0:0:0:0:
233,383,79760,2,0,L|119:370,1,110.000003356934,2|10,3:2|3:2,0:0:0:0:
13,362,80409,2,0,L|26:253,1,110.000003356934,2|4,3:2|3:0,0:0:0:0:
32,142,81058,6,0,P|99:147|138:110,1,110.000003356934,6|10,3:2|3:2,0:0:0:0:
168,82,81545,1,2,0:0:0:0:
168,82,81707,2,0,L|161:24,2,55.0000016784668,2|2|10,3:2|0:0|3:2,0:0:0:0:
186,190,82355,1,4,3:3:0:0:
276,127,82680,1,4,3:3:0:0:
503,366,83653,6,0,L|435:355,1,55.0000016784668,6|2,3:2|0:2,0:0:0:0:
394,351,83977,1,10,0:2:0:0:
299,294,84301,2,0,P|276:243|286:184,1,110.000003356934,2|10,3:2|0:2,0:0:0:0:
311,143,84788,1,2,0:0:0:0:
311,143,84950,2,0,L|459:155,1,110.000003356934,2|10,3:2|0:2,0:0:0:0:
398,44,85598,2,0,L|341:39,2,55.0000016784668,2|2|8,3:2|0:0|3:2,0:0:0:0:
494,96,86247,6,0,P|508:173|441:250,1,165.000005035401,6|2,3:2|0:0,0:0:0:0:
407,255,86896,2,0,L|274:237,1,110.000003356934,2|10,3:2|0:0,0:0:0:0:
204,182,87544,2,0,L|132:194,1,55.0000016784668,2|2,3:2|0:0,0:0:0:0:
94,197,87869,2,0,P|79:256|119:312,1,110.000003356934,10|2,0:0|3:2,0:0:0:0:
196,351,88517,1,2,0:0:0:0:
290,294,88842,6,0,L|301:226,1,55.0000016784668,6|2,3:2|0:0,0:0:0:0:
308,185,89166,1,10,0:0:0:0:
318,75,89490,2,0,P|369:52|428:62,1,110.000003356934,2|10,3:2|0:0,0:0:0:0:
471,80,89977,1,2,0:0:0:0:
471,80,90139,1,2,3:2:0:0:
465,189,90463,2,0,L|452:266,1,55.0000016784668,10|2,0:0|0:0,0:0:0:0:
454,298,90788,2,0,P|414:275|341:286,1,110.000003356934,2|4,3:2|3:2,0:0:0:0:
249,319,91436,6,0,B|242:272|242:272|246:263|246:263|235:187,1,110.000003356934,6|10,3:2|0:0,0:0:0:0:
227,156,91923,1,2,0:0:0:0:
227,156,92085,2,0,P|157:168|126:206,1,110.000003356934,2|10,3:2|0:0,0:0:0:0:
44,261,92734,2,0,L|36:328,2,55.0000016784668,2|2|10,3:2|0:0|0:0,0:0:0:0:
53,151,93382,1,2,3:2:0:0:
68,41,93707,1,6,3:2:0:0:
256,192,93869,12,0,96625,0:0:0:0:
