osu file format v14

[General]
AudioFilename: audio.mp3
AudioLeadIn: 0
PreviewTime: 62815
Countdown: 0
SampleSet: Soft
StackLeniency: 0.2
Mode: 0
LetterboxInBreaks: 0
WidescreenStoryboard: 1

[Editor]
Bookmarks: 21382,93707,96625
DistanceSpacing: 1.1
BeatDivisor: 4
GridSize: 16
TimelineZoom: 2.2

[Metadata]
Title:TSLove
TitleUnicode:TSLove
Artist:O2i3
ArtistUnicode:O2i3
Creator:Seolv
Version:Master
Source:osu!
Tags:featured artist fa quest mpg mappers' mappers guild instrumental electronic nymphe kiyoshi guarden alphabet aistre venax lukas [_l_u_k_a_s_]
BeatmapID:2495113
BeatmapSetID:1197928

[Difficulty]
HPDrainRate:5.5
CircleSize:4.2
OverallDifficulty:9
ApproachRate:9.6
SliderMultiplier:1.8
SliderTickRate:1

[Events]
//Background and Video events
0,0,"Cherry-flowers-blossom-tree-twigs-spring_2560x1440.jpg",0,0
//Break Periods
//Storyboard Layer 0 (Background)
//Storyboard Layer 1 (Fail)
//Storyboard Layer 2 (Pass)
//Storyboard Layer 3 (Foreground)
//Storyboard Layer 4 (Overlay)
//Storyboard Sound Samples

[TimingPoints]
626,324.324324324324,4,2,1,50,1,0
626,-200,4,2,1,50,0,0
5815,-100,4,2,1,54,0,0
7112,-100,4,2,1,58,0,0
8409,-100,4,2,1,62,0,0
9707,-100,4,2,1,66,0,0
11004,-200,4,2,2,70,0,0
14247,-166.666666666667,4,2,2,70,0,0
14896,-125,4,2,2,70,0,0
15544,-111.111111111111,4,2,2,70,0,0
16193,-111.111111111111,4,2,2,74,0,0
17490,-111.111111111111,4,2,2,78,0,0
18788,-111.111111111111,4,2,2,82,0,0
19436,-83.3333333333333,4,2,2,86,0,0
20085,-66.6666666666667,4,2,2,60,0,0
20409,-66.6666666666667,4,2,2,40,0,0
21382,-50,4,2,3,90,0,0
22031,-66.6666666666667,4,2,3,90,0,0
23328,-55.5555555555556,4,2,3,90,0,0
23653,-400,4,2,3,90,0,0
23977,-50,4,2,3,90,0,0
24625,-66.6666666666667,4,2,3,90,0,0
25274,-55.5555555555556,4,2,3,90,0,0
26247,-166.666666666667,4,2,3,90,0,0
26570,-50,4,2,3,90,0,0
27219,-66.6666666666667,4,2,3,90,0,0
28516,-55.5555555555556,4,2,3,90,0,0
28841,-400,4,2,3,90,0,0
29165,-50,4,2,3,90,0,0
29813,-66.6666666666667,4,2,3,90,0,0
30462,-55.5555555555556,4,2,3,90,0,0
30788,-83.3333333333333,4,2,3,90,0,0
31112,-66.6666666666667,4,2,3,74,0,0
31274,-58.8235294117647,4,2,3,78,0,0
31435,-50,4,2,3,78,0,0
31436,-50,4,2,3,82,0,0
31598,-45.4545454545455,4,2,3,86,0,0
31760,-50,4,2,3,86,0,0
31761,-50,4,2,3,90,0,0
32409,-66.6666666666667,4,2,3,90,0,0
33706,-55.5555555555556,4,2,3,90,0,0
34031,-400,4,2,3,90,0,0
34355,-50,4,2,3,90,0,0
35003,-66.6666666666667,4,2,3,90,0,0
35652,-55.5555555555556,4,2,3,90,0,0
36625,-166.666666666667,4,2,3,90,0,0
36948,-50,4,2,3,90,0,0
37597,-66.6666666666667,4,2,3,90,0,0
38894,-55.5555555555556,4,2,3,90,0,0
39219,-400,4,2,3,90,0,0
39543,-50,4,2,3,90,0,0
40191,-66.6666666666667,4,2,3,90,0,0
40840,-55.5555555555556,4,2,3,90,0,0
41166,-83.3333333333333,4,2,3,90,0,0
42139,-83.3333333333333,4,2,1,50,0,0
42301,-142.857142857143,4,2,4,50,0,0
42463,-142.857142857143,4,2,5,50,0,0
42625,-142.857142857143,4,2,4,50,0,0
43274,-142.857142857143,4,2,5,50,0,0
44085,-142.857142857143,4,2,5,54,0,0
44247,-142.857142857143,4,2,4,58,0,0
44409,-142.857142857143,4,2,6,62,0,0
44571,-142.857142857143,4,2,6,66,0,0
44734,-142.857142857143,4,2,7,70,0,0
45220,-142.857142857143,4,2,6,70,0,0
45382,-142.857142857143,4,2,6,50,0,0
45544,-142.857142857143,4,2,6,70,0,0
45707,-142.857142857143,4,2,6,50,0,0
45869,-142.857142857143,4,2,6,70,0,0
46031,-142.857142857143,4,2,6,50,0,0
46193,-142.857142857143,4,2,4,70,0,0
46842,-142.857142857143,4,2,8,75,0,0
47166,-142.857142857143,4,2,7,75,0,0
47328,-142.857142857143,4,2,5,30,0,0
47490,-142.857142857143,4,2,4,50,0,0
48139,-142.857142857143,4,2,4,70,0,0
48463,-142.857142857143,4,2,5,70,0,0
48950,-142.857142857143,4,2,4,70,0,0
49112,-142.857142857143,4,2,5,70,0,0
49274,-142.857142857143,4,2,4,70,0,0
49436,-142.857142857143,4,2,5,70,0,0
49598,-142.857142857143,4,2,4,70,0,0
49923,-142.857142857143,4,2,6,75,0,0
50247,-142.857142857143,4,2,4,75,0,0
50409,-142.857142857143,4,2,6,80,0,0
50734,-142.857142857143,4,2,9,90,0,0
50896,-142.857142857143,4,2,9,100,0,0
52193,-142.857142857143,4,2,9,50,0,0
52517,-125,4,2,1,50,0,0
57707,-111.111111111111,4,2,2,74,0,0
59004,-100,4,2,2,78,0,0
60301,-83.3333333333333,4,2,2,78,0,0
60302,-83.3333333333333,4,2,2,82,0,0
60950,-83.3333333333333,4,2,2,86,0,0
61597,-50,4,2,2,86,0,0
61598,-50,4,2,2,40,0,0
61922,-71.4285714285714,4,2,2,40,0,0
62895,-50,4,2,3,90,0,0
63544,-66.6666666666667,4,2,3,90,0,0
64841,-55.5555555555556,4,2,3,90,0,0
65166,-400,4,2,3,90,0,0
65490,-50,4,2,3,90,0,0
66138,-66.6666666666667,4,2,3,90,0,0
66787,-55.5555555555556,4,2,3,90,0,0
67760,-166.666666666667,4,2,3,90,0,0
68083,-50,4,2,3,90,0,0
68732,-66.6666666666667,4,2,3,90,0,0
70029,-55.5555555555556,4,2,3,90,0,0
70354,-400,4,2,3,90,0,0
70678,-50,4,2,3,90,0,0
71326,-66.6666666666667,4,2,3,90,0,0
71975,-55.5555555555556,4,2,3,90,0,0
72301,-83.3333333333333,4,2,3,90,0,0
72625,-66.6666666666667,4,2,3,74,0,0
72787,-58.8235294117647,4,2,3,78,0,0
72948,-50,4,2,3,78,0,0
72949,-50,4,2,3,82,0,0
73111,-45.4545454545455,4,2,3,86,0,0
73273,-50,4,2,3,86,0,0
73274,-50,4,2,3,90,0,0
73922,-66.6666666666667,4,2,3,90,0,0
75219,-55.5555555555556,4,2,3,90,0,0
75544,-400,4,2,3,90,0,0
75868,-50,4,2,3,90,0,0
76516,-66.6666666666667,4,2,3,90,0,0
77165,-55.5555555555556,4,2,3,90,0,0
78138,-166.666666666667,4,2,3,90,0,0
78461,-50,4,2,3,90,0,0
79110,-66.6666666666667,4,2,3,90,0,0
80407,-55.5555555555556,4,2,3,90,0,0
80732,-400,4,2,3,90,0,0
81056,-50,4,2,3,90,0,0
81704,-66.6666666666667,4,2,3,90,0,0
82353,-55.5555555555556,4,2,3,90,0,0
82679,-83.3333333333333,4,2,3,90,0,0
83004,-83.3333333333333,4,2,3,50,0,0
83652,-62.5,4,2,3,50,0,0
83653,-62.5,4,2,3,90,0,0
85922,-250,4,2,3,90,0,0
85923,-250,4,2,10,90,0,0
86246,-62.5,4,2,10,90,0,0
86247,-62.5,4,2,3,90,0,0
88516,-125,4,2,3,90,0,0
88517,-125,4,2,10,90,0,0
88841,-62.5,4,2,10,90,0,0
88842,-62.5,4,2,3,90,0,0
91111,-250,4,2,3,90,0,0
91112,-250,4,2,10,60,0,0
91435,-62.5,4,2,10,60,0,0
91436,-62.5,4,2,3,90,0,0
93706,-448.430493273543,4,2,3,90,0,0
94031,-448.430493273543,4,2,3,80,0,0
94355,-448.430493273543,4,2,3,70,0,0
94680,-448.430493273543,4,2,3,55,0,0
95004,-448.430493273543,4,2,3,40,0,0
95328,-448.430493273543,4,2,3,20,0,0
95653,-448.430493273543,4,2,3,5,0,0

[Colours]
Combo1 : 255,255,128
Combo2 : 128,255,128
Combo3 : 106,203,255
Combo4 : 255,149,223

[HitObjects]
49,358,626,6,0,L|105:345,2,45,2|2|10,0:2|0:2|0:2,0:0:0:0:
94,339,1112,1,2,0:2:0:0:
167,384,1274,2,0,L|180:328,1,45,2|2,0:2|0:2,0:0:0:0:
185,345,1598,1,10,0:2:0:0:
142,261,1761,5,2,0:2:0:0:
180,165,1923,1,2,0:2:0:0:
260,100,2085,1,2,0:2:0:0:
361,83,2247,1,10,0:2:0:0:
456,118,2409,1,2,0:2:0:0:
463,133,2571,6,0,L|454:192,1,45,2|2,0:2|0:2,0:0:0:0:
356,78,2896,2,0,L|400:71,1,45,10|2,0:2|0:2,0:0:0:0:
352,190,3220,5,2,0:2:0:0:
341,264,3382,1,2,0:2:0:0:
267,253,3544,1,10,0:2:0:0:
278,179,3707,1,2,0:2:0:0:
369,231,3869,5,2,0:2:0:0:
299,282,4031,1,2,0:2:0:0:
247,212,4193,1,10,0:2:0:0:
317,161,4356,1,2,0:2:0:0:
354,286,4517,5,2,0:2:0:0:
256,270,4679,1,2,0:2:0:0:
271,172,4841,1,10,0:2:0:0:
368,187,5004,1,2,0:2:0:0:
304,310,5166,5,2,0:2:0:0:
237,217,5328,1,2,0:2:0:0:
329,150,5490,5,10,1:2:0:0:
337,170,5571,1,2,0:2:0:0:
339,192,5652,1,2,0:2:0:0:
333,214,5733,1,2,0:2:0:0:
320,232,5814,1,2,0:2:0:0:
256,192,5896,12,10,10680,0:2:0:0:
486,48,11004,6,0,P|459:54|435:66,1,45,6|2,3:2|0:0,0:0:0:0:
343,158,11328,1,10,0:2:0:0:
410,205,11490,2,0,P|414:191|414:178,2,22.5,2|2|2,0:0|0:0|3:2,0:0:0:0:
276,118,11815,5,2,0:0:0:0:
346,80,11977,1,8,0:2:0:0:
343,158,12139,1,2,0:0:0:0:
196,215,12301,6,0,P|191:182|183:155,1,45,2|2,3:2|0:0,0:0:0:0:
298,263,12625,2,0,P|265:268|238:276,1,45,8|2,0:2|0:0,0:0:0:0:
237,280,12869,1,2,0:0:0:0:
237,280,12950,1,2,3:2:0:0:
272,183,13112,1,2,0:0:0:0:
179,89,13274,1,10,0:2:0:0:
297,33,13436,1,2,0:0:0:0:
223,105,13598,6,0,L|165:95,1,45,2|2,3:2|0:0,0:0:0:0:
78,157,13923,2,0,L|122:149,1,45,10|2,0:2|0:0,0:0:0:0:
230,108,14166,5,0,0:0:0:0:
229,99,14247,2,0,L|171:89,1,53.9999983520508,2|2,3:2|0:0,0:0:0:0:
78,173,14571,2,0,L|136:163,1,53.9999983520508,10|2,0:2|0:0,0:0:0:0:
236,88,14896,6,0,L|221:4,1,72,2|2,3:2|0:0,0:0:0:0:
128,171,15220,2,0,L|140:241,1,72,10|2,0:2|0:0,0:0:0:0:
246,95,15463,5,2,0:0:0:0:
251,84,15544,2,0,L|236:0,1,80.9999975280763,2|2,3:2|0:0,0:0:0:0:
114,167,15869,2,0,L|127:246,1,80.9999975280763,10|2,0:2|0:0,0:0:0:0:
359,92,16193,5,6,1:2:0:0:
350,21,16355,1,2,1:2:0:0:
309,153,16517,5,10,1:2:0:0:
238,144,16679,1,2,1:2:0:0:
390,173,16842,5,2,1:2:0:0:
379,259,17004,1,2,1:2:0:0:
424,48,17166,5,10,1:2:0:0:
510,37,17328,1,2,1:2:0:0:
309,153,17490,5,2,1:2:0:0:
350,21,17652,1,2,1:2:0:0:
457,227,17815,5,10,1:2:0:0:
299,174,17977,1,2,1:2:0:0:
480,126,18139,5,2,1:2:0:0:
333,324,18301,1,2,1:2:0:0:
223,55,18463,5,10,1:2:0:0:
454,225,18625,1,2,1:2:0:0:
202,333,18788,5,2,1:2:0:0:
198,313,18869,1,0,1:2:0:0:
195,293,18950,1,0,1:2:0:0:
191,273,19031,1,0,1:2:0:0:
187,253,19112,1,0,1:2:0:0:
208,234,19193,1,0,1:2:0:0:
233,222,19274,1,0,1:2:0:0:
261,218,19355,1,0,1:2:0:0:
289,223,19436,2,0,L|322:218,2,26.9999991760254,0|0|0,1:2|1:2|1:2,0:0:0:0:
98,262,19598,5,0,1:2:0:0:
67,255,19679,1,0,1:2:0:0:
51,228,19761,1,0,1:2:0:0:
48,164,19842,1,0,1:2:0:0:
86,113,19923,1,0,1:2:0:0:
147,98,20004,1,0,1:2:0:0:
204,126,20085,2,0,B|211:143|211:143|203:164,24,33.7500012874604,8|0|0|0|0|0|0|0|2|0|0|0|0|0|0|0|2|0|0|0|0|0|0|0|2,1:2|0:0|0:0|0:0|0:0|0:0|0:0|0:0|0:0|0:0|0:0|0:0|0:0|0:0|0:0|0:0|0:0|0:0|0:0|0:0|0:0|0:0|0:0|0:0|0:0,0:0:0:0:
72,341,21382,6,0,P|127:324|168:310,1,90,6|0,3:2|0:0,0:0:0:0:
161,319,21544,2,0,P|118:333|75:346,1,90,2|0,2:0|0:0,0:0:0:0:
205,157,21707,2,0,P|237:212|360:220,1,180,10|2,3:2|0:0,0:0:0:0:
374,207,21950,1,2,0:0:0:0:
374,207,22031,2,0,P|365:155|352:124,1,67.5000025749208,2|0,3:2|0:0,0:0:0:0:
259,275,22193,2,0,P|268:327|281:358,1,67.5000025749208,2|0,0:0|0:0,0:0:0:0:
509,203,22355,5,10,3:2:0:0:
462,198,22436,1,2,0:0:0:0:
419,216,22517,1,2,0:0:0:0:
389,252,22598,1,2,0:0:0:0:
379,298,22680,1,2,3:2:0:0:
204,161,22842,5,2,0:0:0:0:
252,152,22923,1,2,0:0:0:0:
299,143,23004,2,0,P|309:119|306:77,1,67.5000025749208,10|0,3:2|0:0,0:0:0:0:
159,229,23166,2,0,P|155:262|166:293,1,67.5000025749208,2|0,0:0|0:0,0:0:0:0:
308,149,23328,6,0,P|319:85|170:40,1,242.999992584229,2|0,3:2|0:0,0:0:0:0:
240,106,23653,6,0,P|241:102|222:99,1,33.75,4|0,3:0|0:0,0:0:0:0:
308,149,23977,6,0,B|357:153|357:153|404:118,1,90,6|0,3:2|0:0,0:0:0:0:
392,135,24139,2,0,B|359:159|359:159|310:155,1,90,2|0,2:0|0:0,0:0:0:0:
140,203,24301,5,10,3:2:0:0:
146,247,24382,1,2,0:0:0:0:
152,292,24463,1,2,0:0:0:0:
158,336,24544,1,2,0:0:0:0:
164,381,24625,2,0,L|235:360,1,67.5000025749208,2|0,3:2|0:0,0:0:0:0:
140,203,24788,2,0,L|75:222,1,67.5000025749208,2|0,0:0|0:0,0:0:0:0:
281,240,24950,6,0,B|288:179|288:179|286:177|286:177|296:87,1,135.000005149842,10|2,3:2|0:0,0:0:0:0:
26,51,25274,6,0,B|55:48|81:65|89:91|89:91|90:62|112:39|139:35,1,161.999995056153,2|2,3:2|0:0,0:0:0:0:
172,27,25517,1,2,0:0:0:0:
202,37,25598,1,10,3:2:0:0:
25,128,25761,1,2,0:0:0:0:
179,255,25923,5,2,3:2:0:0:
184,213,26004,1,2,2:2:0:0:
189,169,26085,2,0,P|135:175|97:194,1,80.9999975280763,4|0,2:3|0:0,0:0:0:0:
149,353,26247,6,0,P|203:347|241:328,1,80.9999975280763,4|0,3:0|0:0,0:0:0:0:
147,346,26571,6,0,P|92:363|51:377,1,90,6|0,3:2|0:0,0:0:0:0:
63,379,26733,2,0,P|106:365|148:352,1,90,2|0,2:0|0:0,0:0:0:0:
110,104,26896,2,0,P|45:144|62:264,1,180,10|2,3:2|0:0,0:0:0:0:
63,262,27139,1,2,0:0:0:0:
63,262,27220,2,0,P|115:253|146:240,1,67.5000025749208,2|0,3:2|0:0,0:0:0:0:
201,168,27382,2,0,P|219:118|223:85,1,67.5000025749208,2|0,0:0|0:0,0:0:0:0:
490,6,27544,5,10,3:2:0:0:
443,1,27625,1,2,0:0:0:0:
400,19,27706,1,2,0:0:0:0:
370,55,27787,1,2,0:0:0:0:
360,101,27869,1,2,3:2:0:0:
339,365,28031,5,2,0:0:0:0:
392,356,28112,1,2,0:0:0:0:
439,346,28193,2,0,L|446:266,1,67.5000025749208,10|0,3:2|0:0,0:0:0:0:
254,164,28355,2,0,P|250:197|261:228,1,67.5000025749208,2|0,0:0|0:0,0:0:0:0:
512,207,28517,6,0,B|470:90|470:90|327:106,1,242.999992584229,2|0,3:2|0:0,0:0:0:0:
426,183,28842,6,0,B|420:168|420:168|402:170,1,33.75,4|0,3:0|0:0,0:0:0:0:
352,103,29166,6,0,B|328:7,1,90,6|0,3:2|0:0,0:0:0:0:
337,13,29328,2,0,B|358:100,1,90,2|0,2:0|0:0,0:0:0:0:
300,338,29490,2,0,P|283:268|180:247,1,180,10|2,3:2|0:0,0:0:0:0:
143,328,29733,1,2,0:0:0:0:
149,345,29814,2,0,L|220:324,1,67.5000025749208,2|0,3:2|0:0,0:0:0:0:
152,175,29977,2,0,L|87:194,1,67.5000025749208,2|0,0:0|0:0,0:0:0:0:
300,338,30139,6,0,L|371:317,1,67.5000025749208,10|0,3:2|0:0,0:0:0:0:
301,122,30302,2,0,L|236:141,1,67.5000025749208,2|0,0:0|0:0,0:0:0:0:
18,367,30463,6,0,B|70:362|80:311|80:311|117:305|156:340,1,161.999995056153,4|2,3:3|0:0,0:0:0:0:
348,246,30788,6,0,B|261:262|282:181|193:199,1,161.999995056153,4|0,3:3|0:0,0:0:0:0:
195,199,31112,6,0,B|185:233|185:233|197:280,1,67.5000025749208,4|0,3:3|0:0,0:0:0:0:
368,150,31274,2,0,B|378:116|378:116|366:69,1,76.5000014591217,4|0,3:3|0:0,0:0:0:0:
338,318,31436,6,0,B|376:329|376:329|430:315,1,90,4|0,3:3|0:0,0:0:0:0:
239,88,31598,2,0,B|197:75|197:75|140:90,1,99.0000030212403,4|0,3:3|0:0,0:0:0:0:
66,378,31761,6,0,B|160:380|191:298|150:292|210:215|289:234,1,270,6|0,3:2|0:0,0:0:0:0:
421,266,32085,1,10,3:2:0:0:
372,287,32166,1,2,0:0:0:0:
320,277,32247,1,2,0:0:0:0:
282,240,32328,1,2,0:0:0:0:
276,197,32409,2,0,L|293:124,1,67.5000025749208,2|0,3:2|0:0,0:0:0:0:
377,42,32571,2,0,L|392:107,1,67.5000025749208,2|0,0:0|0:0,0:0:0:0:
462,366,32734,5,10,3:2:0:0:
414,361,32815,1,2,0:0:0:0:
367,357,32896,1,2,0:0:0:0:
320,353,32977,1,2,0:0:0:0:
273,349,33058,1,2,3:2:0:0:
56,172,33221,5,2,0:0:0:0:
108,161,33302,1,2,0:0:0:0:
159,149,33383,2,0,L|174:69,1,67.5000025749208,10|0,3:2|0:0,0:0:0:0:
46,249,33544,2,0,L|58:315,1,67.5000025749208,2|0,0:0|0:0,0:0:0:0:
289,25,33707,6,0,L|-14:81,1,242.999992584229,2|0,3:2|0:0,0:0:0:0:
138,88,34031,6,0,L|171:81,1,33.75,4|0,3:0|0:0,0:0:0:0:
289,25,34356,6,0,P|276:65|281:129,1,90,6|0,3:2|0:0,0:0:0:0:
267,111,34517,2,0,P|265:66|279:23,1,90,2|0,2:0|0:0,0:0:0:0:
429,142,34680,1,10,3:2:0:0:
418,203,34761,1,2,0:0:0:0:
382,254,34842,1,2,0:0:0:0:
327,284,34923,1,2,0:0:0:0:
265,286,35004,2,0,L|200:267,1,67.5000025749208,2|0,3:2|0:0,0:0:0:0:
110,157,35167,2,0,L|175:138,1,67.5000025749208,2|0,0:0|0:0,0:0:0:0:
6,384,35329,6,0,B|13:323|13:323|11:321|11:321|21:231,1,135.000005149842,10|0,3:2|0:0,0:0:0:0:
283,23,35653,6,0,B|322:83|384:83|384:83|419:52,1,161.999995056153,2|2,3:2|0:0,0:0:0:0:
427,38,35896,1,2,0:0:0:0:
438,22,35977,1,10,3:2:0:0:
275,131,36140,1,2,0:0:0:0:
444,285,36302,5,2,3:2:0:0:
450,232,36383,1,2,2:2:0:0:
457,180,36464,2,0,B|414:175|414:175|362:200,1,80.9999975280763,4|0,2:3|0:0,0:0:0:0:
275,331,36625,6,0,B|318:336|318:336|370:311,1,80.9999975280763,4|0,3:0|0:0,0:0:0:0:
244,249,36950,6,0,P|201:263|158:276,1,90,6|0,3:2|0:0,0:0:0:0:
160,284,37112,2,0,P|203:270|245:257,1,90,2|0,2:0|0:0,0:0:0:0:
99,57,37274,2,0,P|79:159|74:257,1,180,10|2,3:2|0:0,0:0:0:0:
160,284,37518,1,2,0:0:0:0:
158,276,37599,2,0,P|158:226|143:196,1,67.5000025749208,2|0,3:2|0:0,0:0:0:0:
13,279,37761,2,0,P|13:329|28:359,1,67.5000025749208,2|0,0:0|0:0,0:0:0:0:
190,44,37923,5,10,3:2:0:0:
143,39,38004,1,2,0:0:0:0:
100,57,38085,1,2,0:0:0:0:
70,93,38166,1,2,0:0:0:0:
60,139,38248,1,2,3:2:0:0:
290,311,38410,5,2,0:0:0:0:
346,319,38491,1,2,0:0:0:0:
398,319,38572,2,0,B|412:289|412:289|405:253,1,67.5000025749208,10|0,3:2|0:0,0:0:0:0:
364,144,38734,2,0,B|345:116|345:116|310:104,1,67.5000025749208,2|0,0:0|0:0,0:0:0:0:
111,259,38896,6,0,B|154:254|193:280|205:319|205:319|207:275|240:240|280:234,1,242.999992584229,2|0,3:2|0:0,0:0:0:0:
192,188,39221,6,0,P|183:181|186:197,1,33.75,4|0,3:0|0:0,0:0:0:0:
279,235,39545,6,0,B|328:239|328:239|375:204,1,90,6|0,3:2|0:0,0:0:0:0:
282,245,39707,2,0,B|331:249|331:249|364:225,1,90,2|0,2:0|0:0,0:0:0:0:
405,20,39869,5,10,3:2:0:0:
444,78,39950,1,2,0:0:0:0:
455,149,40031,1,2,0:0:0:0:
446,178,40112,1,2,0:0:0:0:
432,192,40193,2,0,L|503:171,1,67.5000025749208,2|0,3:2|0:0,0:0:0:0:
261,97,40356,2,0,L|196:116,1,67.5000025749208,2|0,0:0|0:0,0:0:0:0:
437,272,40518,6,0,L|508:251,1,67.5000025749208,10|0,3:2|0:0,0:0:0:0:
283,173,40681,2,0,L|218:192,1,67.5000025749208,2|0,0:0|0:0,0:0:0:0:
412,349,40842,6,0,B|418:276|418:276|424:273|424:273|432:180,1,161.999995056153,4|2,3:3|0:0,0:0:0:0:
123,29,41166,6,0,B|79:97|79:97|112:187,1,161.999995056153,4|0,3:3|0:0,0:0:0:0:
155,241,41490,5,0,3:2:0:0:
412,63,41815,1,0,3:2:0:0:
155,241,42139,5,6,3:2:0:0:
146,247,42301,2,0,P|208:256|239:313,1,125.999996154785,2|8,0:0|0:0,0:0:0:0:
229,381,42788,1,8,0:0:0:0:
157,372,42950,2,0,P|151:342|168:315,1,62.9999980773926,8|8,0:0|0:0,0:0:0:0:
295,349,43274,5,8,0:0:0:0:
368,382,43436,1,8,0:0:0:0:
447,374,43598,1,8,0:0:0:0:
512,327,43761,1,8,0:0:0:0:
509,318,43923,1,8,0:0:0:0:
406,220,44085,5,8,0:0:0:0:
422,297,44247,1,2,0:0:0:0:
487,243,44409,5,2,0:0:0:0:
503,166,44571,1,8,0:0:0:0:
350,67,44734,6,0,L|281:78,2,62.9999980773926,8|2|2,0:0|0:0|0:0,0:0:0:0:
244,172,45220,2,0,L|175:161,1,62.9999980773926,8|8,0:0|0:0,0:0:0:0:
124,79,45544,2,0,L|55:90,1,62.9999980773926,2|8,0:0|0:0,0:0:0:0:
29,283,45869,6,0,P|78:288|139:232,1,125.999996154785,8|2,0:0|0:0,0:0:0:0:
137,235,46355,1,0,0:0:0:0:
208,204,46517,2,0,P|187:232|200:290,1,94.499997116089,2|0,0:0|0:0,0:0:0:0:
198,287,46842,1,8,0:0:0:0:
342,257,47004,1,2,0:0:0:0:
485,226,47166,6,0,L|492:159,1,62.9999980773926,8|0,0:0|0:0,0:0:0:0:
350,156,47490,2,0,L|404:195,1,62.9999980773926,0|0,0:0|0:0,0:0:0:0:
475,58,47815,2,0,L|413:85,1,62.9999980773926,0|0,0:0|0:0,0:0:0:0:
342,257,48139,5,8,0:0:0:0:
342,257,48463,2,0,B|296:261|274:290|287:306|246:342|209:344,1,157.499995193482,8|0,0:0|0:0,0:0:0:0:
216,343,48950,1,8,0:0:0:0:
137,307,49112,1,8,0:0:0:0:
113,226,49274,1,8,0:0:0:0:
161,150,49436,5,8,0:0:0:0:
137,307,49598,1,2,0:0:0:0:
161,150,49761,1,8,0:0:0:0:
36,253,49923,6,0,P|97:259|140:321,1,125.999996154785,2|8,0:0|0:0,0:0:0:0:
185,378,50409,2,0,L|253:366,1,62.9999980773926,8|0,0:0|0:0,0:0:0:0:
336,357,50734,1,2,0:0:0:0:
256,192,50896,5,8,0:0:0:0:
256,192,50977,12,0,52355,0:0:0:0:
197,289,52517,6,0,L|276:273,1,72,6|2,0:2|0:2,0:0:0:0:
183,212,52842,2,0,L|262:196,1,72,2|2,1:2|0:2,0:0:0:0:
271,195,53085,1,2,0:2:0:0:
287,192,53166,1,2,1:2:0:0:
368,72,53328,2,0,L|353:142,1,72,2|2,0:2|1:2,0:0:0:0:
461,49,53653,6,0,L|431:192,2,144,2|2|2,0:2|0:2|0:2,0:0:0:0:
466,59,54463,1,0,1:2:0:0:
367,33,54625,1,2,0:2:0:0:
269,61,54788,1,2,1:2:0:0:
198,133,54950,1,2,0:2:0:0:
198,150,55112,1,2,1:2:0:0:
96,153,55274,6,0,L|20:171,1,72,2|2,0:2|1:2,0:0:0:0:
144,69,55598,2,0,L|166:-5,1,72,2|2,0:2|1:2,0:0:0:0:
175,0,55842,2,0,L|212:11,3,36,2|2|2|2,0:2|0:2|0:2|1:2,0:0:0:0:
247,202,56247,6,0,L|198:150,1,72,2|2,0:2|1:2,0:0:0:0:
288,42,56571,1,2,0:2:0:0:
393,114,56734,2,0,L|372:182,1,72,2|2,1:2|1:2,0:0:0:0:
337,299,57058,1,2,1:2:0:0:
274,229,57220,1,2,1:2:0:0:
337,299,57382,2,0,L|268:319,1,72,2|2,1:2|1:2,0:0:0:0:
43,358,57707,5,6,1:2:0:0:
117,277,57869,1,2,1:2:0:0:
217,247,58031,1,10,1:2:0:0:
321,272,58193,1,2,1:2:0:0:
320,286,58274,1,0,0:0:0:0:
319,304,58355,1,2,1:2:0:0:
217,247,58517,5,2,1:2:0:0:
381,139,58680,1,10,1:2:0:0:
429,324,58842,1,2,1:2:0:0:
321,272,59004,5,2,1:2:0:0:
502,204,59166,1,2,1:2:0:0:
175,163,59328,5,10,1:2:0:0:
413,238,59490,1,2,1:2:0:0:
330,68,59653,1,2,1:2:0:0:
232,375,59815,5,2,1:2:0:0:
333,57,59977,1,10,1:2:0:0:
236,368,60139,1,2,1:2:0:0:
510,166,60301,5,2,1:2:0:0:
457,159,60382,1,0,1:2:0:0:
412,187,60463,1,0,1:2:0:0:
394,237,60544,1,0,1:2:0:0:
376,288,60625,5,0,1:2:0:0:
353,348,60706,1,0,1:2:0:0:
298,383,60787,1,0,1:2:0:0:
232,375,60868,1,0,1:2:0:0:
183,338,60950,2,0,L|179:311,2,26.9999991760254,0|0|0,1:2|1:2|1:2,0:0:0:0:
280,262,61112,5,0,1:2:0:0:
286,242,61193,1,0,1:2:0:0:
293,217,61274,1,0,1:2:0:0:
247,165,61355,1,0,1:2:0:0:
186,149,61436,1,0,1:2:0:0:
122,157,61517,1,0,1:2:0:0:
97,169,61598,6,0,P|35:156|98:148,1,180,2|2,0:0|0:0,0:0:0:0:
150,243,61923,2,0,B|161:213|207:227|203:275|170:312|170:312|192:297|216:291|239:293,1,188.999994232178,2|2,0:0|0:0,0:0:0:0:
293,217,62247,6,0,L|301:155,1,62.9999980773926,2|0,0:0|0:0,0:0:0:0:
308,80,62409,1,2,0:0:0:0:
374,123,62571,2,0,B|402:108|420:136|408:164|385:173|385:173|413:169|438:197|428:231|388:228,1,188.999994232178,2|0,0:0|0:0,0:0:0:0:
228,330,62896,6,0,P|163:321|122:320,1,90,6|0,3:2|0:0,0:0:0:0:
15,261,63058,2,0,P|55:241|97:225,1,90,2|0,2:0|0:0,0:0:0:0:
263,84,63221,1,10,3:2:0:0:
222,102,63302,1,2,0:0:0:0:
193,136,63383,1,2,0:0:0:0:
182,180,63464,1,2,0:0:0:0:
191,223,63544,2,0,P|198:178|201:133,1,67.5000025749208,2|2,3:2|0:0,0:0:0:0:
92,29,63707,2,0,P|84:73|81:118,1,67.5000025749208,2|2,0:0|0:0,0:0:0:0:
254,334,63869,5,10,3:2:0:0:
266,274,63951,1,2,0:0:0:0:
305,227,64032,1,2,0:0:0:0:
361,204,64113,1,2,0:0:0:0:
421,209,64194,1,2,3:2:0:0:
178,384,64356,5,2,0:0:0:0:
139,381,64437,1,2,0:0:0:0:
101,379,64518,2,0,L|33:372,1,67.5000025749208,10|0,3:2|0:0,0:0:0:0:
181,183,64680,2,0,B|199:201|199:201|189:255,1,67.5000025749208,2|0,0:0|0:0,0:0:0:0:
1,29,64842,6,0,B|99:42|99:42|137:77|137:77|248:90,1,242.999992584229,2|0,3:2|0:0,0:0:0:0:
160,107,65166,6,0,L|126:103,1,33.75,4|0,3:0|0:0,0:0:0:0:
242,82,65491,6,0,B|263:201,1,90,6|0,3:2|0:0,0:0:0:0:
274,263,65653,2,0,B|295:382,1,90,2|0,2:0|0:0,0:0:0:0:
453,197,65815,5,10,3:2:0:0:
404,190,65896,1,2,0:0:0:0:
355,183,65977,1,2,0:0:0:0:
307,177,66058,1,2,0:0:0:0:
257,170,66139,2,0,P|243:128|254:88,1,67.5000025749208,2|0,3:2|0:0,0:0:0:0:
371,7,66301,2,0,P|385:49|374:89,1,67.5000025749208,2|0,0:0|0:0,0:0:0:0:
240,256,66463,6,0,B|206:253|190:226|190:226|150:221|123:254,1,135.000005149842,10|2,3:2|0:0,0:0:0:0:
430,368,66788,6,0,B|447:326|428:277|411:303|392:254|415:200,1,161.999995056153,2|2,3:2|0:0,0:0:0:0:
430,177,67031,1,2,0:0:0:0:
461,167,67112,1,10,3:2:0:0:
343,345,67275,1,2,0:0:0:0:
197,116,67437,5,2,3:2:0:0:
251,127,67518,1,2,2:2:0:0:
299,129,67599,2,0,P|312:166|297:208,1,80.9999975280763,4|0,2:3|0:0,0:0:0:0:
105,98,67761,6,0,P|91:60|107:19,1,80.9999975280763,4|0,3:0|0:0,0:0:0:0:
305,6,68085,6,0,P|256:20|211:41,1,90,6|0,3:2|0:0,0:0:0:0:
111,119,68247,2,8,P|98:168|94:217,1,90,2|0,2:0|0:0,0:0:0:0:
266,379,68409,1,10,3:2:0:0:
285,329,68490,1,2,0:0:0:0:
270,279,68571,1,2,0:0:0:0:
226,249,68652,1,2,0:0:0:0:
181,234,68734,2,0,L|199:323,1,67.5000025749208,2|2,3:2|0:0,0:0:0:0:
348,384,68896,2,0,L|414:370,1,67.5000025749208,2|2,0:0|0:0,0:0:0:0:
246,96,69058,5,10,3:2:0:0:
199,105,69139,1,2,0:0:0:0:
153,114,69220,1,2,0:0:0:0:
107,124,69301,1,2,0:0:0:0:
60,133,69382,1,2,3:2:0:0:
348,384,69545,5,2,0:0:0:0:
401,375,69626,1,2,0:0:0:0:
448,365,69707,2,0,L|455:285,1,67.5000025749208,10|0,3:2|0:0,0:0:0:0:
299,200,69869,2,0,L|228:215,1,67.5000025749208,2|0,0:0|0:0,0:0:0:0:
465,376,70031,6,0,B|471:279|471:279|454:235|454:235|466:124,1,242.999992584229,2|0,3:2|0:0,0:0:0:0:
486,201,70355,6,0,L|480:242,1,33.75,4|0,3:0|0:0,0:0:0:0:
354,306,70680,6,0,B|318:280|318:280|258:282,1,90,6|0,3:2|0:0,0:0:0:0:
256,360,70842,2,0,B|292:386|292:386|352:384,1,90,2|0,2:0|0:0,0:0:0:0:
57,163,71004,1,10,3:2:0:0:
65,219,71085,1,2,0:0:0:0:
74,275,71166,1,2,0:0:0:0:
193,81,71328,5,2,3:2:0:0:
382,64,71490,5,2,0:0:0:0:
485,179,71653,6,0,L|477:246,1,67.5000025749208,10|0,3:2|0:0,0:0:0:0:
458,384,71815,2,0,L|466:317,1,67.5000025749208,2|0,0:0|0:0,0:0:0:0:
494,22,71977,6,0,B|418:42|418:42|418:51|418:51|334:74,1,161.999995056153,4|2,3:3|0:0,0:0:0:0:
115,323,72301,6,0,B|138:362|138:362|147:230,1,161.999995056153,4|0,3:3|0:0,0:0:0:0:
134,223,72625,6,0,B|61:244,1,67.5000025749208,4|0,3:3|0:0,0:0:0:0:
346,70,72788,2,0,B|419:49,1,76.5000014591217,4|0,3:3|0:0,0:0:0:0:
158,73,72950,6,0,P|110:64|62:29,1,90,4|0,3:3|0:0,0:0:0:0:
359,246,73112,2,0,P|407:237|455:202,1,99.0000030212403,4|0,3:3|0:0,0:0:0:0:
246,12,73274,6,0,B|281:84|252:153|214:111|206:220|248:280,1,270,6|0,3:2|0:0,0:0:0:0:
64,348,73599,1,10,3:2:0:0:
43,299,73680,1,2,0:0:0:0:
53,247,73761,1,2,0:0:0:0:
90,209,73842,1,2,0:0:0:0:
133,203,73923,2,0,L|206:220,1,67.5000025749208,2|2,3:2|0:0,0:0:0:0:
264,348,74085,2,0,L|198:332,1,67.5000025749208,2|2,0:0|0:0,0:0:0:0:
200,69,74247,5,10,3:2:0:0:
266,72,74328,1,2,0:0:0:0:
322,108,74409,1,2,0:0:0:0:
352,168,74490,1,2,0:0:0:0:
347,234,74571,1,2,3:2:0:0:
64,348,74735,5,2,0:0:0:0:
55,297,74816,1,2,0:0:0:0:
45,257,74897,2,0,L|125:272,1,67.5000025749208,10|0,3:2|0:0,0:0:0:0:
255,120,75058,2,0,L|335:105,1,67.5000025749208,2|0,0:0|0:0,0:0:0:0:
464,379,75221,6,0,B|439:346|439:346|447:129,1,242.999992584229,2|0,3:2|0:0,0:0:0:0:
413,229,75545,6,0,L|411:272,1,33.75,4|0,3:0|0:0,0:0:0:0:
403,350,75870,6,0,L|286:342,1,90,6|0,3:2|0:0,0:0:0:0:
215,336,76031,2,0,L|98:328,1,90,2|0,2:0|0:0,0:0:0:0:
8,51,76193,1,10,3:2:0:0:
70,53,76274,1,2,0:0:0:0:
123,86,76355,1,2,0:0:0:0:
154,140,76436,1,2,0:0:0:0:
148,200,76517,2,0,L|83:219,1,67.5000025749208,2|0,3:2|0:0,0:0:0:0:
208,75,76681,2,0,L|273:56,1,67.5000025749208,2|0,0:0|0:0,0:0:0:0:
31,284,76843,6,0,B|38:223|38:223|36:221|36:221|46:131,1,135.000005149842,10|0,3:2|0:0,0:0:0:0:
360,35,77166,6,0,B|490:52|490:52|462:87,1,161.999995056153,2|2,3:2|0:0,0:0:0:0:
462,91,77409,1,2,0:0:0:0:
452,107,77491,1,10,3:2:0:0:
268,13,77654,1,2,0:0:0:0:
155,234,77816,5,2,3:2:0:0:
200,242,77897,1,2,2:2:0:0:
245,221,77978,2,0,B|250:178|250:178|225:126,1,80.9999975280763,4|0,2:3|0:0,0:0:0:0:
66,250,78139,6,0,B|61:293|61:293|86:345,1,80.9999975280763,4|0,3:0|0:0,0:0:0:0:
165,319,78463,6,0,B|171:267|171:267|151:226,1,90,6|0,3:2|0:0,0:0:0:0:
94,93,78625,2,0,L|4:117,1,90,2|0,2:0|0:0,0:0:0:0:
245,221,78788,1,10,3:2:0:0:
298,213,78869,1,2,0:0:0:0:
351,205,78950,1,2,0:0:0:0:
405,198,79031,1,2,0:0:0:0:
454,184,79113,2,0,P|454:134|439:104,1,67.5000025749208,2|0,3:2|0:0,0:0:0:0:
332,310,79274,2,0,P|332:360|347:390,1,67.5000025749208,2|2,0:0|0:0,0:0:0:0:
327,23,79437,5,10,3:2:0:0:
272,17,79518,1,2,0:0:0:0:
222,38,79599,1,2,0:0:0:0:
187,79,79680,1,2,0:0:0:0:
176,133,79762,1,2,3:2:0:0:
338,375,79924,5,2,0:0:0:0:
352,325,80005,1,2,0:0:0:0:
321,282,80086,2,0,B|251:290,1,67.5000025749208,10|0,3:2|0:0,0:0:0:0:
6,384,80247,2,0,B|73:376,1,67.5000025749208,2|0,0:0|0:0,0:0:0:0:
307,134,80409,6,0,B|224:136|183:206|183:206|132:212|91:163,1,242.999992584229,2|0,3:2|0:0,0:0:0:0:
269,242,80735,6,0,P|278:249|275:233,1,33.75,4|0,3:0|0:0,0:0:0:0:
196,160,81058,6,0,P|252:124|281:118,1,90,6|0,3:2|0:0,0:0:0:0:
357,128,81220,2,0,P|416:158|435:180,1,90,2|0,2:0|0:0,0:0:0:0:
169,378,81383,5,10,3:2:0:0:
122,314,81464,1,2,0:0:0:0:
107,243,81545,1,2,0:0:0:0:
117,203,81626,1,2,0:0:0:0:
129,184,81707,2,0,L|58:205,1,67.5000025749208,2|0,3:2|0:0,0:0:0:0:
242,284,81870,2,0,L|310:289,1,67.5000025749208,2|0,0:0|0:0,0:0:0:0:
101,165,82031,6,0,L|30:186,1,67.5000025749208,10|0,3:2|0:0,0:0:0:0:
248,311,82194,2,0,L|316:316,1,67.5000025749208,2|0,0:0|0:0,0:0:0:0:
192,35,82355,6,0,B|198:108|198:108|204:111|204:111|212:204,2,161.999995056153,4|2|4,3:3|0:0|3:3,0:0:0:0:
447,364,83653,5,6,3:2:0:0:
393,349,83734,1,2,0:2:0:0:
366,312,83815,1,2,0:2:0:0:
365,269,83896,1,2,0:2:0:0:
374,248,83977,2,0,B|415:239|449:267|430:290|473:306|511:290,1,144,10|2,0:2|0:2,0:0:0:0:
241,117,84301,5,2,3:2:0:0:
154,201,84463,1,2,0:0:0:0:
156,214,84544,1,2,0:0:0:0:
161,251,84625,1,10,0:2:0:0:
204,259,84706,1,2,0:0:0:0:
248,248,84787,1,2,0:0:0:0:
281,218,84868,1,2,0:0:0:0:
298,176,84949,1,2,3:2:0:0:
115,79,85112,6,0,P|85:93|31:105,1,72,2|2,0:0|0:0,0:0:0:0:
170,323,85274,5,10,0:2:0:0:
156,284,85355,1,2,0:0:0:0:
161,248,85436,1,2,0:0:0:0:
174,225,85517,1,2,0:0:0:0:
174,225,85598,2,0,B|212:235|212:235|214:239|214:239|267:254,1,72,2|0,3:2|0:0,0:0:0:0:
350,119,85761,2,0,B|388:109|388:109|390:105|390:105|443:90,1,72,2|0,0:0|0:0,0:0:0:0:
461,262,85923,6,0,B|433:268|433:268|409:249,1,54,8|0,3:2|0:0,0:0:0:0:
477,272,86247,6,0,L|395:291,1,72,6|2,3:2|0:0,0:0:0:0:
203,379,86409,1,2,0:0:0:0:
234,347,86490,1,2,0:0:0:0:
235,304,86571,2,0,P|220:264|197:233,1,72,10|0,0:0|0:0,0:0:0:0:
119,185,86734,2,8,P|76:177|38:182,1,72,2|0,0:0|0:0,0:0:0:0:
15,344,86896,5,2,3:2:0:0:
203,240,87058,1,2,0:0:0:0:
82,38,87220,1,10,0:0:0:0:
121,78,87301,1,2,0:0:0:0:
176,87,87382,2,0,P|221:66|240:26,1,72,2|2,0:0|0:0,0:0:0:0:
373,130,87544,6,0,B|388:202|388:202|384:211|384:211|403:289,1,144,2|2,3:2|0:0,0:0:0:0:
343,377,87788,2,0,P|299:318|230:321,2,144,2|2|2,0:0|0:0|0:0,0:0:0:0:
224,328,88193,1,2,3:2:0:0:
114,377,88355,1,2,0:0:0:0:
45,303,88517,6,0,P|35:288|36:258,1,36,2|0,0:0|0:0,0:0:0:0:
102,243,88680,2,0,P|112:258|111:288,1,36,0|0,0:0|0:0,0:0:0:0:
18,104,88842,6,0,L|102:124,1,72,6|0,3:2|0:0,0:0:0:0:
92,107,89004,2,0,L|21:90,1,72,2|0,0:0|0:0,0:0:0:0:
222,230,89166,2,0,B|286:217|286:217|302:201|302:201|380:181,2,144,10|2|2,0:0|0:0|3:2,0:0:0:0:
479,36,89653,1,2,0:0:0:0:
471,84,89734,1,2,0:0:0:0:
465,125,89815,1,10,0:0:0:0:
278,49,89977,1,2,0:0:0:0:
222,230,90139,6,0,P|216:274|226:316,1,72,2|2,3:2|0:0,0:0:0:0:
318,107,90301,2,0,P|296:67|264:39,1,72,2|2,0:0|0:0,0:0:0:0:
312,267,90463,2,0,P|351:286|395:289,1,72,10|2,0:0|0:0,0:0:0:0:
224,133,90625,2,0,P|173:143|136:166,1,72,2|2,0:0|0:0,0:0:0:0:
365,194,90788,2,8,P|395:161|412:122,1,72,2|2,3:2|0:0,0:0:0:0:
399,122,90950,1,2,0:0:0:0:
184,318,91112,6,0,P|197:324|183:310,1,54,4|0,3:2|0:0,0:0:0:0:
169,308,91436,6,0,P|159:256|140:210,1,72,6|0,3:2|0:0,0:0:0:0:
64,85,91598,2,0,P|53:119|47:154,1,72,2|0,0:0|0:0,0:0:0:0:
182,306,91761,2,0,P|172:254|153:208,1,72,10|0,0:0|0:0,0:0:0:0:
77,83,91923,2,0,P|66:117|60:152,1,72,2|0,0:0|0:0,0:0:0:0:
263,360,92085,2,0,P|320:286|383:291,1,144,2|2,3:2|0:0,0:0:0:0:
375,294,92328,1,0,0:0:0:0:
400,277,92409,2,0,P|413:247|406:206,1,72,10|2,0:0|0:0,0:0:0:0:
428,125,92571,2,0,P|408:98|369:84,1,72,2|2,0:0|0:0,0:0:0:0:
172,270,92734,5,2,3:2:0:0:
252,202,92896,1,2,0:0:0:0:
253,193,92977,1,2,0:0:0:0:
257,177,93058,1,10,0:0:0:0:
219,156,93139,1,2,0:0:0:0:
176,150,93220,1,2,0:0:0:0:
134,160,93301,1,2,0:0:0:0:
99,185,93382,5,2,3:2:0:0:
31,170,93463,5,2,3:2:0:0:
11,105,93544,5,2,3:2:0:0:
57,54,93625,5,2,3:2:0:0:
124,70,93707,6,0,B|212:76|277:190|185:228|276:315|348:322,1,361.260009922302,6|0,3:2|0:0,0:0:0:0:
