osu file format v14

[General]
AudioFilename: audio.mp3
AudioLeadIn: 0
PreviewTime: 62815
Countdown: 0
SampleSet: Soft
StackLeniency: 0.2
Mode: 0
LetterboxInBreaks: 0
WidescreenStoryboard: 1

[Editor]
Bookmarks: 626,62896,84950,93707,96625
DistanceSpacing: 1.1
BeatDivisor: 4
GridSize: 16
TimelineZoom: 2.2

[Metadata]
Title:TSLove
TitleUnicode:TSLove
Artist:O2i3
ArtistUnicode:O2i3
Creator:Seolv
Version:Hard
Source:osu!
Tags:featured artist fa quest mpg mappers' mappers guild instrumental electronic nymphe kiyoshi guarden alphabet aistre venax lukas [_l_u_k_a_s_]
BeatmapID:2495112
BeatmapSetID:1197928

[Difficulty]
HPDrainRate:4.5
CircleSize:3.5
OverallDifficulty:6
ApproachRate:7.5
SliderMultiplier:1.4
SliderTickRate:1

[Events]
//Background and Video events
0,0,"Cherry-flowers-blossom-tree-twigs-spring_2560x1440.jpg",0,0
//Break Periods
//Storyboard Layer 0 (Background)
//Storyboard Layer 1 (Fail)
//Storyboard Layer 2 (Pass)
//Storyboard Layer 3 (Foreground)
//Storyboard Layer 4 (Overlay)
//Storyboard Sound Samples

[TimingPoints]
626,324.324324324324,4,2,1,50,1,0
626,-125,4,2,1,50,0,0
5815,-100,4,2,1,54,0,0
7112,-100,4,2,1,58,0,0
8409,-100,4,2,1,62,0,0
9707,-100,4,2,1,66,0,0
11004,-111.111111111111,4,2,2,70,0,0
16193,-99.9999999999999,4,2,2,74,0,0
17490,-99.9999999999999,4,2,2,78,0,0
18788,-99.9999999999999,4,2,2,82,0,0
19436,-99.9999999999999,4,2,2,86,0,0
20085,-99.9999999999999,4,2,2,60,0,0
20409,-99.9999999999999,4,2,2,40,0,0
21382,-90.9090909090909,4,2,3,90,0,0
31112,-90.9090909090909,4,2,3,74,0,0
31274,-90.9090909090909,4,2,3,78,0,0
31436,-90.9090909090909,4,2,3,82,0,0
31598,-90.9090909090909,4,2,3,86,0,0
31761,-90.9090909090909,4,2,3,90,0,0
42139,-90.9090909090909,4,2,1,50,0,0
42301,-90.9090909090909,4,2,4,50,0,0
42463,-90.9090909090909,4,2,5,50,0,0
42625,-90.9090909090909,4,2,4,50,0,0
43274,-90.9090909090909,4,2,5,50,0,0
44085,-125,4,2,5,54,0,0
44247,-125,4,2,4,58,0,0
44409,-125,4,2,6,62,0,0
44571,-125,4,2,6,66,0,0
44734,-125,4,2,7,70,0,0
45220,-125,4,2,6,70,0,0
45382,-125,4,2,6,50,0,0
45544,-125,4,2,6,70,0,0
45707,-125,4,2,6,50,0,0
45869,-125,4,2,6,70,0,0
46031,-125,4,2,6,50,0,0
46193,-125,4,2,4,70,0,0
46842,-125,4,2,8,75,0,0
47166,-125,4,2,7,75,0,0
47328,-125,4,2,5,30,0,0
47490,-125,4,2,4,50,0,0
48139,-125,4,2,4,70,0,0
48463,-125,4,2,5,70,0,0
48950,-125,4,2,4,70,0,0
49112,-125,4,2,5,70,0,0
49274,-125,4,2,4,70,0,0
49436,-125,4,2,5,70,0,0
49598,-125,4,2,4,70,0,0
49923,-125,4,2,6,75,0,0
50247,-125,4,2,4,75,0,0
50409,-125,4,2,6,80,0,0
50734,-125,4,2,9,90,0,0
50896,-125,4,2,9,100,0,0
52193,-125,4,2,9,50,0,0
52517,-125,4,2,1,50,0,0
57707,-111.111111111111,4,2,2,74,0,0
59004,-111.111111111111,4,2,2,78,0,0
60301,-100,4,2,2,78,0,0
60302,-100,4,2,2,82,0,0
60950,-100,4,2,2,86,0,0
61598,-100,4,2,2,40,0,0
62895,-100,4,2,3,90,0,0
62896,-90.9090909090909,4,2,3,90,0,0
72625,-90.9090909090909,4,2,3,74,0,0
72787,-90.9090909090909,4,2,3,78,0,0
72949,-90.9090909090909,4,2,3,82,0,0
73111,-90.9090909090909,4,2,3,86,0,0
73274,-90.9090909090909,4,2,3,90,0,0
83004,-90.9090909090909,4,2,3,50,0,0
83653,-90.9090909090909,4,2,3,90,0,0
85923,-90.9090909090909,4,2,10,90,0,0
86247,-90.9090909090909,4,2,3,90,0,0
88517,-90.9090909090909,4,2,10,90,0,0
88842,-90.9090909090909,4,2,3,90,0,0
91112,-90.9090909090909,4,2,10,60,0,0
91436,-90.9090909090909,4,2,3,90,0,0
94031,-90.9090909090909,4,2,3,80,0,0
94355,-90.9090909090909,4,2,3,70,0,0
94680,-90.9090909090909,4,2,3,55,0,0
95004,-90.9090909090909,4,2,3,40,0,0
95328,-90.9090909090909,4,2,3,20,0,0
95653,-90.9090909090909,4,2,3,5,0,0

[Colours]
Combo1 : 255,255,128
Combo2 : 128,255,128
Combo3 : 106,203,255
Combo4 : 255,149,223

[HitObjects]
52,344,626,6,0,P|100:301|152:301,1,112,2|10,0:2|0:2,0:0:0:0:
145,299,1112,1,2,0:2:0:0:
200,243,1274,2,0,L|204:178,2,56,2|2|10,0:2|0:2|0:2,0:0:0:0:
230,315,1761,1,2,0:2:0:0:
300,348,1923,6,0,L|430:332,1,112,2|10,0:2|0:2,0:0:0:0:
411,334,2409,1,2,0:2:0:0:
376,264,2571,2,0,L|320:270,2,56,2|2|10,0:2|0:2|0:2,0:0:0:0:
454,262,3058,1,2,0:2:0:0:
494,194,3220,6,0,P|506:134|481:82,1,112,2|10,0:2|0:2,0:0:0:0:
486,88,3707,1,2,0:2:0:0:
419,48,3869,2,0,L|349:57,1,56,2|2,0:2|0:2,0:0:0:0:
300,101,4193,1,10,0:2:0:0:
232,62,4355,1,2,0:2:0:0:
164,102,4517,6,0,B|182:157|182:157|172:214,1,112,2|10,0:2|0:2,0:0:0:0:
172,210,5004,1,2,0:2:0:0:
95,192,5166,2,0,L|87:136,1,56,2|2,0:2|0:2,0:0:0:0:
164,102,5490,2,0,L|219:94,2,56,10|2|2,1:2|0:2|0:2,0:0:0:0:
256,192,5896,12,10,10680,0:2:0:0:
438,82,11004,6,0,L|432:157,1,62.9999980773926,6|2,3:2|0:0,0:0:0:0:
371,204,11328,2,0,L|221:216,1,125.999996154785,10|2,0:2|3:2,0:0:0:0:
245,214,11815,1,2,0:0:0:0:
288,291,11977,2,0,L|350:285,1,62.9999980773926,8|2,0:2|0:0,0:0:0:0:
437,259,12301,6,0,P|457:195|425:138,1,125.999996154785,2|8,3:2|0:2,0:0:0:0:
353,105,12788,2,0,L|359:25,1,62.9999980773926,2|2,0:0|3:2,0:0:0:0:
357,42,13112,1,2,0:0:0:0:
270,32,13274,2,0,L|265:94,1,62.9999980773926,10|2,0:2|0:0,0:0:0:0:
203,158,13598,5,2,3:2:0:0:
116,139,13761,1,2,0:0:0:0:
40,184,13923,2,0,L|20:85,1,94.499997116089,10|0,0:2|0:0,0:0:0:0:
20,47,14247,2,0,L|85:33,1,62.9999980773926,2|2,3:2|0:0,0:0:0:0:
163,1,14571,2,0,L|228:14,1,62.9999980773926,10|2,0:2|0:0,0:0:0:0:
311,32,14896,5,2,3:2:0:0:
301,119,15058,1,2,0:0:0:0:
289,206,15220,2,0,P|225:177|163:205,1,125.999996154785,10|2,0:2|3:2,0:0:0:0:
175,193,15707,1,2,0:0:0:0:
117,260,15869,2,0,P|86:261|53:249,1,62.9999980773926,10|2,0:2|0:0,0:0:0:0:
20,165,16193,5,6,1:2:0:0:
20,165,16355,1,2,1:2:0:0:
68,92,16517,2,0,P|62:51|50:11,2,70,10|2|2,1:2|1:2|1:2,0:0:0:0:
99,174,17004,2,0,P|133:168|167:159,1,70,2|10,1:2|1:2,0:0:0:0:
231,103,17328,1,2,1:2:0:0:
306,151,17490,6,0,L|300:235,1,70,2|2,1:2|1:2,0:0:0:0:
326,303,17815,2,0,L|395:307,1,70,10|2,1:2|1:2,0:0:0:0:
488,316,18139,1,2,1:2:0:0:
447,233,18301,1,2,1:2:0:0:
496,152,18463,1,10,1:2:0:0:
330,61,18788,6,0,L|338:116,3,35,2|0|0|0,1:2|1:2|1:2|1:2,0:0:0:0:
348,113,19112,2,0,L|340:168,3,35,0|0|0|0,1:2|1:2|1:2|1:2,0:0:0:0:
338,170,19436,1,0,1:2:0:0:
242,301,19761,1,0,1:2:0:0:
242,301,19842,1,0,1:2:0:0:
242,301,19923,2,0,L|201:305,2,35,0|0|8,1:2|1:2|1:2,0:0:0:0:
169,39,21382,6,0,P|92:42|57:88,1,115.50000352478,6|0,3:2|0:0,0:0:0:0:
59,81,21707,2,0,L|69:167,1,77.0000023498536,10|2,3:2|0:0,0:0:0:0:
137,209,22031,2,0,L|175:204,2,38.5000011749268,2|0|2,3:2|0:0|0:0,0:0:0:0:
65,276,22355,2,0,L|81:357,1,77.0000023498536,10|2,3:2|0:0,0:0:0:0:
99,372,22598,1,2,0:0:0:0:
99,372,22680,6,0,P|158:342|194:338,1,77.0000023498536,2|2,3:2|0:0,0:0:0:0:
263,379,23004,1,10,3:2:0:0:
362,347,23166,1,2,0:0:0:0:
362,347,23328,2,0,P|400:301|362:216,1,154.000004699707,2|4,3:2|3:0,0:0:0:0:
172,152,23977,5,6,3:2:0:0:
217,71,24139,1,2,2:0:0:0:
296,117,24301,2,0,L|382:120,1,77.0000023498536,10|2,3:2|0:0,0:0:0:0:
379,27,24625,2,0,L|302:24,2,77.0000023498536,2|2|10,3:2|0:0|3:2,0:0:0:0:
465,61,25112,1,2,0:0:0:0:
372,119,25274,6,0,L|364:207,1,77.0000023498536,2|2,3:2|0:0,0:0:0:0:
363,220,25517,1,2,0:0:0:0:
363,220,25598,2,0,P|323:218|281:250,1,77.0000023498536,10|2,3:2|0:0,0:0:0:0:
250,318,25923,2,0,P|216:336|178:333,1,77.0000023498536,2|4,3:2|2:3,0:0:0:0:
109,272,26247,1,4,3:0:0:0:
73,115,26571,6,0,P|149:92|196:132,1,115.50000352478,6|0,3:2|0:0,0:0:0:0:
192,127,26896,2,0,P|234:139|271:133,1,77.0000023498536,10|2,3:2|0:0,0:0:0:0:
333,71,27220,2,0,L|328:33,2,38.5000011749268,2|0|2,3:2|0:0|0:0,0:0:0:0:
349,161,27544,2,0,L|362:244,1,77.0000023498536,10|2,3:2|0:0,0:0:0:0:
367,282,27787,1,2,0:0:0:0:
367,282,27869,6,0,P|418:278|450:257,1,77.0000023498536,2|2,3:2|0:0,0:0:0:0:
463,176,28193,1,10,3:2:0:0:
415,103,28355,1,2,0:0:0:0:
415,103,28517,2,0,B|351:117|351:117|334:133|334:133|254:149,1,154.000004699707,2|4,3:2|3:0,0:0:0:0:
146,249,29166,6,0,P|119:327|157:387,1,154.000004699707,6|10,3:2|3:2,0:0:0:0:
217,316,29653,1,2,0:0:0:0:
146,249,29815,2,0,L|62:266,2,77.0000023498536,2|2|10,3:2|0:0|3:2,0:0:0:0:
185,165,30301,1,2,0:0:0:0:
159,76,30463,2,0,L|-13:111,1,154.000004699707,4|4,3:3|3:3,0:0:0:0:
185,165,31112,6,0,L|266:150,1,77.0000023498536,4|4,3:3|3:3,0:0:0:0:
350,89,31436,1,4,3:3:0:0:
256,44,31598,1,4,3:3:0:0:
260,150,31761,6,0,L|263:280,1,115.50000352478,6|0,3:2|0:0,0:0:0:0:
260,292,32086,2,0,P|220:317|172:309,1,77.0000023498536,10|0,3:2|0:0,0:0:0:0:
129,248,32410,2,0,L|124:210,2,38.5000011749268,2|0|0,3:2|0:0|0:0,0:0:0:0:
92,332,32734,2,0,P|55:340|13:328,1,77.0000023498536,10|2,3:2|0:0,0:0:0:0:
6,307,32977,1,2,0:0:0:0:
6,307,33059,6,0,L|9:224,1,77.0000023498536,2|0,3:2|0:0,0:0:0:0:
12,137,33383,1,10,3:2:0:0:
93,93,33545,1,2,0:0:0:0:
93,93,33707,2,0,B|159:135|159:135|228:102,1,154.000004699707,2|4,3:2|3:0,0:0:0:0:
394,22,34356,5,6,3:2:0:0:
325,84,34518,1,2,2:0:0:0:
402,142,34680,2,0,L|399:228,1,77.0000023498536,10|2,3:2|0:0,0:0:0:0:
312,250,35004,2,0,L|315:173,2,77.0000023498536,2|2|10,3:2|0:0|3:2,0:0:0:0:
304,342,35491,1,2,0:0:0:0:
215,369,35653,6,0,L|127:361,1,77.0000023498536,2|2,3:2|0:0,0:0:0:0:
96,361,35896,1,2,0:0:0:0:
96,361,35977,2,0,P|89:314|115:271,1,77.0000023498536,10|2,3:2|0:0,0:0:0:0:
178,239,36301,2,0,P|189:202|181:165,1,77.0000023498536,2|4,3:2|2:3,0:0:0:0:
122,93,36626,1,4,3:0:0:0:
279,188,36950,6,0,L|412:169,1,115.50000352478,6|0,3:2|0:0,0:0:0:0:
419,170,37275,2,0,P|431:128|425:91,1,77.0000023498536,10|0,3:2|0:0,0:0:0:0:
335,22,37599,2,0,L|297:27,2,38.5000011749268,2|0|2,3:2|0:0|0:0,0:0:0:0:
346,99,37923,2,0,L|263:112,1,77.0000023498536,10|2,3:2|0:0,0:0:0:0:
231,118,38166,1,2,0:0:0:0:
231,118,38248,6,0,P|235:169|256:201,1,77.0000023498536,2|0,3:2|0:0,0:0:0:0:
303,254,38572,1,10,3:2:0:0:
243,342,38734,1,2,0:0:0:0:
243,342,38896,2,0,B|200:358|163:337|181:319|139:288|79:313,1,154.000004699707,2|4,3:2|3:0,0:0:0:0:
20,157,39545,6,0,P|85:122|125:133,1,115.50000352478,6|0,3:2|0:0,0:0:0:0:
152,161,39869,1,10,3:2:0:0:
224,118,40031,1,2,0:0:0:0:
224,118,40112,1,2,0:0:0:0:
224,118,40194,2,0,L|207:34,1,77.0000023498536,2|0,3:2|0:0,0:0:0:0:
291,30,40517,2,0,L|306:105,1,77.0000023498536,10|2,3:2|0:0,0:0:0:0:
276,197,40842,2,0,P|357:186|419:251,1,154.000004699707,4|4,3:3|3:3,0:0:0:0:
250,286,41490,2,0,L|219:135,2,154.000004699707,0|0|6,3:2|3:2|3:2,0:0:0:0:
438,98,44085,6,0,P|450:68|438:28,2,56,8|2|2,0:0|0:0|0:0,0:0:0:0:
438,98,44571,1,8,0:0:0:0:
382,156,44734,2,0,P|327:124|260:126,1,112,8|2,0:0|0:0,0:0:0:0:
222,69,45220,2,0,P|166:100|135:159,1,112,8|2,0:0|0:0,0:0:0:0:
181,297,45869,1,8,0:0:0:0:
181,297,46193,1,2,0:0:0:0:
41,103,46842,6,0,L|29:43,1,56,8|2,0:0|0:0,0:0:0:0:
99,0,47166,2,0,L|124:128,2,112,8|0|0,0:0|0:0|0:0,0:0:0:0:
71,180,48139,1,8,0:0:0:0:
71,180,48463,2,0,P|123:198|205:126,1,168,8|8,0:0|0:0,0:0:0:0:
224,56,49112,2,0,L|216:-4,2,56,8|8|8,0:0|0:0|0:0,0:0:0:0:
203,132,49598,2,0,L|210:187,1,56,2|8,0:0|0:0,0:0:0:0:
228,277,49923,6,0,B|290:263|290:263|319:235|319:235|380:217,2,168,2|8|8,0:0|0:0|0:0,0:0:0:0:
256,192,51220,12,6,52517,0:2:0:0:
439,124,55112,5,2,1:2:0:0:
324,79,55436,1,2,1:2:0:0:
221,148,55761,1,2,1:2:0:0:
106,103,56085,1,2,1:2:0:0:
21,192,56409,5,2,1:2:0:0:
21,192,56571,2,0,P|21:224|15:256,1,56,2|2,0:2|1:2,0:0:0:0:
41,329,56896,1,2,1:2:0:0:
41,329,57058,2,0,P|106:300|152:295,1,112,2|2,1:2|1:2,0:0:0:0:
334,355,57707,6,0,P|319:308|318:267,1,62.9999980773926,6|2,1:2|1:2,0:0:0:0:
378,232,58031,2,0,P|393:185|394:144,1,62.9999980773926,10|2,1:2|1:2,0:0:0:0:
382,141,58274,2,0,L|281:155,1,94.499997116089,0|2,0:0|1:2,0:0:0:0:
210,108,58680,1,10,1:2:0:0:
136,59,58842,2,0,L|53:70,1,62.9999980773926,2|2,1:2|1:2,0:0:0:0:
13,151,59166,2,0,L|21:213,1,62.9999980773926,2|10,1:2|1:2,0:0:0:0:
94,283,59490,2,0,L|156:274,1,62.9999980773926,2|2,1:2|1:2,0:0:0:0:
248,230,59815,1,2,1:2:0:0:
248,230,59977,2,0,P|258:259|254:299,1,62.9999980773926,10|2,1:2|1:2,0:0:0:0:
181,373,60301,6,0,L|132:367,3,35,2|0|0|0,1:2|1:2|1:2|1:2,0:0:0:0:
131,355,60625,2,0,L|82:361,3,35,0|0|0|0,1:2|1:2|1:2|1:2,0:0:0:0:
72,363,60950,1,0,1:2:0:0:
9,232,61274,1,0,1:2:0:0:
9,232,61355,1,0,1:2:0:0:
9,232,61436,2,0,L|14:193,2,35,0|0|2,1:2|1:2|0:0,0:0:0:0:
459,342,62896,6,0,P|456:265|410:230,1,115.50000352478,6|0,3:2|0:0,0:0:0:0:
396,215,63221,2,0,L|310:225,1,77.0000023498536,10|0,3:2|0:0,0:0:0:0:
265,288,63545,2,0,L|270:326,2,38.5000011749268,2|0|2,3:2|0:0|0:0,0:0:0:0:
189,209,63869,2,0,L|173:128,1,77.0000023498536,10|2,3:2|0:0,0:0:0:0:
167,91,64112,1,2,0:0:0:0:
167,91,64194,6,0,P|226:61|262:57,1,77.0000023498536,2|0,3:2|0:0,0:0:0:0:
303,109,64518,1,10,3:2:0:0:
390,45,64680,1,2,0:0:0:0:
390,45,64842,2,0,P|415:115|381:189,1,154.000004699707,2|4,3:2|3:0,0:0:0:0:
225,310,65491,5,6,3:2:0:0:
155,358,65653,1,2,2:0:0:0:
78,322,65815,2,0,L|64:232,1,77.0000023498536,10|2,3:2|0:0,0:0:0:0:
155,187,66139,2,0,L|245:201,2,77.0000023498536,2|2|10,3:2|0:0|3:2,0:0:0:0:
96,125,66626,1,2,0:0:0:0:
172,88,66788,6,0,P|179:52|164:11,1,77.0000023498536,2|2,3:2|0:0,0:0:0:0:
125,2,67031,1,2,0:0:0:0:
125,2,67112,2,0,L|35:15,1,77.0000023498536,10|2,3:2|0:0,0:0:0:0:
19,136,67436,2,0,L|95:124,1,77.0000023498536,2|4,3:2|2:3,0:0:0:0:
172,88,67761,1,4,3:0:0:0:
340,104,68085,6,0,P|363:180|323:227,1,115.50000352478,6|0,3:2|0:0,0:0:0:0:
345,250,68410,2,0,L|432:236,1,77.0000023498536,10|0,3:2|0:0,0:0:0:0:
464,165,68734,2,0,L|502:160,2,38.5000011749268,2|2|2,3:2|0:0|0:0,0:0:0:0:
421,237,69058,2,0,L|434:320,1,77.0000023498536,10|2,3:2|0:0,0:0:0:0:
440,354,69301,1,2,0:0:0:0:
440,354,69383,6,0,P|405:370|367:370,1,77.0000023498536,2|0,3:2|0:0,0:0:0:0:
294,326,69707,1,10,3:2:0:0:
223,372,69869,1,2,0:0:0:0:
223,372,70031,2,0,B|175:385|135:360|162:336|126:306|70:331,1,154.000004699707,2|4,3:2|3:0,0:0:0:0:
23,168,70680,6,0,L|183:141,1,154.000004699707,6|10,3:2|3:2,0:0:0:0:
243,192,71167,1,2,0:0:0:0:
311,142,71329,2,0,L|328:58,2,77.0000023498536,2|0|10,3:2|0:0|3:2,0:0:0:0:
242,191,71815,1,2,0:0:0:0:
293,258,71977,2,0,L|465:223,1,154.000004699707,4|4,3:3|3:3,0:0:0:0:
237,316,72626,6,0,P|219:279|221:234,1,77.0000023498536,4|4,3:3|3:3,0:0:0:0:
268,175,72950,1,4,3:3:0:0:
350,193,73112,1,4,3:3:0:0:
226,247,73275,6,0,L|93:242,1,115.50000352478,6|0,3:2|0:0,0:0:0:0:
67,244,73598,2,0,P|50:201|69:162,1,77.0000023498536,8|0,3:2|0:0,0:0:0:0:
138,143,73923,2,2,L|177:145,2,38.5000011749268,2|2|2,3:2|0:0|0:0,0:0:0:0:
72,90,74247,2,0,P|55:47|74:8,1,77.0000023498536,10|2,3:2|0:0,0:0:0:0:
103,2,74491,1,2,0:0:0:0:
103,2,74571,6,0,L|186:5,1,77.0000023498536,2|2,3:2|2:2,0:0:0:0:
255,42,74897,1,10,3:2:0:0:
336,13,75059,1,2,0:0:0:0:
336,13,75221,2,0,B|289:58|289:58|312:162,1,154.000004699707,2|4,3:2|3:0,0:0:0:0:
363,305,75870,5,6,3:2:0:0:
440,270,76032,1,2,2:0:0:0:
371,220,76193,2,0,P|324:230|296:258,1,77.0000023498536,10|0,3:2|0:0,0:0:0:0:
281,330,76518,2,0,L|204:327,2,77.0000023498536,2|2|10,3:2|0:0|3:2,0:0:0:0:
302,248,77005,1,2,0:0:0:0:
233,198,77167,6,0,L|225:110,1,77.0000023498536,2|0,3:2|0:0,0:0:0:0:
225,83,77410,1,2,0:0:0:0:
225,83,77490,2,0,P|188:99|144:92,1,77.0000023498536,10|2,3:2|0:0,0:0:0:0:
86,41,77815,2,0,P|48:37|13:53,1,77.0000023498536,2|4,3:2|2:3,0:0:0:0:
3,138,78140,1,4,3:0:0:0:
86,285,78464,6,0,L|219:266,1,115.50000352478,6|0,3:2|0:0,0:0:0:0:
242,260,78789,2,0,L|241:166,1,77.0000023498536,10|0,3:2|0:0,0:0:0:0:
280,108,79113,2,0,L|275:70,2,38.5000011749268,2|0|0,3:2|0:0|0:0,0:0:0:0:
354,147,79437,2,0,L|430:135,1,77.0000023498536,10|0,3:2|0:0,0:0:0:0:
475,133,79680,1,2,0:0:0:0:
475,133,79762,6,0,P|466:184|477:220,1,77.0000023498536,2|0,3:2|0:0,0:0:0:0:
504,285,80086,1,10,3:2:0:0:
470,362,80248,1,2,0:0:0:0:
470,362,80410,2,0,B|399:351|399:351|394:345|394:345|306:333,1,154.000004699707,2|4,3:2|3:0,0:0:0:0:
150,331,81059,6,0,P|157:274|131:223,1,115.50000352478,6|0,3:2|0:0,0:0:0:0:
105,190,81383,1,10,3:2:0:0:
132,115,81545,1,2,0:0:0:0:
132,115,81626,1,2,0:0:0:0:
132,115,81708,2,0,L|216:98,1,77.0000023498536,2|0,3:2|0:0,0:0:0:0:
252,28,82031,2,0,L|336:45,1,77.0000023498536,10|2,3:2|0:0,0:0:0:0:
405,9,82356,2,0,P|360:69|381:143,1,154.000004699707,4|4,3:3|3:3,0:0:0:0:
110,356,83653,6,0,L|52:348,3,38.5000011749268,6|2|2|2,3:2|0:2|0:2|0:2,0:0:0:0:
29,348,83977,2,0,L|1:184,1,154.000004699707,10|2,0:2|3:2,0:0:0:0:
48,124,84463,1,2,0:0:0:0:
123,162,84625,2,0,P|161:168|198:145,1,77.0000023498536,10|2,0:2|0:0,0:0:0:0:
249,85,84950,6,0,P|282:67|319:73,1,77.0000023498536,2|2,3:2|0:0,0:0:0:0:
352,100,85193,1,2,0:0:0:0:
352,100,85274,2,0,L|346:202,2,77.0000023498536,10|2|2,0:2|0:0|3:2,0:0:0:0:
411,39,85761,1,2,0:0:0:0:
485,78,85923,1,8,3:2:0:0:
485,78,86247,6,0,L|481:215,1,115.50000352478,6|2,3:2|0:0,0:0:0:0:
482,235,86571,1,10,0:0:0:0:
401,261,86734,1,2,0:0:0:0:
320,286,86896,2,0,L|243:276,1,77.0000023498536,2|2,3:2|0:0,0:0:0:0:
172,230,87220,2,0,L|119:240,3,38.5000011749268,10|2|2|2,0:0|0:0|0:0|0:0,0:0:0:0:
93,247,87544,5,2,3:2:0:0:
73,168,87707,1,2,0:0:0:0:
73,168,87788,2,0,L|51:80,1,77.0000023498536,2|2,0:0|0:0,0:0:0:0:
107,27,88112,2,0,P|148:58|218:35,1,115.50000352478,2|2,0:0|0:0,0:0:0:0:
284,9,88517,1,2,0:0:0:0:
431,92,88842,6,0,L|345:104,1,77.0000023498536,6|2,3:2|0:0,0:0:0:0:
301,168,89166,2,0,L|215:156,1,77.0000023498536,10|2,0:0|0:0,0:0:0:0:
140,150,89490,1,2,3:2:0:0:
85,215,89653,2,0,L|95:291,2,77.0000023498536,2|10|2,0:0|0:0|0:0,0:0:0:0:
140,150,90139,5,2,3:2:0:0:
224,157,90301,1,2,0:0:0:0:
271,226,90463,2,0,L|357:215,1,77.0000023498536,10|2,0:0|0:0,0:0:0:0:
408,156,90788,2,0,L|484:165,2,77.0000023498536,2|2|4,3:2|0:0|3:2,0:0:0:0:
298,26,91436,5,6,3:2:0:0:
226,71,91598,1,2,0:0:0:0:
148,36,91761,2,0,L|63:50,1,77.0000023498536,10|2,0:0|0:0,0:0:0:0:
13,109,92085,2,0,L|1:195,1,77.0000023498536,2|2,3:2|0:0,0:0:0:0:
20,267,92409,2,0,L|77:256,3,38.5000011749268,10|2|2|2,0:0|0:0|0:0|0:0,0:0:0:0:
100,254,92734,5,2,3:2:0:0:
234,356,93058,2,0,L|317:346,1,77.0000023498536,10|2,0:0|0:0,0:0:0:0:
377,295,93382,1,2,3:2:0:0:
377,295,93463,1,2,3:2:0:0:
377,295,93544,2,0,L|382:245,2,38.5000011749268,2|2|6,3:2|3:2|3:2,0:0:0:0:
256,192,93788,12,0,96625,0:0:0:0:
