osu file format v14

[General]
AudioFilename: audio.mp3
AudioLeadIn: 0
PreviewTime: 62815
Countdown: 0
SampleSet: Soft
StackLeniency: 0.6
Mode: 0
LetterboxInBreaks: 0
WidescreenStoryboard: 1

[Editor]
Bookmarks: 93707,96625
DistanceSpacing: 1.1
BeatDivisor: 4
GridSize: 16
TimelineZoom: 2.2

[Metadata]
Title:TSLove
TitleUnicode:TSLove
Artist:O2i3
ArtistUnicode:O2i3
Creator:Seolv
Version:Easy
Source:osu!
Tags:featured artist fa quest mpg mappers' mappers guild instrumental electronic nymphe kiyoshi guarden alphabet aistre venax lukas [_l_u_k_a_s_]
BeatmapID:2495111
BeatmapSetID:1197928

[Difficulty]
HPDrainRate:2
CircleSize:2.7
OverallDifficulty:2.5
ApproachRate:3
SliderMultiplier:0.8
SliderTickRate:1

[Events]
//Background and Video events
0,0,"Cherry-flowers-blossom-tree-twigs-spring_2560x1440.jpg",0,0
//Break Periods
//Storyboard Layer 0 (Background)
//Storyboard Layer 1 (Fail)
//Storyboard Layer 2 (Pass)
//Storyboard Layer 3 (Foreground)
//Storyboard Layer 4 (Overlay)
//Storyboard Sound Samples

[TimingPoints]
626,324.324324324324,4,2,1,50,1,0
5815,-100,4,2,1,54,0,0
7112,-100,4,2,1,58,0,0
8409,-100,4,2,1,62,0,0
9707,-100,4,2,1,66,0,0
11004,-100,4,2,2,70,0,0
16193,-100,4,2,2,74,0,0
17490,-100,4,2,2,78,0,0
18788,-100,4,2,2,82,0,0
19436,-100,4,2,2,86,0,0
20085,-100,4,2,2,60,0,0
20409,-100,4,2,2,40,0,0
21382,-100,4,2,3,90,0,0
31112,-100,4,2,3,74,0,0
31274,-100,4,2,3,78,0,0
31436,-100,4,2,3,82,0,0
31598,-100,4,2,3,86,0,0
31761,-100,4,2,3,90,0,0
42139,-100,4,2,1,50,0,0
42301,-100,4,2,4,50,0,0
42463,-100,4,2,5,50,0,0
42625,-100,4,2,4,50,0,0
43274,-100,4,2,5,50,0,0
44085,-100,4,2,5,54,0,0
44247,-100,4,2,4,58,0,0
44409,-100,4,2,6,62,0,0
44571,-100,4,2,6,66,0,0
44734,-100,4,2,7,70,0,0
45220,-100,4,2,6,70,0,0
45382,-100,4,2,6,50,0,0
45544,-100,4,2,6,70,0,0
45707,-100,4,2,6,50,0,0
45869,-100,4,2,6,70,0,0
46031,-100,4,2,6,50,0,0
46193,-100,4,2,4,70,0,0
46842,-100,4,2,8,75,0,0
47166,-100,4,2,7,75,0,0
47328,-100,4,2,5,30,0,0
47490,-100,4,2,4,50,0,0
48139,-100,4,2,4,70,0,0
48463,-100,4,2,5,70,0,0
48950,-100,4,2,4,70,0,0
49112,-100,4,2,5,70,0,0
49274,-100,4,2,4,70,0,0
49436,-100,4,2,5,70,0,0
49598,-100,4,2,4,70,0,0
49923,-100,4,2,6,75,0,0
50247,-100,4,2,4,75,0,0
50409,-100,4,2,6,80,0,0
50734,-100,4,2,9,90,0,0
50896,-100,4,2,9,100,0,0
52193,-100,4,2,9,50,0,0
52517,-100,4,2,1,50,0,0
57707,-100,4,2,2,74,0,0
59004,-100,4,2,2,78,0,0
60302,-100,4,2,2,82,0,0
60950,-100,4,2,2,86,0,0
61598,-100,4,2,2,40,0,0
62895,-100,4,2,3,90,0,0
72625,-100,4,2,3,74,0,0
72787,-100,4,2,3,78,0,0
72949,-100,4,2,3,82,0,0
73111,-100,4,2,3,86,0,0
73274,-100,4,2,3,90,0,0
83004,-100,4,2,3,50,0,0
83653,-100,4,2,3,90,0,0
85923,-100,4,2,10,90,0,0
86247,-100,4,2,3,90,0,0
88517,-100,4,2,10,90,0,0
88842,-100,4,2,3,90,0,0
91112,-100,4,2,10,60,0,0
91436,-100,4,2,3,90,0,0
94031,-100,4,2,3,80,0,0
94355,-100,4,2,3,70,0,0
94680,-100,4,2,3,55,0,0
95004,-100,4,2,3,40,0,0
95328,-100,4,2,3,20,0,0
95653,-100,4,2,3,5,0,0

[Colours]
Combo1 : 255,255,128
Combo2 : 128,255,128
Combo3 : 106,203,255
Combo4 : 255,149,223

[HitObjects]
279,322,626,6,0,B|184:349|114:285|177:260|70:183|-8:219,2,320,2|2|2,0:0|0:0|0:0,0:0:0:0:
502,49,4517,2,0,P|432:50|359:185,1,240,2|10,0:0|1:2,0:0:0:0:
256,192,5815,12,0,9707,0:0:0:0:
173,148,11004,6,0,P|62:166|79:355,2,320,6|2|2,3:2|3:2|3:2,0:0:0:0:
280,218,14247,1,2,3:2:0:0:
405,190,14896,2,0,P|424:129|367:38,1,160,2|2,3:2|3:2,0:0:0:0:
257,19,16193,6,0,B|158:35|224:96|112:115,1,160,6|2,1:2|1:2,0:0:0:0:
70,107,17166,1,10,1:2:0:0:
35,53,17490,1,2,1:2:0:0:
256,192,17653,12,8,20085,1:2:0:0:
243,69,21382,6,0,P|166:93|140:177,1,160,6|2,3:2|3:2,0:0:0:0:
154,223,22355,1,10,3:2:0:0:
192,274,22680,2,0,L|293:255,1,80,2|10,3:2|3:2,0:0:0:0:
333,245,23328,1,2,3:2:0:0:
386,128,23977,6,0,P|384:73|368:18,1,80,6|10,3:2|3:2,0:0:0:0:
333,4,24625,1,2,3:2:0:0:
231,81,25274,2,0,P|176:79|121:63,1,80,2|10,3:2|3:2,0:0:0:0:
99,36,25923,1,2,3:2:0:0:
26,141,26571,6,0,P|50:200|65:300,1,160,6|2,3:2|3:2,0:0:0:0:
45,355,27544,1,10,3:2:0:0:
103,380,27869,2,0,L|204:364,1,80,2|10,3:2|3:2,0:0:0:0:
243,350,28517,1,2,3:2:0:0:
342,268,29166,6,0,P|352:218|342:177,1,80,6|10,3:2|3:2,0:0:0:0:
308,138,29815,2,0,P|303:98|313:59,1,80,2|10,3:2|3:2,0:0:0:0:
353,10,30463,1,4,3:3:0:0:
473,52,31112,2,0,L|488:140,1,80,4|4,3:3|3:3,0:0:0:0:
484,194,31761,6,0,B|439:208|439:208|415:247|415:247|332:269,1,160,6|2,3:2|3:2,0:0:0:0:
288,281,32734,1,10,3:2:0:0:
225,268,33059,2,0,P|204:237|199:187,1,80,2|8,3:2|3:2,0:0:0:0:
211,133,33707,1,2,3:2:0:0:
96,75,34356,6,0,B|54:75|54:75|7:101,1,80,6|10,3:2|3:2,0:0:0:0:
6,155,35004,1,2,3:2:0:0:
74,263,35653,2,0,B|116:263|116:263|163:237,1,80,2|10,3:2|3:2,0:0:0:0:
164,183,36301,1,2,3:2:0:0:
221,68,36950,6,0,P|281:58|354:139,1,160,6|2,3:2|3:2,0:0:0:0:
354,184,37923,1,10,3:2:0:0:
315,235,38248,2,0,L|331:336,1,80,2|8,3:2|3:2,0:0:0:0:
339,376,38896,1,2,3:2:0:0:
210,373,39545,6,0,L|125:365,1,80,6|10,3:2|3:2,0:0:0:0:
66,359,40193,2,0,L|73:279,1,80,2|10,3:2|3:2,0:0:0:0:
83,216,40842,1,4,3:3:0:0:
209,196,41490,1,0,3:2:0:0:
333,167,42139,1,6,3:2:0:0:
56,9,44085,6,0,P|41:53|42:102,1,80,8|2,0:0|0:0,0:0:0:0:
41,151,44734,2,0,B|198:187|126:56|306:92,1,280,8|8,0:0|0:0,0:0:0:0:
462,360,48139,5,8,0:0:0:0:
398,374,48463,2,0,P|322:373|193:318,1,200,8|8,0:0|0:0,0:0:0:0:
279,167,49923,2,0,P|355:168|392:193,1,120,2|8,0:0|0:0,0:0:0:0:
480,287,50896,1,8,0:0:0:0:
416,23,52517,6,0,P|377:53|284:50,1,120,6|2,0:2|0:2,0:0:0:0:
249,33,53328,2,0,P|189:35|172:243,1,320,2|2,0:2|0:2,0:0:0:0:
264,323,55274,6,0,B|381:309|381:309|406:260,1,160,2|2,0:2|0:2,0:0:0:0:
352,188,56409,2,0,B|235:202|235:202|210:251,1,160,2|2,1:2|1:2,0:0:0:0:
169,359,57707,6,0,B|37:343|37:343|14:316|19:265,1,200,6|2,1:2|1:2,0:0:0:0:
66,197,59004,2,0,L|169:203,1,80,2|10,1:2|1:2,0:0:0:0:
194,243,59653,2,0,L|294:235,1,80,2|10,1:2|1:2,0:0:0:0:
256,192,60301,12,2,61598,0:0:0:0:
445,35,62896,6,0,B|398:37|398:37|365:89|365:89|294:89,1,160,6|2,3:2|3:2,0:0:0:0:
249,85,63869,1,10,3:2:0:0:
190,110,64193,2,0,P|181:153|202:191,1,80,2|8,3:2|3:2,0:0:0:0:
241,229,64842,1,2,3:2:0:0:
368,235,65491,6,0,L|478:217,2,80,6|10|2,3:2|3:2|3:2,0:0:0:0:
316,272,66463,1,10,3:2:0:0:
270,317,66788,2,0,L|191:304,1,80,2|10,3:2|3:2,0:0:0:0:
127,295,67437,1,2,3:2:0:0:
51,192,68085,6,0,P|123:157|210:153,1,160,6|2,3:2|3:2,0:0:0:0:
262,172,69058,1,10,3:2:0:0:
316,138,69383,2,0,P|320:98|314:49,1,80,2|10,3:2|3:2,0:0:0:0:
279,5,70031,1,2,3:2:0:0:
161,56,70680,6,0,P|121:60|76:82,1,80,6|10,3:2|3:2,0:0:0:0:
39,121,71328,2,0,P|23:157|19:207,1,80,2|10,3:2|3:2,0:0:0:0:
46,254,71977,1,4,3:3:0:0:
144,335,72626,2,0,L|222:321,1,80,4|4,3:3|3:3,0:0:0:0:
286,323,73274,6,0,B|303:234|252:257|276:164,1,160,6|2,3:2|3:2,0:0:0:0:
309,112,74247,1,10,3:2:0:0:
360,74,74572,2,0,L|452:84,1,80,2|10,3:2|3:2,0:0:0:0:
502,95,75220,1,2,3:2:0:0:
428,199,75869,6,0,P|382:194|343:213,2,80,6|10|2,3:2|3:2|3:2,0:0:0:0:
466,249,76841,1,10,3:2:0:0:
435,305,77166,2,0,P|397:318|358:312,1,80,2|10,3:2|3:2,0:0:0:0:
301,283,77815,1,2,3:2:0:0:
230,176,78463,6,0,B|146:168|146:168|79:216,1,160,6|2,3:2|3:2,0:0:0:0:
48,265,79436,1,10,3:2:0:0:
53,328,79761,2,0,P|94:344|143:329,1,80,2|10,3:2|3:2,0:0:0:0:
179,298,80409,1,2,3:2:0:0:
230,176,81058,6,0,L|214:81,1,80,6|10,3:2|3:2,0:0:0:0:
205,34,81707,2,0,L|283:20,1,80,2|10,3:2|3:2,0:0:0:0:
346,10,82355,1,4,3:3:0:0:
399,44,82680,1,4,3:3:0:0:
268,185,83653,6,0,B|172:210|233:258|142:279,2,160,6|2|2,3:2|3:2|3:2,0:0:0:0:
330,202,85274,1,10,0:2:0:0:
367,253,85598,1,2,3:2:0:0:
274,336,86247,6,0,P|222:276|138:282,1,160,6|2,3:2|3:2,0:0:0:0:
94,315,87220,1,10,0:0:0:0:
47,359,87544,2,0,L|16:196,1,160,2|2,3:2|3:2,0:0:0:0:
54,79,88842,6,0,B|89:39|89:39|136:27|213:51,2,160,6|2|2,3:2|3:2|3:2,0:0:0:0:
24,135,90463,1,10,0:0:0:0:
40,196,90787,1,2,3:2:0:0:
134,282,91436,6,0,P|205:299|274:241,1,160,6|2,3:2|3:2,0:0:0:0:
297,191,92409,1,10,0:0:0:0:
315,129,92734,2,0,L|301:30,2,80,2|10|2,3:2|0:0|3:2,0:0:0:0:
256,192,93707,12,0,96625,0:0:0:0:
