osu file format v14

[General]
AudioFilename: audio.mp3
AudioLeadIn: 0
PreviewTime: 62815
Countdown: 0
SampleSet: Soft
StackLeniency: 0.7
Mode: 0
LetterboxInBreaks: 0
WidescreenStoryboard: 1

[Editor]
Bookmarks: 49923,93707,96625
DistanceSpacing: 1.1
BeatDivisor: 4
GridSize: 16
TimelineZoom: 2.2

[Metadata]
Title:TSLove
TitleUnicode:TSLove
Artist:O2i3
ArtistUnicode:O2i3
Creator:Seolv
Version:Collab Insane
Source:osu!
Tags:featured artist fa quest mpg mappers' mappers guild instrumental electronic nymphe kiyoshi guarden alphabet aistre venax lukas [_l_u_k_a_s_]
BeatmapID:2495110
BeatmapSetID:1197928

[Difficulty]
HPDrainRate:4.8
CircleSize:4
OverallDifficulty:8.2
ApproachRate:9
SliderMultiplier:1.7
SliderTickRate:1

[Events]
//Background and Video events
0,0,"Cherry-flowers-blossom-tree-twigs-spring_2560x1440.jpg",0,0
//Break Periods
//Storyboard Layer 0 (Background)
//Storyboard Layer 1 (Fail)
//Storyboard Layer 2 (Pass)
//Storyboard Layer 3 (Foreground)
//Storyboard Layer 4 (Overlay)
//Storyboard Sound Samples

[TimingPoints]
626,324.324324324324,4,2,1,50,1,0
626,-200,4,2,1,50,0,0
5815,-166.666666666667,4,2,1,54,0,0
7112,-166.666666666667,4,2,1,58,0,0
8409,-166.666666666667,4,2,1,62,0,0
9707,-166.666666666667,4,2,1,66,0,0
11004,-166.666666666667,4,2,2,70,0,0
14247,-166.666666666667,4,2,2,70,0,0
14896,-125,4,2,2,70,0,0
15544,-111.111111111111,4,2,2,70,0,0
16193,-111.111111111111,4,2,2,74,0,0
17490,-111.111111111111,4,2,2,78,0,0
18788,-111.111111111111,4,2,2,82,0,0
19436,-83.3333333333333,4,2,2,86,0,0
20085,-500,4,2,2,60,0,0
20409,-500,4,2,2,40,0,0
21382,-90.9090909090909,4,2,3,90,0,0
22031,-90.9090909090909,4,2,3,90,0,0
23977,-90.9090909090909,4,2,3,90,0,0
31112,-90.9090909090909,4,2,3,74,0,0
31274,-90.9090909090909,4,2,3,78,0,0
31436,-90.9090909090909,4,2,3,82,0,0
31598,-90.9090909090909,4,2,3,86,0,0
31761,-90.9090909090909,4,2,3,90,0,0
41490,-100,4,2,3,90,0,0
42139,-200,4,2,1,50,0,0
42301,-200,4,2,4,50,0,0
42463,-200,4,2,5,50,0,0
42625,-200,4,2,4,50,0,0
43274,-200,4,2,5,50,0,0
44085,-200,4,2,5,54,0,0
44247,-200,4,2,4,58,0,0
44409,-200,4,2,6,62,0,0
44571,-200,4,2,6,66,0,0
44734,-200,4,2,7,70,0,0
45220,-200,4,2,6,70,0,0
45382,-200,4,2,6,50,0,0
45544,-200,4,2,6,70,0,0
45707,-200,4,2,6,50,0,0
45869,-200,4,2,6,70,0,0
46031,-200,4,2,6,50,0,0
46193,-200,4,2,4,70,0,0
46842,-200,4,2,8,75,0,0
47166,-200,4,2,7,75,0,0
47328,-200,4,2,5,30,0,0
47490,-200,4,2,4,50,0,0
48139,-200,4,2,4,70,0,0
48463,-200,4,2,5,70,0,0
48950,-200,4,2,4,70,0,0
49112,-200,4,2,5,70,0,0
49274,-200,4,2,4,70,0,0
49436,-200,4,2,5,70,0,0
49598,-200,4,2,4,70,0,0
49923,-200,4,2,6,75,0,0
50247,-200,4,2,4,75,0,0
50409,-200,4,2,6,80,0,0
50734,-200,4,2,9,90,0,0
50896,-200,4,2,9,100,0,0
52193,-200,4,2,9,50,0,0
52517,-200,4,2,1,50,0,0
57707,-166.666666666667,4,2,2,74,0,0
59004,-142.857142857143,4,2,2,78,0,0
59653,-125,4,2,2,78,0,0
60301,-100,4,2,2,78,0,0
60302,-100,4,2,2,82,0,0
60950,-100,4,2,2,86,0,0
61598,-100,4,2,2,40,0,0
62895,-100,4,2,3,90,0,0
62896,-90.9090909090909,4,2,3,90,0,0
72625,-90.9090909090909,4,2,3,74,0,0
72787,-90.9090909090909,4,2,3,78,0,0
72949,-90.9090909090909,4,2,3,82,0,0
73111,-90.9090909090909,4,2,3,86,0,0
73274,-90.9090909090909,4,2,3,90,0,0
83004,-90.9090909090909,4,2,3,50,0,0
83653,-90.9090909090909,4,2,3,90,0,0
85923,-90.9090909090909,4,2,10,90,0,0
86247,-90.9090909090909,4,2,3,90,0,0
88517,-90.9090909090909,4,2,10,90,0,0
88842,-90.9090909090909,4,2,3,90,0,0
91112,-90.9090909090909,4,2,10,60,0,0
91436,-90.9090909090909,4,2,3,90,0,0
94031,-90.9090909090909,4,2,3,80,0,0
94355,-90.9090909090909,4,2,3,70,0,0
94680,-90.9090909090909,4,2,3,55,0,0
95004,-90.9090909090909,4,2,3,40,0,0
95328,-90.9090909090909,4,2,3,20,0,0
95653,-90.9090909090909,4,2,3,5,0,0

[Colours]
Combo1 : 255,255,128
Combo2 : 128,255,128
Combo3 : 106,203,255
Combo4 : 255,149,223

[HitObjects]
167,290,626,6,0,P|145:313|122:321,2,42.5,2|2|10,0:2|0:2|0:2,0:0:0:0:
242,262,1112,2,0,P|250:291|246:315,2,42.5,2|2|2,0:2|0:2|0:2,0:0:0:0:
164,203,1598,1,10,0:2:0:0:
171,196,1761,1,2,0:2:0:0:
238,144,1923,6,0,L|291:125,2,42.5,2|2|10,0:2|0:2|0:2,0:0:0:0:
163,103,2409,2,0,L|111:85,2,42.5,2|2|2,0:2|0:2|0:2,0:0:0:0:
228,36,2896,1,10,0:2:0:0:
237,45,3058,1,2,0:2:0:0:
327,75,3220,6,0,P|341:44|344:20,2,42.5,2|2|10,0:2|0:2|0:2,0:0:0:0:
340,153,3707,2,0,P|373:149|396:140,2,42.5,2|2|2,0:2|0:2|0:2,0:0:0:0:
234,151,4193,1,10,0:2:0:0:
242,136,4355,1,2,0:2:0:0:
297,217,4517,6,0,L|304:267,2,42.5,2|2|10,0:2|0:2|0:2,0:0:0:0:
215,298,5004,2,0,L|220:255,2,42.5,2|2|2,0:2|0:2|0:2,0:0:0:0:
100,247,5490,1,10,1:2:0:0:
142,183,5653,1,2,0:2:0:0:
47,177,5815,6,0,P|17:206|11:230,2,50.9999984436036,2|2|10,0:2|0:2|0:2,0:0:0:0:
92,107,6301,2,0,P|61:90|32:95,2,50.9999984436036,2|2|2,0:2|0:2|0:2,0:0:0:0:
205,143,6788,1,10,0:2:0:0:
212,119,6950,1,2,0:2:0:0:
256,192,7112,12,2,10842,0:2:0:0:
121,66,11004,6,0,L|109:126,1,50.9999984436036,6|2,3:2|0:0,0:0:0:0:
194,120,11328,1,10,0:2:0:0:
194,120,11490,2,0,L|204:235,1,101.999996887207,2|2,0:0|0:0,0:0:0:0:
276,311,11977,1,8,0:2:0:0:
282,287,12139,1,2,0:0:0:0:
197,339,12301,6,0,L|132:329,1,50.9999984436036,2|2,3:2|0:0,0:0:0:0:
22,262,12625,1,8,0:2:0:0:
22,262,12788,2,0,L|127:254,1,101.999996887207,2|2,0:0|0:0,0:0:0:0:
211,195,13274,1,10,0:2:0:0:
186,183,13436,1,2,0:0:0:0:
250,124,13598,6,0,L|312:118,1,50.9999984436036,2|2,3:2|0:0,0:0:0:0:
395,54,13923,1,10,0:2:0:0:
376,40,14085,1,2,0:0:0:0:
429,135,14247,2,0,L|424:206,1,50.9999984436036,2|2,3:2|0:0,0:0:0:0:
351,253,14571,2,0,L|346:182,1,50.9999984436036,10|2,0:2|0:0,0:0:0:0:
278,301,14896,6,0,P|240:310|195:300,1,68,2|2,3:2|0:0,0:0:0:0:
92,213,15220,2,0,P|125:209|158:218,1,68,10|2,0:2|0:0,0:0:0:0:
126,370,15544,2,0,P|121:313|127:278,1,76.4999976654053,2|2,3:2|0:0,0:0:0:0:
233,147,15869,2,0,P|244:205|233:248,1,76.4999976654053,10|2,0:2|0:0,0:0:0:0:
266,354,16193,6,0,L|359:338,1,76.4999976654053,6|2,1:2|1:2,0:0:0:0:
490,270,16517,2,0,L|414:257,1,76.4999976654053,10|2,1:2|1:2,0:0:0:0:
271,184,16842,1,2,1:2:0:0:
370,108,17004,1,2,1:2:0:0:
322,251,17166,1,10,1:2:0:0:
230,101,17328,1,2,1:2:0:0:
158,284,17490,6,0,L|148:192,1,76.4999976654053,2|2,1:2|1:2,0:0:0:0:
285,36,17815,2,0,L|276:112,1,76.4999976654053,10|2,1:2|1:2,0:0:0:0:
362,304,18139,1,2,1:2:0:0:
419,136,18301,1,2,1:2:0:0:
271,272,18463,1,10,1:2:0:0:
475,279,18625,1,2,1:2:0:0:
314,143,18788,5,2,1:2:0:0:
314,143,18869,1,0,1:2:0:0:
314,143,18950,1,0,1:2:0:0:
314,143,19031,1,0,1:2:0:0:
314,143,19112,2,0,L|251:129,3,38.2499988327027,0|0|0|0,1:2|1:2|1:2|1:2,0:0:0:0:
389,184,19436,6,0,B|344:159|304:184|324:208|289:235|235:216,1,152.999995330811,0|0,1:2|1:2,0:0:0:0:
206,224,19761,2,0,L|199:297,1,50.9999984436036,0|0,1:2|1:2,0:0:0:0:
114,336,19923,2,0,L|109:285,1,50.9999984436036,0|0,1:2|1:2,0:0:0:0:
38,172,20085,6,0,L|27:297,1,119,8|0,1:2|0:0,0:0:0:0:
120,142,21382,6,0,B|169:122|223:142|187:178|240:207|303:190,1,187.000005706787,6|10,3:2|3:2,0:0:0:0:
402,113,21869,1,2,0:0:0:0:
402,113,21950,1,2,0:0:0:0:
402,113,22031,2,0,L|394:233,1,93.5000028533936,2|2,3:2|0:0,0:0:0:0:
508,292,22355,2,0,L|501:198,1,93.5000028533936,10|2,3:2|0:0,0:0:0:0:
346,42,22680,5,2,3:2:0:0:
281,129,22842,1,2,0:0:0:0:
281,129,22923,1,2,0:0:0:0:
281,129,23004,2,0,P|224:141|174:117,1,93.5000028533936,10|2,3:2|0:0,0:0:0:0:
118,21,23328,2,0,P|163:11|207:27,1,93.5000028533936,2|0,3:2|0:0,0:0:0:0:
280,260,23653,1,4,3:0:0:0:
280,260,23977,6,0,B|218:267|174:232|211:202|154:160|83:180,1,187.000005706787,6|10,3:2|3:2,0:0:0:0:
14,75,24463,1,2,0:0:0:0:
14,75,24544,1,2,0:0:0:0:
14,75,24625,2,0,P|25:126|23:204,1,93.5000028533936,2|2,3:2|0:0,0:0:0:0:
83,335,24950,2,0,P|85:288|95:242,1,93.5000028533936,10|2,3:2|0:0,0:0:0:0:
151,44,25274,5,2,3:2:0:0:
249,173,25436,1,2,0:0:0:0:
249,173,25517,1,2,0:0:0:0:
249,173,25598,2,0,L|143:155,1,93.5000028533936,10|2,3:2|0:0,0:0:0:0:
283,55,25923,1,2,3:2:0:0:
351,202,26085,1,4,2:3:0:0:
420,25,26247,2,0,P|440:73|442:150,1,93.5000028533936,4|0,3:0|0:0,0:0:0:0:
355,318,26571,6,0,P|426:329|484:234,1,187.000005706787,6|10,3:2|3:2,0:0:0:0:
359,111,27058,1,2,0:0:0:0:
359,111,27139,1,2,0:0:0:0:
359,111,27220,2,0,L|240:93,1,93.5000028533936,2|2,3:2|0:0,0:0:0:0:
171,244,27544,2,0,L|290:226,1,93.5000028533936,10|2,3:2|0:0,0:0:0:0:
134,46,27869,5,2,3:2:0:0:
66,145,28031,1,2,0:0:0:0:
66,145,28112,1,2,0:0:0:0:
66,145,28193,2,0,P|80:209|78:263,1,93.5000028533936,10|2,3:2|0:0,0:0:0:0:
177,375,28517,2,0,P|179:328|191:283,1,93.5000028533936,2|0,3:2|0:0,0:0:0:0:
336,179,28842,1,4,3:0:0:0:
336,179,29166,6,0,L|153:144,1,187.000005706787,6|10,3:2|3:2,0:0:0:0:
65,43,29653,1,2,0:0:0:0:
65,43,29734,1,2,0:0:0:0:
65,43,29815,2,0,P|111:19|178:30,1,93.5000028533936,2|2,3:2|0:0,0:0:0:0:
174,248,30139,2,0,P|127:247|87:224,1,93.5000028533936,10|2,3:2|0:0,0:0:0:0:
215,82,30463,5,4,3:3:0:0:
267,211,30625,1,2,0:0:0:0:
375,65,30788,2,0,L|362:166,1,93.5000028533936,4|0,3:3|0:0,0:0:0:0:
303,314,31112,5,4,3:3:0:0:
188,176,31274,1,4,3:3:0:0:
394,249,31436,1,4,3:3:0:0:
225,365,31598,1,4,3:3:0:0:
363,157,31761,6,0,P|434:141|492:244,1,187.000005706787,6|10,3:2|3:2,0:0:0:0:
330,350,32247,1,2,0:0:0:0:
330,350,32328,1,2,0:0:0:0:
330,350,32409,2,0,P|275:351|233:328,1,93.5000028533936,2|2,3:2|0:0,0:0:0:0:
167,151,32734,2,0,P|209:132|255:135,1,93.5000028533936,10|2,3:2|0:0,0:0:0:0:
134,318,33058,5,2,3:2:0:0:
35,217,33220,1,2,0:0:0:0:
35,217,33301,1,2,0:0:0:0:
35,217,33382,2,0,L|38:94,1,93.5000028533936,10|2,3:2|0:0,0:0:0:0:
142,18,33707,2,0,L|147:117,1,93.5000028533936,2|0,3:2|0:0,0:0:0:0:
219,255,34031,1,4,3:0:0:0:
219,255,34355,6,0,B|265:224|327:241|299:277|357:301|412:280,1,187.000005706787,6|10,3:2|3:2,0:0:0:0:
483,121,34842,1,2,0:0:0:0:
483,121,34923,1,2,0:0:0:0:
483,121,35004,2,0,P|472:167|473:228,1,93.5000028533936,2|2,3:2|0:0,0:0:0:0:
327,126,35328,2,0,P|326:79|315:33,1,93.5000028533936,10|2,3:2|0:0,0:0:0:0:
228,194,35652,5,2,3:2:0:0:
339,315,35815,1,2,0:0:0:0:
339,315,35896,1,2,0:0:0:0:
339,315,35977,2,0,L|238:305,1,93.5000028533936,10|2,3:2|0:0,0:0:0:0:
69,225,36301,1,2,3:2:0:0:
121,359,36463,1,4,2:3:0:0:
188,161,36625,2,0,L|176:253,1,93.5000028533936,4|0,3:0|0:0,0:0:0:0:
70,124,36950,6,0,P|100:48|220:72,1,187.000005706787,6|10,3:2|3:2,0:0:0:0:
298,252,37436,1,2,0:0:0:0:
298,252,37517,1,2,0:0:0:0:
298,252,37598,2,0,P|235:248|194:210,1,93.5000028533936,2|2,3:2|0:0,0:0:0:0:
280,61,37923,2,0,P|320:39|366:40,1,93.5000028533936,10|2,3:2|0:0,0:0:0:0:
482,209,38247,5,2,3:2:0:0:
374,134,38409,1,2,0:0:0:0:
374,134,38490,1,2,0:0:0:0:
374,134,38571,2,0,L|389:244,1,93.5000028533936,10|2,3:2|0:0,0:0:0:0:
233,377,38896,2,0,L|242:283,1,93.5000028533936,2|0,3:2|0:0,0:0:0:0:
155,122,39220,1,4,3:0:0:0:
155,122,39544,6,0,B|226:124|258:95|225:72|274:37|359:63,1,187.000005706787,6|10,3:2|3:2,0:0:0:0:
434,156,40031,1,2,0:0:0:0:
434,156,40112,1,2,0:0:0:0:
434,156,40193,2,0,L|341:142,1,93.5000028533936,2|2,3:2|0:0,0:0:0:0:
232,265,40517,2,0,L|341:249,1,93.5000028533936,10|2,3:2|0:0,0:0:0:0:
268,355,40842,5,4,3:3:0:0:
200,186,41004,1,2,0:0:0:0:
120,357,41166,2,0,P|49:344|30:302,1,93.5000028533936,4|0,3:3|0:0,0:0:0:0:
123,130,41490,1,0,3:2:0:0:
188,279,41815,5,0,3:2:0:0:
294,108,42139,6,0,P|322:91|347:87,2,42.5,6|2|2,3:2|0:0|0:0,0:0:0:0:
219,117,42625,2,0,P|218:84|227:60,2,42.5,8|8|8,0:0|0:0|0:0,0:0:0:0:
276,186,43112,1,8,0:0:0:0:
287,204,43274,1,8,0:0:0:0:
216,257,43436,6,0,L|165:247,2,42.5,8|8|8,0:0|0:0|0:0,0:0:0:0:
277,324,43923,2,0,L|328:314,2,42.5,8|8|2,0:0|0:0|0:0,0:0:0:0:
172,365,44409,1,2,0:0:0:0:
159,351,44571,1,8,0:0:0:0:
90,290,44734,6,0,P|69:307|61:327,2,42.5,8|2|2,0:0|0:0|0:0,0:0:0:0:
132,226,45220,2,0,P|96:210|78:211,2,42.5,8|8|2,0:0|0:0|0:0,0:0:0:0:
208,275,45707,1,8,0:0:0:0:
195,291,45869,1,8,0:0:0:0:
292,238,46031,6,0,L|333:222,2,42.5,8|2|0,0:0|0:0|0:0,0:0:0:0:
388,327,46517,2,0,L|347:311,2,42.5,2|0|8,0:0|0:0|0:0,0:0:0:0:
475,287,47004,1,2,0:0:0:0:
458,276,47166,1,8,0:0:0:0:
489,161,47328,6,0,P|508:194|509:217,2,42.5,0|0|0,0:0|0:0|0:0,0:0:0:0:
417,111,47815,2,0,P|403:145|404:170,2,42.5,0|0|8,0:0|0:0|0:0,0:0:0:0:
474,12,48301,1,0,0:0:0:0:
493,33,48463,1,8,0:0:0:0:
372,24,48625,6,0,P|343:10|319:9,2,42.5,0|8|8,0:0|0:0|0:0,0:0:0:0:
278,108,49112,2,0,P|298:103|316:92,2,42.5,8|8|8,0:0|0:0|0:0,0:0:0:0:
225,180,49598,2,0,P|236:197|241:218,1,42.5,2|8,0:0|0:0,0:0:0:0:
154,311,49923,5,2,0:0:0:0:
80,273,50085,2,0,L|70:231,1,42.5,0|8,0:0|0:0,0:0:0:0:
129,147,50409,2,0,L|149:239,1,85,8|2,0:0|0:0,0:0:0:0:
85,355,50896,2,0,L|43:364,1,42.5,8|0,0:0|0:0,0:0:0:0:
256,192,51220,12,0,52193,0:0:0:0:
485,92,52517,5,6,0:2:0:0:
431,149,52680,1,2,0:2:0:0:
357,122,52842,1,2,1:2:0:0:
273,184,53004,5,2,0:2:0:0:
275,198,53085,1,2,0:2:0:0:
277,214,53166,1,2,1:2:0:0:
357,122,53328,1,2,0:2:0:0:
357,122,53653,1,2,0:2:0:0:
196,86,53977,5,2,0:2:0:0:
196,86,54301,1,2,0:2:0:0:
102,222,54625,6,0,P|156:222|188:250,1,85,2|2,0:2|0:2,0:0:0:0:
179,239,55112,1,2,1:2:0:0:
116,308,55274,6,0,L|16:329,1,85,2|2,0:2|0:2,0:0:0:0:
102,222,55761,2,0,L|69:228,4,21.25,2|2|2|2|2,1:2|0:2|0:2|0:2|1:2,0:0:0:0:
8,201,56247,2,0,L|0:242,1,42.5,2|2,0:2|1:2,0:0:0:0:
73,149,56571,5,2,0:2:0:0:
133,102,56734,1,2,1:2:0:0:
63,74,56896,1,2,1:2:0:0:
84,161,57058,5,2,1:2:0:0:
177,182,57220,1,2,1:2:0:0:
270,203,57382,1,2,1:2:0:0:
270,203,57707,6,0,L|265:271,1,50.9999984436036,6|2,1:2|1:2,0:0:0:0:
273,152,58031,2,0,L|268:220,1,50.9999984436036,10|2,1:2|1:2,0:0:0:0:
164,224,58355,6,0,L|193:285,1,50.9999984436036,2|2,1:2|1:2,0:0:0:0:
141,178,58679,2,0,L|170:239,1,50.9999984436036,10|2,1:2|1:2,0:0:0:0:
392,290,59004,6,0,L|459:275,1,59.4999981842042,2|2,1:2|1:2,0:0:0:0:
282,343,59328,2,0,L|349:358,1,59.4999981842042,10|2,1:2|1:2,0:0:0:0:
163,223,59653,6,0,L|148:290,1,68,2|2,1:2|1:2,0:0:0:0:
278,115,59977,2,0,L|293:182,1,68,10|2,1:2|1:2,0:0:0:0:
111,73,60301,5,2,1:2:0:0:
111,73,60382,1,0,1:2:0:0:
111,73,60463,1,0,1:2:0:0:
111,73,60544,1,0,1:2:0:0:
111,73,60625,2,0,L|182:59,3,42.5,0|0|0|0,1:2|1:2|1:2|1:2,0:0:0:0:
185,62,60950,2,0,B|185:113|185:113|193:134|193:134|193:204,1,127.5,0|0,1:2|1:2,0:0:0:0:
206,207,61274,2,0,L|263:199,1,42.5,0|0,1:2|1:2,0:0:0:0:
293,138,61436,2,0,L|350:146,1,42.5,0|0,1:2|1:2,0:0:0:0:
403,183,61598,5,2,0:0:0:0:
403,183,62896,6,0,P|434:248|397:310,1,140.25000428009,6|0,3:2|0:0,0:0:0:0:
387,321,63220,2,0,L|278:303,1,93.5000028533936,10|2,3:2|0:0,0:0:0:0:
144,207,63544,1,2,3:2:0:0:
279,131,63707,1,2,0:0:0:0:
176,308,63869,2,0,P|129:309|90:285,1,93.5000028533936,10|2,3:2|0:0,0:0:0:0:
82,275,64112,1,2,0:0:0:0:
77,264,64194,1,2,3:2:0:0:
233,127,64355,6,0,L|294:133,2,46.7500014266968,2|2|10,0:0|0:0|3:2,0:0:0:0:
87,129,64680,1,2,0:0:0:0:
236,38,64842,2,0,B|250:82|250:82|232:128,1,93.5000028533936,2|0,3:2|0:0,0:0:0:0:
90,285,65167,1,4,3:0:0:0:
284,363,65490,6,0,B|358:340|358:340|371:317|371:317|479:284,1,187.000005706787,6|10,3:2|3:2,0:0:0:0:
394,351,65977,1,2,0:0:0:0:
285,260,66139,2,0,P|272:213|272:167,1,93.5000028533936,2|2,3:2|0:0,0:0:0:0:
387,78,66463,2,0,P|400:125|399:170,1,93.5000028533936,10|2,3:2|0:0,0:0:0:0:
281,274,66788,5,2,3:2:0:0:
180,105,66950,1,2,0:0:0:0:
180,105,67031,1,2,0:0:0:0:
180,105,67112,2,0,L|284:85,1,93.5000028533936,10|2,3:2|0:0,0:0:0:0:
162,320,67436,2,0,P|116:316|107:312,1,46.7500014266968,2|2,3:2|2:2,0:0:0:0:
47,272,67599,1,4,2:3:0:0:
180,186,67761,1,4,3:0:0:0:
50,25,68085,6,0,P|28:94|86:167,1,140.25000428009,6|0,3:2|0:0,0:0:0:0:
73,166,68409,2,0,L|182:142,1,93.5000028533936,10|2,3:2|0:0,0:0:0:0:
251,1,68734,2,0,L|199:7,2,46.7500014266968,2|2|2,3:2|0:0|0:0,0:0:0:0:
384,80,69058,1,10,3:2:0:0:
384,80,69139,1,2,0:0:0:0:
384,80,69220,2,0,L|378:126,2,46.7500014266968,2|2|2,0:0|0:0|3:2,0:0:0:0:
229,214,69544,6,0,L|172:224,1,46.7500014266968,2|2,0:0|0:0,0:0:0:0:
155,213,69707,2,0,L|247:196,1,93.5000028533936,10|2,3:2|0:0,0:0:0:0:
161,383,70031,2,0,L|144:290,1,93.5000028533936,2|0,3:2|0:0,0:0:0:0:
114,138,70356,1,4,3:0:0:0:
452,55,70680,6,0,B|343:53|388:137|282:133,1,187.000005706787,6|10,3:2|3:2,0:0:0:0:
234,78,71167,1,2,0:0:0:0:
124,258,71329,2,0,P|100:212|111:145,1,93.5000028533936,2|0,3:2|0:0,0:0:0:0:
291,133,71653,2,0,P|315:179|304:246,1,93.5000028533936,10|2,3:2|0:0,0:0:0:0:
96,367,71977,5,4,3:3:0:0:
291,133,72301,1,4,3:3:0:0:
245,349,72626,5,4,3:3:0:0:
188,297,72788,5,4,3:3:0:0:
158,207,72950,5,4,3:3:0:0:
184,87,73112,5,4,3:3:0:0:
314,11,73275,6,0,P|383:3|426:73,1,140.25000428009,6|0,3:2|0:0,0:0:0:0:
433,72,73598,2,0,L|421:180,1,93.5000028533936,10|2,3:2|0:0,0:0:0:0:
270,245,73922,1,2,3:2:0:0:
192,148,74085,1,2,0:0:0:0:
362,227,74247,2,0,P|363:273|339:312,1,93.5000028533936,10|2,3:2|0:0,0:0:0:0:
328,326,74490,1,2,0:0:0:0:
315,336,74572,1,2,3:2:0:0:
192,148,74733,6,0,L|177:84,2,46.7500014266968,2|2|10,0:0|0:0|3:2,0:0:0:0:
228,271,75058,1,2,0:0:0:0:
176,88,75220,2,0,B|220:70|220:70|264:84,1,93.5000028533936,2|0,3:2|0:0,0:0:0:0:
229,291,75545,1,4,3:0:0:0:
19,114,75869,6,0,B|41:77|41:77|83:145|48:230,1,187.000005706787,6|10,3:2|3:2,0:0:0:0:
0,332,76355,1,2,0:0:0:0:
134,384,76517,2,0,P|184:352|229:353,1,93.5000028533936,2|2,3:2|0:0,0:0:0:0:
328,243,76842,2,0,P|282:237|245:209,1,93.5000028533936,10|2,3:2|0:0,0:0:0:0:
353,361,77166,5,2,3:2:0:0:
446,290,77328,1,2,0:0:0:0:
446,290,77409,1,2,0:0:0:0:
446,290,77490,2,0,L|426:186,1,93.5000028533936,10|2,3:2|0:0,0:0:0:0:
314,103,77814,2,0,P|308:125|309:149,1,46.7500014266968,2|2,3:2|2:2,0:0:0:0:
352,211,77977,1,4,2:3:0:0:
456,115,78139,1,4,3:0:0:0:
55,24,78463,6,0,B|41:74|41:74|54:175,1,140.25000428009,6|0,3:2|0:0,0:0:0:0:
56,175,78787,2,0,P|102:186|154:148,1,93.5000028533936,10|2,3:2|0:0,0:0:0:0:
203,10,79112,2,0,L|154:20,2,46.7500014266968,2|2|2,3:2|0:0|0:0,0:0:0:0:
325,127,79436,1,10,3:2:0:0:
325,127,79517,1,2,0:0:0:0:
325,127,79598,2,0,L|319:173,2,46.7500014266968,2|2|2,0:0|0:0|3:2,0:0:0:0:
469,262,79922,6,0,L|422:270,1,46.7500014266968,2|2,0:0|0:0,0:0:0:0:
405,290,80085,1,10,3:2:0:0:
299,248,80247,1,2,0:0:0:0:
191,360,80409,2,0,L|174:267,1,93.5000028533936,2|0,3:2|0:0,0:0:0:0:
312,355,80734,1,4,3:0:0:0:
357,98,81058,6,0,B|320:82|278:105|278:105|273:143|233:165,1,140.25000428009,6|0,3:2|0:0,0:0:0:0:
237,167,81382,2,0,P|194:162|175:151,4,46.7500014266968,10|2|2|2|2,3:2|0:0|0:0|0:0|3:2,0:0:0:0:
268,74,81869,1,2,0:0:0:0:
190,29,82031,2,0,P|143:29|103:52,1,93.5000028533936,10|2,3:2|0:0,0:0:0:0:
75,191,82355,5,4,3:3:0:0:
79,203,82679,1,4,3:3:0:0:
463,345,83653,6,0,L|471:289,3,46.7500014266968,6|2|2|2,3:2|0:2|0:2|0:2,0:0:0:0:
469,298,83977,2,0,P|414:310|380:357,1,93.5000028533936,10|2,0:2|0:2,0:0:0:0:
263,283,84301,2,0,P|277:215|278:122,1,140.25000428009,2|2,3:2|0:0,0:0:0:0:
262,126,84625,2,0,P|243:179|267:232,1,93.5000028533936,10|2,0:2|0:0,0:0:0:0:
402,157,84950,5,2,3:2:0:0:
420,20,85112,1,2,0:0:0:0:
420,20,85193,1,2,0:0:0:0:
420,20,85274,2,0,L|363:28,3,46.7500014266968,10|2|2|2,0:2|0:0|0:0|0:0,0:0:0:0:
344,58,85598,2,0,L|248:48,1,93.5000028533936,2|2,3:2|0:0,0:0:0:0:
98,33,85923,1,8,3:2:0:0:
24,260,86247,5,6,3:2:0:0:
86,327,86409,1,2,0:0:0:0:
86,327,86490,1,2,0:0:0:0:
86,327,86571,2,0,P|141:293|181:290,1,93.5000028533936,10|2,0:0|0:0,0:0:0:0:
262,175,86896,2,0,P|317:209|357:212,1,93.5000028533936,2|2,3:2|0:0,0:0:0:0:
420,343,87220,2,0,L|373:334,3,46.7500014266968,10|2|2|2,0:0|0:0|0:0|0:0,0:0:0:0:
349,330,87544,5,2,3:2:0:0:
434,249,87707,1,2,0:0:0:0:
434,249,87788,1,2,0:0:0:0:
434,249,87869,2,0,L|441:193,3,46.7500014266968,10|2|2|2,0:0|0:0|0:0|0:0,0:0:0:0:
432,173,88193,2,0,L|329:184,1,93.5000028533936,2|2,3:2|0:0,0:0:0:0:
206,199,88517,1,2,0:0:0:0:
392,360,88842,6,0,P|415:312|394:259,1,93.5000028533936,6|2,3:2|0:0,0:0:0:0:
272,259,89166,2,0,P|249:307|270:360,1,93.5000028533936,10|2,0:0|0:0,0:0:0:0:
401,384,89490,6,0,P|435:312|403:234,1,140.25000428009,2|2,3:2|0:0,0:0:0:0:
405,238,89815,1,10,0:0:0:0:
272,259,89977,1,2,0:0:0:0:
139,280,90139,6,0,P|123:224|123:160,1,93.5000028533936,2|2,3:2|0:0,0:0:0:0:
313,86,90463,2,0,P|329:142|329:206,1,93.5000028533936,10|2,0:0|0:0,0:0:0:0:
125,286,90788,2,0,P|109:230|109:166,1,93.5000028533936,2|2,3:2|0:0,0:0:0:0:
183,79,91112,1,4,3:2:0:0:
279,363,91436,5,6,3:2:0:0:
376,333,91598,1,2,0:0:0:0:
376,333,91679,1,0,0:0:0:0:
376,333,91760,2,0,P|388:283|370:237,1,93.5000028533936,10|2,0:0|0:0,0:0:0:0:
248,162,92085,2,0,P|190:180|141:186,1,93.5000028533936,2|2,3:2|0:0,0:0:0:0:
273,34,92409,2,0,L|325:42,3,46.7500014266968,10|2|2|2,0:0|0:0|0:0|0:0,0:0:0:0:
349,45,92733,5,2,3:2:0:0:
436,97,92896,2,0,L|444:151,1,46.7500014266968,2|2,0:0|0:0,0:0:0:0:
384,223,93058,2,0,L|329:216,3,46.7500014266968,10|2|2|2,0:0|0:0|0:0|0:0,0:0:0:0:
305,196,93382,1,2,3:2:0:0:
272,201,93463,1,2,3:2:0:0:
240,206,93544,1,2,3:2:0:0:
208,211,93625,1,2,3:2:0:0:
175,216,93706,1,6,3:2:0:0:
256,192,93788,12,0,96625,0:0:0:0:
