osu file format v14

[General]
AudioFilename: audio.mp3
AudioLeadIn: 0
PreviewTime: 62815
Countdown: 0
SampleSet: Soft
StackLeniency: 0.5
Mode: 0
LetterboxInBreaks: 0
WidescreenStoryboard: 1

[Editor]
Bookmarks: 2734,44247,52517,72301
DistanceSpacing: 0.8
BeatDivisor: 4
GridSize: 32
TimelineZoom: 2.2

[Metadata]
Title:TSLove
TitleUnicode:TSLove
Artist:O2i3
ArtistUnicode:O2i3
Creator:Seolv
Version:Collab Expert
Source:osu!
Tags:featured artist fa quest mpg mappers' mappers guild instrumental electronic nymphe kiyoshi guarden alphabet aistre venax lukas [_l_u_k_a_s_]
BeatmapID:2495109
BeatmapSetID:1197928

[Difficulty]
HPDrainRate:5
CircleSize:4
OverallDifficulty:8.5
ApproachRate:9.3
SliderMultiplier:1.75
SliderTickRate:1

[Events]
//Background and Video events
0,0,"Cherry-flowers-blossom-tree-twigs-spring_2560x1440.jpg",0,0
//Break Periods
//Storyboard Layer 0 (Background)
//Storyboard Layer 1 (Fail)
//Storyboard Layer 2 (Pass)
//Storyboard Layer 3 (Foreground)
//Storyboard Layer 4 (Overlay)
//Storyboard Sound Samples

[TimingPoints]
626,324.324324324324,4,2,1,50,1,0
626,-200,4,2,1,50,0,0
5815,-100,4,2,1,54,0,0
7112,-100,4,2,1,58,0,0
8409,-100,4,2,1,62,0,0
9707,-100,4,2,1,66,0,0
11004,-133.333333333333,4,2,2,70,0,0
16193,-100,4,2,2,74,0,0
17490,-100,4,2,2,78,0,0
18788,-100,4,2,2,82,0,0
19436,-100,4,2,2,86,0,0
20085,-280.898876404494,4,2,2,60,0,0
20409,-280.898876404494,4,2,2,40,0,0
21382,-58.8235294117647,4,2,3,90,0,0
21707,-71.4285714285714,4,2,3,90,0,0
23653,-133.333333333333,4,2,3,90,0,0
23977,-58.8235294117647,4,2,3,90,0,0
24301,-71.4285714285714,4,2,3,90,0,0
26247,-133.333333333333,4,2,3,90,0,0
26571,-58.8235294117647,4,2,3,90,0,0
26896,-71.4285714285714,4,2,3,90,0,0
28842,-133.333333333333,4,2,3,90,0,0
29166,-58.8235294117647,4,2,3,90,0,0
29490,-71.4285714285714,4,2,3,90,0,0
30788,-100,4,2,3,90,0,0
31112,-66.6666666666667,4,2,3,74,0,0
31274,-66.6666666666667,4,2,3,78,0,0
31436,-66.6666666666667,4,2,3,82,0,0
31598,-66.6666666666667,4,2,3,86,0,0
31761,-58.8235294117647,4,2,3,90,0,0
32085,-71.4285714285714,4,2,3,90,0,0
34031,-133.333333333333,4,2,3,90,0,0
34355,-58.8235294117647,4,2,3,90,0,0
34680,-71.4285714285714,4,2,3,90,0,0
36625,-133.333333333333,4,2,3,90,0,0
36950,-58.8235294117647,4,2,3,90,0,0
37274,-71.4285714285714,4,2,3,90,0,0
39220,-133.333333333333,4,2,3,90,0,0
39544,-58.8235294117647,4,2,3,90,0,0
39869,-71.4285714285714,4,2,3,90,0,0
41490,-200,4,2,3,90,0,0
42139,-200,4,2,1,50,0,0
42301,-200,4,2,4,50,0,0
42463,-200,4,2,5,50,0,0
42625,-200,4,2,4,50,0,0
43274,-200,4,2,5,50,0,0
44085,-200,4,2,5,54,0,0
44247,-200,4,2,4,58,0,0
44409,-200,4,2,6,62,0,0
44571,-200,4,2,6,66,0,0
44734,-200,4,2,7,70,0,0
45220,-200,4,2,6,70,0,0
45382,-200,4,2,6,50,0,0
45544,-200,4,2,6,70,0,0
45707,-200,4,2,6,50,0,0
45869,-200,4,2,6,70,0,0
46031,-200,4,2,6,50,0,0
46193,-200,4,2,4,70,0,0
46842,-200,4,2,8,75,0,0
47166,-200,4,2,7,75,0,0
47328,-200,4,2,5,30,0,0
47490,-200,4,2,4,50,0,0
48139,-200,4,2,4,70,0,0
48463,-200,4,2,5,70,0,0
48950,-200,4,2,4,70,0,0
49112,-200,4,2,5,70,0,0
49274,-200,4,2,4,70,0,0
49436,-200,4,2,5,70,0,0
49598,-200,4,2,4,70,0,0
49923,-200,4,2,6,75,0,0
50247,-200,4,2,4,75,0,0
50409,-200,4,2,6,80,0,0
50734,-200,4,2,9,90,0,0
50896,-200,4,2,9,100,0,0
52193,-200,4,2,9,50,0,0
52517,-133.333333333333,4,2,1,50,0,0
57707,-100,4,2,2,74,0,0
59004,-100,4,2,2,78,0,0
60302,-100,4,2,2,82,0,0
60950,-100,4,2,2,86,0,0
61598,-200,4,2,2,40,0,0
62895,-200,4,2,3,90,0,0
62896,-58.8235294117647,4,2,3,90,0,0
63220,-71.4285714285714,4,2,3,90,0,0
65166,-133.333333333333,4,2,3,90,0,0
65490,-58.8235294117647,4,2,3,90,0,0
65815,-71.4285714285714,4,2,3,90,0,0
67761,-142.857142857143,4,2,3,90,0,0
68085,-58.8235294117647,4,2,3,90,0,0
68409,-71.4285714285714,4,2,3,90,0,0
70355,-133.333333333333,4,2,3,90,0,0
70680,-58.8235294117647,4,2,3,90,0,0
71004,-71.4285714285714,4,2,3,90,0,0
71977,-50,4,2,3,90,0,0
72301,-100,4,2,3,90,0,0
72625,-66.6666666666667,4,2,3,74,0,0
72787,-66.6666666666667,4,2,3,78,0,0
72788,-50,4,2,3,78,0,0
72949,-50,4,2,3,82,0,0
72950,-40,4,2,3,82,0,0
73111,-40,4,2,3,86,0,0
73112,-33.3333333333333,4,2,3,86,0,0
73274,-58.8235294117647,4,2,3,90,0,0
73598,-71.4285714285714,4,2,3,90,0,0
75544,-133.333333333333,4,2,3,90,0,0
75869,-58.8235294117647,4,2,3,90,0,0
76193,-71.4285714285714,4,2,3,90,0,0
78139,-142.857142857143,4,2,3,90,0,0
78463,-58.8235294117647,4,2,3,90,0,0
78788,-71.4285714285714,4,2,3,90,0,0
80409,-50,4,2,3,90,0,0
80734,-133.333333333333,4,2,3,90,0,0
81058,-58.8235294117647,4,2,3,90,0,0
81383,-71.4285714285714,4,2,3,90,0,0
82355,-43.4782608695652,4,2,3,90,0,0
82680,-62.5,4,2,3,90,0,0
83004,-200,4,2,3,50,0,0
83653,-71.4285714285714,4,2,3,90,0,0
85923,-71.4285714285714,4,2,10,90,0,0
86247,-71.4285714285714,4,2,3,90,0,0
88517,-50,4,2,10,90,0,0
88842,-71.4285714285714,4,2,3,90,0,0
91112,-71.4285714285714,4,2,10,60,0,0
91436,-71.4285714285714,4,2,3,90,0,0
94031,-71.4285714285714,4,2,3,80,0,0
94355,-71.4285714285714,4,2,3,70,0,0
94680,-71.4285714285714,4,2,3,55,0,0
95004,-71.4285714285714,4,2,3,40,0,0
95328,-71.4285714285714,4,2,3,20,0,0
95653,-71.4285714285714,4,2,3,5,0,0

[Colours]
Combo1 : 255,255,128
Combo2 : 128,255,128
Combo3 : 106,203,255
Combo4 : 255,149,223

[HitObjects]
440,48,626,6,0,L|435:99,3,43.75,2|2|10|2,0:2|0:2|0:2|0:2,0:0:0:0:
419,218,1274,1,2,0:2:0:0:
422,205,1436,1,2,0:2:0:0:
425,192,1598,1,10,0:2:0:0:
274,112,1761,5,2,0:2:0:0:
195,120,1923,1,2,0:2:0:0:
162,197,2085,1,2,0:2:0:0:
211,261,2247,1,10,0:2:0:0:
292,251,2409,1,2,0:2:0:0:
323,176,2571,1,2,0:2:0:0:
274,112,2734,1,2,0:2:0:0:
305,37,2896,1,10,0:2:0:0:
386,27,3058,1,2,0:2:0:0:
435,91,3220,6,0,L|486:96,3,43.75,2|2|10|2,0:2|0:2|0:2|0:2,0:0:0:0:
308,78,3869,2,0,L|359:83,1,43.75,2|2,0:2|0:2,0:0:0:0:
351,82,4193,1,10,0:2:0:0:
177,67,4355,5,2,0:2:0:0:
121,140,4517,1,2,0:2:0:0:
173,215,4680,1,2,0:2:0:0:
260,188,4842,1,10,0:2:0:0:
261,96,5004,1,2,0:2:0:0:
261,96,5085,1,2,0:2:0:0:
261,96,5166,2,0,L|207:91,1,43.75,2|2,0:0|0:0,0:0:0:0:
14,181,5490,6,0,L|21:216,1,21.875,10|2,1:2|0:2,0:0:0:0:
34,278,5653,2,0,L|41:313,1,21.875,2|2,0:2|0:2,0:0:0:0:
53,375,5815,1,2,0:2:0:0:
256,192,5896,12,10,10680,0:2:0:0:
503,380,11004,6,0,P|470:372|430:374,1,65.6250025033952,6|2,3:2|0:0,0:0:0:0:
310,197,11328,2,0,P|310:248|298:299,1,98.4375037550928,10|2,0:2|0:0,0:0:0:0:
314,274,11653,2,0,P|319:241|318:208,1,65.6250025033952,2|2,3:2|0:0,0:0:0:0:
438,372,11977,1,8,0:2:0:0:
487,308,12139,1,2,0:0:0:0:
475,232,12301,5,2,3:2:0:0:
459,215,12463,1,2,0:0:0:0:
226,193,12625,2,0,L|325:180,1,98.4375037550928,8|2,0:2|0:0,0:0:0:0:
310,172,12950,2,0,L|244:180,1,65.6250025033952,2|2,3:2|0:0,0:0:0:0:
459,215,13274,1,10,0:2:0:0:
437,106,13436,1,2,0:0:0:0:
410,15,13598,6,0,B|359:20|359:20|336:42,1,65.6250025033952,2|2,3:2|0:0,0:0:0:0:
261,196,13923,2,0,B|266:148|266:148|276:133|276:133|281:79,1,98.4375037550928,10|0,0:2|0:0,0:0:0:0:
256,147,14247,2,0,L|248:216,1,65.6250025033952,2|2,3:2|0:0,0:0:0:0:
348,29,14571,1,10,0:2:0:0:
186,0,14734,5,2,0:0:0:0:
121,68,14896,1,2,3:2:0:0:
131,163,15058,1,2,0:0:0:0:
65,239,15220,1,10,0:2:0:0:
65,239,15382,2,0,P|55:217|54:195,2,32.8125012516976,2|2|2,0:0|0:0|3:2,0:0:0:0:
116,316,15707,1,2,0:0:0:0:
197,276,15869,2,0,P|228:283|257:298,1,65.6250025033952,10|2,0:2|0:0,0:0:0:0:
460,384,16193,5,6,1:2:0:0:
490,316,16355,1,2,1:2:0:0:
481,242,16517,1,10,1:2:0:0:
436,182,16680,1,2,1:2:0:0:
472,249,16842,5,2,1:2:0:0:
504,148,17004,1,2,1:2:0:0:
455,53,17166,1,10,1:2:0:0:
353,20,17328,1,2,1:2:0:0:
235,150,17490,5,2,1:2:0:0:
359,126,17653,1,2,1:2:0:0:
229,132,17815,5,10,1:2:0:0:
373,142,17978,1,2,1:2:0:0:
212,232,18139,5,2,1:2:0:0:
292,73,18301,1,2,1:2:0:0:
306,270,18463,5,10,1:2:0:0:
135,167,18625,1,2,1:2:0:0:
293,57,18788,6,0,L|343:49,3,43.75,2|0|0|0,1:2|1:2|1:2|1:2,0:0:0:0:
415,62,19112,1,0,1:2:0:0:
435,100,19193,1,0,1:2:0:0:
437,143,19274,1,0,1:2:0:0:
418,182,19355,1,0,1:2:0:0:
388,215,19436,2,0,L|353:213,4,21.875,0|0|0|0|0,1:2|1:2|1:2|1:2|1:2,0:0:0:0:
461,277,19680,5,0,1:2:0:0:
418,283,19761,1,0,1:2:0:0:
384,310,19842,1,0,1:2:0:0:
359,346,19923,1,0,1:2:0:0:
325,373,20004,1,0,1:2:0:0:
282,380,20085,6,0,B|317:388|384:361|357:321|398:271|461:277,1,218.050009049927,8|0,1:2|0:0,0:0:0:0:
321,88,21382,6,0,B|286:136|285:136|307:246,1,148.750002837181,6|2,3:2|2:0,0:0:0:0:
154,362,21707,2,0,P|94:299|-4:317,1,183.749994392395,10|2,3:2|0:0,0:0:0:0:
0,300,22031,2,0,P|33:286|79:287,1,61.2499981307984,2|0,3:2|0:0,0:0:0:0:
150,322,22193,2,0,P|163:355|163:401,1,61.2499981307984,2|0,0:0|0:0,0:0:0:0:
58,283,22355,5,10,3:2:0:0:
50,240,22436,1,2,0:0:0:0:
43,198,22517,1,2,0:0:0:0:
36,156,22598,1,2,0:0:0:0:
29,113,22679,1,2,3:2:0:0:
217,9,22842,2,0,L|301:15,1,61.2499981307984,2|2,0:0|0:0,0:0:0:0:
306,52,23004,2,0,L|183:43,1,122.499996261597,10|2,3:2|0:0,0:0:0:0:
249,262,23328,6,0,P|282:193|397:171,1,183.749994392395,2|0,3:2|0:0,0:0:0:0:
377,88,23653,6,0,P|403:89|452:142,1,98.4375037550928,4|0,3:0|0:0,0:0:0:0:
392,256,23977,6,0,B|337:254|337:254|304:271|304:271|232:259,1,148.750002837181,6|2,3:2|2:0,0:0:0:0:
24,375,24301,2,0,B|52:360|52:360|72:246,1,122.499996261597,10|2,3:2|0:0,0:0:0:0:
72,236,24544,1,2,0:0:0:0:
72,236,24625,1,2,3:2:0:0:
261,349,24788,1,2,0:0:0:0:
319,229,24950,5,10,3:2:0:0:
162,308,25112,1,2,0:0:0:0:
383,354,25274,6,0,P|422:308|492:301,1,122.499996261597,2|2,3:2|0:0,0:0:0:0:
501,317,25517,1,2,0:0:0:0:
508,346,25598,1,10,3:2:0:0:
383,270,25761,1,2,0:0:0:0:
487,138,25923,2,0,L|478:206,1,61.2499981307984,2|2,3:2|2:2,0:0:0:0:
476,224,26085,1,4,2:3:0:0:
379,98,26247,6,0,P|356:76|387:94,1,98.4375037550928,4|0,3:0|0:0,0:0:0:0:
390,175,26571,6,0,B|320:184|278:133|309:122|256:60|178:87,1,223.125004255772,6|0,3:2|0:0,0:0:0:0:
105,166,26896,2,0,P|140:157|170:137,1,61.2499981307984,10|2,3:2|0:0,0:0:0:0:
206,86,27058,2,0,P|215:51|213:15,1,61.2499981307984,2|2,0:0|0:0,0:0:0:0:
48,114,27220,6,0,L|69:253,1,122.499996261597,2|2,3:2|0:0,0:0:0:0:
204,367,27544,1,10,3:2:0:0:
210,324,27625,1,2,0:0:0:0:
216,282,27706,1,2,0:0:0:0:
223,239,27787,1,2,0:0:0:0:
229,197,27868,1,2,3:2:0:0:
378,129,28031,2,0,L|444:118,1,61.2499981307984,2|2,0:0|0:0,0:0:0:0:
473,146,28193,2,0,L|353:167,1,122.499996261597,10|2,3:2|0:0,0:0:0:0:
141,18,28517,6,0,P|225:24|271:124,1,183.749994392395,2|0,3:2|0:0,0:0:0:0:
205,138,28842,6,0,P|158:134|133:79,1,98.4375037550928,4|0,3:0|0:0,0:0:0:0:
256,4,29166,6,0,B|319:9|319:9|334:31|334:31|422:44,1,148.750002837181,6|2,3:2|2:0,0:0:0:0:
237,218,29490,2,0,B|224:236|224:236|201:120,1,122.499996261597,10|2,3:2|0:0,0:0:0:0:
198,111,29734,1,2,0:0:0:0:
198,111,29815,1,2,3:2:0:0:
326,128,29977,1,2,0:0:0:0:
401,209,30139,1,10,3:2:0:0:
408,289,30301,1,2,0:0:0:0:
235,368,30463,6,0,P|178:350|111:346,1,122.499996261597,4|2,3:3|0:0,0:0:0:0:
328,243,30788,6,0,P|376:267|389:196,1,131.25,4|0,3:3|0:0,0:0:0:0:
390,196,31112,5,4,3:3:0:0:
303,131,31274,5,4,3:3:0:0:
164,120,31436,5,4,3:3:0:0:
22,214,31598,5,4,3:3:0:0:
0,384,31761,6,0,P|81:375|139:318,1,148.750002837181,6|2,3:2|2:0,0:0:0:0:
164,120,32085,2,0,B|102:131|88:177|99:211|14:224,1,183.749994392395,10|2,3:2|0:0,0:0:0:0:
13,210,32410,2,0,P|46:196|92:197,1,61.2499981307984,2|0,3:2|0:0,0:0:0:0:
145,258,32572,2,0,P|158:291|158:337,1,61.2499981307984,2|0,0:0|0:0,0:0:0:0:
323,381,32734,5,10,3:2:0:0:
339,341,32815,1,2,0:0:0:0:
371,313,32896,1,2,0:0:0:0:
411,299,32977,1,2,0:0:0:0:
453,303,33058,1,2,3:2:0:0:
301,126,33221,2,0,L|239:121,1,61.2499981307984,2|0,0:0|0:0,0:0:0:0:
209,151,33383,2,0,L|332:160,1,122.499996261597,10|0,3:2|0:0,0:0:0:0:
222,4,33707,6,0,P|134:22|99:106,1,183.749994392395,2|0,3:2|0:0,0:0:0:0:
76,118,34031,6,0,L|98:235,1,98.4375037550928,4|0,3:0|0:0,0:0:0:0:
81,301,34355,6,0,P|162:267|178:210,1,148.750002837181,6|2,3:2|2:0,0:0:0:0:
266,51,34680,6,0,P|325:53|393:88,1,122.499996261597,10|2,3:2|0:0,0:0:0:0:
413,112,34923,1,2,0:0:0:0:
413,112,35004,1,2,3:2:0:0:
220,245,35167,1,2,0:0:0:0:
274,155,35329,5,10,3:2:0:0:
395,225,35491,1,2,0:0:0:0:
266,329,35653,6,0,P|212:296|240:229,1,122.499996261597,2|2,3:2|0:0,0:0:0:0:
230,236,35896,1,2,0:0:0:0:
245,231,35977,1,10,3:2:0:0:
341,347,36140,1,2,0:0:0:0:
112,384,36302,2,0,L|44:375,1,61.2499981307984,2|0,3:2|0:0,0:0:0:0:
26,378,36464,1,4,2:3:0:0:
130,203,36626,6,0,P|148:251|125:303,1,98.4375037550928,4|0,3:0|0:0,0:0:0:0:
24,259,36950,6,0,P|11:172|137:92,1,223.125004255772,6|0,3:2|0:0,0:0:0:0:
175,132,37274,2,0,L|250:114,1,61.2499981307984,10|2,3:2|0:0,0:0:0:0:
310,101,37436,2,0,L|385:83,1,61.2499981307984,2|2,0:0|0:0,0:0:0:0:
512,196,37599,6,0,L|373:175,1,122.499996261597,2|2,3:2|0:0,0:0:0:0:
204,367,37923,1,10,3:2:0:0:
210,324,38004,1,2,0:0:0:0:
216,282,38085,1,2,0:0:0:0:
223,239,38166,1,2,0:0:0:0:
229,197,38247,1,2,3:2:0:0:
448,82,38410,2,0,L|459:148,1,61.2499981307984,2|0,0:0|0:0,0:0:0:0:
484,167,38572,2,0,L|463:47,1,122.499996261597,10|2,3:2|0:0,0:0:0:0:
229,197,38896,6,0,P|313:203|359:303,1,183.749994392395,2|0,3:2|0:0,0:0:0:0:
323,344,39221,6,0,B|272:333|272:333|261:281,1,98.4375037550928,4|0,3:0|0:0,0:0:0:0:
319,180,39545,6,0,B|382:185|382:185|397:207|397:207|485:220,1,148.750002837181,6|2,3:2|2:0,0:0:0:0:
171,266,39869,1,10,3:2:0:0:
150,230,39950,1,2,0:0:0:0:
142,189,40031,1,2,0:0:0:0:
145,150,40113,1,2,0:0:0:0:
160,108,40194,1,2,3:2:0:0:
319,180,40356,1,2,0:0:0:0:
275,103,40518,5,10,3:2:0:0:
227,169,40680,1,2,0:0:0:0:
417,326,40842,6,0,P|435:269|439:202,1,122.499996261597,4|2,3:3|0:0,0:0:0:0:
249,49,41166,2,0,P|231:106|227:173,1,122.499996261597,4|0,3:3|0:0,0:0:0:0:
289,351,41491,5,0,3:2:0:0:
289,351,41815,1,0,3:2:0:0:
389,75,42140,5,6,3:2:0:0:
389,75,42301,2,0,L|299:88,1,87.5,2|8,0:0|0:0,0:0:0:0:
257,152,42788,2,0,L|212:158,2,43.75,8|8|8,0:0|0:0|0:0,0:0:0:0:
116,98,43274,5,8,0:0:0:0:
78,165,43436,1,8,0:0:0:0:
87,243,43598,1,8,0:0:0:0:
134,308,43761,1,8,0:0:0:0:
134,308,43923,1,8,0:0:0:0:
214,320,44085,5,8,0:0:0:0:
270,239,44247,1,2,0:0:0:0:
359,212,44409,1,2,0:0:0:0:
453,236,44571,1,8,0:0:0:0:
511,308,44734,6,0,L|503:361,2,43.75,8|2|2,0:0|0:0|0:0,0:0:0:0:
446,192,45220,2,0,L|454:245,1,43.75,8|8,0:0|0:0,0:0:0:0:
502,304,45544,2,0,L|494:357,1,43.75,2|8,0:0|0:0,0:0:0:0:
339,380,45869,6,0,P|284:372|255:342,2,87.5,8|2|2,0:0|0:0|0:0,0:0:0:0:
339,380,46842,1,8,0:0:0:0:
315,240,47004,1,2,0:0:0:0:
291,100,47166,6,0,P|245:134|198:145,1,87.5,8|0,0:0|0:0,0:0:0:0:
139,130,47653,1,0,0:0:0:0:
101,198,47815,2,0,P|117:225|117:253,1,43.75,0|0,0:0|0:0,0:0:0:0:
41,323,48139,5,8,0:0:0:0:
41,323,48463,2,0,B|112:335|79:374|162:384,1,131.25,8|8,0:0|0:0,0:0:0:0:
227,337,49112,1,8,0:0:0:0:
227,337,49274,2,0,L|239:286,1,43.75,8|8,0:0|0:0,0:0:0:0:
135,217,49598,2,0,L|123:166,1,43.75,2|8,0:0|0:0,0:0:0:0:
235,70,49923,6,0,P|265:106|316:114,1,87.5,2|8,0:0|0:0,0:0:0:0:
372,234,50409,2,0,P|325:242|293:282,1,87.5,8|2,0:0|0:0,0:0:0:0:
160,271,50896,2,0,P|177:227|158:179,1,87.5,8|0,0:0|0:0,0:0:0:0:
256,192,51301,12,0,52355,0:0:0:0:
420,112,52517,5,6,0:2:0:0:
377,192,52680,2,0,L|393:272,1,65.6250025033952,2|2,0:2|1:2,0:0:0:0:
305,138,53004,1,2,0:2:0:0:
298,173,53085,1,2,0:2:0:0:
291,208,53166,1,2,1:2:0:0:
220,159,53328,2,0,L|207:94,1,65.6250025033952,2|2,0:2|1:2,0:0:0:0:
104,232,53653,6,0,P|162:176|225:181,1,131.25000500679,2|2,0:2|0:2,0:0:0:0:
114,310,54139,2,0,P|109:256|126:228,1,65.6250025033952,0|2,1:2|0:2,0:0:0:0:
186,357,54463,1,0,1:2:0:0:
263,322,54625,1,2,0:2:0:0:
342,367,54788,2,0,L|415:354,1,65.6250025033952,2|2,1:2|0:2,0:0:0:0:
21,128,55274,5,2,0:2:0:0:
98,186,55436,1,2,1:2:0:0:
156,109,55598,1,2,0:2:0:0:
300,229,55761,6,0,L|260:225,1,32.8125012516976,2|2,1:2|0:2,0:0:0:0:
235,155,55923,2,0,L|275:151,1,32.8125012516976,2|2,0:2|0:2,0:0:0:0:
351,291,56085,5,2,1:2:0:0:
426,256,56247,2,0,P|430:219|430:183,1,65.6250025033952,2|2,0:2|1:2,0:0:0:0:
306,358,56571,1,2,0:2:0:0:
246,307,56734,2,0,P|209:311|173:311,1,65.6250025033952,2|2,1:2|1:2,0:0:0:0:
56,156,57058,5,2,1:2:0:0:
77,232,57220,1,2,1:2:0:0:
52,143,57382,1,2,1:2:0:0:
81,245,57544,1,2,1:2:0:0:
117,73,57707,5,6,1:2:0:0:
153,105,57869,1,2,1:2:0:0:
228,124,58031,1,10,1:2:0:0:
315,88,58193,1,2,1:2:0:0:
335,58,58274,1,0,0:0:0:0:
333,21,58355,1,2,1:2:0:0:
245,37,58517,5,2,1:2:0:0:
320,170,58680,1,10,1:2:0:0:
336,257,58842,1,2,1:2:0:0:
327,304,59004,5,2,1:2:0:0:
377,232,59166,1,2,1:2:0:0:
285,196,59328,1,10,1:2:0:0:
410,113,59490,1,2,1:2:0:0:
245,55,59653,1,2,1:2:0:0:
428,122,59815,1,2,1:2:0:0:
269,213,59977,2,0,L|244:207,7,21.875,10|0|0|0|2|0|0|0,1:2|0:0|0:0|0:0|1:2|0:0|0:0|0:0,0:0:0:0:
227,227,60301,5,2,1:2:0:0:
188,218,60382,1,0,1:2:0:0:
149,209,60463,1,0,1:2:0:0:
110,200,60544,1,0,1:2:0:0:
125,181,60625,5,0,1:2:0:0:
135,228,60706,1,0,1:2:0:0:
146,275,60787,1,0,1:2:0:0:
157,322,60868,1,0,1:2:0:0:
133,366,60950,6,0,L|98:364,4,21.875,0|0|0|0|0,1:2|1:2|1:2|1:2|1:2,0:0:0:0:
247,305,61193,1,0,1:2:0:0:
295,275,61274,1,0,1:2:0:0:
350,285,61355,1,0,1:2:0:0:
387,327,61436,1,0,1:2:0:0:
439,349,61517,1,0,1:2:0:0:
489,323,61598,6,0,L|496:358,1,21.875,2|0,0:0|0:0,0:0:0:0:
470,224,61761,2,0,L|477:259,1,21.875,2|0,0:0|0:0,0:0:0:0:
475,140,61923,5,2,0:0:0:0:
435,149,62004,1,2,0:0:0:0:
473,128,62085,5,2,0:0:0:0:
433,137,62166,1,2,0:0:0:0:
437,59,62247,6,0,L|430:25,1,21.875,2|0,0:0|0:0,0:0:0:0:
346,98,62409,2,0,L|339:64,1,21.875,2|0,0:0|0:0,0:0:0:0:
255,137,62571,2,0,L|248:103,1,21.875,2|0,0:0|0:0,0:0:0:0:
164,176,62896,6,0,B|120:130|120:130|147:295,1,223.125004255772,6|0,3:2|0:0,0:0:0:0:
77,324,63220,2,0,P|149:332|179:387,1,122.499996261597,10|2,3:2|0:0,0:0:0:0:
175,369,63463,1,2,0:0:0:0:
175,369,63544,2,0,P|247:361|277:306,1,122.499996261597,2|2,3:2|0:0,0:0:0:0:
417,384,63869,1,10,3:2:0:0:
381,350,63950,1,2,0:0:0:0:
373,301,64031,1,2,0:0:0:0:
396,257,64112,1,2,0:0:0:0:
439,235,64193,1,2,3:2:0:0:
505,85,64355,5,2,0:0:0:0:
500,93,64436,1,2,0:0:0:0:
497,101,64517,2,0,L|369:83,1,122.499996261597,10|2,3:2|0:0,0:0:0:0:
202,211,64842,2,0,B|237:230|300:215|277:187|324:163|382:172,1,183.749994392395,2|0,3:2|0:0,0:0:0:0:
372,170,65166,5,4,3:0:0:0:
57,61,65490,6,0,B|84:41|107:6|107:6|88:167,1,223.125004255772,6|0,3:2|0:0,0:0:0:0:
2,250,65815,1,10,3:2:0:0:
49,239,65896,1,2,0:0:0:0:
80,201,65977,1,2,0:0:0:0:
96,246,66058,1,2,0:0:0:0:
141,266,66139,1,2,3:2:0:0:
53,380,66301,6,0,L|64:311,1,61.2499981307984,2|0,0:0|0:0,0:0:0:0:
160,187,66463,1,10,3:2:0:0:
227,234,66625,1,2,0:0:0:0:
416,212,66788,6,0,P|350:193|279:182,1,122.499996261597,2|2,3:2|0:0,0:0:0:0:
230,135,67031,1,2,0:0:0:0:
230,135,67112,1,10,3:2:0:0:
307,280,67274,1,2,0:0:0:0:
467,121,67436,6,0,P|473:98|442:105,1,61.2499981307984,2|2,3:2|2:2,0:0:0:0:
416,212,67598,2,0,P|432:228|442:198,1,61.2499981307984,4|0,2:3|0:0,0:0:0:0:
363,123,67761,2,0,P|340:129|361:152,1,61.2499981307984,4|0,3:0|0:0,0:0:0:0:
447,368,68085,6,0,B|489:360|513:330|513:330|441:352|359:342,1,223.125004255772,6|0,3:2|0:0,0:0:0:0:
275,165,68409,2,0,P|328:202|332:278,1,122.499996261597,10|2,3:2|0:0,0:0:0:0:
338,255,68653,1,2,0:0:0:0:
338,255,68734,2,0,P|285:292|281:368,1,122.499996261597,2|2,3:2|0:0,0:0:0:0:
104,203,69058,1,10,3:2:0:0:
92,250,69139,1,2,0:0:0:0:
100,298,69220,1,2,0:0:0:0:
134,332,69301,1,2,0:0:0:0:
181,344,69382,1,2,3:2:0:0:
9,370,69544,5,2,0:0:0:0:
16,365,69625,1,2,0:0:0:0:
23,358,69707,2,0,L|4:226,1,122.499996261597,10|2,3:2|0:0,0:0:0:0:
146,33,70031,2,0,B|157:76|133:117|133:117|128:116|128:116|91:160|108:239,1,183.749994392395,2|0,3:2|0:0,0:0:0:0:
103,202,70355,5,4,3:0:0:0:
372,161,70680,6,0,B|427:119|427:119|255:102,1,223.125004255772,6|0,3:2|0:0,0:0:0:0:
182,20,71004,1,10,3:2:0:0:
211,58,71085,1,2,0:0:0:0:
222,105,71166,1,2,0:0:0:0:
213,152,71247,1,2,0:0:0:0:
181,191,71328,1,2,3:2:0:0:
61,101,71490,6,0,P|111:103|134:115,1,61.2499981307984,2|0,0:0|0:0,0:0:0:0:
255,233,71653,1,10,3:2:0:0:
184,279,71815,1,2,0:0:0:0:
433,314,71977,6,0,B|512:310|511:222|511:222|499:239|429:187|393:256,1,262.5,4|0,3:3|0:0,0:0:0:0:
316,315,72301,6,0,B|297:350|336:371|336:371|331:362|371:345|351:312,1,131.25,4|0,3:3|0:0,0:0:0:0:
318,203,72625,6,0,B|306:185|287:197|287:197|292:197|290:220|310:219,1,65.6250025033952,4|0,3:3|0:0,0:0:0:0:
258,97,72788,6,0,B|230:98|230:129|230:129|234:123|259:141|272:117,1,87.5,4|0,3:3|0:0,0:0:0:0:
119,46,72950,6,0,B|104:75|135:93|135:93|132:85|165:70|148:43,1,109.375,4|0,3:3|0:0,0:0:0:0:
0,145,73112,6,0,B|21:178|59:155|59:155|49:154|54:111|15:112,1,131.25000500679,4|0,3:3|0:0,0:0:0:0:
8,289,73274,6,0,B|64:300|123:258|123:258|183:252|240:302,1,223.125004255772,6|0,3:2|0:0,0:0:0:0:
297,208,73598,2,0,P|248:224|219:304,1,122.499996261597,10|2,3:2|0:0,0:0:0:0:
217,284,73842,1,2,0:0:0:0:
217,284,73923,2,0,P|266:300|295:380,1,122.499996261597,2|2,3:2|0:0,0:0:0:0:
474,265,74247,1,10,3:2:0:0:
428,246,74328,1,2,0:0:0:0:
379,250,74409,1,2,0:0:0:0:
335,271,74490,1,2,0:0:0:0:
310,313,74571,1,2,3:2:0:0:
155,91,74734,5,2,0:0:0:0:
160,78,74815,1,2,0:0:0:0:
166,66,74896,2,0,L|293:86,1,122.499996261597,10|2,3:2|0:0,0:0:0:0:
505,174,75220,2,0,B|447:165|447:165|424:171|424:171|403:153|403:153|376:158|376:158|302:148,1,183.749994392395,2|0,3:2|0:0,0:0:0:0:
330,151,75544,5,4,3:0:0:0:
74,60,75869,6,0,B|61:110|96:158|96:158|18:134|21:65,1,223.125004255772,6|0,3:2|0:0,0:0:0:0:
170,139,76193,1,10,3:2:0:0:
173,187,76274,1,2,0:0:0:0:
185,234,76355,1,2,0:0:0:0:
136,229,76436,1,2,0:0:0:0:
87,235,76517,1,2,3:2:0:0:
156,61,76680,6,0,L|146:-8,1,61.2499981307984,2|0,0:0|0:0,0:0:0:0:
307,136,76842,1,10,3:2:0:0:
270,209,77004,1,2,0:0:0:0:
343,328,77166,6,0,P|345:242|356:195,1,122.499996261597,2|2,3:2|0:0,0:0:0:0:
392,133,77409,1,2,0:0:0:0:
392,133,77490,1,10,3:2:0:0:
253,54,77653,1,2,0:0:0:0:
212,372,77815,6,0,L|200:300,1,61.2499981307984,2|2,3:2|2:2,0:0:0:0:
185,234,77977,2,0,L|173:162,1,61.2499981307984,4|0,2:3|0:0,0:0:0:0:
158,96,78139,2,0,L|146:24,1,61.2499981307984,4|0,3:0|0:0,0:0:0:0:
9,249,78463,6,0,B|-24:312|-24:312|137:287,1,223.125004255772,6|0,3:2|0:0,0:0:0:0:
278,192,78788,2,0,P|212:191|184:236,1,122.499996261597,10|2,3:2|0:0,0:0:0:0:
184,233,79031,1,2,0:0:0:0:
184,233,79112,2,0,P|250:232|278:277,1,122.499996261597,2|2,3:2|0:0,0:0:0:0:
405,379,79436,1,10,3:2:0:0:
381,336,79517,1,2,0:0:0:0:
386,287,79598,1,2,0:0:0:0:
421,252,79680,1,2,0:0:0:0:
468,239,79761,1,2,3:2:0:0:
280,384,79923,5,2,0:0:0:0:
283,376,80004,1,2,0:0:0:0:
286,368,80085,2,0,B|227:362|227:362|223:357|223:357|160:348,1,122.499996261597,10|2,3:2|0:0,0:0:0:0:
166,348,80409,6,0,B|196:371|196:371|245:292|221:194|221:194|189:222,1,262.5,2|0,3:2|0:0,0:0:0:0:
30,269,80734,2,0,P|96:272|150:282,1,98.4375037550928,4|0,3:0|0:0,0:0:0:0:
387,150,81058,6,0,B|339:126|277:164|305:193|244:237|181:218,1,223.125004255772,6|0,3:2|0:0,0:0:0:0:
142,44,81382,1,10,3:2:0:0:
165,1,81463,1,2,0:0:0:0:
181,47,81544,1,2,0:0:0:0:
197,92,81625,1,2,0:0:0:0:
213,138,81707,1,2,3:2:0:0:
332,34,81869,2,0,L|316:108,1,61.2499981307984,2|0,0:0|0:0,0:0:0:0:
426,287,82031,2,0,L|413:227,1,61.2499981307984,10|0,3:2|0:0,0:0:0:0:
387,150,82193,1,2,0:0:0:0:
394,142,82274,1,0,0:0:0:0:
401,134,82355,6,0,B|435:203|435:203|276:166,1,201.250003838539,4|2,3:3|0:0,0:0:0:0:
202,329,82680,6,0,B|236:260|236:260|77:297,1,210,4|0,3:3|0:0,0:0:0:0:
106,290,83004,6,0,L|114:330,1,21.875,2|0,0:0|0:0,0:0:0:0:
83,190,83166,2,0,L|91:230,1,21.875,2|0,0:0|0:0,0:0:0:0:
60,90,83328,1,2,0:0:0:0:
56,78,83490,1,2,0:0:0:0:
202,329,83653,5,6,3:2:0:0:
243,303,83734,1,2,0:2:0:0:
285,278,83815,1,2,0:2:0:0:
328,299,83896,1,2,0:2:0:0:
371,320,83977,1,10,0:2:0:0:
388,167,84139,5,2,0:2:0:0:
388,167,84220,1,0,0:0:0:0:
388,167,84301,2,0,P|372:196|362:242,1,61.2499981307984,2|0,3:2|0:0,0:0:0:0:
173,172,84463,2,0,P|189:201|199:247,1,61.2499981307984,2|2,0:0|0:0,0:0:0:0:
273,85,84625,1,10,0:2:0:0:
276,134,84707,1,2,0:0:0:0:
279,182,84788,1,2,0:0:0:0:
282,230,84869,1,2,0:0:0:0:
285,278,84950,5,2,3:2:0:0:
435,345,85112,1,2,0:0:0:0:
435,345,85193,1,2,0:0:0:0:
435,345,85274,2,0,P|462:343|499:317,1,61.2499981307984,10|2,0:2|0:0,0:0:0:0:
430,257,85436,2,0,P|403:259|366:285,1,61.2499981307984,2|2,0:0|0:0,0:0:0:0:
255,384,85598,6,0,P|195:345|179:282,2,122.499996261597,2|2|8,3:2|0:0|3:2,0:0:0:0:
23,118,86247,6,0,L|161:103,1,122.499996261597,6|2,3:2|0:0,0:0:0:0:
163,93,86490,1,2,0:0:0:0:
177,84,86571,2,0,L|212:93,1,30.6249990653992,10|0,0:0|0:0,0:0:0:0:
354,184,86734,1,2,0:0:0:0:
354,184,86815,1,0,0:0:0:0:
354,184,86896,6,0,P|338:141|330:74,1,91.8749971961976,2|0,3:2|0:0,0:0:0:0:
337,81,87058,2,0,P|343:125|352:163,1,61.2499981307984,2|0,0:0|0:0,0:0:0:0:
448,222,87220,1,10,0:0:0:0:
407,249,87301,1,2,0:0:0:0:
379,289,87382,1,2,0:0:0:0:
373,337,87463,1,2,0:0:0:0:
394,380,87544,6,0,L|430:367,1,30.6249990653992,2|0,3:2|0:0,0:0:0:0:
285,295,87707,1,2,0:0:0:0:
255,320,87788,2,0,P|224:313|189:307,1,61.2499981307984,2|10,0:0|0:0,0:0:0:0:
147,247,87950,2,0,P|116:254|81:260,1,61.2499981307984,2|2,0:0|0:0,0:0:0:0:
25,313,88112,1,2,0:0:0:0:
16,307,88193,5,2,3:2:0:0:
65,168,88355,1,2,0:0:0:0:
218,64,88517,6,0,P|184:39|188:88,1,87.5,2|0,0:0|0:0,0:0:0:0:
233,165,88680,2,0,P|226:203|266:192,1,87.5,0|0,0:0|0:0,0:0:0:0:
405,130,88842,5,6,3:2:0:0:
315,104,89004,1,2,0:0:0:0:
463,36,89166,1,10,0:0:0:0:
511,139,89328,1,2,0:0:0:0:
447,241,89490,6,0,P|453:265|464:318,1,61.2499981307984,2|0,3:2|0:0,0:0:0:0:
363,215,89653,1,2,0:0:0:0:
289,263,89815,2,0,P|282:286|265:338,1,61.2499981307984,10|0,0:0|0:0,0:0:0:0:
220,178,89977,2,0,P|213:154|196:102,1,61.2499981307984,2|0,0:0|0:0,0:0:0:0:
0,313,90139,5,2,3:2:0:0:
10,310,90220,1,2,0:0:0:0:
45,273,90301,5,2,0:0:0:0:
75,280,90382,1,2,0:0:0:0:
111,326,90463,5,10,0:0:0:0:
156,312,90544,1,2,0:0:0:0:
179,260,90625,5,2,0:0:0:0:
234,281,90707,1,2,0:0:0:0:
289,263,90788,6,0,L|425:240,2,122.499996261597,2|2|4,3:2|0:0|3:2,0:0:0:0:
512,384,91436,5,6,3:2:0:0:
430,339,91598,1,2,0:0:0:0:
419,290,91680,1,0,0:0:0:0:
409,242,91761,1,10,0:0:0:0:
399,194,91842,1,0,0:0:0:0:
389,146,91923,1,2,0:0:0:0:
380,97,92004,1,0,0:0:0:0:
371,48,92085,6,0,B|362:17|362:17|342:51,1,61.2499981307984,2|0,3:2|0:0,0:0:0:0:
471,154,92247,2,0,B|502:161|502:161|482:127,1,61.2499981307984,2|0,0:0|0:0,0:0:0:0:
331,234,92409,1,10,0:0:0:0:
283,206,92490,1,2,0:0:0:0:
227,205,92571,1,2,0:0:0:0:
180,235,92653,1,2,0:0:0:0:
150,281,92734,5,2,3:2:0:0:
102,306,92815,1,0,0:0:0:0:
46,304,92896,1,2,0:0:0:0:
7,264,92977,1,2,0:0:0:0:
6,233,93058,5,10,0:0:0:0:
19,205,93139,1,2,0:0:0:0:
43,186,93220,1,2,0:0:0:0:
73,183,93301,1,2,0:0:0:0:
139,114,93382,5,2,3:2:0:0:
129,162,93463,1,2,3:2:0:0:
120,210,93544,1,2,3:2:0:0:
111,258,93625,1,2,3:2:0:0:
102,306,93707,1,6,3:2:0:0:
