osu file format v14

[General]
AudioFilename: audio.mp3
AudioLeadIn: 0
PreviewTime: 21394
Countdown: 0
SampleSet: Soft
StackLeniency: 0.7
Mode: 3
LetterboxInBreaks: 0
SpecialStyle: 0
WidescreenStoryboard: 1

[Editor]
DistanceSpacing: 1.1
BeatDivisor: 4
GridSize: 16
TimelineZoom: 3.799998

[Metadata]
Title:TSLove
TitleUnicode:TSLove
Artist:O2i3
ArtistUnicode:O2i3
Creator:Scotty
Version:Normal
Source:osu!
Tags:-mint- qqqant keppsado featured artist fa mappers' guild mg electronic instrumental kirara records happy hardcore
BeatmapID:2379643
BeatmapSetID:1137583

[Difficulty]
HPDrainRate:7.5
CircleSize:7
OverallDifficulty:7
ApproachRate:5
SliderMultiplier:1.4
SliderTickRate:1

[Events]
//Background and Video events
0,0,"a.jpg",0,0
//Break Periods
//Storyboard Layer 0 (Background)
//Storyboard Layer 1 (Fail)
//Storyboard Layer 2 (Pass)
//Storyboard Layer 3 (Foreground)
//Storyboard Layer 4 (Overlay)
//Storyboard Sound Samples

[TimingPoints]
638,324.324324324324,4,2,1,70,1,0
21394,-100,4,2,1,70,0,1
31124,-100,4,2,1,70,0,0
31773,-100,4,2,1,70,0,1
41502,-100,4,2,1,70,0,0
62908,-100,4,2,1,70,0,1
72637,-100,4,2,1,70,0,0
73286,-100,4,2,1,70,0,1
83016,-100,4,2,1,70,0,0

[HitObjects]
402,192,638,5,0,0:0:0:40:lighterkick.wav
329,192,638,1,0,0:0:0:0:
256,192,962,1,0,0:0:0:50:clap.wav
36,192,962,1,0,0:0:0:0:
182,192,1286,1,0,0:0:0:0:
475,192,1610,1,0,0:0:0:50:clap.wav
256,192,1610,1,0,0:0:0:0:
329,192,1935,1,0,0:0:0:40:lighterkick.wav
256,192,2259,1,0,0:0:0:50:clap.wav
36,192,2259,1,0,0:0:0:0:
402,192,2583,1,0,0:0:0:0:
256,192,2908,1,0,0:0:0:50:clap.wav
475,192,2908,1,0,0:0:0:0:
109,192,3232,1,0,0:0:0:40:lighterkick.wav
256,192,3556,1,0,0:0:0:50:clap.wav
36,192,3556,1,0,0:0:0:0:
329,192,3881,1,0,0:0:0:0:
256,192,4205,1,0,0:0:0:50:clap.wav
475,192,4205,1,0,0:0:0:0:
109,192,4529,1,0,0:0:0:40:lighterkick.wav
36,192,4854,1,0,0:0:0:50:clap.wav
256,192,4854,1,0,0:0:0:0:
402,192,5178,1,0,0:0:0:0:
256,192,5502,1,0,0:0:0:50:clap.wav
475,192,5502,1,0,0:0:0:0:
36,192,5665,1,0,0:0:0:0:
182,192,5827,1,0,0:0:0:40:lighterkick.wav
475,192,6151,1,0,0:0:0:50:clap.wav
329,192,6151,1,0,0:0:0:0:
256,192,6475,1,0,0:0:0:0:
182,192,6800,1,0,0:0:0:50:clap.wav
36,192,6800,1,0,0:0:0:0:
256,192,7124,1,0,0:0:0:40:lighterkick.wav
329,192,7448,1,0,0:0:0:50:clap.wav
475,192,7448,1,0,0:0:0:0:
256,192,7773,1,0,0:0:0:0:
182,192,8097,1,0,0:0:0:50:clap.wav
36,192,8097,1,0,0:0:0:0:
402,192,8421,1,0,0:0:0:40:lighterkick.wav
329,192,8746,1,0,0:0:0:50:clap.wav
36,192,8746,1,0,0:0:0:0:
182,192,9070,1,0,0:0:0:0:
109,192,9394,1,0,0:0:0:50:clap.wav
402,192,9394,1,0,0:0:0:0:
329,192,9719,1,0,0:0:0:40:lighterkick.wav
182,192,10043,1,0,0:0:0:50:clap.wav
475,192,10043,1,0,0:0:0:0:
256,192,10367,1,0,0:0:0:0:
329,192,10692,1,0,0:0:0:0:
182,192,10854,1,0,0:0:0:0:
402,192,11016,1,0,0:0:0:40:lighterkick.wav
475,192,11016,1,4,0:0:0:0:
109,192,11178,1,0,0:0:0:0:
256,192,11340,1,0,0:0:0:40:lighterkick.wav
475,192,11340,1,0,0:0:0:50:clap.wav
109,192,11502,1,0,0:0:0:0:
329,192,11665,1,0,0:0:0:40:lighterkick.wav
109,192,11827,1,0,0:0:0:0:
36,192,11989,1,0,0:0:0:40:lighterkick.wav
256,192,11989,1,0,0:0:0:50:clap.wav
402,192,12151,1,0,0:0:0:0:
182,192,12313,1,0,0:0:0:40:lighterkick.wav
402,192,12475,1,0,0:0:0:0:
36,192,12637,1,0,0:0:0:40:lighterkick.wav
182,192,12637,1,0,0:0:0:50:clap.wav
402,192,12800,1,0,0:0:0:0:
109,192,12962,1,0,0:0:0:40:lighterkick.wav
402,192,13124,1,0,0:0:0:0:
256,192,13286,1,0,0:0:0:40:lighterkick.wav
36,192,13286,1,0,0:0:0:50:clap.wav
402,192,13448,1,0,0:0:0:0:
109,192,13610,1,0,0:0:0:40:lighterkick.wav
182,192,13773,1,0,0:0:0:0:
329,192,13935,1,0,0:0:0:40:lighterkick.wav
402,192,13935,1,0,0:0:0:50:clap.wav
182,192,14097,1,0,0:0:0:0:
475,192,14259,1,0,0:0:0:40:lighterkick.wav
182,192,14421,1,0,0:0:0:0:
256,192,14583,1,0,0:0:0:40:lighterkick.wav
36,192,14583,1,0,0:0:0:50:clap.wav
329,192,14746,1,0,0:0:0:0:
109,192,14908,1,0,0:0:0:40:lighterkick.wav
329,192,15070,1,0,0:0:0:0:
182,192,15232,1,0,0:0:0:40:lighterkick.wav
36,192,15232,1,0,0:0:0:50:clap.wav
329,192,15394,1,0,0:0:0:0:
109,192,15556,1,2,0:0:0:0:
329,192,15719,1,0,0:0:0:0:
402,192,15881,1,0,0:0:0:50:clap.wav
109,192,15881,1,2,0:0:0:0:
182,192,16043,1,0,0:0:0:0:
36,192,16205,1,4,0:0:0:0:
475,192,16205,1,2,0:0:0:0:
329,192,16367,1,2,0:0:0:0:
182,192,16529,1,2,0:0:0:0:
109,192,16529,1,0,0:0:0:50:clap.wav
329,192,16692,1,2,0:0:0:0:
36,192,16854,1,2,0:0:0:0:
329,192,17016,1,2,0:0:0:0:
109,192,17178,1,2,0:0:0:0:
182,192,17178,1,0,0:0:0:50:clap.wav
402,192,17340,1,2,0:0:0:0:
36,192,17502,1,2,0:0:0:0:
182,192,17665,1,2,0:0:0:0:
329,192,17827,1,2,0:0:0:0:
402,192,17827,1,0,0:0:0:50:clap.wav
182,192,17989,1,2,0:0:0:0:
475,192,18151,1,2,0:0:0:0:
182,192,18313,1,2,0:0:0:0:
329,192,18475,1,2,0:0:0:0:
402,192,18475,1,0,0:0:0:50:clap.wav
256,192,18637,1,2,0:0:0:0:
109,192,18800,128,2,19124:0:0:0:0:
182,192,18962,128,2,19124:0:0:0:0:
402,192,19124,128,2,19448:0:0:0:0:
329,192,19286,128,2,19448:0:0:0:0:
36,192,19448,128,0,19610:0:0:0:0:
256,192,19610,1,2,0:0:0:0:
402,192,19773,1,2,0:0:0:0:
329,192,19854,1,2,0:0:0:0:
109,192,19935,1,2,0:0:0:0:
182,192,20016,1,2,0:0:0:0:
256,192,20097,128,2,21394:0:0:0:0:
475,192,20097,1,4,0:0:0:0:
402,192,21394,1,4,0:0:0:0:
36,192,21394,128,2,21719:0:0:0:0:
475,192,21719,1,2,0:0:0:0:
182,192,21719,1,8,0:0:0:0:
402,192,21881,1,0,0:0:0:0:
329,192,21962,1,0,0:0:0:0:
109,192,22043,1,2,0:0:0:0:
256,192,22205,1,0,0:0:0:0:
475,192,22367,1,2,0:0:0:0:
36,192,22367,1,8,0:0:0:0:
182,192,22529,1,0,0:0:0:0:
329,192,22610,1,0,0:0:0:0:
402,192,22692,1,2,0:0:0:0:
109,192,22854,1,0,0:0:0:0:
182,192,22935,1,0,0:0:0:0:
475,192,23016,1,2,0:0:0:0:
256,192,23016,1,8,0:0:0:0:
36,192,23178,1,0,0:0:0:0:
329,192,23340,128,2,23665:0:0:0:0:
182,192,23665,1,2,0:0:0:0:
109,192,23989,128,2,24313:0:0:0:0:
402,192,24313,1,2,0:0:0:0:
329,192,24313,1,8,0:0:0:0:
182,192,24475,1,0,0:0:0:0:
36,192,24556,1,0,0:0:0:0:
475,192,24637,1,2,0:0:0:0:
256,192,24800,1,0,0:0:0:0:
402,192,24962,1,2,0:0:0:0:
109,192,24962,1,8,0:0:0:0:
36,192,25124,1,0,0:0:0:0:
329,192,25286,1,2,0:0:0:0:
182,192,25448,1,0,0:0:0:0:
109,192,25529,1,0,0:0:0:0:
402,192,25610,1,2,0:0:0:0:
475,192,25610,1,8,0:0:0:0:
256,192,25773,1,0,0:0:0:0:
329,192,25935,1,2,0:0:0:0:
182,192,26016,1,0,0:0:0:0:
109,192,26097,1,0,0:0:0:0:
109,192,26259,1,2,0:0:0:0:
475,192,26583,128,2,26908:0:0:0:0:
329,192,26908,1,2,0:0:0:0:
36,192,26908,1,8,0:0:0:0:
256,192,27070,1,0,0:0:0:0:
182,192,27151,1,0,0:0:0:0:
402,192,27232,1,2,0:0:0:0:
329,192,27394,1,0,0:0:0:0:
36,192,27556,1,2,0:0:0:0:
475,192,27556,1,8,0:0:0:0:
182,192,27719,1,0,0:0:0:0:
329,192,27800,1,0,0:0:0:0:
109,192,27881,1,2,0:0:0:0:
329,192,28043,1,0,0:0:0:0:
475,192,28124,1,0,0:0:0:0:
36,192,28205,1,2,0:0:0:0:
182,192,28205,1,8,0:0:0:0:
256,192,28367,1,0,0:0:0:0:
329,192,28529,128,2,28854:0:0:0:0:
109,192,28854,1,2,0:0:0:0:
402,192,29178,128,2,29502:0:0:0:0:
182,192,29502,1,2,0:0:0:0:
36,192,29502,1,8,0:0:0:0:
475,192,29665,1,0,0:0:0:0:
329,192,29746,1,0,0:0:0:0:
109,192,29827,1,2,0:0:0:0:
182,192,29989,1,0,0:0:0:0:
475,192,30151,1,2,0:0:0:0:
36,192,30151,1,8,0:0:0:0:
329,192,30313,1,0,0:0:0:0:
182,192,30475,1,2,0:0:0:0:
402,192,30637,1,0,0:0:0:0:
36,192,30800,128,0,31124:0:0:0:0:
182,192,31124,1,0,0:0:0:0:
182,192,31286,1,0,0:0:0:0:
329,192,31448,1,0,0:0:0:0:
329,192,31610,1,0,0:0:0:0:
36,192,31773,128,2,32097:0:0:0:0:
256,192,31773,1,4,0:0:0:0:
402,192,32097,128,2,32259:0:0:0:0:
475,192,32097,1,8,0:0:0:0:
182,192,32259,1,0,0:0:0:0:
36,192,32340,1,0,0:0:0:0:
329,192,32421,128,2,32583:0:0:0:0:
475,192,32583,128,0,32746:0:0:0:0:
36,192,32746,128,2,32908:0:0:0:0:
256,192,32746,1,8,0:0:0:0:
182,192,32908,1,0,0:0:0:0:
329,192,32989,1,0,0:0:0:0:
402,192,33070,128,2,33232:0:0:0:0:
182,192,33232,1,0,0:0:0:0:
36,192,33313,1,0,0:0:0:0:
256,192,33394,1,2,0:0:0:0:
475,192,33394,128,8,33556:0:0:0:0:
329,192,33556,128,0,33719:0:0:0:0:
109,192,33719,128,2,34043:0:0:0:0:
256,192,34043,1,2,0:0:0:0:
402,192,34367,128,2,34692:0:0:0:0:
182,192,34692,1,2,0:0:0:0:
109,192,34692,128,8,34854:0:0:0:0:
475,192,34854,1,0,0:0:0:0:
329,192,34935,1,0,0:0:0:0:
36,192,35016,128,2,35178:0:0:0:0:
402,192,35178,128,0,35340:0:0:0:0:
256,192,35340,128,2,35502:0:0:0:0:
182,192,35340,1,8,0:0:0:0:
109,192,35502,128,0,35665:0:0:0:0:
402,192,35665,128,2,35827:0:0:0:0:
182,192,35827,1,0,0:0:0:0:
256,192,35908,1,0,0:0:0:0:
475,192,35989,1,2,0:0:0:0:
36,192,35989,128,8,36151:0:0:0:0:
329,192,36151,128,0,36313:0:0:0:0:
182,192,36313,1,2,0:0:0:0:
256,192,36394,1,0,0:0:0:0:
402,192,36475,1,0,0:0:0:0:
402,192,36637,1,2,0:0:0:0:
109,192,36962,128,2,37286:0:0:0:0:
475,192,37286,1,2,0:0:0:0:
329,192,37286,128,8,37448:0:0:0:0:
182,192,37448,1,0,0:0:0:0:
36,192,37529,1,0,0:0:0:0:
256,192,37610,128,2,37773:0:0:0:0:
402,192,37773,128,0,37935:0:0:0:0:
109,192,37935,1,2,0:0:0:0:
182,192,37935,128,8,38097:0:0:0:0:
329,192,38097,1,0,0:0:0:0:
475,192,38178,1,0,0:0:0:0:
36,192,38259,128,2,38421:0:0:0:0:
256,192,38421,1,0,0:0:0:0:
182,192,38502,1,0,0:0:0:0:
329,192,38583,128,2,38746:0:0:0:0:
109,192,38583,1,8,0:0:0:0:
475,192,38746,128,0,38908:0:0:0:0:
109,192,38908,128,2,39232:0:0:0:0:
329,192,39232,1,2,0:0:0:0:
182,192,39556,128,2,39881:0:0:0:0:
36,192,39881,1,2,0:0:0:0:
475,192,39881,1,8,0:0:0:0:
329,192,40043,1,0,0:0:0:0:
402,192,40124,1,0,0:0:0:0:
182,192,40205,128,2,40367:0:0:0:0:
36,192,40367,128,0,40529:0:0:0:0:
475,192,40529,128,2,40692:0:0:0:0:
256,192,40529,1,8,0:0:0:0:
329,192,40692,128,0,40854:0:0:0:0:
36,192,40854,128,2,41016:0:0:0:0:
182,192,41016,128,0,41178:0:0:0:0:
402,192,41178,128,2,41502:0:0:0:0:
182,192,41502,1,2,0:0:0:0:
329,192,41827,1,2,0:0:0:0:
36,192,42151,1,2,0:0:0:0:
475,192,42151,1,4,0:0:0:0:
36,192,44097,1,0,0:0:0:0:
182,192,44259,1,0,0:0:0:0:
329,192,44421,1,0,0:0:0:0:
475,192,44583,1,0,0:0:0:0:
256,192,44746,128,0,44908:0:0:0:0:
36,192,44908,128,0,45070:0:0:0:0:
402,192,45070,128,0,45232:0:0:0:0:
182,192,45232,128,0,45394:0:0:0:0:
109,192,45556,128,0,45719:0:0:0:0:
475,192,45881,128,0,46854:0:0:0:0:
402,192,46205,128,0,46854:0:0:0:0:
256,192,46854,1,0,0:0:0:0:
182,192,47016,1,0,0:0:0:0:
109,192,47178,1,0,0:0:0:0:
36,192,48151,1,0,0:0:0:0:
36,192,48475,128,0,48962:0:0:0:0:
256,192,48962,1,0,0:0:0:0:
109,192,49124,1,0,0:0:0:0:
329,192,49286,1,0,0:0:0:0:
182,192,49448,1,0,0:0:0:0:
402,192,49610,1,0,0:0:0:0:
256,192,49773,1,0,0:0:0:0:
329,192,49935,128,0,50259:0:0:0:0:
109,192,50259,1,0,0:0:0:0:
402,192,50421,128,0,50746:0:0:0:0:
182,192,50746,1,0,0:0:0:0:
475,192,50908,128,0,52529:0:0:0:0:
256,192,52529,1,4,0:0:0:0:
36,192,52529,1,0,0:0:0:40:lighterkick.wav
182,192,52692,1,0,0:0:0:0:
402,192,52854,1,0,0:0:0:40:lighterkick.wav
182,192,53016,1,0,0:0:0:0:
329,192,53178,1,0,0:0:0:40:lighterkick.wav
182,192,53340,1,0,0:0:0:0:
475,192,53502,1,0,0:0:0:40:lighterkick.wav
329,192,53665,1,0,0:0:0:0:
109,192,53827,1,0,0:0:0:40:lighterkick.wav
329,192,53989,1,0,0:0:0:0:
182,192,54151,1,0,0:0:0:40:lighterkick.wav
329,192,54313,1,0,0:0:0:0:
36,192,54475,1,0,0:0:0:40:lighterkick.wav
329,192,54637,1,0,0:0:0:0:
182,192,54800,1,0,0:0:0:40:lighterkick.wav
329,192,54962,1,0,0:0:0:0:
475,192,55124,1,0,0:0:0:40:lighterkick.wav
109,192,55286,1,0,0:0:0:0:
329,192,55448,1,0,0:0:0:40:lighterkick.wav
109,192,55610,1,0,0:0:0:0:
402,192,55773,1,2,0:0:0:0:
109,192,55935,1,0,0:0:0:0:
256,192,56097,1,2,0:0:0:0:
402,192,56259,1,0,0:0:0:0:
36,192,56421,1,2,0:0:0:0:
402,192,56583,1,0,0:0:0:0:
182,192,56746,1,2,0:0:0:0:
402,192,56908,1,0,0:0:0:0:
109,192,57070,1,2,0:0:0:0:
182,192,57232,1,0,0:0:0:0:
475,192,57394,1,2,0:0:0:0:
182,192,57556,1,0,0:0:0:0:
329,192,57719,1,2,0:0:0:0:
36,192,57719,1,0,0:0:0:0:
256,192,57881,1,2,0:0:0:0:
182,192,58043,1,2,0:0:0:0:
109,192,58043,1,0,0:0:0:50:clap.wav
329,192,58205,1,2,0:0:0:0:
36,192,58367,1,2,0:0:0:0:
329,192,58529,1,2,0:0:0:0:
182,192,58692,1,2,0:0:0:0:
109,192,58692,1,0,0:0:0:50:clap.wav
256,192,58854,1,2,0:0:0:0:
36,192,59016,1,2,0:0:0:0:
475,192,59016,1,0,0:0:0:0:
182,192,59178,1,2,0:0:0:0:
329,192,59340,1,2,0:0:0:0:
402,192,59340,1,0,0:0:0:50:clap.wav
182,192,59502,1,2,0:0:0:0:
475,192,59665,1,2,0:0:0:0:
182,192,59827,1,2,0:0:0:0:
329,192,59989,1,2,0:0:0:0:
402,192,59989,1,0,0:0:0:50:clap.wav
256,192,60151,1,2,0:0:0:0:
109,192,60313,128,2,60637:0:0:0:0:
182,192,60475,128,2,60637:0:0:0:0:
402,192,60637,128,2,60962:0:0:0:0:
329,192,60800,128,2,60962:0:0:0:0:
36,192,60962,128,0,61124:0:0:0:0:
256,192,61124,1,2,0:0:0:0:
402,192,61286,1,2,0:0:0:0:
329,192,61367,1,2,0:0:0:0:
182,192,61448,1,2,0:0:0:0:
109,192,61529,1,2,0:0:0:0:
402,192,62908,1,2,0:0:0:0:
36,192,62908,128,4,63232:0:0:0:0:
475,192,63232,1,8,0:0:0:0:
182,192,63232,1,2,0:0:0:0:
402,192,63394,1,0,0:0:0:0:
329,192,63475,1,0,0:0:0:0:
109,192,63556,1,2,0:0:0:0:
256,192,63719,1,0,0:0:0:0:
475,192,63881,1,8,0:0:0:0:
36,192,63881,1,2,0:0:0:0:
182,192,64043,1,0,0:0:0:0:
329,192,64124,1,0,0:0:0:0:
402,192,64205,1,2,0:0:0:0:
109,192,64367,1,0,0:0:0:0:
182,192,64448,1,0,0:0:0:0:
475,192,64529,1,8,0:0:0:0:
256,192,64529,1,2,0:0:0:0:
36,192,64692,1,0,0:0:0:0:
329,192,64854,128,2,65178:0:0:0:0:
182,192,65178,1,2,0:0:0:0:
109,192,65502,128,2,65827:0:0:0:0:
402,192,65827,1,8,0:0:0:0:
329,192,65827,1,2,0:0:0:0:
182,192,65989,1,0,0:0:0:0:
36,192,66070,1,0,0:0:0:0:
475,192,66151,1,2,0:0:0:0:
256,192,66313,1,0,0:0:0:0:
402,192,66475,1,8,0:0:0:0:
109,192,66475,1,2,0:0:0:0:
36,192,66637,1,0,0:0:0:0:
329,192,66800,1,2,0:0:0:0:
182,192,66962,1,0,0:0:0:0:
109,192,67043,1,0,0:0:0:0:
402,192,67124,1,8,0:0:0:0:
475,192,67124,1,2,0:0:0:0:
256,192,67286,1,0,0:0:0:0:
329,192,67448,1,2,0:0:0:0:
182,192,67529,1,0,0:0:0:0:
109,192,67610,1,0,0:0:0:0:
109,192,67773,1,2,0:0:0:0:
475,192,68097,128,2,68421:0:0:0:0:
329,192,68421,1,8,0:0:0:0:
36,192,68421,1,2,0:0:0:0:
256,192,68583,1,0,0:0:0:0:
182,192,68665,1,0,0:0:0:0:
402,192,68746,1,2,0:0:0:0:
329,192,68908,1,0,0:0:0:0:
36,192,69070,1,8,0:0:0:0:
475,192,69070,1,2,0:0:0:0:
182,192,69232,1,0,0:0:0:0:
329,192,69313,1,0,0:0:0:0:
109,192,69394,1,2,0:0:0:0:
329,192,69556,1,0,0:0:0:0:
475,192,69637,1,0,0:0:0:0:
36,192,69719,1,8,0:0:0:0:
182,192,69719,1,2,0:0:0:0:
256,192,69881,1,0,0:0:0:0:
329,192,70043,128,2,70367:0:0:0:0:
109,192,70367,1,2,0:0:0:0:
402,192,70692,128,2,71016:0:0:0:0:
182,192,71016,1,8,0:0:0:0:
36,192,71016,1,2,0:0:0:0:
475,192,71178,1,0,0:0:0:0:
329,192,71259,1,0,0:0:0:0:
109,192,71340,1,2,0:0:0:0:
182,192,71502,1,0,0:0:0:0:
475,192,71665,1,8,0:0:0:0:
36,192,71665,1,2,0:0:0:0:
329,192,71827,1,0,0:0:0:0:
182,192,71989,1,2,0:0:0:0:
402,192,72151,1,0,0:0:0:0:
36,192,72313,128,2,72637:0:0:0:0:
182,192,72637,1,0,0:0:0:0:
182,192,72800,1,0,0:0:0:0:
329,192,72962,1,0,0:0:0:0:
329,192,73124,1,0,0:0:0:0:
36,192,73286,128,2,73610:0:0:0:0:
256,192,73286,1,4,0:0:0:0:
402,192,73610,128,8,73773:0:0:0:0:
475,192,73610,1,2,0:0:0:0:
182,192,73773,1,0,0:0:0:0:
36,192,73854,1,0,0:0:0:0:
329,192,73935,128,2,74097:0:0:0:0:
475,192,74097,128,0,74259:0:0:0:0:
36,192,74259,128,8,74421:0:0:0:0:
256,192,74259,1,2,0:0:0:0:
182,192,74421,1,0,0:0:0:0:
329,192,74502,1,0,0:0:0:0:
402,192,74583,128,2,74746:0:0:0:0:
182,192,74746,1,0,0:0:0:0:
36,192,74827,1,0,0:0:0:0:
256,192,74908,1,8,0:0:0:0:
475,192,74908,128,2,75070:0:0:0:0:
329,192,75070,128,0,75232:0:0:0:0:
109,192,75232,128,2,75556:0:0:0:0:
256,192,75556,1,2,0:0:0:0:
402,192,75881,128,2,76205:0:0:0:0:
182,192,76205,1,8,0:0:0:0:
109,192,76205,128,2,76367:0:0:0:0:
475,192,76367,1,0,0:0:0:0:
329,192,76448,1,0,0:0:0:0:
36,192,76529,128,2,76692:0:0:0:0:
402,192,76692,128,0,76854:0:0:0:0:
256,192,76854,128,8,77016:0:0:0:0:
182,192,76854,1,2,0:0:0:0:
109,192,77016,128,0,77178:0:0:0:0:
402,192,77178,128,2,77340:0:0:0:0:
182,192,77340,1,0,0:0:0:0:
256,192,77421,1,0,0:0:0:0:
475,192,77502,1,8,0:0:0:0:
36,192,77502,128,2,77665:0:0:0:0:
329,192,77665,128,0,77827:0:0:0:0:
182,192,77827,1,2,0:0:0:0:
256,192,77908,1,0,0:0:0:0:
402,192,77989,1,0,0:0:0:0:
402,192,78151,1,2,0:0:0:0:
109,192,78475,128,2,78800:0:0:0:0:
475,192,78800,1,8,0:0:0:0:
329,192,78800,128,2,78962:0:0:0:0:
182,192,78962,1,0,0:0:0:0:
36,192,79043,1,0,0:0:0:0:
256,192,79124,128,2,79286:0:0:0:0:
402,192,79286,128,0,79448:0:0:0:0:
109,192,79448,1,8,0:0:0:0:
182,192,79448,128,2,79610:0:0:0:0:
329,192,79610,1,0,0:0:0:0:
475,192,79692,1,0,0:0:0:0:
36,192,79773,128,2,79935:0:0:0:0:
256,192,79935,1,0,0:0:0:0:
182,192,80016,1,0,0:0:0:0:
329,192,80097,128,8,80259:0:0:0:0:
109,192,80097,1,2,0:0:0:0:
475,192,80259,128,0,80421:0:0:0:0:
109,192,80421,128,2,80746:0:0:0:0:
402,192,80746,128,2,81070:0:0:0:0:
329,192,80908,128,0,81070:0:0:0:0:
182,192,81070,128,2,81394:0:0:0:0:
36,192,81394,1,8,0:0:0:0:
475,192,81394,1,2,0:0:0:0:
329,192,81556,1,0,0:0:0:0:
402,192,81637,1,0,0:0:0:0:
182,192,81719,128,2,81881:0:0:0:0:
36,192,81881,128,0,82043:0:0:0:0:
475,192,82043,128,8,82205:0:0:0:0:
256,192,82043,1,2,0:0:0:0:
329,192,82205,128,0,82367:0:0:0:0:
36,192,82367,128,2,82529:0:0:0:0:
182,192,82529,128,0,82692:0:0:0:0:
402,192,82692,128,2,83016:0:0:0:0:
109,192,83665,1,2,0:0:0:0:
402,192,83665,1,4,0:0:0:0:
329,192,83827,128,0,83989:0:0:0:0:
36,192,83989,1,8,0:0:0:0:
256,192,83989,1,2,0:0:0:0:
182,192,84151,128,0,84313:0:0:0:0:
475,192,84313,1,2,0:0:0:0:
329,192,84475,128,0,84637:0:0:0:0:
109,192,84637,1,8,0:0:0:0:
36,192,84637,1,2,0:0:0:0:
182,192,84800,128,0,84962:0:0:0:0:
329,192,84962,1,2,0:0:0:0:
402,192,85124,128,0,85286:0:0:0:0:
256,192,85286,1,2,0:0:0:0:
36,192,85286,1,8,0:0:0:0:
109,192,85448,128,0,85610:0:0:0:0:
329,192,85610,1,2,0:0:0:0:
402,192,85773,128,0,85935:0:0:0:0:
182,192,85935,1,2,0:0:0:0:
36,192,85935,1,0,0:0:0:0:
329,192,86259,1,2,0:0:0:0:
109,192,86421,128,0,86583:0:0:0:0:
256,192,86583,1,8,0:0:0:0:
36,192,86583,1,2,0:0:0:0:
402,192,86746,128,0,86908:0:0:0:0:
182,192,86908,1,2,0:0:0:0:
109,192,87070,128,0,87232:0:0:0:0:
256,192,87232,1,8,0:0:0:0:
475,192,87232,1,2,0:0:0:0:
402,192,87394,128,0,87556:0:0:0:0:
36,192,87556,1,2,0:0:0:0:
182,192,87719,128,0,87881:0:0:0:0:
475,192,87881,1,8,0:0:0:0:
256,192,87881,1,2,0:0:0:0:
329,192,88043,128,0,88205:0:0:0:0:
109,192,88205,1,2,0:0:0:0:
182,192,88367,128,0,88529:0:0:0:0:
256,192,88529,1,2,0:0:0:0:
256,192,88692,1,0,0:0:0:0:
475,192,88854,1,2,0:0:0:0:
329,192,89016,128,0,89178:0:0:0:0:
36,192,89178,1,8,0:0:0:0:
109,192,89178,1,2,0:0:0:0:
182,192,89340,128,0,89502:0:0:0:0:
256,192,89502,1,2,0:0:0:0:
329,192,89665,128,0,89827:0:0:0:0:
475,192,89827,1,8,0:0:0:0:
36,192,89827,1,2,0:0:0:0:
182,192,89989,128,0,90151:0:0:0:0:
256,192,90151,1,2,0:0:0:0:
402,192,90313,128,0,90475:0:0:0:0:
36,192,90475,1,8,0:0:0:0:
329,192,90475,1,2,0:0:0:0:
109,192,90637,128,0,90800:0:0:0:0:
256,192,90800,1,2,0:0:0:0:
402,192,90962,128,0,91124:0:0:0:0:
182,192,91124,1,2,0:0:0:0:
329,192,91448,1,2,0:0:0:0:
109,192,91610,128,0,91773:0:0:0:0:
256,192,91773,1,8,0:0:0:0:
36,192,91773,1,2,0:0:0:0:
402,192,91935,128,0,92097:0:0:0:0:
182,192,92097,1,2,0:0:0:0:
109,192,92259,128,0,92421:0:0:0:0:
256,192,92421,1,8,0:0:0:0:
475,192,92421,1,2,0:0:0:0:
402,192,92583,128,0,92746:0:0:0:0:
36,192,92746,1,2,0:0:0:0:
182,192,92908,128,0,93070:0:0:0:0:
475,192,93070,1,2,0:0:0:0:
329,192,93232,128,0,93394:0:0:0:0:
109,192,93394,1,2,0:0:0:0:
182,192,93475,1,2,0:0:0:0:
402,192,93556,1,2,0:0:0:0:
329,192,93637,1,2,0:0:0:0:
256,192,93719,128,2,95340:0:0:0:0:
