osu file format v14

[General]
AudioFilename: audio.mp3
AudioLeadIn: 0
PreviewTime: 21394
Countdown: 0
SampleSet: Soft
StackLeniency: 0.7
Mode: 3
LetterboxInBreaks: 0
SpecialStyle: 0
WidescreenStoryboard: 0

[Editor]
DistanceSpacing: 1.1
BeatDivisor: 4
GridSize: 16
TimelineZoom: 3.799998

[Metadata]
Title:TSLove
TitleUnicode:TSLove
Artist:O2i3
ArtistUnicode:O2i3
Creator:Scotty
Version:Hard
Source:osu!
Tags:-mint- qqqant keppsado featured artist fa mappers' guild mg electronic instrumental kirara records happy hardcore
BeatmapID:2376148
BeatmapSetID:1137583

[Difficulty]
HPDrainRate:8
CircleSize:7
OverallDifficulty:7.5
ApproachRate:5
SliderMultiplier:1.4
SliderTickRate:1

[Events]
//Background and Video events
0,0,"a.jpg",0,0
//Break Periods
//Storyboard Layer 0 (Background)
//Storyboard Layer 1 (Fail)
//Storyboard Layer 2 (Pass)
//Storyboard Layer 3 (Foreground)
//Storyboard Layer 4 (Overlay)
//Storyboard Sound Samples

[TimingPoints]
638,324.324324324324,4,2,1,70,1,0
21394,-100,4,2,1,70,0,1
31124,-100,4,2,1,70,0,0
31773,-100,4,2,1,70,0,1
41502,-100,4,2,1,70,0,0
62908,-100,4,2,1,70,0,1
72637,-100,4,2,1,70,0,0
73286,-100,4,2,1,70,0,1
83016,-100,4,2,1,70,0,0

[HitObjects]
475,192,638,5,0,0:0:0:40:lighterkick.wav
329,192,638,1,0,0:0:0:0:
36,192,638,1,0,0:0:0:0:
182,192,800,1,0,0:0:0:0:
329,192,962,1,0,0:0:0:50:clap.wav
402,192,962,1,0,0:0:0:0:
182,192,1124,1,0,0:0:0:0:
329,192,1286,1,0,0:0:0:0:
182,192,1448,1,0,0:0:0:0:
329,192,1610,1,0,0:0:0:50:clap.wav
36,192,1610,1,0,0:0:0:0:
475,192,1773,1,0,0:0:0:0:
182,192,1935,1,0,0:0:0:40:lighterkick.wav
402,192,2097,1,0,0:0:0:0:
182,192,2259,1,0,0:0:0:50:clap.wav
36,192,2259,1,0,0:0:0:0:
402,192,2421,1,0,0:0:0:0:
182,192,2583,1,0,0:0:0:0:
402,192,2746,1,0,0:0:0:0:
109,192,2908,1,0,0:0:0:50:clap.wav
182,192,2908,1,0,0:0:0:0:
329,192,3070,1,0,0:0:0:0:
475,192,3232,1,0,0:0:0:40:lighterkick.wav
109,192,3394,1,0,0:0:0:0:
475,192,3556,1,0,0:0:0:50:clap.wav
256,192,3556,1,0,0:0:0:0:
109,192,3719,1,0,0:0:0:0:
475,192,3881,1,0,0:0:0:0:
109,192,4043,1,0,0:0:0:0:
475,192,4205,1,0,0:0:0:50:clap.wav
329,192,4205,1,0,0:0:0:0:
256,192,4367,1,0,0:0:0:0:
36,192,4529,1,0,0:0:0:40:lighterkick.wav
402,192,4692,1,0,0:0:0:0:
36,192,4854,1,0,0:0:0:50:clap.wav
182,192,4854,1,0,0:0:0:0:
402,192,5016,1,0,0:0:0:0:
36,192,5178,1,0,0:0:0:0:
329,192,5340,1,0,0:0:0:0:
109,192,5502,1,0,0:0:0:50:clap.wav
402,192,5502,1,0,0:0:0:0:
36,192,5583,1,0,0:0:0:0:
256,192,5665,1,0,0:0:0:0:
182,192,5746,1,0,0:0:0:0:
329,192,5827,1,0,0:0:0:40:lighterkick.wav
182,192,5989,1,0,0:0:0:0:
329,192,6151,1,0,0:0:0:50:clap.wav
475,192,6151,1,0,0:0:0:0:
182,192,6313,1,0,0:0:0:0:
329,192,6475,1,0,0:0:0:0:
182,192,6637,1,0,0:0:0:0:
329,192,6800,1,0,0:0:0:50:clap.wav
36,192,6800,1,0,0:0:0:0:
475,192,6962,1,0,0:0:0:0:
182,192,7124,1,0,0:0:0:40:lighterkick.wav
402,192,7286,1,0,0:0:0:0:
182,192,7448,1,0,0:0:0:50:clap.wav
109,192,7448,1,0,0:0:0:0:
402,192,7610,1,0,0:0:0:0:
182,192,7773,1,0,0:0:0:0:
402,192,7935,1,0,0:0:0:0:
182,192,8097,1,0,0:0:0:50:clap.wav
36,192,8097,1,0,0:0:0:0:
329,192,8259,1,0,0:0:0:0:
475,192,8421,1,0,0:0:0:40:lighterkick.wav
109,192,8583,1,0,0:0:0:0:
475,192,8746,1,0,0:0:0:50:clap.wav
256,192,8746,1,0,0:0:0:0:
109,192,8908,1,0,0:0:0:0:
475,192,9070,1,0,0:0:0:0:
109,192,9232,1,0,0:0:0:0:
475,192,9394,1,0,0:0:0:50:clap.wav
329,192,9394,1,0,0:0:0:0:
256,192,9556,1,0,0:0:0:0:
36,192,9719,1,0,0:0:0:40:lighterkick.wav
402,192,9881,1,0,0:0:0:0:
36,192,10043,1,0,0:0:0:50:clap.wav
182,192,10043,1,0,0:0:0:0:
402,192,10205,1,0,0:0:0:0:
36,192,10367,1,0,0:0:0:0:
182,192,10529,1,0,0:0:0:0:
109,192,10610,1,0,0:0:0:0:
402,192,10692,1,0,0:0:0:0:
329,192,10854,1,0,0:0:0:0:
256,192,10935,1,0,0:0:0:0:
402,192,11016,5,0,0:0:0:40:lighterkick.wav
475,192,11016,1,4,0:0:0:0:
182,192,11016,1,0,0:0:0:0:
109,192,11016,1,0,0:0:0:0:
329,192,11178,128,0,11340:0:0:0:0:
109,192,11340,1,0,0:0:0:40:lighterkick.wav
36,192,11340,1,0,0:0:0:50:clap.wav
329,192,11502,128,0,11665:0:0:0:0:
256,192,11665,1,0,0:0:0:40:lighterkick.wav
475,192,11665,1,0,0:0:0:0:
329,192,11827,128,0,11989:0:0:0:0:
109,192,11989,1,0,0:0:0:40:lighterkick.wav
36,192,11989,1,0,0:0:0:50:clap.wav
182,192,12151,128,0,12313:0:0:0:0:
475,192,12313,1,0,0:0:0:40:lighterkick.wav
36,192,12313,1,0,0:0:0:0:
182,192,12475,128,0,12637:0:0:0:0:
402,192,12637,1,0,0:0:0:40:lighterkick.wav
329,192,12637,1,0,0:0:0:50:clap.wav
182,192,12800,128,0,12962:0:0:0:0:
329,192,12962,1,0,0:0:0:40:lighterkick.wav
36,192,12962,1,0,0:0:0:0:
182,192,13124,128,0,13286:0:0:0:0:
402,192,13286,1,0,0:0:0:40:lighterkick.wav
475,192,13286,1,0,0:0:0:50:clap.wav
182,192,13448,128,0,13610:0:0:0:0:
256,192,13610,1,0,0:0:0:40:lighterkick.wav
36,192,13610,1,0,0:0:0:0:
402,192,13773,128,0,13935:0:0:0:0:
36,192,13935,1,0,0:0:0:40:lighterkick.wav
109,192,13935,1,0,0:0:0:50:clap.wav
402,192,14097,128,0,14259:0:0:0:0:
329,192,14259,1,0,0:0:0:40:lighterkick.wav
256,192,14259,1,0,0:0:0:0:
402,192,14421,128,0,14583:0:0:0:0:
109,192,14583,1,0,0:0:0:40:lighterkick.wav
182,192,14583,1,0,0:0:0:50:clap.wav
36,192,14746,128,0,14908:0:0:0:0:
475,192,14908,1,0,0:0:0:40:lighterkick.wav
256,192,14908,1,0,0:0:0:0:
36,192,15070,128,0,15232:0:0:0:0:
402,192,15232,1,0,0:0:0:40:lighterkick.wav
475,192,15232,1,0,0:0:0:50:clap.wav
36,192,15394,128,0,15556:0:0:0:0:
475,192,15556,1,2,0:0:0:0:
256,192,15556,1,0,0:0:0:0:
109,192,15719,128,0,15881:0:0:0:0:
402,192,15881,1,0,0:0:0:50:clap.wav
329,192,15881,1,2,0:0:0:0:
109,192,16043,128,0,16205:0:0:0:0:
475,192,16205,1,4,0:0:0:0:
329,192,16205,1,2,0:0:0:0:
182,192,16205,1,0,0:0:0:0:
402,192,16205,1,0,0:0:0:0:
36,192,16367,128,2,16529:0:0:0:0:
329,192,16367,1,0,0:0:0:0:
402,192,16529,1,2,0:0:0:0:
256,192,16529,1,0,0:0:0:50:clap.wav
475,192,16529,1,0,0:0:0:0:
36,192,16692,128,2,16854:0:0:0:0:
182,192,16692,1,0,0:0:0:0:
329,192,16854,1,2,0:0:0:0:
36,192,17016,128,2,17178:0:0:0:0:
329,192,17016,1,0,0:0:0:0:
475,192,17178,1,2,0:0:0:0:
256,192,17178,1,0,0:0:0:50:clap.wav
402,192,17178,1,0,0:0:0:0:
475,192,17340,128,2,17583:0:0:0:0:
109,192,17340,1,0,0:0:0:0:
182,192,17502,1,2,0:0:0:0:
475,192,17665,128,2,17908:0:0:0:0:
182,192,17665,1,0,0:0:0:0:
109,192,17827,1,2,0:0:0:0:
256,192,17827,1,0,0:0:0:50:clap.wav
36,192,17827,1,0,0:0:0:0:
475,192,17989,128,2,18232:0:0:0:0:
329,192,17989,1,0,0:0:0:0:
182,192,18151,1,2,0:0:0:0:
475,192,18313,128,2,18556:0:0:0:0:
182,192,18313,1,0,0:0:0:0:
109,192,18475,1,2,0:0:0:0:
256,192,18475,1,0,0:0:0:50:clap.wav
36,192,18475,1,0,0:0:0:0:
475,192,18637,128,2,18800:0:0:0:0:
329,192,18637,1,0,0:0:0:0:
182,192,18800,1,2,0:0:0:0:
109,192,18800,1,0,0:0:0:0:
256,192,18881,1,2,0:0:0:0:
329,192,18962,1,2,0:0:0:0:
36,192,19043,1,2,0:0:0:0:
475,192,19124,1,2,0:0:0:0:
402,192,19124,1,0,0:0:0:0:
256,192,19205,1,2,0:0:0:0:
182,192,19286,1,2,0:0:0:0:
109,192,19367,1,2,0:0:0:0:
475,192,19448,1,0,0:0:0:0:
329,192,19529,1,0,0:0:0:0:
182,192,19610,1,2,0:0:0:0:
36,192,19692,1,2,0:0:0:0:
256,192,19773,1,2,0:0:0:0:
109,192,19854,1,2,0:0:0:0:
329,192,19935,1,2,0:0:0:0:
182,192,20016,1,2,0:0:0:0:
475,192,20097,128,2,21394:0:0:0:0:
402,192,20097,1,4,0:0:0:0:
36,192,21394,128,4,21719:0:0:0:0:
182,192,21394,128,2,21719:0:0:0:0:
402,192,21394,1,0,0:0:0:0:
329,192,21394,1,0,0:0:0:0:
329,192,21719,128,2,21881:0:0:0:0:
256,192,21719,1,8,0:0:0:0:
475,192,21881,128,0,22043:0:0:0:0:
329,192,21962,128,0,22043:0:0:0:0:
109,192,22043,128,2,22124:0:0:0:0:
36,192,22043,1,0,0:0:0:0:
109,192,22205,128,0,22286:0:0:0:0:
475,192,22367,128,2,22529:0:0:0:0:
256,192,22367,1,8,0:0:0:0:
329,192,22448,128,0,22529:0:0:0:0:
182,192,22529,128,0,22692:0:0:0:0:
329,192,22610,128,0,22692:0:0:0:0:
36,192,22692,128,2,22773:0:0:0:0:
402,192,22692,1,0,0:0:0:0:
182,192,22854,128,0,23016:0:0:0:0:
36,192,22935,128,0,23016:0:0:0:0:
475,192,23016,128,2,23340:0:0:0:0:
256,192,23016,1,8,0:0:0:0:
329,192,23178,128,0,23340:0:0:0:0:
256,192,23340,128,2,23665:0:0:0:0:
109,192,23340,1,0,0:0:0:0:
402,192,23665,1,2,0:0:0:0:
36,192,23665,1,0,0:0:0:0:
182,192,23989,128,2,24313:0:0:0:0:
109,192,23989,128,0,24313:0:0:0:0:
329,192,23989,1,0,0:0:0:0:
36,192,24313,1,2,0:0:0:0:
475,192,24313,128,8,24475:0:0:0:0:
329,192,24394,128,0,24475:0:0:0:0:
182,192,24475,128,0,24637:0:0:0:0:
329,192,24556,128,0,24637:0:0:0:0:
36,192,24637,128,2,24800:0:0:0:0:
402,192,24637,1,0,0:0:0:0:
182,192,24800,128,0,24962:0:0:0:0:
475,192,24962,128,2,25124:0:0:0:0:
256,192,24962,1,8,0:0:0:0:
329,192,25124,128,0,25286:0:0:0:0:
182,192,25286,128,2,25448:0:0:0:0:
402,192,25286,1,0,0:0:0:0:
36,192,25448,128,0,25610:0:0:0:0:
182,192,25529,128,0,25610:0:0:0:0:
475,192,25610,128,2,25773:0:0:0:0:
256,192,25610,1,8,0:0:0:0:
329,192,25773,128,0,25935:0:0:0:0:
475,192,25935,128,2,26097:0:0:0:0:
36,192,25935,1,0,0:0:0:0:
329,192,26016,128,0,26097:0:0:0:0:
182,192,26097,128,0,26178:0:0:0:0:
109,192,26097,128,0,26178:0:0:0:0:
182,192,26259,128,2,26340:0:0:0:0:
109,192,26259,128,0,26340:0:0:0:0:
402,192,26259,1,0,0:0:0:0:
36,192,26583,1,2,0:0:0:0:
475,192,26583,128,0,26908:0:0:0:0:
329,192,26583,128,0,26908:0:0:0:0:
256,192,26908,1,2,0:0:0:0:
182,192,26908,128,8,27070:0:0:0:0:
36,192,27070,128,0,27232:0:0:0:0:
182,192,27151,128,0,27232:0:0:0:0:
475,192,27232,1,2,0:0:0:0:
402,192,27232,128,0,27313:0:0:0:0:
402,192,27394,128,0,27475:0:0:0:0:
256,192,27556,1,2,0:0:0:0:
36,192,27556,128,8,27719:0:0:0:0:
182,192,27637,128,0,27719:0:0:0:0:
329,192,27719,128,0,27881:0:0:0:0:
182,192,27800,128,0,27881:0:0:0:0:
109,192,27881,1,2,0:0:0:0:
475,192,27881,128,0,27962:0:0:0:0:
329,192,28043,128,0,28205:0:0:0:0:
475,192,28124,128,0,28205:0:0:0:0:
256,192,28205,1,2,0:0:0:0:
36,192,28205,128,8,28529:0:0:0:0:
182,192,28367,128,0,28529:0:0:0:0:
475,192,28529,1,2,0:0:0:0:
256,192,28529,128,0,28854:0:0:0:0:
402,192,28854,1,2,0:0:0:0:
109,192,28854,1,0,0:0:0:0:
329,192,29178,128,2,29502:0:0:0:0:
402,192,29178,128,0,29502:0:0:0:0:
182,192,29178,1,0,0:0:0:0:
475,192,29502,1,2,0:0:0:0:
36,192,29502,128,8,29665:0:0:0:0:
182,192,29583,128,0,29665:0:0:0:0:
329,192,29665,128,0,29827:0:0:0:0:
182,192,29746,128,0,29827:0:0:0:0:
475,192,29827,128,2,29989:0:0:0:0:
109,192,29827,1,0,0:0:0:0:
329,192,29989,128,0,30151:0:0:0:0:
36,192,30151,128,2,30313:0:0:0:0:
256,192,30151,1,8,0:0:0:0:
182,192,30313,128,0,30475:0:0:0:0:
329,192,30475,128,2,30637:0:0:0:0:
402,192,30475,1,0,0:0:0:0:
109,192,30637,128,0,30800:0:0:0:0:
475,192,30800,128,0,31124:0:0:0:0:
182,192,30800,1,0,0:0:0:0:
402,192,30962,128,0,31124:0:0:0:0:
329,192,31043,128,0,31124:0:0:0:0:
109,192,31124,128,0,31205:0:0:0:0:
182,192,31124,128,0,31205:0:0:0:0:
109,192,31286,128,0,31367:0:0:0:0:
182,192,31286,128,0,31367:0:0:0:0:
329,192,31448,128,0,31529:0:0:0:0:
402,192,31448,128,0,31529:0:0:0:0:
329,192,31610,128,0,31692:0:0:0:0:
402,192,31610,128,0,31692:0:0:0:0:
36,192,31773,128,2,32097:0:0:0:0:
109,192,31773,128,0,32097:0:0:0:0:
182,192,31773,1,4,0:0:0:0:
256,192,31773,1,0,0:0:0:0:
475,192,31935,128,0,32097:0:0:0:0:
329,192,32097,128,2,32259:0:0:0:0:
256,192,32097,1,8,0:0:0:0:
475,192,32259,128,0,32421:0:0:0:0:
329,192,32340,128,0,32421:0:0:0:0:
109,192,32421,128,2,32502:0:0:0:0:
182,192,32421,1,0,0:0:0:0:
475,192,32583,128,0,32746:0:0:0:0:
109,192,32583,128,0,32665:0:0:0:0:
256,192,32746,1,2,0:0:0:0:
36,192,32746,128,8,32908:0:0:0:0:
329,192,32827,128,0,32908:0:0:0:0:
475,192,32908,128,0,33070:0:0:0:0:
329,192,32989,128,0,33070:0:0:0:0:
36,192,33070,128,2,33313:0:0:0:0:
182,192,33070,128,0,33232:0:0:0:0:
329,192,33232,128,0,33394:0:0:0:0:
182,192,33313,128,0,33394:0:0:0:0:
36,192,33394,128,2,33637:0:0:0:0:
475,192,33394,128,8,33556:0:0:0:0:
256,192,33556,128,0,33719:0:0:0:0:
36,192,33719,128,2,34043:0:0:0:0:
402,192,33719,1,0,0:0:0:0:
109,192,33881,128,0,34043:0:0:0:0:
182,192,33962,128,0,34043:0:0:0:0:
329,192,34043,128,2,34124:0:0:0:0:
402,192,34043,128,0,34124:0:0:0:0:
329,192,34367,128,2,34692:0:0:0:0:
475,192,34367,128,0,34692:0:0:0:0:
109,192,34367,1,0,0:0:0:0:
36,192,34529,128,0,34692:0:0:0:0:
182,192,34692,128,2,34854:0:0:0:0:
256,192,34692,1,8,0:0:0:0:
36,192,34854,128,0,35016:0:0:0:0:
182,192,34935,128,0,35016:0:0:0:0:
329,192,35016,128,2,35178:0:0:0:0:
402,192,35016,1,0,0:0:0:0:
36,192,35178,128,0,35340:0:0:0:0:
475,192,35178,128,0,35340:0:0:0:0:
182,192,35340,128,2,35502:0:0:0:0:
256,192,35340,1,8,0:0:0:0:
36,192,35502,128,0,35665:0:0:0:0:
475,192,35665,128,2,35908:0:0:0:0:
329,192,35665,128,0,35827:0:0:0:0:
182,192,35827,128,0,35989:0:0:0:0:
329,192,35908,128,0,35989:0:0:0:0:
475,192,35989,128,2,36232:0:0:0:0:
36,192,35989,128,8,36151:0:0:0:0:
182,192,36151,128,0,36313:0:0:0:0:
475,192,36313,128,2,36637:0:0:0:0:
256,192,36313,1,0,0:0:0:0:
402,192,36475,128,0,36637:0:0:0:0:
109,192,36475,128,0,36556:0:0:0:0:
182,192,36475,128,0,36556:0:0:0:0:
329,192,36556,128,0,36637:0:0:0:0:
109,192,36637,128,2,36719:0:0:0:0:
182,192,36637,128,0,36719:0:0:0:0:
36,192,36637,1,0,0:0:0:0:
475,192,36962,128,2,37286:0:0:0:0:
402,192,36962,128,0,37286:0:0:0:0:
256,192,36962,1,0,0:0:0:0:
36,192,37124,128,0,37286:0:0:0:0:
182,192,37286,128,2,37448:0:0:0:0:
329,192,37286,1,8,0:0:0:0:
36,192,37448,128,0,37610:0:0:0:0:
182,192,37529,128,0,37610:0:0:0:0:
402,192,37610,128,2,37692:0:0:0:0:
329,192,37610,1,0,0:0:0:0:
36,192,37773,128,0,37935:0:0:0:0:
402,192,37773,128,0,37854:0:0:0:0:
256,192,37935,1,2,0:0:0:0:
475,192,37935,128,8,38097:0:0:0:0:
182,192,38016,128,0,38097:0:0:0:0:
36,192,38097,128,0,38259:0:0:0:0:
182,192,38178,128,0,38259:0:0:0:0:
475,192,38259,128,2,38502:0:0:0:0:
329,192,38259,128,0,38421:0:0:0:0:
182,192,38421,128,0,38583:0:0:0:0:
329,192,38502,128,0,38583:0:0:0:0:
475,192,38583,128,2,38827:0:0:0:0:
36,192,38583,128,8,38746:0:0:0:0:
256,192,38746,128,0,38908:0:0:0:0:
475,192,38908,128,2,39232:0:0:0:0:
109,192,38908,1,0,0:0:0:0:
402,192,39070,128,0,39232:0:0:0:0:
329,192,39151,128,0,39232:0:0:0:0:
182,192,39232,128,2,39313:0:0:0:0:
109,192,39232,128,0,39313:0:0:0:0:
182,192,39556,128,2,39881:0:0:0:0:
36,192,39556,128,0,39881:0:0:0:0:
402,192,39556,1,0,0:0:0:0:
475,192,39719,128,0,39881:0:0:0:0:
329,192,39881,128,2,40043:0:0:0:0:
256,192,39881,1,8,0:0:0:0:
475,192,40043,128,0,40205:0:0:0:0:
329,192,40124,128,0,40205:0:0:0:0:
182,192,40205,128,2,40367:0:0:0:0:
109,192,40205,1,0,0:0:0:0:
475,192,40367,128,0,40529:0:0:0:0:
36,192,40367,128,0,40529:0:0:0:0:
329,192,40529,128,2,40692:0:0:0:0:
256,192,40529,1,8,0:0:0:0:
182,192,40692,128,0,40854:0:0:0:0:
36,192,40854,128,2,41016:0:0:0:0:
402,192,40854,1,0,0:0:0:0:
329,192,41016,128,0,41178:0:0:0:0:
475,192,41178,128,2,41502:0:0:0:0:
256,192,41178,1,0,0:0:0:0:
402,192,41340,128,0,41502:0:0:0:0:
329,192,41421,128,0,41502:0:0:0:0:
182,192,41502,5,2,0:0:0:0:
109,192,41502,1,0,0:0:0:0:
329,192,41827,1,2,0:0:0:0:
402,192,41827,1,0,0:0:0:0:
256,192,42151,5,2,0:0:0:0:
475,192,42151,1,4,0:0:0:0:
36,192,42151,1,0,0:0:0:0:
182,192,42151,1,0,0:0:0:0:
329,192,42313,1,0,0:0:0:0:
182,192,42475,1,0,0:0:0:0:
329,192,42637,1,0,0:0:0:0:
182,192,42800,1,0,0:0:0:0:
329,192,42962,1,0,0:0:0:0:
182,192,43124,1,0,0:0:0:0:
329,192,43286,1,0,0:0:0:0:
109,192,43448,1,0,0:0:0:0:
402,192,43610,1,0,0:0:0:0:
109,192,43773,1,0,0:0:0:0:
402,192,43935,1,0,0:0:0:0:
36,192,44097,128,0,44178:0:0:0:0:
109,192,44259,128,0,44340:0:0:0:0:
182,192,44421,128,0,44502:0:0:0:0:
256,192,44583,128,0,44665:0:0:0:0:
475,192,44746,128,0,44908:0:0:0:0:
329,192,44908,128,0,45070:0:0:0:0:
109,192,45070,1,0,0:0:0:0:
475,192,45110,128,0,45232:0:0:0:0:
256,192,45232,128,0,45394:0:0:0:0:
109,192,45556,128,0,45719:0:0:0:0:
402,192,45719,1,0,0:0:0:0:
36,192,45881,1,0,0:0:0:0:
182,192,45935,128,0,46205:0:0:0:0:
36,192,46205,128,0,46854:0:0:0:0:
475,192,46367,1,0,0:0:0:0:
109,192,46529,128,0,46854:0:0:0:0:
329,192,46692,1,0,0:0:0:0:
402,192,46854,1,0,0:0:0:0:
256,192,47016,1,0,0:0:0:0:
109,192,47178,1,0,0:0:0:0:
329,192,47340,1,0,0:0:0:0:
182,192,47502,1,0,0:0:0:0:
329,192,47665,1,0,0:0:0:0:
182,192,47827,1,0,0:0:0:0:
329,192,47989,1,0,0:0:0:0:
182,192,48151,1,0,0:0:0:0:
36,192,48151,128,0,48313:0:0:0:0:
475,192,48313,1,0,0:0:0:0:
36,192,48475,128,0,48962:0:0:0:0:
329,192,48637,1,0,0:0:0:0:
256,192,48800,1,0,0:0:0:0:
402,192,48962,128,0,49043:0:0:0:0:
182,192,49124,128,0,49205:0:0:0:0:
402,192,49286,128,0,49367:0:0:0:0:
182,192,49448,128,0,49529:0:0:0:0:
329,192,49610,128,0,49692:0:0:0:0:
109,192,49773,128,0,49854:0:0:0:0:
36,192,49935,128,0,50259:0:0:0:0:
329,192,50097,1,0,0:0:0:0:
402,192,50259,128,0,50421:0:0:0:0:
182,192,50340,128,0,50502:0:0:0:0:
329,192,50421,128,0,50746:0:0:0:0:
36,192,50583,1,0,0:0:0:0:
475,192,50746,128,0,50908:0:0:0:0:
256,192,50827,128,0,50989:0:0:0:0:
402,192,50908,128,0,52529:0:0:0:0:
182,192,51070,1,0,0:0:0:0:
36,192,51232,1,0,0:0:0:0:
182,192,51394,1,0,0:0:0:0:
36,192,51556,1,0,0:0:0:0:
182,192,51719,1,0,0:0:0:0:
109,192,51881,1,0,0:0:0:0:
256,192,52043,1,0,0:0:0:0:
109,192,52205,1,0,0:0:0:0:
256,192,52367,1,0,0:0:0:0:
475,192,52529,1,4,0:0:0:0:
36,192,52529,1,0,0:0:0:40:lighterkick.wav
182,192,52529,1,0,0:0:0:0:
329,192,52692,128,0,52854:0:0:0:0:
182,192,52854,128,0,53016:0:0:0:40:lighterkick.wav
475,192,52854,1,0,0:0:0:0:
329,192,53016,128,0,53097:0:0:0:0:
182,192,53097,128,0,53178:0:0:0:0:
36,192,53178,1,0,0:0:0:40:lighterkick.wav
329,192,53340,128,0,53502:0:0:0:0:
182,192,53502,128,0,53583:0:0:0:40:lighterkick.wav
475,192,53502,1,0,0:0:0:0:
109,192,53665,128,0,53827:0:0:0:0:
256,192,53827,1,0,0:0:0:40:lighterkick.wav
36,192,53989,128,0,54070:0:0:0:0:
182,192,54151,1,0,0:0:0:40:lighterkick.wav
402,192,54313,128,0,54475:0:0:0:0:
109,192,54475,1,0,0:0:0:40:lighterkick.wav
475,192,54637,128,0,54800:0:0:0:0:
36,192,54800,128,0,55124:0:0:0:40:lighterkick.wav
329,192,54800,1,0,0:0:0:0:
109,192,54962,128,0,55124:0:0:0:0:
402,192,55124,1,0,0:0:0:40:lighterkick.wav
182,192,55286,128,0,55448:0:0:0:0:
36,192,55448,1,0,0:0:0:40:lighterkick.wav
329,192,55610,128,0,55692:0:0:0:0:
182,192,55773,128,2,55854:0:0:0:0:
475,192,55773,1,0,0:0:0:0:
329,192,55854,128,0,55935:0:0:0:0:
329,192,56016,128,0,56097:0:0:0:0:
36,192,56097,1,2,0:0:0:0:
109,192,56259,128,0,56421:0:0:0:0:
256,192,56421,1,2,0:0:0:0:
402,192,56583,128,0,56665:0:0:0:0:
182,192,56746,1,2,0:0:0:0:
475,192,56908,128,0,56989:0:0:0:0:
329,192,57070,1,2,0:0:0:0:
182,192,57070,128,0,57232:0:0:0:0:
36,192,57232,128,0,57394:0:0:0:0:
256,192,57394,1,2,0:0:0:0:
182,192,57556,1,0,0:0:0:0:
475,192,57719,1,2,0:0:0:0:
402,192,57719,1,0,0:0:0:0:
109,192,57719,1,0,0:0:0:0:
36,192,57719,1,0,0:0:0:0:
329,192,57881,128,2,58043:0:0:0:0:
402,192,57881,1,0,0:0:0:0:
182,192,58043,128,2,58205:0:0:0:0:
36,192,58043,1,0,0:0:0:50:clap.wav
329,192,58205,128,2,58286:0:0:0:0:
109,192,58205,1,0,0:0:0:0:
182,192,58286,128,0,58367:0:0:0:0:
475,192,58367,1,2,0:0:0:0:
329,192,58529,128,2,58692:0:0:0:0:
475,192,58529,1,0,0:0:0:0:
182,192,58692,128,2,58773:0:0:0:0:
256,192,58692,1,0,0:0:0:50:clap.wav
109,192,58854,128,2,59016:0:0:0:0:
402,192,58854,1,0,0:0:0:0:
36,192,59016,1,2,0:0:0:0:
36,192,59178,1,2,0:0:0:0:
182,192,59178,128,0,59259:0:0:0:0:
475,192,59340,1,2,0:0:0:0:
402,192,59340,1,0,0:0:0:50:clap.wav
182,192,59502,1,2,0:0:0:0:
329,192,59502,128,0,59665:0:0:0:0:
109,192,59665,1,2,0:0:0:0:
402,192,59827,128,2,59989:0:0:0:0:
109,192,59827,1,0,0:0:0:0:
36,192,59989,128,2,60313:0:0:0:0:
256,192,59989,1,0,0:0:0:50:clap.wav
109,192,60151,128,2,60313:0:0:0:0:
329,192,60151,1,0,0:0:0:0:
182,192,60313,1,2,0:0:0:0:
402,192,60313,1,0,0:0:0:0:
475,192,60394,1,2,0:0:0:0:
256,192,60475,1,2,0:0:0:0:
402,192,60556,1,2,0:0:0:0:
329,192,60637,1,2,0:0:0:0:
109,192,60637,1,0,0:0:0:0:
36,192,60719,1,2,0:0:0:0:
256,192,60800,1,2,0:0:0:0:
182,192,60881,1,2,0:0:0:0:
475,192,60962,1,0,0:0:0:0:
109,192,61043,1,0,0:0:0:0:
329,192,61124,1,2,0:0:0:0:
182,192,61205,1,2,0:0:0:0:
475,192,61286,1,2,0:0:0:0:
329,192,61367,1,2,0:0:0:0:
182,192,61448,1,2,0:0:0:0:
36,192,61529,1,2,0:0:0:0:
256,192,61610,128,0,61692:0:0:0:0:
256,192,61773,128,0,61854:0:0:0:0:
475,192,61935,128,0,62016:0:0:0:0:
36,192,62016,128,0,62097:0:0:0:0:
182,192,62097,128,0,62178:0:0:0:0:
36,192,62178,128,0,62259:0:0:0:0:
402,192,62259,128,0,62340:0:0:0:0:
402,192,62421,128,0,62502:0:0:0:0:
256,192,62583,128,0,62665:0:0:0:0:
402,192,62908,1,2,0:0:0:0:
475,192,62908,1,4,0:0:0:0:
36,192,62908,128,0,63232:0:0:0:0:
182,192,62908,128,0,63232:0:0:0:0:
256,192,63232,1,8,0:0:0:0:
329,192,63232,128,2,63394:0:0:0:0:
475,192,63394,128,0,63556:0:0:0:0:
329,192,63475,128,0,63556:0:0:0:0:
182,192,63556,1,2,0:0:0:0:
109,192,63556,128,0,63637:0:0:0:0:
109,192,63719,128,0,63800:0:0:0:0:
256,192,63881,1,8,0:0:0:0:
475,192,63881,128,2,64043:0:0:0:0:
329,192,63962,128,0,64043:0:0:0:0:
182,192,64043,128,0,64205:0:0:0:0:
329,192,64124,128,0,64205:0:0:0:0:
402,192,64205,1,2,0:0:0:0:
36,192,64205,128,0,64286:0:0:0:0:
182,192,64367,128,0,64529:0:0:0:0:
36,192,64448,128,0,64529:0:0:0:0:
256,192,64529,1,8,0:0:0:0:
475,192,64529,128,2,64854:0:0:0:0:
329,192,64692,128,0,64854:0:0:0:0:
36,192,64854,1,2,0:0:0:0:
256,192,64854,128,0,65178:0:0:0:0:
109,192,65178,1,2,0:0:0:0:
402,192,65178,1,0,0:0:0:0:
329,192,65502,1,2,0:0:0:0:
109,192,65502,128,0,65827:0:0:0:0:
182,192,65502,128,0,65827:0:0:0:0:
475,192,65827,128,8,65989:0:0:0:0:
36,192,65827,1,2,0:0:0:0:
329,192,65908,128,0,65989:0:0:0:0:
182,192,65989,128,0,66151:0:0:0:0:
329,192,66070,128,0,66151:0:0:0:0:
402,192,66151,1,2,0:0:0:0:
36,192,66151,128,0,66313:0:0:0:0:
182,192,66313,128,0,66475:0:0:0:0:
256,192,66475,1,8,0:0:0:0:
475,192,66475,128,2,66637:0:0:0:0:
329,192,66637,128,0,66800:0:0:0:0:
402,192,66800,1,2,0:0:0:0:
182,192,66800,128,0,66962:0:0:0:0:
36,192,66962,128,0,67124:0:0:0:0:
182,192,67043,128,0,67124:0:0:0:0:
256,192,67124,1,8,0:0:0:0:
475,192,67124,128,2,67286:0:0:0:0:
329,192,67286,128,0,67448:0:0:0:0:
36,192,67448,1,2,0:0:0:0:
475,192,67448,128,0,67610:0:0:0:0:
329,192,67529,128,0,67610:0:0:0:0:
109,192,67610,128,0,67692:0:0:0:0:
182,192,67610,128,0,67692:0:0:0:0:
402,192,67773,1,2,0:0:0:0:
109,192,67773,128,0,67854:0:0:0:0:
182,192,67773,128,0,67854:0:0:0:0:
329,192,68097,128,2,68421:0:0:0:0:
475,192,68097,128,0,68421:0:0:0:0:
256,192,68097,1,0,0:0:0:0:
182,192,68421,128,8,68583:0:0:0:0:
109,192,68421,1,2,0:0:0:0:
36,192,68583,128,0,68746:0:0:0:0:
182,192,68665,128,0,68746:0:0:0:0:
402,192,68746,128,2,68827:0:0:0:0:
475,192,68746,1,0,0:0:0:0:
402,192,68908,128,0,68989:0:0:0:0:
36,192,69070,128,8,69232:0:0:0:0:
256,192,69070,1,2,0:0:0:0:
182,192,69151,128,0,69232:0:0:0:0:
329,192,69232,128,0,69394:0:0:0:0:
182,192,69313,128,0,69394:0:0:0:0:
475,192,69394,128,2,69475:0:0:0:0:
109,192,69394,1,0,0:0:0:0:
329,192,69556,128,0,69719:0:0:0:0:
475,192,69637,128,0,69719:0:0:0:0:
36,192,69719,128,8,70043:0:0:0:0:
256,192,69719,1,2,0:0:0:0:
182,192,69881,128,0,70043:0:0:0:0:
256,192,70043,128,2,70367:0:0:0:0:
475,192,70043,1,0,0:0:0:0:
109,192,70367,1,2,0:0:0:0:
402,192,70367,1,0,0:0:0:0:
182,192,70692,1,2,0:0:0:0:
402,192,70692,128,0,71016:0:0:0:0:
329,192,70692,128,0,71016:0:0:0:0:
36,192,71016,128,8,71178:0:0:0:0:
475,192,71016,1,2,0:0:0:0:
182,192,71097,128,0,71178:0:0:0:0:
329,192,71178,128,0,71340:0:0:0:0:
182,192,71259,128,0,71340:0:0:0:0:
109,192,71340,1,2,0:0:0:0:
475,192,71340,128,0,71502:0:0:0:0:
329,192,71502,128,0,71665:0:0:0:0:
256,192,71665,1,8,0:0:0:0:
36,192,71665,128,2,71827:0:0:0:0:
182,192,71827,128,0,71989:0:0:0:0:
402,192,71989,1,2,0:0:0:0:
329,192,71989,128,0,72151:0:0:0:0:
109,192,72151,128,0,72313:0:0:0:0:
182,192,72313,1,2,0:0:0:0:
475,192,72313,128,0,72637:0:0:0:0:
402,192,72475,128,0,72637:0:0:0:0:
329,192,72556,128,0,72637:0:0:0:0:
182,192,72637,128,0,72719:0:0:0:0:
109,192,72637,128,0,72719:0:0:0:0:
182,192,72800,128,0,72881:0:0:0:0:
109,192,72800,128,0,72881:0:0:0:0:
402,192,72962,128,0,73043:0:0:0:0:
329,192,72962,128,0,73043:0:0:0:0:
402,192,73124,128,0,73205:0:0:0:0:
329,192,73124,128,0,73205:0:0:0:0:
182,192,73286,1,2,0:0:0:0:
256,192,73286,1,4,0:0:0:0:
36,192,73286,128,0,73610:0:0:0:0:
109,192,73286,128,0,73610:0:0:0:0:
475,192,73448,128,0,73610:0:0:0:0:
256,192,73610,1,8,0:0:0:0:
329,192,73610,128,2,73773:0:0:0:0:
475,192,73773,128,0,73935:0:0:0:0:
329,192,73854,128,0,73935:0:0:0:0:
182,192,73935,1,2,0:0:0:0:
109,192,73935,128,0,74016:0:0:0:0:
109,192,74097,128,0,74178:0:0:0:0:
475,192,74097,128,0,74259:0:0:0:0:
36,192,74259,128,8,74421:0:0:0:0:
256,192,74259,1,2,0:0:0:0:
329,192,74340,128,0,74421:0:0:0:0:
475,192,74421,128,0,74583:0:0:0:0:
329,192,74502,128,0,74583:0:0:0:0:
182,192,74583,128,2,74746:0:0:0:0:
36,192,74583,128,0,74827:0:0:0:0:
329,192,74746,128,0,74908:0:0:0:0:
182,192,74827,128,0,74908:0:0:0:0:
475,192,74908,128,8,75070:0:0:0:0:
36,192,74908,128,2,75151:0:0:0:0:
256,192,75070,128,0,75232:0:0:0:0:
402,192,75232,1,2,0:0:0:0:
36,192,75232,128,0,75556:0:0:0:0:
109,192,75394,128,0,75556:0:0:0:0:
182,192,75475,128,0,75556:0:0:0:0:
402,192,75556,128,2,75637:0:0:0:0:
329,192,75556,128,0,75637:0:0:0:0:
109,192,75881,1,2,0:0:0:0:
475,192,75881,128,0,76205:0:0:0:0:
329,192,75881,128,0,76205:0:0:0:0:
36,192,76043,128,0,76205:0:0:0:0:
256,192,76205,1,8,0:0:0:0:
182,192,76205,128,2,76367:0:0:0:0:
36,192,76367,128,0,76529:0:0:0:0:
182,192,76448,128,0,76529:0:0:0:0:
402,192,76529,1,2,0:0:0:0:
329,192,76529,128,0,76692:0:0:0:0:
475,192,76692,128,0,76854:0:0:0:0:
36,192,76692,128,0,76854:0:0:0:0:
256,192,76854,1,8,0:0:0:0:
182,192,76854,128,2,77016:0:0:0:0:
36,192,77016,128,0,77178:0:0:0:0:
329,192,77178,128,2,77340:0:0:0:0:
475,192,77178,128,0,77421:0:0:0:0:
182,192,77340,128,0,77502:0:0:0:0:
329,192,77421,128,0,77502:0:0:0:0:
36,192,77502,128,8,77665:0:0:0:0:
475,192,77502,128,2,77746:0:0:0:0:
182,192,77665,128,0,77827:0:0:0:0:
256,192,77827,1,2,0:0:0:0:
475,192,77827,128,0,78151:0:0:0:0:
182,192,77989,128,0,78070:0:0:0:0:
109,192,77989,128,0,78070:0:0:0:0:
402,192,77989,128,0,78151:0:0:0:0:
329,192,78070,128,0,78151:0:0:0:0:
36,192,78151,1,2,0:0:0:0:
182,192,78151,128,0,78232:0:0:0:0:
109,192,78151,128,0,78232:0:0:0:0:
329,192,78475,1,2,0:0:0:0:
402,192,78475,128,0,78800:0:0:0:0:
475,192,78475,128,0,78800:0:0:0:0:
36,192,78637,128,0,78800:0:0:0:0:
256,192,78800,1,8,0:0:0:0:
182,192,78800,128,2,78962:0:0:0:0:
36,192,78962,128,0,79124:0:0:0:0:
182,192,79043,128,0,79124:0:0:0:0:
329,192,79124,1,2,0:0:0:0:
402,192,79124,128,0,79205:0:0:0:0:
402,192,79286,128,0,79367:0:0:0:0:
36,192,79286,128,0,79448:0:0:0:0:
475,192,79448,128,8,79610:0:0:0:0:
256,192,79448,1,2,0:0:0:0:
182,192,79529,128,0,79610:0:0:0:0:
36,192,79610,128,0,79773:0:0:0:0:
182,192,79692,128,0,79773:0:0:0:0:
329,192,79773,128,2,79935:0:0:0:0:
475,192,79773,128,0,80016:0:0:0:0:
182,192,79935,128,0,80097:0:0:0:0:
329,192,80016,128,0,80097:0:0:0:0:
36,192,80097,128,8,80259:0:0:0:0:
475,192,80097,128,2,80340:0:0:0:0:
256,192,80259,128,0,80421:0:0:0:0:
109,192,80421,1,2,0:0:0:0:
475,192,80421,128,0,80746:0:0:0:0:
402,192,80583,128,0,80746:0:0:0:0:
329,192,80665,128,0,80746:0:0:0:0:
256,192,80746,1,2,0:0:0:0:
36,192,80746,128,0,80989:0:0:0:0:
109,192,80827,128,0,80989:0:0:0:0:
182,192,80908,128,0,80989:0:0:0:0:
36,192,81070,128,2,81394:0:0:0:0:
109,192,81070,128,0,81394:0:0:0:0:
329,192,81070,1,0,0:0:0:0:
256,192,81394,1,8,0:0:0:0:
475,192,81394,128,2,81556:0:0:0:0:
329,192,81475,128,0,81556:0:0:0:0:
182,192,81556,128,0,81719:0:0:0:0:
329,192,81637,128,0,81719:0:0:0:0:
36,192,81719,128,2,81881:0:0:0:0:
402,192,81719,1,0,0:0:0:0:
182,192,81881,128,0,82043:0:0:0:0:
475,192,82043,128,8,82205:0:0:0:0:
256,192,82043,1,2,0:0:0:0:
329,192,82205,128,0,82367:0:0:0:0:
182,192,82367,128,2,82529:0:0:0:0:
109,192,82367,1,0,0:0:0:0:
402,192,82529,128,0,82692:0:0:0:0:
36,192,82692,128,2,83016:0:0:0:0:
475,192,82692,1,0,0:0:0:0:
109,192,82854,128,0,83016:0:0:0:0:
182,192,82935,128,0,83016:0:0:0:0:
329,192,83016,128,0,83097:0:0:0:0:
182,192,83178,128,0,83259:0:0:0:0:
36,192,83259,128,0,83340:0:0:0:0:
475,192,83340,128,0,83421:0:0:0:0:
256,192,83502,128,0,83583:0:0:0:0:
36,192,83665,5,2,0:0:0:0:
109,192,83665,1,4,0:0:0:0:
329,192,83665,1,0,0:0:0:0:
402,192,83665,128,0,83827:0:0:0:0:
256,192,83827,128,0,83908:0:0:0:0:
475,192,83908,128,0,83989:0:0:0:0:
329,192,83989,128,8,84151:0:0:0:0:
109,192,83989,1,2,0:0:0:0:
182,192,84151,128,0,84232:0:0:0:0:
402,192,84232,128,0,84313:0:0:0:0:
256,192,84313,128,2,84475:0:0:0:0:
36,192,84313,1,0,0:0:0:0:
109,192,84475,128,0,84556:0:0:0:0:
329,192,84556,128,0,84637:0:0:0:0:
182,192,84637,128,8,84719:0:0:0:0:
475,192,84637,1,2,0:0:0:0:
36,192,84719,128,0,84800:0:0:0:0:
256,192,84800,128,0,84881:0:0:0:0:
402,192,84881,128,0,84962:0:0:0:0:
182,192,84962,128,2,85124:0:0:0:0:
109,192,84962,1,0,0:0:0:0:
329,192,85124,128,0,85205:0:0:0:0:
256,192,85205,128,0,85286:0:0:0:0:
475,192,85286,1,2,0:0:0:0:
36,192,85286,1,8,0:0:0:0:
402,192,85340,1,0,0:0:0:0:
329,192,85394,1,0,0:0:0:0:
256,192,85448,128,0,85610:0:0:0:0:
475,192,85610,1,2,0:0:0:0:
36,192,85610,128,0,85773:0:0:0:0:
182,192,85665,128,0,85773:0:0:0:0:
329,192,85773,1,0,0:0:0:0:
256,192,85935,1,2,0:0:0:0:
109,192,85935,1,0,0:0:0:0:
36,192,85935,1,0,0:0:0:0:
329,192,86259,1,2,0:0:0:0:
402,192,86259,1,0,0:0:0:0:
36,192,86421,128,0,86502:0:0:0:0:
182,192,86502,128,0,86583:0:0:0:0:
256,192,86583,1,8,0:0:0:0:
475,192,86583,1,2,0:0:0:0:
109,192,86746,1,0,0:0:0:0:
402,192,86908,1,2,0:0:0:0:
36,192,86908,1,0,0:0:0:0:
182,192,86948,1,0,0:0:0:0:
475,192,87070,128,0,87151:0:0:0:0:
329,192,87151,128,0,87232:0:0:0:0:
256,192,87232,1,8,0:0:0:0:
109,192,87232,1,2,0:0:0:0:
475,192,87394,1,0,0:0:0:0:
256,192,87502,1,0,0:0:0:0:
36,192,87556,1,2,0:0:0:0:
109,192,87556,1,0,0:0:0:0:
402,192,87719,1,0,0:0:0:0:
329,192,87773,1,0,0:0:0:0:
256,192,87827,1,0,0:0:0:0:
182,192,87881,1,8,0:0:0:0:
475,192,87881,1,2,0:0:0:0:
109,192,87962,128,0,88043:0:0:0:0:
402,192,88043,128,0,88124:0:0:0:0:
109,192,88124,128,0,88205:0:0:0:0:
329,192,88205,128,2,88286:0:0:0:0:
36,192,88205,1,0,0:0:0:0:
182,192,88286,128,0,88367:0:0:0:0:
475,192,88367,128,0,88448:0:0:0:0:
256,192,88529,128,2,88610:0:0:0:0:
402,192,88529,1,0,0:0:0:0:
256,192,88692,1,0,0:0:0:0:
182,192,88854,1,2,0:0:0:0:
36,192,88854,128,0,88935:0:0:0:0:
329,192,89016,1,0,0:0:0:0:
256,192,89097,128,0,89178:0:0:0:0:
109,192,89178,128,8,89340:0:0:0:0:
475,192,89178,1,2,0:0:0:0:
402,192,89259,128,0,89340:0:0:0:0:
256,192,89340,1,0,0:0:0:0:
329,192,89421,128,0,89502:0:0:0:0:
182,192,89502,128,2,89665:0:0:0:0:
109,192,89502,1,0,0:0:0:0:
36,192,89665,128,0,89746:0:0:0:0:
475,192,89746,128,0,89827:0:0:0:0:
329,192,89827,128,8,89989:0:0:0:0:
256,192,89827,1,2,0:0:0:0:
36,192,89989,128,0,90070:0:0:0:0:
182,192,90070,128,0,90151:0:0:0:0:
402,192,90151,128,2,90313:0:0:0:0:
475,192,90151,1,0,0:0:0:0:
109,192,90313,128,0,90394:0:0:0:0:
256,192,90394,128,0,90475:0:0:0:0:
475,192,90475,128,8,90556:0:0:0:0:
36,192,90475,1,2,0:0:0:0:
329,192,90556,128,0,90719:0:0:0:0:
182,192,90692,128,0,90854:0:0:0:0:
475,192,90800,128,2,91043:0:0:0:0:
36,192,90800,1,0,0:0:0:0:
329,192,90962,128,0,91043:0:0:0:0:
109,192,91124,1,2,0:0:0:0:
256,192,91124,1,0,0:0:0:0:
36,192,91286,128,0,91448:0:0:0:0:
182,192,91367,128,0,91448:0:0:0:0:
402,192,91448,128,2,91610:0:0:0:0:
329,192,91448,1,0,0:0:0:0:
256,192,91610,128,0,91773:0:0:0:0:
36,192,91773,1,8,0:0:0:0:
475,192,91773,1,2,0:0:0:0:
109,192,91854,128,0,91935:0:0:0:0:
329,192,91935,128,0,92016:0:0:0:0:
109,192,92016,128,0,92097:0:0:0:0:
256,192,92097,1,2,0:0:0:0:
402,192,92097,128,0,92259:0:0:0:0:
182,192,92259,128,0,92421:0:0:0:0:
475,192,92421,1,8,0:0:0:0:
36,192,92421,1,2,0:0:0:0:
402,192,92475,1,0,0:0:0:0:
329,192,92529,1,0,0:0:0:0:
256,192,92583,128,0,92665:0:0:0:0:
182,192,92665,128,0,92746:0:0:0:0:
36,192,92746,128,2,92827:0:0:0:0:
475,192,92746,1,0,0:0:0:0:
402,192,92827,128,0,92908:0:0:0:0:
256,192,92908,128,0,92989:0:0:0:0:
182,192,92989,128,0,93070:0:0:0:0:
109,192,93070,1,2,0:0:0:0:
329,192,93124,1,0,0:0:0:0:
256,192,93178,1,0,0:0:0:0:
475,192,93232,128,0,93313:0:0:0:0:
402,192,93313,128,0,93394:0:0:0:0:
36,192,93394,128,2,93475:0:0:0:0:
182,192,93475,128,2,93556:0:0:0:0:
475,192,93556,128,2,93637:0:0:0:0:
329,192,93637,128,2,93719:0:0:0:0:
256,192,93719,128,2,95340:0:0:0:0:
36,192,93719,1,0,0:0:0:0:
