osu file format v14

[General]
AudioFilename: audio.mp3
AudioLeadIn: 0
PreviewTime: 21394
Countdown: 0
SampleSet: Soft
StackLeniency: 0.7
Mode: 3
LetterboxInBreaks: 0
SpecialStyle: 0
WidescreenStoryboard: 1

[Editor]
DistanceSpacing: 1.1
BeatDivisor: 4
GridSize: 16
TimelineZoom: 3.799998

[Metadata]
Title:TSLove
TitleUnicode:TSLove
Artist:O2i3
ArtistUnicode:O2i3
Creator:Scotty
Version:Easy
Source:osu!
Tags:-mint- qqqant keppsado featured artist fa mappers' guild mg electronic instrumental kirara records happy hardcore
BeatmapID:2379641
BeatmapSetID:1137583

[Difficulty]
HPDrainRate:7
CircleSize:7
OverallDifficulty:7
ApproachRate:5
SliderMultiplier:1.4
SliderTickRate:1

[Events]
//Background and Video events
0,0,"a.jpg",0,0
//Break Periods
//Storyboard Layer 0 (Background)
//Storyboard Layer 1 (Fail)
//Storyboard Layer 2 (Pass)
//Storyboard Layer 3 (Foreground)
//Storyboard Layer 4 (Overlay)
//Storyboard Sound Samples

[TimingPoints]
638,324.324324324324,4,2,1,70,1,0
21394,-100,4,2,1,70,0,1
31124,-100,4,2,1,70,0,0
31773,-100,4,2,1,70,0,1
41502,-100,4,2,1,70,0,0
62908,-100,4,2,1,70,0,1
72637,-100,4,2,1,70,0,0
73286,-100,4,2,1,70,0,1
83016,-100,4,2,1,70,0,0

[HitObjects]
109,192,638,5,0,0:0:0:40:lighterkick.wav
402,192,638,1,0,0:0:0:0:
182,192,962,1,0,0:0:0:50:clap.wav
182,192,1610,1,0,0:0:0:50:clap.wav
329,192,1935,1,0,0:0:0:40:lighterkick.wav
402,192,2259,1,0,0:0:0:50:clap.wav
402,192,2908,1,0,0:0:0:50:clap.wav
475,192,3232,1,0,0:0:0:40:lighterkick.wav
36,192,3556,1,0,0:0:0:50:clap.wav
36,192,4205,1,0,0:0:0:50:clap.wav
402,192,4529,1,0,0:0:0:40:lighterkick.wav
182,192,4854,1,0,0:0:0:50:clap.wav
182,192,5502,1,0,0:0:0:50:clap.wav
256,192,5665,1,0,0:0:0:0:
329,192,5827,1,0,0:0:0:40:lighterkick.wav
402,192,6151,1,0,0:0:0:50:clap.wav
402,192,6800,1,0,0:0:0:50:clap.wav
256,192,7124,1,0,0:0:0:40:lighterkick.wav
109,192,7448,1,0,0:0:0:50:clap.wav
109,192,8097,1,0,0:0:0:50:clap.wav
256,192,8421,1,0,0:0:0:40:lighterkick.wav
475,192,8746,1,0,0:0:0:50:clap.wav
475,192,9394,1,0,0:0:0:50:clap.wav
329,192,9719,1,0,0:0:0:40:lighterkick.wav
109,192,10043,1,0,0:0:0:50:clap.wav
36,192,10692,1,0,0:0:0:0:
182,192,10854,1,0,0:0:0:0:
329,192,11016,1,0,0:0:0:40:lighterkick.wav
475,192,11016,1,4,0:0:0:0:
109,192,11340,1,0,0:0:0:40:lighterkick.wav
402,192,11665,1,0,0:0:0:40:lighterkick.wav
182,192,11989,1,0,0:0:0:40:lighterkick.wav
256,192,12313,1,0,0:0:0:40:lighterkick.wav
329,192,12637,1,0,0:0:0:40:lighterkick.wav
109,192,12962,1,0,0:0:0:40:lighterkick.wav
402,192,13286,1,0,0:0:0:40:lighterkick.wav
36,192,13610,1,0,0:0:0:40:lighterkick.wav
329,192,13935,1,0,0:0:0:40:lighterkick.wav
182,192,14259,1,0,0:0:0:40:lighterkick.wav
475,192,14583,1,0,0:0:0:40:lighterkick.wav
109,192,14908,1,0,0:0:0:40:lighterkick.wav
182,192,15232,1,0,0:0:0:40:lighterkick.wav
329,192,15556,1,2,0:0:0:0:
256,192,15881,1,0,0:0:0:50:clap.wav
109,192,16205,1,4,0:0:0:0:
402,192,16205,1,2,0:0:0:0:
329,192,16367,1,2,0:0:0:0:
256,192,16529,1,2,0:0:0:0:
109,192,16854,1,2,0:0:0:0:
182,192,17016,1,2,0:0:0:0:
256,192,17178,1,2,0:0:0:0:
475,192,17502,1,2,0:0:0:0:
329,192,17665,1,2,0:0:0:0:
182,192,17827,1,2,0:0:0:0:
36,192,18151,1,2,0:0:0:0:
182,192,18313,1,2,0:0:0:0:
329,192,18475,1,2,0:0:0:0:
475,192,18800,128,2,19124:0:0:0:0:
36,192,19124,128,2,19448:0:0:0:0:
329,192,19448,128,0,19773:0:0:0:0:
182,192,19773,128,2,20097:0:0:0:0:
475,192,20097,1,2,0:0:0:0:
256,192,20097,128,4,21394:0:0:0:0:
109,192,21394,1,4,0:0:0:0:
402,192,21394,128,2,21719:0:0:0:0:
182,192,21719,1,10,0:0:0:0:
36,192,21881,1,0,0:0:0:0:
256,192,22043,1,2,0:0:0:0:
329,192,22367,1,10,0:0:0:0:
475,192,22529,1,0,0:0:0:0:
109,192,22692,1,2,0:0:0:0:
256,192,22854,1,0,0:0:0:0:
402,192,23016,1,10,0:0:0:0:
182,192,23340,128,2,23665:0:0:0:0:
475,192,23665,1,2,0:0:0:0:
36,192,23989,128,2,24313:0:0:0:0:
329,192,24313,1,10,0:0:0:0:
182,192,24475,1,0,0:0:0:0:
402,192,24637,1,2,0:0:0:0:
256,192,24962,1,10,0:0:0:0:
109,192,25286,1,2,0:0:0:0:
329,192,25448,1,0,0:0:0:0:
182,192,25610,1,10,0:0:0:0:
402,192,25935,1,2,0:0:0:0:
109,192,26097,1,0,0:0:0:0:
329,192,26259,1,2,0:0:0:0:
256,192,26583,128,2,26908:0:0:0:0:
402,192,26908,1,10,0:0:0:0:
109,192,27070,1,0,0:0:0:0:
329,192,27232,1,2,0:0:0:0:
36,192,27556,1,10,0:0:0:0:
182,192,27719,1,0,0:0:0:0:
475,192,27881,1,2,0:0:0:0:
329,192,28043,1,0,0:0:0:0:
182,192,28205,1,10,0:0:0:0:
402,192,28529,128,2,28854:0:0:0:0:
109,192,28854,1,2,0:0:0:0:
256,192,29178,128,2,29502:0:0:0:0:
475,192,29502,1,10,0:0:0:0:
329,192,29665,1,0,0:0:0:0:
182,192,29827,1,2,0:0:0:0:
36,192,30151,1,10,0:0:0:0:
256,192,30475,1,2,0:0:0:0:
475,192,30800,128,0,31124:0:0:0:0:
36,192,31124,1,0,0:0:0:0:
182,192,31286,1,0,0:0:0:0:
329,192,31448,1,0,0:0:0:0:
475,192,31610,1,0,0:0:0:0:
36,192,31773,1,2,0:0:0:0:
256,192,31773,128,4,32097:0:0:0:0:
402,192,32097,1,10,0:0:0:0:
182,192,32259,1,0,0:0:0:0:
109,192,32421,1,2,0:0:0:0:
256,192,32746,1,10,0:0:0:0:
109,192,32908,1,0,0:0:0:0:
475,192,33070,1,2,0:0:0:0:
329,192,33232,1,0,0:0:0:0:
182,192,33394,1,10,0:0:0:0:
36,192,33719,128,2,34043:0:0:0:0:
256,192,34043,1,2,0:0:0:0:
402,192,34367,128,2,34692:0:0:0:0:
109,192,34692,1,10,0:0:0:0:
182,192,34854,1,0,0:0:0:0:
329,192,35016,1,2,0:0:0:0:
36,192,35340,1,10,0:0:0:0:
475,192,35665,1,2,0:0:0:0:
329,192,35827,1,0,0:0:0:0:
109,192,35989,1,10,0:0:0:0:
36,192,36313,1,2,0:0:0:0:
182,192,36475,1,0,0:0:0:0:
402,192,36637,1,2,0:0:0:0:
329,192,36962,128,2,37286:0:0:0:0:
109,192,37286,1,10,0:0:0:0:
402,192,37448,1,0,0:0:0:0:
182,192,37610,1,2,0:0:0:0:
329,192,37935,1,10,0:0:0:0:
109,192,38097,1,0,0:0:0:0:
402,192,38259,1,2,0:0:0:0:
256,192,38421,1,0,0:0:0:0:
475,192,38583,1,10,0:0:0:0:
109,192,38908,128,2,39232:0:0:0:0:
329,192,39232,1,2,0:0:0:0:
182,192,39556,128,2,39881:0:0:0:0:
36,192,39881,1,10,0:0:0:0:
256,192,40043,1,0,0:0:0:0:
475,192,40205,1,2,0:0:0:0:
109,192,40529,1,10,0:0:0:0:
256,192,40854,1,2,0:0:0:0:
402,192,41178,128,2,41502:0:0:0:0:
182,192,41502,1,2,0:0:0:0:
329,192,41827,1,2,0:0:0:0:
109,192,42151,1,2,0:0:0:0:
402,192,42151,1,4,0:0:0:0:
182,192,44097,128,0,44421:0:0:0:0:
329,192,44421,128,0,44746:0:0:0:0:
36,192,44746,1,0,0:0:0:0:
182,192,44908,1,0,0:0:0:0:
475,192,45070,1,0,0:0:0:0:
329,192,45232,1,0,0:0:0:0:
182,192,45556,1,0,0:0:0:0:
36,192,45881,128,0,46205:0:0:0:0:
402,192,46205,128,0,46854:0:0:0:0:
182,192,46854,1,0,0:0:0:0:
36,192,47016,1,0,0:0:0:0:
329,192,47178,1,0,0:0:0:0:
182,192,48151,1,0,0:0:0:0:
182,192,48475,128,0,48962:0:0:0:0:
402,192,48962,128,0,49286:0:0:0:0:
109,192,49286,128,0,49610:0:0:0:0:
475,192,49610,1,0,0:0:0:0:
329,192,49773,1,0,0:0:0:0:
182,192,49935,128,0,50259:0:0:0:0:
36,192,50259,1,0,0:0:0:0:
329,192,50421,128,0,50746:0:0:0:0:
182,192,50746,1,0,0:0:0:0:
475,192,50908,128,0,52529:0:0:0:0:
109,192,52529,1,4,0:0:0:0:
182,192,52529,1,0,0:0:0:40:lighterkick.wav
329,192,52854,1,0,0:0:0:40:lighterkick.wav
36,192,53178,1,0,0:0:0:40:lighterkick.wav
475,192,53502,1,0,0:0:0:40:lighterkick.wav
256,192,53827,1,0,0:0:0:40:lighterkick.wav
109,192,54151,1,0,0:0:0:40:lighterkick.wav
329,192,54475,1,0,0:0:0:40:lighterkick.wav
182,192,54800,1,0,0:0:0:40:lighterkick.wav
402,192,55124,1,0,0:0:0:40:lighterkick.wav
36,192,55448,1,0,0:0:0:40:lighterkick.wav
329,192,55773,1,2,0:0:0:0:
475,192,56097,1,2,0:0:0:0:
182,192,56421,1,2,0:0:0:0:
256,192,56746,1,2,0:0:0:0:
402,192,57070,1,2,0:0:0:0:
36,192,57394,1,2,0:0:0:0:
402,192,57719,1,2,0:0:0:0:
329,192,57881,1,2,0:0:0:0:
256,192,58043,1,2,0:0:0:0:
109,192,58367,1,2,0:0:0:0:
182,192,58529,1,2,0:0:0:0:
256,192,58692,1,2,0:0:0:0:
475,192,59016,1,2,0:0:0:0:
329,192,59178,1,2,0:0:0:0:
182,192,59340,1,2,0:0:0:0:
36,192,59665,1,2,0:0:0:0:
182,192,59827,1,2,0:0:0:0:
329,192,59989,1,2,0:0:0:0:
109,192,60313,128,2,60637:0:0:0:0:
402,192,60637,128,2,60962:0:0:0:0:
182,192,60962,128,0,61286:0:0:0:0:
329,192,61286,128,2,61610:0:0:0:0:
109,192,62908,1,2,0:0:0:0:
475,192,62908,128,4,63232:0:0:0:0:
256,192,63232,1,10,0:0:0:0:
36,192,63394,1,0,0:0:0:0:
329,192,63556,1,2,0:0:0:0:
182,192,63881,1,10,0:0:0:0:
402,192,64043,1,0,0:0:0:0:
36,192,64205,1,2,0:0:0:0:
256,192,64367,1,0,0:0:0:0:
475,192,64529,1,10,0:0:0:0:
182,192,64854,128,2,65178:0:0:0:0:
402,192,65178,1,2,0:0:0:0:
36,192,65502,128,2,65827:0:0:0:0:
475,192,65827,1,10,0:0:0:0:
182,192,65989,1,0,0:0:0:0:
329,192,66151,1,2,0:0:0:0:
256,192,66475,1,10,0:0:0:0:
109,192,66800,1,2,0:0:0:0:
182,192,66962,1,0,0:0:0:0:
329,192,67124,1,10,0:0:0:0:
402,192,67448,1,2,0:0:0:0:
329,192,67610,1,0,0:0:0:0:
182,192,67773,1,2,0:0:0:0:
256,192,68097,128,2,68421:0:0:0:0:
402,192,68421,1,10,0:0:0:0:
109,192,68583,1,0,0:0:0:0:
329,192,68746,1,2,0:0:0:0:
36,192,69070,1,10,0:0:0:0:
256,192,69232,1,0,0:0:0:0:
109,192,69394,1,2,0:0:0:0:
475,192,69556,1,0,0:0:0:0:
329,192,69719,1,10,0:0:0:0:
256,192,70043,128,2,70367:0:0:0:0:
109,192,70367,1,2,0:0:0:0:
329,192,70692,128,2,71016:0:0:0:0:
182,192,71016,1,10,0:0:0:0:
402,192,71178,1,0,0:0:0:0:
256,192,71340,1,2,0:0:0:0:
109,192,71665,1,10,0:0:0:0:
402,192,71989,1,2,0:0:0:0:
36,192,72313,128,2,72637:0:0:0:0:
329,192,72637,1,0,0:0:0:0:
182,192,72800,1,0,0:0:0:0:
475,192,72962,1,0,0:0:0:0:
329,192,73124,1,0,0:0:0:0:
36,192,73286,1,2,0:0:0:0:
256,192,73286,128,4,73610:0:0:0:0:
109,192,73610,1,10,0:0:0:0:
475,192,73773,1,0,0:0:0:0:
329,192,73935,1,2,0:0:0:0:
182,192,74259,1,10,0:0:0:0:
36,192,74421,1,0,0:0:0:0:
402,192,74583,1,2,0:0:0:0:
329,192,74746,1,0,0:0:0:0:
256,192,74908,1,10,0:0:0:0:
36,192,75232,128,2,75556:0:0:0:0:
329,192,75556,1,2,0:0:0:0:
402,192,75881,128,2,76205:0:0:0:0:
109,192,76205,1,10,0:0:0:0:
182,192,76367,1,0,0:0:0:0:
329,192,76529,1,2,0:0:0:0:
109,192,76854,1,10,0:0:0:0:
402,192,77178,1,2,0:0:0:0:
256,192,77340,1,0,0:0:0:0:
36,192,77502,1,10,0:0:0:0:
109,192,77827,1,2,0:0:0:0:
256,192,77989,1,0,0:0:0:0:
475,192,78151,1,2,0:0:0:0:
182,192,78475,128,2,78800:0:0:0:0:
329,192,78800,1,10,0:0:0:0:
109,192,78962,1,0,0:0:0:0:
402,192,79124,1,2,0:0:0:0:
36,192,79448,1,10,0:0:0:0:
475,192,79610,1,0,0:0:0:0:
109,192,79773,1,2,0:0:0:0:
256,192,79935,1,0,0:0:0:0:
402,192,80097,1,10,0:0:0:0:
475,192,80421,128,2,80746:0:0:0:0:
182,192,80746,128,2,81070:0:0:0:0:
475,192,81070,128,2,81394:0:0:0:0:
36,192,81394,1,10,0:0:0:0:
182,192,81556,1,0,0:0:0:0:
329,192,81719,1,2,0:0:0:0:
109,192,82043,1,10,0:0:0:0:
256,192,82367,1,2,0:0:0:0:
402,192,82692,128,2,83016:0:0:0:0:
182,192,83665,1,2,0:0:0:0:
109,192,83665,1,4,0:0:0:0:
329,192,83989,1,10,0:0:0:0:
36,192,84313,1,2,0:0:0:0:
402,192,84637,1,10,0:0:0:0:
182,192,84962,1,2,0:0:0:0:
329,192,85286,1,10,0:0:0:0:
109,192,85610,1,2,0:0:0:0:
256,192,85935,1,2,0:0:0:0:
475,192,85935,1,0,0:0:0:0:
36,192,86259,1,2,0:0:0:0:
402,192,86583,1,10,0:0:0:0:
182,192,86908,1,2,0:0:0:0:
329,192,87232,1,10,0:0:0:0:
109,192,87556,1,2,0:0:0:0:
475,192,87881,1,10,0:0:0:0:
36,192,88205,1,2,0:0:0:0:
329,192,88529,1,2,0:0:0:0:
182,192,88692,1,0,0:0:0:0:
402,192,88854,1,2,0:0:0:0:
109,192,89178,1,10,0:0:0:0:
475,192,89502,1,2,0:0:0:0:
256,192,89827,1,10,0:0:0:0:
36,192,90151,1,2,0:0:0:0:
182,192,90475,1,10,0:0:0:0:
329,192,90800,1,2,0:0:0:0:
475,192,91124,1,2,0:0:0:0:
182,192,91448,1,2,0:0:0:0:
329,192,91773,1,10,0:0:0:0:
109,192,92097,1,2,0:0:0:0:
402,192,92421,1,10,0:0:0:0:
182,192,92746,1,2,0:0:0:0:
36,192,93070,1,2,0:0:0:0:
475,192,93394,1,2,0:0:0:0:
329,192,93556,1,2,0:0:0:0:
182,192,93719,128,2,95340:0:0:0:0:
