osu file format v14

[General]
AudioFilename: audio.mp3
AudioLeadIn: 0
PreviewTime: 21301
Countdown: 0
SampleSet: Soft
StackLeniency: 0.2
Mode: 0
LetterboxInBreaks: 0
EpilepsyWarning: 1
WidescreenStoryboard: 1

[Editor]
Bookmarks: 11004,21382,42139,52517,61598,62896,83653,93707
DistanceSpacing: 1
BeatDivisor: 4
GridSize: 16
TimelineZoom: 1

[Metadata]
Title:TSLove
TitleUnicode:TSLove
Artist:O2i3
ArtistUnicode:O2i3
Creator:Nuvolina
Version:Normal
Source:osu!
Tags:featured artist fa mappers' guild mg electronic instrumental log off now lon log_off_now dtm9 nowa dtm9_nowa nozhomi
BeatmapID:2517043
BeatmapSetID:1206779

[Difficulty]
HPDrainRate:4
CircleSize:3.5
OverallDifficulty:4
ApproachRate:6
SliderMultiplier:1.2
SliderTickRate:1

[Events]
//Background and Video events
0,0,"bg.jpg",0,0
//Break Periods
//Storyboard Layer 0 (Background)
//Storyboard Layer 1 (Fail)
//Storyboard Layer 2 (Pass)
//Storyboard Layer 3 (Foreground)
Sprite,Foreground,Centre,"sb/dot.png",0,0 M,19,11004,11754,429,74,474,137 F,0,11004,11754,1,0 S,0,11004,11754,0.7,0.28 P,0,11004,11754,A C,0,11004,,128,128,255 R,0,11004,11754,0.6702262,0.4870875
Sprite,Foreground,Centre,"sb/dot.png",0,0 M,19,11004,11754,429,74,370,85 F,0,11004,11754,1,0 S,0,11004,11754,0.7,0.28 P,0,11004,11754,A C,0,11004,,128,128,255 R,0,11004,11754,0.7906578,0.385873
Sprite,Foreground,Centre,"sb/dot.png",0,0 M,19,11004,11754,429,74,524,28 F,0,11004,11754,1,0 S,0,11004,11754,0.7,0.28 P,0,11004,11754,A C,0,11004,,128,128,255 R,0,11004,11754,0.2547363,0.407809
Sprite,Foreground,Centre,"sb/dot.png",0,0 M,19,11004,11754,429,74,455,67 F,0,11004,11754,1,0 S,0,11004,11754,0.7,0.28 P,0,11004,11754,A C,0,11004,,128,128,255 R,0,11004,11754,0.8570887,0.0265002
Sprite,Foreground,Centre,"sb/dot.png",0,0 M,19,11004,11754,429,74,501,173 F,0,11004,11754,1,0 S,0,11004,11754,0.7,0.28 P,0,11004,11754,A C,0,11004,,128,128,255 R,0,11004,11754,0.590952,0.2745331
Sprite,Foreground,Centre,"sb/dot.png",0,0 M,19,11004,11754,429,74,492,143 F,0,11004,11754,1,0 S,0,11004,11754,0.7,0.28 P,0,11004,11754,A C,0,11004,,128,128,255 R,0,11004,11754,0.865598,0.02847086
Sprite,Foreground,Centre,"sb/dot.png",0,0 M,19,11004,11754,429,74,468,79 F,0,11004,11754,1,0 S,0,11004,11754,0.7,0.28 P,0,11004,11754,A C,0,11004,,128,128,255 R,0,11004,11754,0.8150851,0.6000619
Sprite,Foreground,Centre,"sb/dot.png",0,0 M,19,11166,11916,450,118,459,34 F,0,11166,11916,1,0 S,0,11166,11916,0.7,0.28 P,0,11166,11916,A C,0,11166,,128,128,255 R,0,11166,11916,0.163297,0.3956026
Sprite,Foreground,Centre,"sb/dot.png",0,0 M,19,11166,11916,450,118,409,215 F,0,11166,11916,1,0 S,0,11166,11916,0.7,0.28 P,0,11166,11916,A C,0,11166,,128,128,255 R,0,11166,11916,0.5608593,0.6658114
Sprite,Foreground,Centre,"sb/dot.png",0,0 M,19,11166,11916,450,118,356,94 F,0,11166,11916,1,0 S,0,11166,11916,0.7,0.28 P,0,11166,11916,A C,0,11166,,128,128,255 R,0,11166,11916,0.2994477,0.8355373
Sprite,Foreground,Centre,"sb/dot.png",0,0 M,19,11166,11916,450,118,451,161 F,0,11166,11916,1,0 S,0,11166,11916,0.7,0.28 P,0,11166,11916,A C,0,11166,,128,128,255 R,0,11166,11916,0.1038102,0.2386314
Sprite,Foreground,Centre,"sb/dot.png",0,0 M,19,11166,11916,450,118,531,176 F,0,11166,11916,1,0 S,0,11166,11916,0.7,0.28 P,0,11166,11916,A C,0,11166,,128,128,255 R,0,11166,11916,0.2942279,0.3989899
Sprite,Foreground,Centre,"sb/dot.png",0,0 M,19,11166,11916,450,118,379,62 F,0,11166,11916,1,0 S,0,11166,11916,0.7,0.28 P,0,11166,11916,A C,0,11166,,128,128,255 R,0,11166,11916,0.3578565,0.6272075
Sprite,Foreground,Centre,"sb/dot.png",0,0 M,19,11166,11916,450,118,473,115 F,0,11166,11916,1,0 S,0,11166,11916,0.7,0.28 P,0,11166,11916,A C,0,11166,,128,128,255 R,0,11166,11916,0.1700941,0.7663667
Sprite,Foreground,Centre,"sb/dot.png",0,0 M,19,12139,12889,372,174,437,221 F,0,12139,12889,1,0 S,0,12139,12889,0.7,0.28 P,0,12139,12889,A C,0,12139,,128,128,255 R,0,12139,12889,0.7489375,0.5931929
Sprite,Foreground,Centre,"sb/dot.png",0,0 M,19,12139,12889,372,174,396,117 F,0,12139,12889,1,0 S,0,12139,12889,0.7,0.28 P,0,12139,12889,A C,0,12139,,128,128,255 R,0,12139,12889,0.7813511,0.7822913
Sprite,Foreground,Centre,"sb/dot.png",0,0 M,19,12139,12889,372,174,289,241 F,0,12139,12889,1,0 S,0,12139,12889,0.7,0.28 P,0,12139,12889,A C,0,12139,,128,128,255 R,0,12139,12889,0.1484776,0.5620967
Sprite,Foreground,Centre,"sb/dot.png",0,0 M,19,12139,12889,372,174,437,117 F,0,12139,12889,1,0 S,0,12139,12889,0.7,0.28 P,0,12139,12889,A C,0,12139,,128,128,255 R,0,12139,12889,0.8726408,0.4200708
Sprite,Foreground,Centre,"sb/dot.png",0,0 M,19,12139,12889,372,174,402,217 F,0,12139,12889,1,0 S,0,12139,12889,0.7,0.28 P,0,12139,12889,A C,0,12139,,128,128,255 R,0,12139,12889,0.7063894,0.08808275
Sprite,Foreground,Centre,"sb/dot.png",0,0 M,19,12139,12889,372,174,417,217 F,0,12139,12889,1,0 S,0,12139,12889,0.7,0.28 P,0,12139,12889,A C,0,12139,,128,128,255 R,0,12139,12889,0.1095432,0.7899154
Sprite,Foreground,Centre,"sb/dot.png",0,0 M,19,12139,12889,372,174,309,169 F,0,12139,12889,1,0 S,0,12139,12889,0.7,0.28 P,0,12139,12889,A C,0,12139,,128,128,255 R,0,12139,12889,0.4719329,0.2840529
Sprite,Foreground,Centre,"sb/dot.png",0,0 M,19,12463,13213,294,117,328,110 F,0,12463,13213,1,0 S,0,12463,13213,0.7,0.28 P,0,12463,13213,A C,0,12463,,128,128,255 R,0,12463,13213,0.7273633,0.7061635
Sprite,Foreground,Centre,"sb/dot.png",0,0 M,19,12463,13213,294,117,352,169 F,0,12463,13213,1,0 S,0,12463,13213,0.7,0.28 P,0,12463,13213,A C,0,12463,,128,128,255 R,0,12463,13213,0.8181583,0.2574333
Sprite,Foreground,Centre,"sb/dot.png",0,0 M,19,12463,13213,294,117,298,149 F,0,12463,13213,1,0 S,0,12463,13213,0.7,0.28 P,0,12463,13213,A C,0,12463,,128,128,255 R,0,12463,13213,0.2902387,0.2502125
Sprite,Foreground,Centre,"sb/dot.png",0,0 M,19,12463,13213,294,117,358,61 F,0,12463,13213,1,0 S,0,12463,13213,0.7,0.28 P,0,12463,13213,A C,0,12463,,128,128,255 R,0,12463,13213,0.1630762,0.05979398
Sprite,Foreground,Centre,"sb/dot.png",0,0 M,19,12463,13213,294,117,318,155 F,0,12463,13213,1,0 S,0,12463,13213,0.7,0.28 P,0,12463,13213,A C,0,12463,,128,128,255 R,0,12463,13213,0.5501229,0.8095163
Sprite,Foreground,Centre,"sb/dot.png",0,0 M,19,12463,13213,294,117,238,202 F,0,12463,13213,1,0 S,0,12463,13213,0.7,0.28 P,0,12463,13213,A C,0,12463,,128,128,255 R,0,12463,13213,0.05805104,0.7854892
Sprite,Foreground,Centre,"sb/dot.png",0,0 M,19,12463,13213,294,117,329,35 F,0,12463,13213,1,0 S,0,12463,13213,0.7,0.28 P,0,12463,13213,A C,0,12463,,128,128,255 R,0,12463,13213,0.1301121,0.09335111
Sprite,Foreground,Centre,"sb/dot.png",0,0 M,19,12788,13538,211,167,232,257 F,0,12788,13538,1,0 S,0,12788,13538,0.7,0.28 P,0,12788,13538,A C,0,12788,,128,128,255 R,0,12788,13538,0.4281512,0.1292035
Sprite,Foreground,Centre,"sb/dot.png",0,0 M,19,12788,13538,211,167,246,180 F,0,12788,13538,1,0 S,0,12788,13538,0.7,0.28 P,0,12788,13538,A C,0,12788,,128,128,255 R,0,12788,13538,0.1967013,0.5394657
Sprite,Foreground,Centre,"sb/dot.png",0,0 M,19,12788,13538,211,167,112,139 F,0,12788,13538,1,0 S,0,12788,13538,0.7,0.28 P,0,12788,13538,A C,0,12788,,128,128,255 R,0,12788,13538,0.7421882,0.05437435
Sprite,Foreground,Centre,"sb/dot.png",0,0 M,19,12788,13538,211,167,167,207 F,0,12788,13538,1,0 S,0,12788,13538,0.7,0.28 P,0,12788,13538,A C,0,12788,,128,128,255 R,0,12788,13538,0.8365192,0.8629016
Sprite,Foreground,Centre,"sb/dot.png",0,0 M,19,12788,13538,211,167,188,171 F,0,12788,13538,1,0 S,0,12788,13538,0.7,0.28 P,0,12788,13538,A C,0,12788,,128,128,255 R,0,12788,13538,0.24463,0.4420711
Sprite,Foreground,Centre,"sb/dot.png",0,0 M,19,12788,13538,211,167,217,78 F,0,12788,13538,1,0 S,0,12788,13538,0.7,0.28 P,0,12788,13538,A C,0,12788,,128,128,255 R,0,12788,13538,0.2448292,0.4329104
Sprite,Foreground,Centre,"sb/dot.png",0,0 M,19,12788,13538,211,167,280,189 F,0,12788,13538,1,0 S,0,12788,13538,0.7,0.28 P,0,12788,13538,A C,0,12788,,128,128,255 R,0,12788,13538,0.09089557,0.6478043
Sprite,Foreground,Centre,"sb/dot.png",0,0 M,19,13761,14511,237,259,217,345 F,0,13761,14511,1,0 S,0,13761,14511,0.7,0.28 P,0,13761,14511,A C,0,13761,,252,173,194 R,0,13761,14511,0.1140558,0.6105618
Sprite,Foreground,Centre,"sb/dot.png",0,0 M,19,13761,14511,237,259,260,325 F,0,13761,14511,1,0 S,0,13761,14511,0.7,0.28 P,0,13761,14511,A C,0,13761,,252,173,194 R,0,13761,14511,0.5978857,0.4971941
Sprite,Foreground,Centre,"sb/dot.png",0,0 M,19,13761,14511,237,259,171,195 F,0,13761,14511,1,0 S,0,13761,14511,0.7,0.28 P,0,13761,14511,A C,0,13761,,252,173,194 R,0,13761,14511,0.5315495,0.2188192
Sprite,Foreground,Centre,"sb/dot.png",0,0 M,19,13761,14511,237,259,336,272 F,0,13761,14511,1,0 S,0,13761,14511,0.7,0.28 P,0,13761,14511,A C,0,13761,,252,173,194 R,0,13761,14511,0.05535892,0.2301075
Sprite,Foreground,Centre,"sb/dot.png",0,0 M,19,13761,14511,237,259,305,272 F,0,13761,14511,1,0 S,0,13761,14511,0.7,0.28 P,0,13761,14511,A C,0,13761,,252,173,194 R,0,13761,14511,0.5637327,0.4506145
Sprite,Foreground,Centre,"sb/dot.png",0,0 M,19,13761,14511,237,259,331,174 F,0,13761,14511,1,0 S,0,13761,14511,0.7,0.28 P,0,13761,14511,A C,0,13761,,252,173,194 R,0,13761,14511,0.4476485,0.1359309
Sprite,Foreground,Centre,"sb/dot.png",0,0 M,19,13761,14511,237,259,299,287 F,0,13761,14511,1,0 S,0,13761,14511,0.7,0.28 P,0,13761,14511,A C,0,13761,,252,173,194 R,0,13761,14511,0.5021254,0.482463
Sprite,Foreground,Centre,"sb/dot.png",0,0 M,19,14085,14835,332,259,366,357 F,0,14085,14835,1,0 S,0,14085,14835,0.7,0.28 P,0,14085,14835,A C,0,14085,,252,173,194 R,0,14085,14835,0.2632312,0.05624644
Sprite,Foreground,Centre,"sb/dot.png",0,0 M,19,14085,14835,332,259,325,255 F,0,14085,14835,1,0 S,0,14085,14835,0.7,0.28 P,0,14085,14835,A C,0,14085,,252,173,194 R,0,14085,14835,0.1887626,0.06256098
Sprite,Foreground,Centre,"sb/dot.png",0,0 M,19,14085,14835,332,259,278,189 F,0,14085,14835,1,0 S,0,14085,14835,0.7,0.28 P,0,14085,14835,A C,0,14085,,252,173,194 R,0,14085,14835,0.3899937,0.393641
Sprite,Foreground,Centre,"sb/dot.png",0,0 M,19,14085,14835,332,259,235,236 F,0,14085,14835,1,0 S,0,14085,14835,0.7,0.28 P,0,14085,14835,A C,0,14085,,252,173,194 R,0,14085,14835,0.7121334,0.1768055
Sprite,Foreground,Centre,"sb/dot.png",0,0 M,19,14085,14835,332,259,414,164 F,0,14085,14835,1,0 S,0,14085,14835,0.7,0.28 P,0,14085,14835,A C,0,14085,,252,173,194 R,0,14085,14835,0.4445889,0.8402797
Sprite,Foreground,Centre,"sb/dot.png",0,0 M,19,14085,14835,332,259,430,162 F,0,14085,14835,1,0 S,0,14085,14835,0.7,0.28 P,0,14085,14835,A C,0,14085,,252,173,194 R,0,14085,14835,0.5703026,0.2428883
Sprite,Foreground,Centre,"sb/dot.png",0,0 M,19,14085,14835,332,259,425,276 F,0,14085,14835,1,0 S,0,14085,14835,0.7,0.28 P,0,14085,14835,A C,0,14085,,252,173,194 R,0,14085,14835,0.6738731,0.282889
Sprite,Foreground,Centre,"sb/dot.png",0,0 M,19,14734,15484,518,231,502,325 F,0,14734,15484,1,0 S,0,14734,15484,0.7,0.28 P,0,14734,15484,A C,0,14734,,252,173,194 R,0,14734,15484,0.7731805,0.8490043
Sprite,Foreground,Centre,"sb/dot.png",0,0 M,19,14734,15484,518,231,469,157 F,0,14734,15484,1,0 S,0,14734,15484,0.7,0.28 P,0,14734,15484,A C,0,14734,,252,173,194 R,0,14734,15484,0.7830012,0.1555273
Sprite,Foreground,Centre,"sb/dot.png",0,0 M,19,14734,15484,518,231,594,239 F,0,14734,15484,1,0 S,0,14734,15484,0.7,0.28 P,0,14734,15484,A C,0,14734,,252,173,194 R,0,14734,15484,0.6850812,0.4485851
Sprite,Foreground,Centre,"sb/dot.png",0,0 M,19,14734,15484,518,231,488,329 F,0,14734,15484,1,0 S,0,14734,15484,0.7,0.28 P,0,14734,15484,A C,0,14734,,252,173,194 R,0,14734,15484,0.02918457,0.6036461
Sprite,Foreground,Centre,"sb/dot.png",0,0 M,19,14734,15484,518,231,442,169 F,0,14734,15484,1,0 S,0,14734,15484,0.7,0.28 P,0,14734,15484,A C,0,14734,,252,173,194 R,0,14734,15484,0.4332927,0.5072707
Sprite,Foreground,Centre,"sb/dot.png",0,0 M,19,14734,15484,518,231,470,193 F,0,14734,15484,1,0 S,0,14734,15484,0.7,0.28 P,0,14734,15484,A C,0,14734,,252,173,194 R,0,14734,15484,0.2113036,0.6842352
Sprite,Foreground,Centre,"sb/dot.png",0,0 M,19,14734,15484,518,231,444,253 F,0,14734,15484,1,0 S,0,14734,15484,0.7,0.28 P,0,14734,15484,A C,0,14734,,252,173,194 R,0,14734,15484,0.4880727,0.5721357
Sprite,Foreground,Centre,"sb/dot.png",0,0 M,19,15382,16132,443,395,411,299 F,0,15382,16132,1,0 S,0,15382,16132,0.7,0.28 P,0,15382,16132,A C,0,15382,,252,173,194 R,0,15382,16132,0.08489798,0.7661215
Sprite,Foreground,Centre,"sb/dot.png",0,0 M,19,15382,16132,443,395,485,473 F,0,15382,16132,1,0 S,0,15382,16132,0.7,0.28 P,0,15382,16132,A C,0,15382,,252,173,194 R,0,15382,16132,0.5683354,0.222798
Sprite,Foreground,Centre,"sb/dot.png",0,0 M,19,15382,16132,443,395,395,389 F,0,15382,16132,1,0 S,0,15382,16132,0.7,0.28 P,0,15382,16132,A C,0,15382,,252,173,194 R,0,15382,16132,0.1709592,0.7745637
Sprite,Foreground,Centre,"sb/dot.png",0,0 M,19,15382,16132,443,395,441,422 F,0,15382,16132,1,0 S,0,15382,16132,0.7,0.28 P,0,15382,16132,A C,0,15382,,252,173,194 R,0,15382,16132,0.2790015,0.3219889
Sprite,Foreground,Centre,"sb/dot.png",0,0 M,19,15382,16132,443,395,391,494 F,0,15382,16132,1,0 S,0,15382,16132,0.7,0.28 P,0,15382,16132,A C,0,15382,,252,173,194 R,0,15382,16132,0.5327671,0.001592342
Sprite,Foreground,Centre,"sb/dot.png",0,0 M,19,15382,16132,443,395,539,487 F,0,15382,16132,1,0 S,0,15382,16132,0.7,0.28 P,0,15382,16132,A C,0,15382,,252,173,194 R,0,15382,16132,0.1371335,0.6739213
Sprite,Foreground,Centre,"sb/dot.png",0,0 M,19,15382,16132,443,395,361,333 F,0,15382,16132,1,0 S,0,15382,16132,0.7,0.28 P,0,15382,16132,A C,0,15382,,252,173,194 R,0,15382,16132,0.05454375,0.0960473
Sprite,Foreground,Centre,"sb/dot.png",0,0 M,19,15544,16294,396,407,442,327 F,0,15544,16294,1,0 S,0,15544,16294,0.7,0.28 P,0,15544,16294,A C,0,15544,,252,173,194 R,0,15544,16294,0.7328876,0.560836
Sprite,Foreground,Centre,"sb/dot.png",0,0 M,19,15544,16294,396,407,410,355 F,0,15544,16294,1,0 S,0,15544,16294,0.7,0.28 P,0,15544,16294,A C,0,15544,,252,173,194 R,0,15544,16294,0.730589,0.7501257
Sprite,Foreground,Centre,"sb/dot.png",0,0 M,19,15544,16294,396,407,385,488 F,0,15544,16294,1,0 S,0,15544,16294,0.7,0.28 P,0,15544,16294,A C,0,15544,,252,173,194 R,0,15544,16294,0.7008966,0.401639
Sprite,Foreground,Centre,"sb/dot.png",0,0 M,19,15544,16294,396,407,364,462 F,0,15544,16294,1,0 S,0,15544,16294,0.7,0.28 P,0,15544,16294,A C,0,15544,,252,173,194 R,0,15544,16294,0.3725356,0.5647654
Sprite,Foreground,Centre,"sb/dot.png",0,0 M,19,15544,16294,396,407,495,428 F,0,15544,16294,1,0 S,0,15544,16294,0.7,0.28 P,0,15544,16294,A C,0,15544,,252,173,194 R,0,15544,16294,0.07828224,0.5444038
Sprite,Foreground,Centre,"sb/dot.png",0,0 M,19,15544,16294,396,407,494,481 F,0,15544,16294,1,0 S,0,15544,16294,0.7,0.28 P,0,15544,16294,A C,0,15544,,252,173,194 R,0,15544,16294,0.4708409,0.120113
Sprite,Foreground,Centre,"sb/dot.png",0,0 M,19,15544,16294,396,407,296,418 F,0,15544,16294,1,0 S,0,15544,16294,0.7,0.28 P,0,15544,16294,A C,0,15544,,252,173,194 R,0,15544,16294,0.5865986,0.3309463
Sprite,Foreground,Centre,"sb/dot.png",0,0 M,19,16193,16943,214,431,287,396 F,0,16193,16943,1,0 S,0,16193,16943,0.7,0.28 P,0,16193,16943,A C,0,16193,,222,77,253 R,0,16193,16943,0.6864684,0.4537507
Sprite,Foreground,Centre,"sb/dot.png",0,0 M,19,16193,16943,214,431,279,439 F,0,16193,16943,1,0 S,0,16193,16943,0.7,0.28 P,0,16193,16943,A C,0,16193,,222,77,253 R,0,16193,16943,0.4559766,0.1421651
Sprite,Foreground,Centre,"sb/dot.png",0,0 M,19,16193,16943,214,431,240,441 F,0,16193,16943,1,0 S,0,16193,16943,0.7,0.28 P,0,16193,16943,A C,0,16193,,222,77,253 R,0,16193,16943,0.274549,0.218123
Sprite,Foreground,Centre,"sb/dot.png",0,0 M,19,16193,16943,214,431,274,423 F,0,16193,16943,1,0 S,0,16193,16943,0.7,0.28 P,0,16193,16943,A C,0,16193,,222,77,253 R,0,16193,16943,0.8042484,0.2944345
Sprite,Foreground,Centre,"sb/dot.png",0,0 M,19,16193,16943,214,431,152,361 F,0,16193,16943,1,0 S,0,16193,16943,0.7,0.28 P,0,16193,16943,A C,0,16193,,222,77,253 R,0,16193,16943,0.5771297,0.1791506
Sprite,Foreground,Centre,"sb/dot.png",0,0 M,19,16193,16943,214,431,220,432 F,0,16193,16943,1,0 S,0,16193,16943,0.7,0.28 P,0,16193,16943,A C,0,16193,,222,77,253 R,0,16193,16943,0.6747888,0.4209241
Sprite,Foreground,Centre,"sb/dot.png",0,0 M,19,16193,16943,214,431,134,418 F,0,16193,16943,1,0 S,0,16193,16943,0.7,0.28 P,0,16193,16943,A C,0,16193,,222,77,253 R,0,16193,16943,0.1042059,0.7501712
Sprite,Foreground,Centre,"sb/dot.png",0,0 M,19,16842,17592,83,299,95,339 F,0,16842,17592,1,0 S,0,16842,17592,0.7,0.28 P,0,16842,17592,A C,0,16842,,222,77,253 R,0,16842,17592,0.5590928,0.01353433
Sprite,Foreground,Centre,"sb/dot.png",0,0 M,19,16842,17592,83,299,96,290 F,0,16842,17592,1,0 S,0,16842,17592,0.7,0.28 P,0,16842,17592,A C,0,16842,,222,77,253 R,0,16842,17592,0.8669163,0.1067638
Sprite,Foreground,Centre,"sb/dot.png",0,0 M,19,16842,17592,83,299,7,255 F,0,16842,17592,1,0 S,0,16842,17592,0.7,0.28 P,0,16842,17592,A C,0,16842,,222,77,253 R,0,16842,17592,0.5503092,0.6975038
Sprite,Foreground,Centre,"sb/dot.png",0,0 M,19,16842,17592,83,299,34,251 F,0,16842,17592,1,0 S,0,16842,17592,0.7,0.28 P,0,16842,17592,A C,0,16842,,222,77,253 R,0,16842,17592,0.01133429,0.3890093
Sprite,Foreground,Centre,"sb/dot.png",0,0 M,19,16842,17592,83,299,41,366 F,0,16842,17592,1,0 S,0,16842,17592,0.7,0.28 P,0,16842,17592,A C,0,16842,,222,77,253 R,0,16842,17592,0.7183868,0.4629656
Sprite,Foreground,Centre,"sb/dot.png",0,0 M,19,16842,17592,83,299,173,239 F,0,16842,17592,1,0 S,0,16842,17592,0.7,0.28 P,0,16842,17592,A C,0,16842,,222,77,253 R,0,16842,17592,0.8250058,0.7432798
Sprite,Foreground,Centre,"sb/dot.png",0,0 M,19,16842,17592,83,299,162,292 F,0,16842,17592,1,0 S,0,16842,17592,0.7,0.28 P,0,16842,17592,A C,0,16842,,222,77,253 R,0,16842,17592,0.7368254,0.3108413
Sprite,Foreground,Centre,"sb/dot.png",0,0 M,19,17490,18240,172,107,182,67 F,0,17490,18240,1,0 S,0,17490,18240,0.7,0.28 P,0,17490,18240,A C,0,17490,,222,77,253 R,0,17490,18240,0.3654305,0.3411899
Sprite,Foreground,Centre,"sb/dot.png",0,0 M,19,17490,18240,172,107,156,139 F,0,17490,18240,1,0 S,0,17490,18240,0.7,0.28 P,0,17490,18240,A C,0,17490,,222,77,253 R,0,17490,18240,0.5240607,0.8133212
Sprite,Foreground,Centre,"sb/dot.png",0,0 M,19,17490,18240,172,107,254,66 F,0,17490,18240,1,0 S,0,17490,18240,0.7,0.28 P,0,17490,18240,A C,0,17490,,222,77,253 R,0,17490,18240,0.5938562,0.2990389
Sprite,Foreground,Centre,"sb/dot.png",0,0 M,19,17490,18240,172,107,165,166 F,0,17490,18240,1,0 S,0,17490,18240,0.7,0.28 P,0,17490,18240,A C,0,17490,,222,77,253 R,0,17490,18240,0.1892786,0.7932905
Sprite,Foreground,Centre,"sb/dot.png",0,0 M,19,17490,18240,172,107,175,179 F,0,17490,18240,1,0 S,0,17490,18240,0.7,0.28 P,0,17490,18240,A C,0,17490,,222,77,253 R,0,17490,18240,0.8287406,0.236415
Sprite,Foreground,Centre,"sb/dot.png",0,0 M,19,17490,18240,172,107,171,72 F,0,17490,18240,1,0 S,0,17490,18240,0.7,0.28 P,0,17490,18240,A C,0,17490,,222,77,253 R,0,17490,18240,0.1640796,0.228161
Sprite,Foreground,Centre,"sb/dot.png",0,0 M,19,17490,18240,172,107,195,124 F,0,17490,18240,1,0 S,0,17490,18240,0.7,0.28 P,0,17490,18240,A C,0,17490,,222,77,253 R,0,17490,18240,0.7924403,0.3143626
Sprite,Foreground,Centre,"sb/dot.png",0,0 M,19,17815,18565,242,188,293,245 F,0,17815,18565,1,0 S,0,17815,18565,0.7,0.28 P,0,17815,18565,A C,0,17815,,222,77,253 R,0,17815,18565,0.1041837,0.08948348
Sprite,Foreground,Centre,"sb/dot.png",0,0 M,19,17815,18565,242,188,264,215 F,0,17815,18565,1,0 S,0,17815,18565,0.7,0.28 P,0,17815,18565,A C,0,17815,,222,77,253 R,0,17815,18565,0.4979115,0.7122762
Sprite,Foreground,Centre,"sb/dot.png",0,0 M,19,17815,18565,242,188,314,135 F,0,17815,18565,1,0 S,0,17815,18565,0.7,0.28 P,0,17815,18565,A C,0,17815,,222,77,253 R,0,17815,18565,0.3294216,0.5172693
Sprite,Foreground,Centre,"sb/dot.png",0,0 M,19,17815,18565,242,188,274,104 F,0,17815,18565,1,0 S,0,17815,18565,0.7,0.28 P,0,17815,18565,A C,0,17815,,222,77,253 R,0,17815,18565,0.4653143,0.8684945
Sprite,Foreground,Centre,"sb/dot.png",0,0 M,19,17815,18565,242,188,173,184 F,0,17815,18565,1,0 S,0,17815,18565,0.7,0.28 P,0,17815,18565,A C,0,17815,,222,77,253 R,0,17815,18565,0.05567684,0.1329111
Sprite,Foreground,Centre,"sb/dot.png",0,0 M,19,17815,18565,242,188,339,95 F,0,17815,18565,1,0 S,0,17815,18565,0.7,0.28 P,0,17815,18565,A C,0,17815,,222,77,253 R,0,17815,18565,0.2897962,0.02972464
Sprite,Foreground,Centre,"sb/dot.png",0,0 M,19,17815,18565,242,188,245,202 F,0,17815,18565,1,0 S,0,17815,18565,0.7,0.28 P,0,17815,18565,A C,0,17815,,222,77,253 R,0,17815,18565,0.7498075,0.1957375
Sprite,Foreground,Centre,"sb/dot.png",0,0 M,19,18139,18889,213,291,136,222 F,0,18139,18889,1,0 S,0,18139,18889,0.7,0.28 P,0,18139,18889,A C,0,18139,,222,77,253 R,0,18139,18889,0.6767721,0.7268419
Sprite,Foreground,Centre,"sb/dot.png",0,0 M,19,18139,18889,213,291,263,239 F,0,18139,18889,1,0 S,0,18139,18889,0.7,0.28 P,0,18139,18889,A C,0,18139,,222,77,253 R,0,18139,18889,0.1528878,0.107882
Sprite,Foreground,Centre,"sb/dot.png",0,0 M,19,18139,18889,213,291,148,306 F,0,18139,18889,1,0 S,0,18139,18889,0.7,0.28 P,0,18139,18889,A C,0,18139,,222,77,253 R,0,18139,18889,0.6362216,0.7238783
Sprite,Foreground,Centre,"sb/dot.png",0,0 M,19,18139,18889,213,291,158,271 F,0,18139,18889,1,0 S,0,18139,18889,0.7,0.28 P,0,18139,18889,A C,0,18139,,222,77,253 R,0,18139,18889,0.03891047,0.2443642
Sprite,Foreground,Centre,"sb/dot.png",0,0 M,19,18139,18889,213,291,209,262 F,0,18139,18889,1,0 S,0,18139,18889,0.7,0.28 P,0,18139,18889,A C,0,18139,,222,77,253 R,0,18139,18889,0.5301052,0.3630207
Sprite,Foreground,Centre,"sb/dot.png",0,0 M,19,18139,18889,213,291,271,229 F,0,18139,18889,1,0 S,0,18139,18889,0.7,0.28 P,0,18139,18889,A C,0,18139,,222,77,253 R,0,18139,18889,0.08919328,0.1177346
Sprite,Foreground,Centre,"sb/dot.png",0,0 M,19,18139,18889,213,291,218,342 F,0,18139,18889,1,0 S,0,18139,18889,0.7,0.28 P,0,18139,18889,A C,0,18139,,222,77,253 R,0,18139,18889,0.3272348,0.628718
Sprite,Foreground,Centre,"sb/dot.png",0,0 M,19,18463,19213,302,351,293,268 F,0,18463,19213,1,0 S,0,18463,19213,0.7,0.28 P,0,18463,19213,A C,0,18463,,222,77,253 R,0,18463,19213,0.510776,0.03507154
Sprite,Foreground,Centre,"sb/dot.png",0,0 M,19,18463,19213,302,351,357,320 F,0,18463,19213,1,0 S,0,18463,19213,0.7,0.28 P,0,18463,19213,A C,0,18463,,222,77,253 R,0,18463,19213,0.6108114,0.6171105
Sprite,Foreground,Centre,"sb/dot.png",0,0 M,19,18463,19213,302,351,294,359 F,0,18463,19213,1,0 S,0,18463,19213,0.7,0.28 P,0,18463,19213,A C,0,18463,,222,77,253 R,0,18463,19213,0.7312396,0.3692764
Sprite,Foreground,Centre,"sb/dot.png",0,0 M,19,18463,19213,302,351,383,332 F,0,18463,19213,1,0 S,0,18463,19213,0.7,0.28 P,0,18463,19213,A C,0,18463,,222,77,253 R,0,18463,19213,0.7116635,0.5072597
Sprite,Foreground,Centre,"sb/dot.png",0,0 M,19,18463,19213,302,351,352,297 F,0,18463,19213,1,0 S,0,18463,19213,0.7,0.28 P,0,18463,19213,A C,0,18463,,222,77,253 R,0,18463,19213,0.8060026,0.5101253
Sprite,Foreground,Centre,"sb/dot.png",0,0 M,19,18463,19213,302,351,400,261 F,0,18463,19213,1,0 S,0,18463,19213,0.7,0.28 P,0,18463,19213,A C,0,18463,,222,77,253 R,0,18463,19213,0.4795203,0.1399008
Sprite,Foreground,Centre,"sb/dot.png",0,0 M,19,18463,19213,302,351,395,339 F,0,18463,19213,1,0 S,0,18463,19213,0.7,0.28 P,0,18463,19213,A C,0,18463,,222,77,253 R,0,18463,19213,0.3752722,0.8058797
Sprite,Foreground,Centre,"sb/dot.png",0,0 M,19,18788,19538,399,303,310,331 F,0,18788,19538,1,0 S,0,18788,19538,0.7,0.28 P,0,18788,19538,A C,0,18788,,255,219,111 R,0,18788,19538,0.2686138,0.8718296
Sprite,Foreground,Centre,"sb/dot.png",0,0 M,19,18788,19538,399,303,472,293 F,0,18788,19538,1,0 S,0,18788,19538,0.7,0.28 P,0,18788,19538,A C,0,18788,,255,219,111 R,0,18788,19538,0.5818651,0.08237186
Sprite,Foreground,Centre,"sb/dot.png",0,0 M,19,18788,19538,399,303,497,340 F,0,18788,19538,1,0 S,0,18788,19538,0.7,0.28 P,0,18788,19538,A C,0,18788,,255,219,111 R,0,18788,19538,0.04494614,0.7700638
Sprite,Foreground,Centre,"sb/dot.png",0,0 M,19,18788,19538,399,303,439,270 F,0,18788,19538,1,0 S,0,18788,19538,0.7,0.28 P,0,18788,19538,A C,0,18788,,255,219,111 R,0,18788,19538,0.7120169,0.8202893
Sprite,Foreground,Centre,"sb/dot.png",0,0 M,19,18788,19538,399,303,402,239 F,0,18788,19538,1,0 S,0,18788,19538,0.7,0.28 P,0,18788,19538,A C,0,18788,,255,219,111 R,0,18788,19538,0.4452307,0.3356976
Sprite,Foreground,Centre,"sb/dot.png",0,0 M,19,18788,19538,399,303,374,307 F,0,18788,19538,1,0 S,0,18788,19538,0.7,0.28 P,0,18788,19538,A C,0,18788,,255,219,111 R,0,18788,19538,0.3346084,0.2537649
Sprite,Foreground,Centre,"sb/dot.png",0,0 M,19,18788,19538,399,303,465,361 F,0,18788,19538,1,0 S,0,18788,19538,0.7,0.28 P,0,18788,19538,A C,0,18788,,255,219,111 R,0,18788,19538,0.6359131,0.3532495
Sprite,Foreground,Centre,"sb/dot.png",0,0 M,19,19436,20186,465,126,472,110 F,0,19436,20186,1,0 S,0,19436,20186,0.7,0.28 P,0,19436,20186,A C,0,19436,,255,219,111 R,0,19436,20186,0.06476633,0.2921454
Sprite,Foreground,Centre,"sb/dot.png",0,0 M,19,19436,20186,465,126,548,181 F,0,19436,20186,1,0 S,0,19436,20186,0.7,0.28 P,0,19436,20186,A C,0,19436,,255,219,111 R,0,19436,20186,0.5690342,0.7186391
Sprite,Foreground,Centre,"sb/dot.png",0,0 M,19,19436,20186,465,126,412,193 F,0,19436,20186,1,0 S,0,19436,20186,0.7,0.28 P,0,19436,20186,A C,0,19436,,255,219,111 R,0,19436,20186,0.4868132,0.3936202
Sprite,Foreground,Centre,"sb/dot.png",0,0 M,19,19436,20186,465,126,513,170 F,0,19436,20186,1,0 S,0,19436,20186,0.7,0.28 P,0,19436,20186,A C,0,19436,,255,219,111 R,0,19436,20186,0.5136631,0.05464069
Sprite,Foreground,Centre,"sb/dot.png",0,0 M,19,19436,20186,465,126,401,34 F,0,19436,20186,1,0 S,0,19436,20186,0.7,0.28 P,0,19436,20186,A C,0,19436,,255,219,111 R,0,19436,20186,0.7712697,0.5710049
Sprite,Foreground,Centre,"sb/dot.png",0,0 M,19,19436,20186,465,126,412,147 F,0,19436,20186,1,0 S,0,19436,20186,0.7,0.28 P,0,19436,20186,A C,0,19436,,255,219,111 R,0,19436,20186,0.5596691,0.6821411
Sprite,Foreground,Centre,"sb/dot.png",0,0 M,19,19436,20186,465,126,551,35 F,0,19436,20186,1,0 S,0,19436,20186,0.7,0.28 P,0,19436,20186,A C,0,19436,,255,219,111 R,0,19436,20186,0.4766289,0.4661426
Sprite,Foreground,Centre,"sb/dot.png",0,0 M,19,19598,20348,498,168,449,71 F,0,19598,20348,1,0 S,0,19598,20348,0.7,0.28 P,0,19598,20348,A C,0,19598,,255,219,111 R,0,19598,20348,0.1456383,0.06535374
Sprite,Foreground,Centre,"sb/dot.png",0,0 M,19,19598,20348,498,168,543,120 F,0,19598,20348,1,0 S,0,19598,20348,0.7,0.28 P,0,19598,20348,A C,0,19598,,255,219,111 R,0,19598,20348,0.4874331,0.495386
Sprite,Foreground,Centre,"sb/dot.png",0,0 M,19,19598,20348,498,168,520,211 F,0,19598,20348,1,0 S,0,19598,20348,0.7,0.28 P,0,19598,20348,A C,0,19598,,255,219,111 R,0,19598,20348,0.8431621,0.8065885
Sprite,Foreground,Centre,"sb/dot.png",0,0 M,19,19598,20348,498,168,535,266 F,0,19598,20348,1,0 S,0,19598,20348,0.7,0.28 P,0,19598,20348,A C,0,19598,,255,219,111 R,0,19598,20348,0.6136588,0.5934862
Sprite,Foreground,Centre,"sb/dot.png",0,0 M,19,19598,20348,498,168,523,79 F,0,19598,20348,1,0 S,0,19598,20348,0.7,0.28 P,0,19598,20348,A C,0,19598,,255,219,111 R,0,19598,20348,0.5601304,0.5726237
Sprite,Foreground,Centre,"sb/dot.png",0,0 M,19,19598,20348,498,168,584,132 F,0,19598,20348,1,0 S,0,19598,20348,0.7,0.28 P,0,19598,20348,A C,0,19598,,255,219,111 R,0,19598,20348,0.09424795,0.6902525
Sprite,Foreground,Centre,"sb/dot.png",0,0 M,19,19598,20348,498,168,579,82 F,0,19598,20348,1,0 S,0,19598,20348,0.7,0.28 P,0,19598,20348,A C,0,19598,,255,219,111 R,0,19598,20348,0.1471697,0.8083724
Sprite,Foreground,Centre,"sb/dot.png",0,0 M,19,19761,20511,551,161,607,119 F,0,19761,20511,1,0 S,0,19761,20511,0.7,0.28 P,0,19761,20511,A C,0,19761,,255,219,111 R,0,19761,20511,0.3505894,0.7599916
Sprite,Foreground,Centre,"sb/dot.png",0,0 M,19,19761,20511,551,161,497,84 F,0,19761,20511,1,0 S,0,19761,20511,0.7,0.28 P,0,19761,20511,A C,0,19761,,255,219,111 R,0,19761,20511,0.4942101,0.1917816
Sprite,Foreground,Centre,"sb/dot.png",0,0 M,19,19761,20511,551,161,585,157 F,0,19761,20511,1,0 S,0,19761,20511,0.7,0.28 P,0,19761,20511,A C,0,19761,,255,219,111 R,0,19761,20511,0.632699,0.4196162
Sprite,Foreground,Centre,"sb/dot.png",0,0 M,19,19761,20511,551,161,483,65 F,0,19761,20511,1,0 S,0,19761,20511,0.7,0.28 P,0,19761,20511,A C,0,19761,,255,219,111 R,0,19761,20511,0.3909216,0.4067163
Sprite,Foreground,Centre,"sb/dot.png",0,0 M,19,19761,20511,551,161,465,252 F,0,19761,20511,1,0 S,0,19761,20511,0.7,0.28 P,0,19761,20511,A C,0,19761,,255,219,111 R,0,19761,20511,0.8455745,0.212702
Sprite,Foreground,Centre,"sb/dot.png",0,0 M,19,19761,20511,551,161,632,253 F,0,19761,20511,1,0 S,0,19761,20511,0.7,0.28 P,0,19761,20511,A C,0,19761,,255,219,111 R,0,19761,20511,0.1354608,0.7626102
Sprite,Foreground,Centre,"sb/dot.png",0,0 M,19,19761,20511,551,161,531,238 F,0,19761,20511,1,0 S,0,19761,20511,0.7,0.28 P,0,19761,20511,A C,0,19761,,255,219,111 R,0,19761,20511,0.5252074,0.8171259
Sprite,Foreground,Centre,"sb/star.png",0,0 M,19,52517,53267,462,163,484,194 F,0,52517,53267,1,0 S,0,52517,53267,0.3,0.12 P,0,52517,53267,A R,0,52517,53267,0.6702262,0.4870875
Sprite,Foreground,Centre,"sb/star.png",0,0 M,19,52517,53267,462,163,432,168 F,0,52517,53267,1,0 S,0,52517,53267,0.3,0.12 P,0,52517,53267,A R,0,52517,53267,0.7906578,0.385873
Sprite,Foreground,Centre,"sb/star.png",0,0 M,19,52517,53267,462,163,509,140 F,0,52517,53267,1,0 S,0,52517,53267,0.3,0.12 P,0,52517,53267,A R,0,52517,53267,0.2547363,0.407809
Sprite,Foreground,Centre,"sb/star.png",0,0 M,19,52517,53267,462,163,475,159 F,0,52517,53267,1,0 S,0,52517,53267,0.3,0.12 P,0,52517,53267,A R,0,52517,53267,0.8570887,0.0265002
Sprite,Foreground,Centre,"sb/star.png",0,0 M,19,52517,53267,462,163,498,212 F,0,52517,53267,1,0 S,0,52517,53267,0.3,0.12 P,0,52517,53267,A R,0,52517,53267,0.590952,0.2745331
Sprite,Foreground,Centre,"sb/star.png",0,0 M,19,52517,53267,462,163,493,197 F,0,52517,53267,1,0 S,0,52517,53267,0.3,0.12 P,0,52517,53267,A R,0,52517,53267,0.865598,0.02847086
Sprite,Foreground,Centre,"sb/star.png",0,0 M,19,52517,53267,462,163,481,165 F,0,52517,53267,1,0 S,0,52517,53267,0.3,0.12 P,0,52517,53267,A R,0,52517,53267,0.8150851,0.6000619
Sprite,Foreground,Centre,"sb/star.png",0,0 M,19,52680,53430,485,204,489,162 F,0,52680,53430,1,0 S,0,52680,53430,0.3,0.12 P,0,52680,53430,A R,0,52680,53430,0.163297,0.3956026
Sprite,Foreground,Centre,"sb/star.png",0,0 M,19,52680,53430,485,204,464,252 F,0,52680,53430,1,0 S,0,52680,53430,0.3,0.12 P,0,52680,53430,A R,0,52680,53430,0.5608593,0.6658114
Sprite,Foreground,Centre,"sb/star.png",0,0 M,19,52680,53430,485,204,438,192 F,0,52680,53430,1,0 S,0,52680,53430,0.3,0.12 P,0,52680,53430,A R,0,52680,53430,0.2994477,0.8355373
Sprite,Foreground,Centre,"sb/star.png",0,0 M,19,52680,53430,485,204,485,225 F,0,52680,53430,1,0 S,0,52680,53430,0.3,0.12 P,0,52680,53430,A R,0,52680,53430,0.1038102,0.2386314
Sprite,Foreground,Centre,"sb/star.png",0,0 M,19,52680,53430,485,204,525,233 F,0,52680,53430,1,0 S,0,52680,53430,0.3,0.12 P,0,52680,53430,A R,0,52680,53430,0.2942279,0.3989899
Sprite,Foreground,Centre,"sb/star.png",0,0 M,19,52680,53430,485,204,449,176 F,0,52680,53430,1,0 S,0,52680,53430,0.3,0.12 P,0,52680,53430,A R,0,52680,53430,0.3578565,0.6272075
Sprite,Foreground,Centre,"sb/star.png",0,0 M,19,52680,53430,485,204,496,202 F,0,52680,53430,1,0 S,0,52680,53430,0.3,0.12 P,0,52680,53430,A R,0,52680,53430,0.1700941,0.7663667
Sprite,Foreground,Centre,"sb/star.png",0,0 M,19,53328,54078,395,238,427,261 F,0,53328,54078,1,0 S,0,53328,54078,0.3,0.12 P,0,53328,54078,A R,0,53328,54078,0.7489375,0.5931929
Sprite,Foreground,Centre,"sb/star.png",0,0 M,19,53328,54078,395,238,407,209 F,0,53328,54078,1,0 S,0,53328,54078,0.3,0.12 P,0,53328,54078,A R,0,53328,54078,0.7813511,0.7822913
Sprite,Foreground,Centre,"sb/star.png",0,0 M,19,53328,54078,395,238,353,271 F,0,53328,54078,1,0 S,0,53328,54078,0.3,0.12 P,0,53328,54078,A R,0,53328,54078,0.1484776,0.5620967
Sprite,Foreground,Centre,"sb/star.png",0,0 M,19,53328,54078,395,238,427,209 F,0,53328,54078,1,0 S,0,53328,54078,0.3,0.12 P,0,53328,54078,A R,0,53328,54078,0.8726408,0.4200708
Sprite,Foreground,Centre,"sb/star.png",0,0 M,19,53328,54078,395,238,410,259 F,0,53328,54078,1,0 S,0,53328,54078,0.3,0.12 P,0,53328,54078,A R,0,53328,54078,0.7063894,0.08808275
Sprite,Foreground,Centre,"sb/star.png",0,0 M,19,53328,54078,395,238,417,259 F,0,53328,54078,1,0 S,0,53328,54078,0.3,0.12 P,0,53328,54078,A R,0,53328,54078,0.1095432,0.7899154
Sprite,Foreground,Centre,"sb/star.png",0,0 M,19,53328,54078,395,238,363,235 F,0,53328,54078,1,0 S,0,53328,54078,0.3,0.12 P,0,53328,54078,A R,0,53328,54078,0.4719329,0.2840529
Sprite,Foreground,Centre,"sb/star.png",0,0 M,19,53653,54403,302,215,319,211 F,0,53653,54403,1,0 S,0,53653,54403,0.3,0.12 P,0,53653,54403,A R,0,53653,54403,0.7273633,0.7061635
Sprite,Foreground,Centre,"sb/star.png",0,0 M,19,53653,54403,302,215,331,241 F,0,53653,54403,1,0 S,0,53653,54403,0.3,0.12 P,0,53653,54403,A R,0,53653,54403,0.8181583,0.2574333
Sprite,Foreground,Centre,"sb/star.png",0,0 M,19,53653,54403,302,215,304,231 F,0,53653,54403,1,0 S,0,53653,54403,0.3,0.12 P,0,53653,54403,A R,0,53653,54403,0.2902387,0.2502125
Sprite,Foreground,Centre,"sb/star.png",0,0 M,19,53653,54403,302,215,334,187 F,0,53653,54403,1,0 S,0,53653,54403,0.3,0.12 P,0,53653,54403,A R,0,53653,54403,0.1630762,0.05979398
Sprite,Foreground,Centre,"sb/star.png",0,0 M,19,53653,54403,302,215,314,234 F,0,53653,54403,1,0 S,0,53653,54403,0.3,0.12 P,0,53653,54403,A R,0,53653,54403,0.5501229,0.8095163
Sprite,Foreground,Centre,"sb/star.png",0,0 M,19,53653,54403,302,215,274,257 F,0,53653,54403,1,0 S,0,53653,54403,0.3,0.12 P,0,53653,54403,A R,0,53653,54403,0.05805104,0.7854892
Sprite,Foreground,Centre,"sb/star.png",0,0 M,19,53653,54403,302,215,319,174 F,0,53653,54403,1,0 S,0,53653,54403,0.3,0.12 P,0,53653,54403,A R,0,53653,54403,0.1301121,0.09335111
Sprite,Foreground,Centre,"sb/star.png",0,0 M,19,54301,55051,170,98,180,143 F,0,54301,55051,1,0 S,0,54301,55051,0.3,0.12 P,0,54301,55051,A R,0,54301,55051,0.4281512,0.1292035
Sprite,Foreground,Centre,"sb/star.png",0,0 M,19,54301,55051,170,98,187,104 F,0,54301,55051,1,0 S,0,54301,55051,0.3,0.12 P,0,54301,55051,A R,0,54301,55051,0.1967013,0.5394657
Sprite,Foreground,Centre,"sb/star.png",0,0 M,19,54301,55051,170,98,120,84 F,0,54301,55051,1,0 S,0,54301,55051,0.3,0.12 P,0,54301,55051,A R,0,54301,55051,0.7421882,0.05437435
Sprite,Foreground,Centre,"sb/star.png",0,0 M,19,54301,55051,170,98,148,118 F,0,54301,55051,1,0 S,0,54301,55051,0.3,0.12 P,0,54301,55051,A R,0,54301,55051,0.8365192,0.8629016
Sprite,Foreground,Centre,"sb/star.png",0,0 M,19,54301,55051,170,98,158,100 F,0,54301,55051,1,0 S,0,54301,55051,0.3,0.12 P,0,54301,55051,A R,0,54301,55051,0.24463,0.4420711
Sprite,Foreground,Centre,"sb/star.png",0,0 M,19,54301,55051,170,98,173,53 F,0,54301,55051,1,0 S,0,54301,55051,0.3,0.12 P,0,54301,55051,A R,0,54301,55051,0.2448292,0.4329104
Sprite,Foreground,Centre,"sb/star.png",0,0 M,19,54301,55051,170,98,204,109 F,0,54301,55051,1,0 S,0,54301,55051,0.3,0.12 P,0,54301,55051,A R,0,54301,55051,0.09089557,0.6478043
Sprite,Foreground,Centre,"sb/star.png",0,0 M,19,54625,55375,102,161,92,204 F,0,54625,55375,1,0 S,0,54625,55375,0.3,0.12 P,0,54625,55375,A R,0,54625,55375,0.1140558,0.6105618
Sprite,Foreground,Centre,"sb/star.png",0,0 M,19,54625,55375,102,161,113,194 F,0,54625,55375,1,0 S,0,54625,55375,0.3,0.12 P,0,54625,55375,A R,0,54625,55375,0.5978857,0.4971941
Sprite,Foreground,Centre,"sb/star.png",0,0 M,19,54625,55375,102,161,69,129 F,0,54625,55375,1,0 S,0,54625,55375,0.3,0.12 P,0,54625,55375,A R,0,54625,55375,0.5315495,0.2188192
Sprite,Foreground,Centre,"sb/star.png",0,0 M,19,54625,55375,102,161,151,167 F,0,54625,55375,1,0 S,0,54625,55375,0.3,0.12 P,0,54625,55375,A R,0,54625,55375,0.05535892,0.2301075
Sprite,Foreground,Centre,"sb/star.png",0,0 M,19,54625,55375,102,161,136,167 F,0,54625,55375,1,0 S,0,54625,55375,0.3,0.12 P,0,54625,55375,A R,0,54625,55375,0.5637327,0.4506145
Sprite,Foreground,Centre,"sb/star.png",0,0 M,19,54625,55375,102,161,149,118 F,0,54625,55375,1,0 S,0,54625,55375,0.3,0.12 P,0,54625,55375,A R,0,54625,55375,0.4476485,0.1359309
Sprite,Foreground,Centre,"sb/star.png",0,0 M,19,54625,55375,102,161,133,175 F,0,54625,55375,1,0 S,0,54625,55375,0.3,0.12 P,0,54625,55375,A R,0,54625,55375,0.5021254,0.482463
Sprite,Foreground,Centre,"sb/star.png",0,0 M,19,55274,56024,135,251,152,300 F,0,55274,56024,1,0 S,0,55274,56024,0.3,0.12 P,0,55274,56024,A R,0,55274,56024,0.2632312,0.05624644
Sprite,Foreground,Centre,"sb/star.png",0,0 M,19,55274,56024,135,251,131,249 F,0,55274,56024,1,0 S,0,55274,56024,0.3,0.12 P,0,55274,56024,A R,0,55274,56024,0.1887626,0.06256098
Sprite,Foreground,Centre,"sb/star.png",0,0 M,19,55274,56024,135,251,108,216 F,0,55274,56024,1,0 S,0,55274,56024,0.3,0.12 P,0,55274,56024,A R,0,55274,56024,0.3899937,0.393641
Sprite,Foreground,Centre,"sb/star.png",0,0 M,19,55274,56024,135,251,86,239 F,0,55274,56024,1,0 S,0,55274,56024,0.3,0.12 P,0,55274,56024,A R,0,55274,56024,0.7121334,0.1768055
Sprite,Foreground,Centre,"sb/star.png",0,0 M,19,55274,56024,135,251,176,203 F,0,55274,56024,1,0 S,0,55274,56024,0.3,0.12 P,0,55274,56024,A R,0,55274,56024,0.4445889,0.8402797
Sprite,Foreground,Centre,"sb/star.png",0,0 M,19,55274,56024,135,251,184,202 F,0,55274,56024,1,0 S,0,55274,56024,0.3,0.12 P,0,55274,56024,A R,0,55274,56024,0.5703026,0.2428883
Sprite,Foreground,Centre,"sb/star.png",0,0 M,19,55274,56024,135,251,181,259 F,0,55274,56024,1,0 S,0,55274,56024,0.3,0.12 P,0,55274,56024,A R,0,55274,56024,0.6738731,0.282889
Sprite,Foreground,Centre,"sb/star.png",0,0 M,19,55598,56348,88,334,80,381 F,0,55598,56348,1,0 S,0,55598,56348,0.3,0.12 P,0,55598,56348,A R,0,55598,56348,0.7731805,0.8490043
Sprite,Foreground,Centre,"sb/star.png",0,0 M,19,55598,56348,88,334,63,297 F,0,55598,56348,1,0 S,0,55598,56348,0.3,0.12 P,0,55598,56348,A R,0,55598,56348,0.7830012,0.1555273
Sprite,Foreground,Centre,"sb/star.png",0,0 M,19,55598,56348,88,334,126,338 F,0,55598,56348,1,0 S,0,55598,56348,0.3,0.12 P,0,55598,56348,A R,0,55598,56348,0.6850812,0.4485851
Sprite,Foreground,Centre,"sb/star.png",0,0 M,19,55598,56348,88,334,73,383 F,0,55598,56348,1,0 S,0,55598,56348,0.3,0.12 P,0,55598,56348,A R,0,55598,56348,0.02918457,0.6036461
Sprite,Foreground,Centre,"sb/star.png",0,0 M,19,55598,56348,88,334,50,303 F,0,55598,56348,1,0 S,0,55598,56348,0.3,0.12 P,0,55598,56348,A R,0,55598,56348,0.4332927,0.5072707
Sprite,Foreground,Centre,"sb/star.png",0,0 M,19,55598,56348,88,334,64,315 F,0,55598,56348,1,0 S,0,55598,56348,0.3,0.12 P,0,55598,56348,A R,0,55598,56348,0.2113036,0.6842352
Sprite,Foreground,Centre,"sb/star.png",0,0 M,19,55598,56348,88,334,51,345 F,0,55598,56348,1,0 S,0,55598,56348,0.3,0.12 P,0,55598,56348,A R,0,55598,56348,0.4880727,0.5721357
Sprite,Foreground,Centre,"sb/star.png",0,0 M,19,55761,56511,109,377,93,329 F,0,55761,56511,1,0 S,0,55761,56511,0.3,0.12 P,0,55761,56511,A R,0,55761,56511,0.08489798,0.7661215
Sprite,Foreground,Centre,"sb/star.png",0,0 M,19,55761,56511,109,377,130,416 F,0,55761,56511,1,0 S,0,55761,56511,0.3,0.12 P,0,55761,56511,A R,0,55761,56511,0.5683354,0.222798
Sprite,Foreground,Centre,"sb/star.png",0,0 M,19,55761,56511,109,377,85,374 F,0,55761,56511,1,0 S,0,55761,56511,0.3,0.12 P,0,55761,56511,A R,0,55761,56511,0.1709592,0.7745637
Sprite,Foreground,Centre,"sb/star.png",0,0 M,19,55761,56511,109,377,108,390 F,0,55761,56511,1,0 S,0,55761,56511,0.3,0.12 P,0,55761,56511,A R,0,55761,56511,0.2790015,0.3219889
Sprite,Foreground,Centre,"sb/star.png",0,0 M,19,55761,56511,109,377,83,426 F,0,55761,56511,1,0 S,0,55761,56511,0.3,0.12 P,0,55761,56511,A R,0,55761,56511,0.5327671,0.001592342
Sprite,Foreground,Centre,"sb/star.png",0,0 M,19,55761,56511,109,377,157,423 F,0,55761,56511,1,0 S,0,55761,56511,0.3,0.12 P,0,55761,56511,A R,0,55761,56511,0.1371335,0.6739213
Sprite,Foreground,Centre,"sb/star.png",0,0 M,19,55761,56511,109,377,68,346 F,0,55761,56511,1,0 S,0,55761,56511,0.3,0.12 P,0,55761,56511,A R,0,55761,56511,0.05454375,0.0960473
Sprite,Foreground,Centre,"sb/star.png",0,0 M,19,56571,57321,315,408,338,368 F,0,56571,57321,1,0 S,0,56571,57321,0.3,0.12 P,0,56571,57321,A R,0,56571,57321,0.7328876,0.560836
Sprite,Foreground,Centre,"sb/star.png",0,0 M,19,56571,57321,315,408,322,382 F,0,56571,57321,1,0 S,0,56571,57321,0.3,0.12 P,0,56571,57321,A R,0,56571,57321,0.730589,0.7501257
Sprite,Foreground,Centre,"sb/star.png",0,0 M,19,56571,57321,315,408,309,448 F,0,56571,57321,1,0 S,0,56571,57321,0.3,0.12 P,0,56571,57321,A R,0,56571,57321,0.7008966,0.401639
Sprite,Foreground,Centre,"sb/star.png",0,0 M,19,56571,57321,315,408,299,435 F,0,56571,57321,1,0 S,0,56571,57321,0.3,0.12 P,0,56571,57321,A R,0,56571,57321,0.3725356,0.5647654
Sprite,Foreground,Centre,"sb/star.png",0,0 M,19,56571,57321,315,408,364,418 F,0,56571,57321,1,0 S,0,56571,57321,0.3,0.12 P,0,56571,57321,A R,0,56571,57321,0.07828224,0.5444038
Sprite,Foreground,Centre,"sb/star.png",0,0 M,19,56571,57321,315,408,364,445 F,0,56571,57321,1,0 S,0,56571,57321,0.3,0.12 P,0,56571,57321,A R,0,56571,57321,0.4708409,0.120113
Sprite,Foreground,Centre,"sb/star.png",0,0 M,19,56571,57321,315,408,265,413 F,0,56571,57321,1,0 S,0,56571,57321,0.3,0.12 P,0,56571,57321,A R,0,56571,57321,0.5865986,0.3309463
Sprite,Foreground,Centre,"sb/star.png",0,0 M,19,56896,57646,408,386,444,368 F,0,56896,57646,1,0 S,0,56896,57646,0.3,0.12 P,0,56896,57646,A R,0,56896,57646,0.6864684,0.4537507
Sprite,Foreground,Centre,"sb/star.png",0,0 M,19,56896,57646,408,386,440,390 F,0,56896,57646,1,0 S,0,56896,57646,0.3,0.12 P,0,56896,57646,A R,0,56896,57646,0.4559766,0.1421651
Sprite,Foreground,Centre,"sb/star.png",0,0 M,19,56896,57646,408,386,421,391 F,0,56896,57646,1,0 S,0,56896,57646,0.3,0.12 P,0,56896,57646,A R,0,56896,57646,0.274549,0.218123
Sprite,Foreground,Centre,"sb/star.png",0,0 M,19,56896,57646,408,386,438,382 F,0,56896,57646,1,0 S,0,56896,57646,0.3,0.12 P,0,56896,57646,A R,0,56896,57646,0.8042484,0.2944345
Sprite,Foreground,Centre,"sb/star.png",0,0 M,19,56896,57646,408,386,377,351 F,0,56896,57646,1,0 S,0,56896,57646,0.3,0.12 P,0,56896,57646,A R,0,56896,57646,0.5771297,0.1791506
Sprite,Foreground,Centre,"sb/star.png",0,0 M,19,56896,57646,408,386,411,386 F,0,56896,57646,1,0 S,0,56896,57646,0.3,0.12 P,0,56896,57646,A R,0,56896,57646,0.6747888,0.4209241
Sprite,Foreground,Centre,"sb/star.png",0,0 M,19,56896,57646,408,386,368,379 F,0,56896,57646,1,0 S,0,56896,57646,0.3,0.12 P,0,56896,57646,A R,0,56896,57646,0.1042059,0.7501712
Sprite,Foreground,Centre,"sb/star.png",0,0 M,19,57220,57970,499,413,505,433 F,0,57220,57970,1,0 S,0,57220,57970,0.3,0.12 P,0,57220,57970,A R,0,57220,57970,0.5590928,0.01353433
Sprite,Foreground,Centre,"sb/star.png",0,0 M,19,57220,57970,499,413,505,408 F,0,57220,57970,1,0 S,0,57220,57970,0.3,0.12 P,0,57220,57970,A R,0,57220,57970,0.8669163,0.1067638
Sprite,Foreground,Centre,"sb/star.png",0,0 M,19,57220,57970,499,413,461,391 F,0,57220,57970,1,0 S,0,57220,57970,0.3,0.12 P,0,57220,57970,A R,0,57220,57970,0.5503092,0.6975038
Sprite,Foreground,Centre,"sb/star.png",0,0 M,19,57220,57970,499,413,474,389 F,0,57220,57970,1,0 S,0,57220,57970,0.3,0.12 P,0,57220,57970,A R,0,57220,57970,0.01133429,0.3890093
Sprite,Foreground,Centre,"sb/star.png",0,0 M,19,57220,57970,499,413,478,446 F,0,57220,57970,1,0 S,0,57220,57970,0.3,0.12 P,0,57220,57970,A R,0,57220,57970,0.7183868,0.4629656
Sprite,Foreground,Centre,"sb/star.png",0,0 M,19,57220,57970,499,413,544,383 F,0,57220,57970,1,0 S,0,57220,57970,0.3,0.12 P,0,57220,57970,A R,0,57220,57970,0.8250058,0.7432798
Sprite,Foreground,Centre,"sb/star.png",0,0 M,19,57220,57970,499,413,538,409 F,0,57220,57970,1,0 S,0,57220,57970,0.3,0.12 P,0,57220,57970,A R,0,57220,57970,0.7368254,0.3108413
Sprite,Foreground,Centre,"sb/star.png",0,0 M,19,57382,58132,542,393,547,373 F,0,57382,58132,1,0 S,0,57382,58132,0.3,0.12 P,0,57382,58132,A R,0,57382,58132,0.3654305,0.3411899
Sprite,Foreground,Centre,"sb/star.png",0,0 M,19,57382,58132,542,393,534,409 F,0,57382,58132,1,0 S,0,57382,58132,0.3,0.12 P,0,57382,58132,A R,0,57382,58132,0.5240607,0.8133212
Sprite,Foreground,Centre,"sb/star.png",0,0 M,19,57382,58132,542,393,583,372 F,0,57382,58132,1,0 S,0,57382,58132,0.3,0.12 P,0,57382,58132,A R,0,57382,58132,0.5938562,0.2990389
Sprite,Foreground,Centre,"sb/star.png",0,0 M,19,57382,58132,542,393,538,422 F,0,57382,58132,1,0 S,0,57382,58132,0.3,0.12 P,0,57382,58132,A R,0,57382,58132,0.1892786,0.7932905
Sprite,Foreground,Centre,"sb/star.png",0,0 M,19,57382,58132,542,393,543,429 F,0,57382,58132,1,0 S,0,57382,58132,0.3,0.12 P,0,57382,58132,A R,0,57382,58132,0.8287406,0.236415
Sprite,Foreground,Centre,"sb/star.png",0,0 M,19,57382,58132,542,393,541,375 F,0,57382,58132,1,0 S,0,57382,58132,0.3,0.12 P,0,57382,58132,A R,0,57382,58132,0.1640796,0.228161
Sprite,Foreground,Centre,"sb/star.png",0,0 M,19,57382,58132,542,393,553,401 F,0,57382,58132,1,0 S,0,57382,58132,0.3,0.12 P,0,57382,58132,A R,0,57382,58132,0.7924403,0.3143626
Sprite,Foreground,Centre,"sb/star.png",0,0 M,19,57707,58457,529,295,554,323 F,0,57707,58457,1,0 S,0,57707,58457,0.3,0.12 P,0,57707,58457,A R,0,57707,58457,0.1041837,0.08948348
Sprite,Foreground,Centre,"sb/star.png",0,0 M,19,57707,58457,529,295,540,308 F,0,57707,58457,1,0 S,0,57707,58457,0.3,0.12 P,0,57707,58457,A R,0,57707,58457,0.4979115,0.7122762
Sprite,Foreground,Centre,"sb/star.png",0,0 M,19,57707,58457,529,295,565,268 F,0,57707,58457,1,0 S,0,57707,58457,0.3,0.12 P,0,57707,58457,A R,0,57707,58457,0.3294216,0.5172693
Sprite,Foreground,Centre,"sb/star.png",0,0 M,19,57707,58457,529,295,545,253 F,0,57707,58457,1,0 S,0,57707,58457,0.3,0.12 P,0,57707,58457,A R,0,57707,58457,0.4653143,0.8684945
Sprite,Foreground,Centre,"sb/star.png",0,0 M,19,57707,58457,529,295,494,293 F,0,57707,58457,1,0 S,0,57707,58457,0.3,0.12 P,0,57707,58457,A R,0,57707,58457,0.05567684,0.1329111
Sprite,Foreground,Centre,"sb/star.png",0,0 M,19,57707,58457,529,295,577,248 F,0,57707,58457,1,0 S,0,57707,58457,0.3,0.12 P,0,57707,58457,A R,0,57707,58457,0.2897962,0.02972464
Sprite,Foreground,Centre,"sb/star.png",0,0 M,19,57707,58457,529,295,530,302 F,0,57707,58457,1,0 S,0,57707,58457,0.3,0.12 P,0,57707,58457,A R,0,57707,58457,0.7498075,0.1957375
Sprite,Foreground,Centre,"sb/star.png",0,0 M,19,58356,59106,440,134,401,99 F,0,58356,59106,1,0 S,0,58356,59106,0.3,0.12 P,0,58356,59106,A R,0,58356,59106,0.6767721,0.7268419
Sprite,Foreground,Centre,"sb/star.png",0,0 M,19,58356,59106,440,134,465,108 F,0,58356,59106,1,0 S,0,58356,59106,0.3,0.12 P,0,58356,59106,A R,0,58356,59106,0.1528878,0.107882
Sprite,Foreground,Centre,"sb/star.png",0,0 M,19,58356,59106,440,134,407,141 F,0,58356,59106,1,0 S,0,58356,59106,0.3,0.12 P,0,58356,59106,A R,0,58356,59106,0.6362216,0.7238783
Sprite,Foreground,Centre,"sb/star.png",0,0 M,19,58356,59106,440,134,412,124 F,0,58356,59106,1,0 S,0,58356,59106,0.3,0.12 P,0,58356,59106,A R,0,58356,59106,0.03891047,0.2443642
Sprite,Foreground,Centre,"sb/star.png",0,0 M,19,58356,59106,440,134,438,119 F,0,58356,59106,1,0 S,0,58356,59106,0.3,0.12 P,0,58356,59106,A R,0,58356,59106,0.5301052,0.3630207
Sprite,Foreground,Centre,"sb/star.png",0,0 M,19,58356,59106,440,134,469,103 F,0,58356,59106,1,0 S,0,58356,59106,0.3,0.12 P,0,58356,59106,A R,0,58356,59106,0.08919328,0.1177346
Sprite,Foreground,Centre,"sb/star.png",0,0 M,19,58356,59106,440,134,442,159 F,0,58356,59106,1,0 S,0,58356,59106,0.3,0.12 P,0,58356,59106,A R,0,58356,59106,0.3272348,0.628718
Sprite,Foreground,Centre,"sb/star.png",0,0 M,19,59004,59754,232,82,227,40 F,0,59004,59754,1,0 S,0,59004,59754,0.3,0.12 P,0,59004,59754,A R,0,59004,59754,0.510776,0.03507154
Sprite,Foreground,Centre,"sb/star.png",0,0 M,19,59004,59754,232,82,259,66 F,0,59004,59754,1,0 S,0,59004,59754,0.3,0.12 P,0,59004,59754,A R,0,59004,59754,0.6108114,0.6171105
Sprite,Foreground,Centre,"sb/star.png",0,0 M,19,59004,59754,232,82,228,86 F,0,59004,59754,1,0 S,0,59004,59754,0.3,0.12 P,0,59004,59754,A R,0,59004,59754,0.7312396,0.3692764
Sprite,Foreground,Centre,"sb/star.png",0,0 M,19,59004,59754,232,82,272,72 F,0,59004,59754,1,0 S,0,59004,59754,0.3,0.12 P,0,59004,59754,A R,0,59004,59754,0.7116635,0.5072597
Sprite,Foreground,Centre,"sb/star.png",0,0 M,19,59004,59754,232,82,257,55 F,0,59004,59754,1,0 S,0,59004,59754,0.3,0.12 P,0,59004,59754,A R,0,59004,59754,0.8060026,0.5101253
Sprite,Foreground,Centre,"sb/star.png",0,0 M,19,59004,59754,232,82,281,37 F,0,59004,59754,1,0 S,0,59004,59754,0.3,0.12 P,0,59004,59754,A R,0,59004,59754,0.4795203,0.1399008
Sprite,Foreground,Centre,"sb/star.png",0,0 M,19,59004,59754,232,82,278,76 F,0,59004,59754,1,0 S,0,59004,59754,0.3,0.12 P,0,59004,59754,A R,0,59004,59754,0.3752722,0.8058797
Sprite,Foreground,Centre,"sb/star.png",0,0 M,19,59329,60079,165,167,120,181 F,0,59329,60079,1,0 S,0,59329,60079,0.3,0.12 P,0,59329,60079,A R,0,59329,60079,0.2686138,0.8718296
Sprite,Foreground,Centre,"sb/star.png",0,0 M,19,59329,60079,165,167,201,162 F,0,59329,60079,1,0 S,0,59329,60079,0.3,0.12 P,0,59329,60079,A R,0,59329,60079,0.5818651,0.08237186
Sprite,Foreground,Centre,"sb/star.png",0,0 M,19,59329,60079,165,167,214,185 F,0,59329,60079,1,0 S,0,59329,60079,0.3,0.12 P,0,59329,60079,A R,0,59329,60079,0.04494614,0.7700638
Sprite,Foreground,Centre,"sb/star.png",0,0 M,19,59329,60079,165,167,185,150 F,0,59329,60079,1,0 S,0,59329,60079,0.3,0.12 P,0,59329,60079,A R,0,59329,60079,0.7120169,0.8202893
Sprite,Foreground,Centre,"sb/star.png",0,0 M,19,59329,60079,165,167,166,135 F,0,59329,60079,1,0 S,0,59329,60079,0.3,0.12 P,0,59329,60079,A R,0,59329,60079,0.4452307,0.3356976
Sprite,Foreground,Centre,"sb/star.png",0,0 M,19,59329,60079,165,167,152,169 F,0,59329,60079,1,0 S,0,59329,60079,0.3,0.12 P,0,59329,60079,A R,0,59329,60079,0.3346084,0.2537649
Sprite,Foreground,Centre,"sb/star.png",0,0 M,19,59329,60079,165,167,198,196 F,0,59329,60079,1,0 S,0,59329,60079,0.3,0.12 P,0,59329,60079,A R,0,59329,60079,0.6359131,0.3532495
Sprite,Foreground,Centre,"sb/star.png",0,0 M,19,59653,60403,226,255,229,247 F,0,59653,60403,1,0 S,0,59653,60403,0.3,0.12 P,0,59653,60403,A R,0,59653,60403,0.06476633,0.2921454
Sprite,Foreground,Centre,"sb/star.png",0,0 M,19,59653,60403,226,255,267,282 F,0,59653,60403,1,0 S,0,59653,60403,0.3,0.12 P,0,59653,60403,A R,0,59653,60403,0.5690342,0.7186391
Sprite,Foreground,Centre,"sb/star.png",0,0 M,19,59653,60403,226,255,199,288 F,0,59653,60403,1,0 S,0,59653,60403,0.3,0.12 P,0,59653,60403,A R,0,59653,60403,0.4868132,0.3936202
Sprite,Foreground,Centre,"sb/star.png",0,0 M,19,59653,60403,226,255,250,277 F,0,59653,60403,1,0 S,0,59653,60403,0.3,0.12 P,0,59653,60403,A R,0,59653,60403,0.5136631,0.05464069
Sprite,Foreground,Centre,"sb/star.png",0,0 M,19,59653,60403,226,255,194,209 F,0,59653,60403,1,0 S,0,59653,60403,0.3,0.12 P,0,59653,60403,A R,0,59653,60403,0.7712697,0.5710049
Sprite,Foreground,Centre,"sb/star.png",0,0 M,19,59653,60403,226,255,199,265 F,0,59653,60403,1,0 S,0,59653,60403,0.3,0.12 P,0,59653,60403,A R,0,59653,60403,0.5596691,0.6821411
Sprite,Foreground,Centre,"sb/star.png",0,0 M,19,59653,60403,226,255,269,209 F,0,59653,60403,1,0 S,0,59653,60403,0.3,0.12 P,0,59653,60403,A R,0,59653,60403,0.4766289,0.4661426
Sprite,Foreground,Centre,"sb/star.png",0,0 M,19,59977,60727,328,220,303,171 F,0,59977,60727,1,0 S,0,59977,60727,0.3,0.12 P,0,59977,60727,A R,0,59977,60727,0.1456383,0.06535374
Sprite,Foreground,Centre,"sb/star.png",0,0 M,19,59977,60727,328,220,350,196 F,0,59977,60727,1,0 S,0,59977,60727,0.3,0.12 P,0,59977,60727,A R,0,59977,60727,0.4874331,0.495386
Sprite,Foreground,Centre,"sb/star.png",0,0 M,19,59977,60727,328,220,339,241 F,0,59977,60727,1,0 S,0,59977,60727,0.3,0.12 P,0,59977,60727,A R,0,59977,60727,0.8431621,0.8065885
Sprite,Foreground,Centre,"sb/star.png",0,0 M,19,59977,60727,328,220,346,269 F,0,59977,60727,1,0 S,0,59977,60727,0.3,0.12 P,0,59977,60727,A R,0,59977,60727,0.6136588,0.5934862
Sprite,Foreground,Centre,"sb/star.png",0,0 M,19,59977,60727,328,220,340,175 F,0,59977,60727,1,0 S,0,59977,60727,0.3,0.12 P,0,59977,60727,A R,0,59977,60727,0.5601304,0.5726237
Sprite,Foreground,Centre,"sb/star.png",0,0 M,19,59977,60727,328,220,371,202 F,0,59977,60727,1,0 S,0,59977,60727,0.3,0.12 P,0,59977,60727,A R,0,59977,60727,0.09424795,0.6902525
Sprite,Foreground,Centre,"sb/star.png",0,0 M,19,59977,60727,328,220,368,177 F,0,59977,60727,1,0 S,0,59977,60727,0.3,0.12 P,0,59977,60727,A R,0,59977,60727,0.1471697,0.8083724
Sprite,Foreground,Centre,"sb/star.png",0,0 M,19,60301,61051,404,143,432,122 F,0,60301,61051,1,0 S,0,60301,61051,0.3,0.12 P,0,60301,61051,A R,0,60301,61051,0.3505894,0.7599916
Sprite,Foreground,Centre,"sb/star.png",0,0 M,19,60301,61051,404,143,377,104 F,0,60301,61051,1,0 S,0,60301,61051,0.3,0.12 P,0,60301,61051,A R,0,60301,61051,0.4942101,0.1917816
Sprite,Foreground,Centre,"sb/star.png",0,0 M,19,60301,61051,404,143,421,141 F,0,60301,61051,1,0 S,0,60301,61051,0.3,0.12 P,0,60301,61051,A R,0,60301,61051,0.632699,0.4196162
Sprite,Foreground,Centre,"sb/star.png",0,0 M,19,60301,61051,404,143,370,95 F,0,60301,61051,1,0 S,0,60301,61051,0.3,0.12 P,0,60301,61051,A R,0,60301,61051,0.3909216,0.4067163
Sprite,Foreground,Centre,"sb/star.png",0,0 M,19,60301,61051,404,143,361,188 F,0,60301,61051,1,0 S,0,60301,61051,0.3,0.12 P,0,60301,61051,A R,0,60301,61051,0.8455745,0.212702
Sprite,Foreground,Centre,"sb/star.png",0,0 M,19,60301,61051,404,143,444,189 F,0,60301,61051,1,0 S,0,60301,61051,0.3,0.12 P,0,60301,61051,A R,0,60301,61051,0.1354608,0.7626102
Sprite,Foreground,Centre,"sb/star.png",0,0 M,19,60301,61051,404,143,394,181 F,0,60301,61051,1,0 S,0,60301,61051,0.3,0.12 P,0,60301,61051,A R,0,60301,61051,0.5252074,0.8171259
Sprite,Foreground,Centre,"sb/star.png",0,0 M,19,60949,61699,343,303,383,290 F,0,60949,61699,1,0 S,0,60949,61699,0.3,0.12 P,0,60949,61699,A R,0,60949,61699,0.1468493,0.5686776
Sprite,Foreground,Centre,"sb/star.png",0,0 M,19,60949,61699,343,303,302,316 F,0,60949,61699,1,0 S,0,60949,61699,0.3,0.12 P,0,60949,61699,A R,0,60949,61699,0.6841799,0.2810939
Sprite,Foreground,Centre,"sb/star.png",0,0 M,19,60949,61699,343,303,324,262 F,0,60949,61699,1,0 S,0,60949,61699,0.3,0.12 P,0,60949,61699,A R,0,60949,61699,0.605621,0.4952035
Sprite,Foreground,Centre,"sb/star.png",0,0 M,19,60949,61699,343,303,335,301 F,0,60949,61699,1,0 S,0,60949,61699,0.3,0.12 P,0,60949,61699,A R,0,60949,61699,0.007049977,0.1252208
Sprite,Foreground,Centre,"sb/star.png",0,0 M,19,60949,61699,343,303,326,269 F,0,60949,61699,1,0 S,0,60949,61699,0.3,0.12 P,0,60949,61699,A R,0,60949,61699,0.4307652,0.7953228
Sprite,Foreground,Centre,"sb/star.png",0,0 M,19,60949,61699,343,303,380,317 F,0,60949,61699,1,0 S,0,60949,61699,0.3,0.12 P,0,60949,61699,A R,0,60949,61699,0.6248112,0.8264878
Sprite,Foreground,Centre,"sb/star.png",0,0 M,19,60949,61699,343,303,303,345 F,0,60949,61699,1,0 S,0,60949,61699,0.3,0.12 P,0,60949,61699,A R,0,60949,61699,0.01747086,0.7176878
Sprite,Foreground,Centre,"sb/star.png",0,0 M,19,61111,61861,300,335,263,337 F,0,61111,61861,1,0 S,0,61111,61861,0.3,0.12 P,0,61111,61861,A R,0,61111,61861,0.4078827,0.2969624
Sprite,Foreground,Centre,"sb/star.png",0,0 M,19,61111,61861,300,335,301,347 F,0,61111,61861,1,0 S,0,61111,61861,0.3,0.12 P,0,61111,61861,A R,0,61111,61861,0.2711806,0.2583858
Sprite,Foreground,Centre,"sb/star.png",0,0 M,19,61111,61861,300,335,281,292 F,0,61111,61861,1,0 S,0,61111,61861,0.3,0.12 P,0,61111,61861,A R,0,61111,61861,0.3381702,0.4627979
Sprite,Foreground,Centre,"sb/star.png",0,0 M,19,61111,61861,300,335,273,297 F,0,61111,61861,1,0 S,0,61111,61861,0.3,0.12 P,0,61111,61861,A R,0,61111,61861,0.1318403,0.8549355
Sprite,Foreground,Centre,"sb/star.png",0,0 M,19,61111,61861,300,335,276,325 F,0,61111,61861,1,0 S,0,61111,61861,0.3,0.12 P,0,61111,61861,A R,0,61111,61861,0.7135343,0.3690243
Sprite,Foreground,Centre,"sb/star.png",0,0 M,19,61111,61861,300,335,345,286 F,0,61111,61861,1,0 S,0,61111,61861,0.3,0.12 P,0,61111,61861,A R,0,61111,61861,0.471034,0.2115948
Sprite,Foreground,Centre,"sb/star.png",0,0 M,19,61111,61861,300,335,289,354 F,0,61111,61861,1,0 S,0,61111,61861,0.3,0.12 P,0,61111,61861,A R,0,61111,61861,0.05541508,0.2330693
Sprite,Foreground,Centre,"sb/star.png",0,0 M,19,61274,62024,312,387,327,359 F,0,61274,62024,1,0 S,0,61274,62024,0.3,0.12 P,0,61274,62024,A R,0,61274,62024,0.4766792,0.1469783
Sprite,Foreground,Centre,"sb/star.png",0,0 M,19,61274,62024,312,387,323,433 F,0,61274,62024,1,0 S,0,61274,62024,0.3,0.12 P,0,61274,62024,A R,0,61274,62024,0.1612648,0.6868967
Sprite,Foreground,Centre,"sb/star.png",0,0 M,19,61274,62024,312,387,324,372 F,0,61274,62024,1,0 S,0,61274,62024,0.3,0.12 P,0,61274,62024,A R,0,61274,62024,0.04485467,0.6947482
Sprite,Foreground,Centre,"sb/star.png",0,0 M,19,61274,62024,312,387,279,408 F,0,61274,62024,1,0 S,0,61274,62024,0.3,0.12 P,0,61274,62024,A R,0,61274,62024,0.7232753,0.2275548
Sprite,Foreground,Centre,"sb/star.png",0,0 M,19,61274,62024,312,387,339,433 F,0,61274,62024,1,0 S,0,61274,62024,0.3,0.12 P,0,61274,62024,A R,0,61274,62024,0.588561,0.6518831
Sprite,Foreground,Centre,"sb/star.png",0,0 M,19,61274,62024,312,387,311,410 F,0,61274,62024,1,0 S,0,61274,62024,0.3,0.12 P,0,61274,62024,A R,0,61274,62024,0.5947629,0.614292
Sprite,Foreground,Centre,"sb/star.png",0,0 M,19,61274,62024,312,387,272,396 F,0,61274,62024,1,0 S,0,61274,62024,0.3,0.12 P,0,61274,62024,A R,0,61274,62024,0.7585549,0.1095891
Sprite,Foreground,Centre,"sb/hl.png",363,136 S,0,83653,,0.7 F,2,83653,84403,1,0 P,0,83653,84403,A C,0,83653,,222,77,253
Sprite,Foreground,Centre,"sb/heart.png",0,0 M,19,83653,84403,363,136,417,212 F,0,83653,84403,1,0 S,0,83653,84403,0.3,0.12 P,0,83653,84403,A C,0,83653,,222,77,253 R,0,83653,84403,2.412814,1.753515
Sprite,Foreground,Centre,"sb/heart.png",0,0 M,19,83653,84403,363,136,292,150 F,0,83653,84403,1,0 S,0,83653,84403,0.3,0.12 P,0,83653,84403,A C,0,83653,,222,77,253 R,0,83653,84403,2.846368,1.389143
Sprite,Foreground,Centre,"sb/heart.png",0,0 M,19,83653,84403,363,136,477,81 F,0,83653,84403,1,0 S,0,83653,84403,0.3,0.12 P,0,83653,84403,A C,0,83653,,222,77,253 R,0,83653,84403,0.9170507,1.468112
Sprite,Foreground,Centre,"sb/heart.png",0,0 M,19,83653,84403,363,136,394,128 F,0,83653,84403,1,0 S,0,83653,84403,0.3,0.12 P,0,83653,84403,A C,0,83653,,222,77,253 R,0,83653,84403,3.085519,0.09540071
Sprite,Foreground,Centre,"sb/heart.png",0,0 M,19,83653,84403,363,136,449,254 F,0,83653,84403,1,0 S,0,83653,84403,0.3,0.12 P,0,83653,84403,A C,0,83653,,222,77,253 R,0,83653,84403,2.127427,0.9883193
Sprite,Foreground,Centre,"sb/heart.png",0,0 M,19,83653,84403,363,136,439,219 F,0,83653,84403,1,0 S,0,83653,84403,0.3,0.12 P,0,83653,84403,A C,0,83653,,222,77,253 R,0,83653,84403,3.116153,0.1024951
Sprite,Foreground,Centre,"sb/heart.png",0,0 M,19,83653,84403,363,136,410,142 F,0,83653,84403,1,0 S,0,83653,84403,0.3,0.12 P,0,83653,84403,A C,0,83653,,222,77,253 R,0,83653,84403,2.934306,2.160223
Sprite,Foreground,Centre,"sb/hl.png",409,148 S,0,83815,,0.7 F,2,83815,84565,1,0 P,0,83815,84565,A C,0,83815,,222,77,253
Sprite,Foreground,Centre,"sb/heart.png",0,0 M,19,83815,84565,409,148,420,47 F,0,83815,84565,1,0 S,0,83815,84565,0.3,0.12 P,0,83815,84565,A C,0,83815,,222,77,253 R,0,83815,84565,0.5878692,1.424169
Sprite,Foreground,Centre,"sb/heart.png",0,0 M,19,83815,84565,409,148,360,265 F,0,83815,84565,1,0 S,0,83815,84565,0.3,0.12 P,0,83815,84565,A C,0,83815,,222,77,253 R,0,83815,84565,2.019094,2.396921
Sprite,Foreground,Centre,"sb/heart.png",0,0 M,19,83815,84565,409,148,296,119 F,0,83815,84565,1,0 S,0,83815,84565,0.3,0.12 P,0,83815,84565,A C,0,83815,,222,77,253 R,0,83815,84565,1.078012,3.007934
Sprite,Foreground,Centre,"sb/heart.png",0,0 M,19,83815,84565,409,148,410,199 F,0,83815,84565,1,0 S,0,83815,84565,0.3,0.12 P,0,83815,84565,A C,0,83815,,222,77,253 R,0,83815,84565,0.3737167,0.8590732
Sprite,Foreground,Centre,"sb/heart.png",0,0 M,19,83815,84565,409,148,506,218 F,0,83815,84565,1,0 S,0,83815,84565,0.3,0.12 P,0,83815,84565,A C,0,83815,,222,77,253 R,0,83815,84565,1.05922,1.436364
Sprite,Foreground,Centre,"sb/heart.png",0,0 M,19,83815,84565,409,148,324,81 F,0,83815,84565,1,0 S,0,83815,84565,0.3,0.12 P,0,83815,84565,A C,0,83815,,222,77,253 R,0,83815,84565,1.288283,2.257947
Sprite,Foreground,Centre,"sb/heart.png",0,0 M,19,83815,84565,409,148,437,145 F,0,83815,84565,1,0 S,0,83815,84565,0.3,0.12 P,0,83815,84565,A C,0,83815,,222,77,253 R,0,83815,84565,0.6123386,2.75892
Sprite,Foreground,Centre,"sb/hl.png",454,133 S,0,83977,,0.7 F,2,83972,83977,0,0.4 F,2,83977,85051,0.4,0 P,0,83977,85051,A C,0,83977,,222,77,253
Sprite,Foreground,Centre,"sb/hl.png",459.5364,130.7131 S,0,83993,,0.7 F,2,83988,83993,0,0.4 F,2,83993,85051,0.4,0 P,0,83977,85051,A C,0,83977,,222,77,253
Sprite,Foreground,Centre,"sb/hl.png",465.0398,128.394 S,0,84009,,0.7 F,2,84004,84009,0,0.4 F,2,84009,85051,0.4,0 P,0,83977,85051,A C,0,83977,,222,77,253
Sprite,Foreground,Centre,"sb/hl.png",470.6915,126.4122 S,0,84025,,0.7 F,2,84020,84025,0,0.4 F,2,84025,85051,0.4,0 P,0,83977,85051,A C,0,83977,,222,77,253
Sprite,Foreground,Centre,"sb/hl.png",476.5701,125.2613 S,0,84041,,0.7 F,2,84036,84041,0,0.4 F,2,84041,85051,0.4,0 P,0,83977,85051,A C,0,83977,,222,77,253
Sprite,Foreground,Centre,"sb/hl.png",482.443,124.2135 S,0,84058,,0.7 F,2,84053,84058,0,0.4 F,2,84058,85051,0.4,0 P,0,83977,85051,A C,0,83977,,222,77,253
Sprite,Foreground,Centre,"sb/hl.png",488.3808,123.5271 S,0,84074,,0.7 F,2,84069,84074,0,0.4 F,2,84074,85051,0.4,0 P,0,83977,85051,A C,0,83977,,222,77,253
Sprite,Foreground,Centre,"sb/hl.png",494.3697,123.2068 S,0,84090,,0.7 F,2,84085,84090,0,0.4 F,2,84090,85051,0.4,0 P,0,83977,85051,A C,0,83977,,222,77,253
Sprite,Foreground,Centre,"sb/hl.png",500.3273,123.83 S,0,84106,,0.7 F,2,84101,84106,0,0.4 F,2,84106,85051,0.4,0 P,0,83977,85051,A C,0,83977,,222,77,253
Sprite,Foreground,Centre,"sb/hl.png",506.2621,124.4683 S,0,84122,,0.7 F,2,84117,84122,0,0.4 F,2,84122,85051,0.4,0 P,0,83977,85051,A C,0,83977,,222,77,253
Sprite,Foreground,Centre,"sb/hl.png",512.1609,125.4728 S,0,84139,,0.7 F,2,84134,84139,0,0.4 F,2,84139,85051,0.4,0 P,0,83977,85051,A C,0,83977,,222,77,253
Sprite,Foreground,Centre,"sb/hl.png",517.8789,127.2579 S,0,84155,,0.7 F,2,84150,84155,0,0.4 F,2,84155,85051,0.4,0 P,0,83977,85051,A C,0,83977,,222,77,253
Sprite,Foreground,Centre,"sb/hl.png",523.5222,129.1873 S,0,84171,,0.7 F,2,84166,84171,0,0.4 F,2,84171,85051,0.4,0 P,0,83977,85051,A C,0,83977,,222,77,253
Sprite,Foreground,Centre,"sb/hl.png",529.0451,131.4631 S,0,84187,,0.7 F,2,84182,84187,0,0.4 F,2,84187,85051,0.4,0 P,0,83977,85051,A C,0,83977,,222,77,253
Sprite,Foreground,Centre,"sb/hl.png",534.4335,134.0823 S,0,84204,,0.7 F,2,84199,84204,0,0.4 F,2,84204,85051,0.4,0 P,0,83977,85051,A C,0,83977,,222,77,253
Sprite,Foreground,Centre,"sb/hl.png",539.3768,137.4655 S,0,84220,,0.7 F,2,84215,84220,0,0.4 F,2,84220,85051,0.4,0 P,0,83977,85051,A C,0,83977,,222,77,253
Sprite,Foreground,Centre,"sb/hl.png",544.2565,140.8987 S,0,84236,,0.7 F,2,84231,84236,0,0.4 F,2,84236,85051,0.4,0 P,0,83977,85051,A C,0,83977,,222,77,253
Sprite,Foreground,Centre,"sb/hl.png",548.9259,144.633 S,0,84252,,0.7 F,2,84247,84252,0,0.4 F,2,84252,85051,0.4,0 P,0,83977,85051,A C,0,83977,,222,77,253
Sprite,Foreground,Centre,"sb/hl.png",553.3717,148.6622 S,0,84268,,0.7 F,2,84263,84268,0,0.4 F,2,84268,85051,0.4,0 P,0,83977,85051,A C,0,83977,,222,77,253
Sprite,Foreground,Centre,"sb/hl.png",557.1058,153.3461 S,0,84285,,0.7 F,2,84280,84285,0,0.4 F,2,84285,85051,0.4,0 P,0,83977,85051,A C,0,83977,,222,77,253
Sprite,Foreground,Centre,"sb/heart.png",0,0 M,19,83977,84727,454,133,532,189 F,0,83977,84727,1,0 S,0,83977,84727,0.3,0.12 P,0,83977,84727,A C,0,83977,,222,77,253 R,0,83977,84727,2.696175,2.135494
Sprite,Foreground,Centre,"sb/heart.png",0,0 M,19,83977,84727,454,133,483,65 F,0,83977,84727,1,0 S,0,83977,84727,0.3,0.12 P,0,83977,84727,A C,0,83977,,222,77,253 R,0,83977,84727,2.812864,2.816249
Sprite,Foreground,Centre,"sb/heart.png",0,0 M,19,83977,84727,454,133,354,214 F,0,83977,84727,1,0 S,0,83977,84727,0.3,0.12 P,0,83977,84727,A C,0,83977,,222,77,253 R,0,83977,84727,0.5345195,2.023548
Sprite,Foreground,Centre,"sb/heart.png",0,0 M,19,83977,84727,454,133,532,65 F,0,83977,84727,1,0 S,0,83977,84727,0.3,0.12 P,0,83977,84727,A C,0,83977,,222,77,253 R,0,83977,84727,3.141507,1.512255
Sprite,Foreground,Centre,"sb/heart.png",0,0 M,19,83977,84727,454,133,490,185 F,0,83977,84727,1,0 S,0,83977,84727,0.3,0.12 P,0,83977,84727,A C,0,83977,,222,77,253 R,0,83977,84727,2.543002,0.3170979
Sprite,Foreground,Centre,"sb/heart.png",0,0 M,19,83977,84727,454,133,508,185 F,0,83977,84727,1,0 S,0,83977,84727,0.3,0.12 P,0,83977,84727,A C,0,83977,,222,77,253 R,0,83977,84727,0.3943555,2.843695
Sprite,Foreground,Centre,"sb/heart.png",0,0 M,19,83977,84727,454,133,379,127 F,0,83977,84727,1,0 S,0,83977,84727,0.3,0.12 P,0,83977,84727,A C,0,83977,,222,77,253 R,0,83977,84727,1.698958,1.022591
Sprite,Foreground,Centre,"sb/hl.png",533,249 S,0,84625,,0.7 F,2,84625,85375,1,0 P,0,84625,85375,A C,0,84625,,222,77,253
Sprite,Foreground,Centre,"sb/heart.png",0,0 M,19,84625,85375,533,249,574,241 F,0,84625,85375,1,0 S,0,84625,85375,0.3,0.12 P,0,84625,85375,A C,0,84625,,222,77,253 R,0,84625,85375,2.618508,2.542189
Sprite,Foreground,Centre,"sb/heart.png",0,0 M,19,84625,85375,533,249,603,312 F,0,84625,85375,1,0 S,0,84625,85375,0.3,0.12 P,0,84625,85375,A C,0,84625,,222,77,253 R,0,84625,85375,2.94537,0.9267598
Sprite,Foreground,Centre,"sb/heart.png",0,0 M,19,84625,85375,533,249,538,288 F,0,84625,85375,1,0 S,0,84625,85375,0.3,0.12 P,0,84625,85375,A C,0,84625,,222,77,253 R,0,84625,85375,1.044859,0.9007651
Sprite,Foreground,Centre,"sb/heart.png",0,0 M,19,84625,85375,533,249,609,182 F,0,84625,85375,1,0 S,0,84625,85375,0.3,0.12 P,0,84625,85375,A C,0,84625,,222,77,253 R,0,84625,85375,0.5870745,0.2152583
Sprite,Foreground,Centre,"sb/heart.png",0,0 M,19,84625,85375,533,249,562,295 F,0,84625,85375,1,0 S,0,84625,85375,0.3,0.12 P,0,84625,85375,A C,0,84625,,222,77,253 R,0,84625,85375,1.980442,2.914259
Sprite,Foreground,Centre,"sb/heart.png",0,0 M,19,84625,85375,533,249,466,351 F,0,84625,85375,1,0 S,0,84625,85375,0.3,0.12 P,0,84625,85375,A C,0,84625,,222,77,253 R,0,84625,85375,0.2089838,2.827761
Sprite,Foreground,Centre,"sb/heart.png",0,0 M,19,84625,85375,533,249,575,151 F,0,84625,85375,1,0 S,0,84625,85375,0.3,0.12 P,0,84625,85375,A C,0,84625,,222,77,253 R,0,84625,85375,0.4684034,0.336064
Sprite,Foreground,Centre,"sb/hl.png",456,307 S,0,84950,,0.7 F,2,84945,84950,0,0.4 F,2,84950,86186,0.4,0 P,0,84950,86186,A C,0,84950,,222,77,253
Sprite,Foreground,Centre,"sb/hl.png",452.8077,312.0656 S,0,84966,,0.7 F,2,84961,84966,0,0.4 F,2,84966,86186,0.4,0 P,0,84950,86186,A C,0,84950,,222,77,253
Sprite,Foreground,Centre,"sb/hl.png",449.603,317.0952 S,0,84982,,0.7 F,2,84977,84982,0,0.4 F,2,84982,86186,0.4,0 P,0,84950,86186,A C,0,84950,,222,77,253
Sprite,Foreground,Centre,"sb/hl.png",446.7555,322.3576 S,0,84998,,0.7 F,2,84993,84998,0,0.4 F,2,84998,86186,0.4,0 P,0,84950,86186,A C,0,84950,,222,77,253
Sprite,Foreground,Centre,"sb/hl.png",444.7637,328.0041 S,0,85014,,0.7 F,2,85009,85014,0,0.4 F,2,85014,86186,0.4,0 P,0,84950,86186,A C,0,84950,,222,77,253
Sprite,Foreground,Centre,"sb/hl.png",442.9294,333.6701 S,0,85031,,0.7 F,2,85026,85031,0,0.4 F,2,85031,86186,0.4,0 P,0,84950,86186,A C,0,84950,,222,77,253
Sprite,Foreground,Centre,"sb/hl.png",441.4997,339.4638 S,0,85047,,0.7 F,2,85042,85047,0,0.4 F,2,85047,86186,0.4,0 P,0,84950,86186,A C,0,84950,,222,77,253
Sprite,Foreground,Centre,"sb/hl.png",440.483,345.3662 S,0,85063,,0.7 F,2,85058,85063,0,0.4 F,2,85063,86186,0.4,0 P,0,84950,86186,A C,0,84950,,222,77,253
Sprite,Foreground,Centre,"sb/hl.png",440.4573,351.3537 S,0,85079,,0.7 F,2,85074,85079,0,0.4 F,2,85079,86186,0.4,0 P,0,84950,86186,A C,0,84950,,222,77,253
Sprite,Foreground,Centre,"sb/hl.png",440.5302,357.3107 S,0,85095,,0.7 F,2,85090,85095,0,0.4 F,2,85095,86186,0.4,0 P,0,84950,86186,A C,0,84950,,222,77,253
Sprite,Foreground,Centre,"sb/hl.png",441.0278,363.2617 S,0,85112,,0.7 F,2,85107,85112,0,0.4 F,2,85112,86186,0.4,0 P,0,84950,86186,A C,0,84950,,222,77,253
Sprite,Foreground,Centre,"sb/hl.png",441.9527,369.1858 S,0,85128,,0.7 F,2,85123,85128,0,0.4 F,2,85128,86186,0.4,0 P,0,84950,86186,A C,0,84950,,222,77,253
Sprite,Foreground,Centre,"sb/hl.png",443.8958,374.8493 S,0,85144,,0.7 F,2,85139,85144,0,0.4 F,2,85144,86186,0.4,0 P,0,84950,86186,A C,0,84950,,222,77,253
Sprite,Foreground,Centre,"sb/hl.png",445.8697,380.4728 S,0,85160,,0.7 F,2,85155,85160,0,0.4 F,2,85160,86186,0.4,0 P,0,84950,86186,A C,0,84950,,222,77,253
Sprite,Foreground,Centre,"sb/hl.png",448.2455,385.9569 S,0,85177,,0.7 F,2,85172,85177,0,0.4 F,2,85177,86186,0.4,0 P,0,84950,86186,A C,0,84950,,222,77,253
Sprite,Foreground,Centre,"sb/hl.png",451.0193,391.2805 S,0,85193,,0.7 F,2,85188,85193,0,0.4 F,2,85193,86186,0.4,0 P,0,84950,86186,A C,0,84950,,222,77,253
Sprite,Foreground,Centre,"sb/hl.png",448.2455,385.9569 S,0,85209,,0.7 F,2,85204,85209,0,0.4 F,2,85209,86186,0.4,0 P,0,84950,86186,A C,0,84950,,222,77,253
Sprite,Foreground,Centre,"sb/hl.png",445.8697,380.4728 S,0,85225,,0.7 F,2,85220,85225,0,0.4 F,2,85225,86186,0.4,0 P,0,84950,86186,A C,0,84950,,222,77,253
Sprite,Foreground,Centre,"sb/hl.png",443.8958,374.8493 S,0,85241,,0.7 F,2,85236,85241,0,0.4 F,2,85241,86186,0.4,0 P,0,84950,86186,A C,0,84950,,222,77,253
Sprite,Foreground,Centre,"sb/hl.png",441.9527,369.1858 S,0,85258,,0.7 F,2,85253,85258,0,0.4 F,2,85258,86186,0.4,0 P,0,84950,86186,A C,0,84950,,222,77,253
Sprite,Foreground,Centre,"sb/hl.png",441.0278,363.2617 S,0,85274,,0.7 F,2,85269,85274,0,0.4 F,2,85274,86186,0.4,0 P,0,84950,86186,A C,0,84950,,222,77,253
Sprite,Foreground,Centre,"sb/hl.png",440.5302,357.3107 S,0,85290,,0.7 F,2,85285,85290,0,0.4 F,2,85290,86186,0.4,0 P,0,84950,86186,A C,0,84950,,222,77,253
Sprite,Foreground,Centre,"sb/hl.png",440.4573,351.3537 S,0,85306,,0.7 F,2,85301,85306,0,0.4 F,2,85306,86186,0.4,0 P,0,84950,86186,A C,0,84950,,222,77,253
Sprite,Foreground,Centre,"sb/hl.png",440.483,345.3662 S,0,85322,,0.7 F,2,85317,85322,0,0.4 F,2,85322,86186,0.4,0 P,0,84950,86186,A C,0,84950,,222,77,253
Sprite,Foreground,Centre,"sb/hl.png",441.4997,339.4638 S,0,85339,,0.7 F,2,85334,85339,0,0.4 F,2,85339,86186,0.4,0 P,0,84950,86186,A C,0,84950,,222,77,253
Sprite,Foreground,Centre,"sb/hl.png",442.9294,333.6701 S,0,85355,,0.7 F,2,85350,85355,0,0.4 F,2,85355,86186,0.4,0 P,0,84950,86186,A C,0,84950,,222,77,253
Sprite,Foreground,Centre,"sb/hl.png",444.7637,328.0041 S,0,85371,,0.7 F,2,85366,85371,0,0.4 F,2,85371,86186,0.4,0 P,0,84950,86186,A C,0,84950,,222,77,253
Sprite,Foreground,Centre,"sb/hl.png",446.7555,322.3576 S,0,85387,,0.7 F,2,85382,85387,0,0.4 F,2,85387,86186,0.4,0 P,0,84950,86186,A C,0,84950,,222,77,253
Sprite,Foreground,Centre,"sb/hl.png",449.603,317.0952 S,0,85404,,0.7 F,2,85399,85404,0,0.4 F,2,85404,86186,0.4,0 P,0,84950,86186,A C,0,84950,,222,77,253
Sprite,Foreground,Centre,"sb/hl.png",452.8077,312.0656 S,0,85420,,0.7 F,2,85415,85420,0,0.4 F,2,85420,86186,0.4,0 P,0,84950,86186,A C,0,84950,,222,77,253
Sprite,Foreground,Centre,"sb/heart.png",0,0 M,19,84950,85700,456,307,482,415 F,0,84950,85700,1,0 S,0,84950,85700,0.3,0.12 P,0,84950,85700,A C,0,84950,,222,77,253 R,0,84950,85700,1.541345,0.4651325
Sprite,Foreground,Centre,"sb/heart.png",0,0 M,19,84950,85700,456,307,498,323 F,0,84950,85700,1,0 S,0,84950,85700,0.3,0.12 P,0,84950,85700,A C,0,84950,,222,77,253 R,0,84950,85700,0.7081248,1.942076
Sprite,Foreground,Centre,"sb/heart.png",0,0 M,19,84950,85700,456,307,337,273 F,0,84950,85700,1,0 S,0,84950,85700,0.3,0.12 P,0,84950,85700,A C,0,84950,,222,77,253 R,0,84950,85700,2.671877,0.1957477
Sprite,Foreground,Centre,"sb/heart.png",0,0 M,19,84950,85700,456,307,403,356 F,0,84950,85700,1,0 S,0,84950,85700,0.3,0.12 P,0,84950,85700,A C,0,84950,,222,77,253 R,0,84950,85700,3.011469,3.106446
Sprite,Foreground,Centre,"sb/heart.png",0,0 M,19,84950,85700,456,307,428,312 F,0,84950,85700,1,0 S,0,84950,85700,0.3,0.12 P,0,84950,85700,A C,0,84950,,222,77,253 R,0,84950,85700,0.880668,1.591456
Sprite,Foreground,Centre,"sb/heart.png",0,0 M,19,84950,85700,456,307,463,200 F,0,84950,85700,1,0 S,0,84950,85700,0.3,0.12 P,0,84950,85700,A C,0,84950,,222,77,253 R,0,84950,85700,0.8813852,1.558477
Sprite,Foreground,Centre,"sb/heart.png",0,0 M,19,84950,85700,456,307,539,334 F,0,84950,85700,1,0 S,0,84950,85700,0.3,0.12 P,0,84950,85700,A C,0,84950,,222,77,253 R,0,84950,85700,0.327224,2.332095
Sprite,Foreground,Centre,"sb/hl.png",420,274 S,0,85598,,0.7 F,2,85598,86348,1,0 P,0,85598,86348,A C,0,85598,,222,77,253
Sprite,Foreground,Centre,"sb/heart.png",0,0 M,19,85598,86348,420,274,396,378 F,0,85598,86348,1,0 S,0,85598,86348,0.3,0.12 P,0,85598,86348,A C,0,85598,,222,77,253 R,0,85598,86348,0.410601,2.198023
Sprite,Foreground,Centre,"sb/heart.png",0,0 M,19,85598,86348,420,274,447,353 F,0,85598,86348,1,0 S,0,85598,86348,0.3,0.12 P,0,85598,86348,A C,0,85598,,222,77,253 R,0,85598,86348,2.152389,1.789899
Sprite,Foreground,Centre,"sb/heart.png",0,0 M,19,85598,86348,420,274,341,198 F,0,85598,86348,1,0 S,0,85598,86348,0.3,0.12 P,0,85598,86348,A C,0,85598,,222,77,253 R,0,85598,86348,1.913578,0.7877491
Sprite,Foreground,Centre,"sb/heart.png",0,0 M,19,85598,86348,420,274,539,290 F,0,85598,86348,1,0 S,0,85598,86348,0.3,0.12 P,0,85598,86348,A C,0,85598,,222,77,253 R,0,85598,86348,0.1992921,0.8283869
Sprite,Foreground,Centre,"sb/heart.png",0,0 M,19,85598,86348,420,274,502,290 F,0,85598,86348,1,0 S,0,85598,86348,0.3,0.12 P,0,85598,86348,A C,0,85598,,222,77,253 R,0,85598,86348,2.029438,1.622212
Sprite,Foreground,Centre,"sb/heart.png",0,0 M,19,85598,86348,420,274,532,172 F,0,85598,86348,1,0 S,0,85598,86348,0.3,0.12 P,0,85598,86348,A C,0,85598,,222,77,253 R,0,85598,86348,1.611534,0.4893512
Sprite,Foreground,Centre,"sb/heart.png",0,0 M,19,85598,86348,420,274,495,308 F,0,85598,86348,1,0 S,0,85598,86348,0.3,0.12 P,0,85598,86348,A C,0,85598,,222,77,253 R,0,85598,86348,1.807652,1.736867
Sprite,Foreground,Centre,"sb/hl.png",371,277 S,0,85761,,0.7 F,2,85761,86511,1,0 P,0,85761,86511,A C,0,85761,,222,77,253
Sprite,Foreground,Centre,"sb/heart.png",0,0 M,19,85761,86511,371,277,412,395 F,0,85761,86511,1,0 S,0,85761,86511,0.3,0.12 P,0,85761,86511,A C,0,85761,,222,77,253 R,0,85761,86511,0.9476324,0.2024872
Sprite,Foreground,Centre,"sb/heart.png",0,0 M,19,85761,86511,371,277,362,272 F,0,85761,86511,1,0 S,0,85761,86511,0.3,0.12 P,0,85761,86511,A C,0,85761,,222,77,253 R,0,85761,86511,0.6795453,0.2252195
Sprite,Foreground,Centre,"sb/heart.png",0,0 M,19,85761,86511,371,277,306,193 F,0,85761,86511,1,0 S,0,85761,86511,0.3,0.12 P,0,85761,86511,A C,0,85761,,222,77,253 R,0,85761,86511,1.403977,1.417108
Sprite,Foreground,Centre,"sb/heart.png",0,0 M,19,85761,86511,371,277,255,250 F,0,85761,86511,1,0 S,0,85761,86511,0.3,0.12 P,0,85761,86511,A C,0,85761,,222,77,253 R,0,85761,86511,2.56368,0.6364998
Sprite,Foreground,Centre,"sb/heart.png",0,0 M,19,85761,86511,371,277,470,164 F,0,85761,86511,1,0 S,0,85761,86511,0.3,0.12 P,0,85761,86511,A C,0,85761,,222,77,253 R,0,85761,86511,1.60052,3.025007
Sprite,Foreground,Centre,"sb/heart.png",0,0 M,19,85761,86511,371,277,489,161 F,0,85761,86511,1,0 S,0,85761,86511,0.3,0.12 P,0,85761,86511,A C,0,85761,,222,77,253 R,0,85761,86511,2.053089,0.874398
Sprite,Foreground,Centre,"sb/heart.png",0,0 M,19,85761,86511,371,277,483,298 F,0,85761,86511,1,0 S,0,85761,86511,0.3,0.12 P,0,85761,86511,A C,0,85761,,222,77,253 R,0,85761,86511,2.425943,1.018401
Sprite,Foreground,Centre,"sb/hl.png",306,405 S,0,86247,,0.7 F,2,86247,86997,1,0 P,0,86247,86997,A C,0,86247,,255,219,111
Sprite,Foreground,Centre,"sb/heart.png",0,0 M,19,86247,86997,306,405,286,518 F,0,86247,86997,1,0 S,0,86247,86997,0.3,0.12 P,0,86247,86997,A C,0,86247,,255,219,111 R,0,86247,86997,2.78345,3.056415
Sprite,Foreground,Centre,"sb/heart.png",0,0 M,19,86247,86997,306,405,247,316 F,0,86247,86997,1,0 S,0,86247,86997,0.3,0.12 P,0,86247,86997,A C,0,86247,,255,219,111 R,0,86247,86997,2.818804,0.5598983
Sprite,Foreground,Centre,"sb/heart.png",0,0 M,19,86247,86997,306,405,397,415 F,0,86247,86997,1,0 S,0,86247,86997,0.3,0.12 P,0,86247,86997,A C,0,86247,,255,219,111 R,0,86247,86997,2.466292,1.614906
Sprite,Foreground,Centre,"sb/heart.png",0,0 M,19,86247,86997,306,405,270,523 F,0,86247,86997,1,0 S,0,86247,86997,0.3,0.12 P,0,86247,86997,A C,0,86247,,255,219,111 R,0,86247,86997,0.1050645,2.173126
Sprite,Foreground,Centre,"sb/heart.png",0,0 M,19,86247,86997,306,405,215,331 F,0,86247,86997,1,0 S,0,86247,86997,0.3,0.12 P,0,86247,86997,A C,0,86247,,255,219,111 R,0,86247,86997,1.559854,1.826175
Sprite,Foreground,Centre,"sb/heart.png",0,0 M,19,86247,86997,306,405,248,359 F,0,86247,86997,1,0 S,0,86247,86997,0.3,0.12 P,0,86247,86997,A C,0,86247,,255,219,111 R,0,86247,86997,0.7606928,2.463247
Sprite,Foreground,Centre,"sb/heart.png",0,0 M,19,86247,86997,306,405,217,432 F,0,86247,86997,1,0 S,0,86247,86997,0.3,0.12 P,0,86247,86997,A C,0,86247,,255,219,111 R,0,86247,86997,1.757062,2.059689
Sprite,Foreground,Centre,"sb/hl.png",214,375 S,0,86571,,0.7 F,2,86571,87321,1,0 P,0,86571,87321,A C,0,86571,,255,219,111
Sprite,Foreground,Centre,"sb/heart.png",0,0 M,19,86571,87321,214,375,175,260 F,0,86571,87321,1,0 S,0,86571,87321,0.3,0.12 P,0,86571,87321,A C,0,86571,,255,219,111 R,0,86571,87321,0.3056327,2.758037
Sprite,Foreground,Centre,"sb/heart.png",0,0 M,19,86571,87321,214,375,264,469 F,0,86571,87321,1,0 S,0,86571,87321,0.3,0.12 P,0,86571,87321,A C,0,86571,,255,219,111 R,0,86571,87321,2.046007,0.8020726
Sprite,Foreground,Centre,"sb/heart.png",0,0 M,19,86571,87321,214,375,157,368 F,0,86571,87321,1,0 S,0,86571,87321,0.3,0.12 P,0,86571,87321,A C,0,86571,,255,219,111 R,0,86571,87321,0.6154532,2.788429
Sprite,Foreground,Centre,"sb/heart.png",0,0 M,19,86571,87321,214,375,211,408 F,0,86571,87321,1,0 S,0,86571,87321,0.3,0.12 P,0,86571,87321,A C,0,86571,,255,219,111 R,0,86571,87321,1.004405,1.15916
Sprite,Foreground,Centre,"sb/heart.png",0,0 M,19,86571,87321,214,375,152,493 F,0,86571,87321,1,0 S,0,86571,87321,0.3,0.12 P,0,86571,87321,A C,0,86571,,255,219,111 R,0,86571,87321,1.917962,0.00573243
Sprite,Foreground,Centre,"sb/heart.png",0,0 M,19,86571,87321,214,375,330,485 F,0,86571,87321,1,0 S,0,86571,87321,0.3,0.12 P,0,86571,87321,A C,0,86571,,255,219,111 R,0,86571,87321,0.4936807,2.426117
Sprite,Foreground,Centre,"sb/heart.png",0,0 M,19,86571,87321,214,375,115,300 F,0,86571,87321,1,0 S,0,86571,87321,0.3,0.12 P,0,86571,87321,A C,0,86571,,255,219,111 R,0,86571,87321,0.1963575,0.3457703
Sprite,Foreground,Centre,"sb/hl.png",133,428 S,0,86896,,0.7 F,2,86896,87646,1,0 P,0,86896,87646,A C,0,86896,,255,219,111
Sprite,Foreground,Centre,"sb/heart.png",0,0 M,19,86896,87646,133,428,188,332 F,0,86896,87646,1,0 S,0,86896,87646,0.3,0.12 P,0,86896,87646,A C,0,86896,,255,219,111 R,0,86896,87646,2.638395,2.01901
Sprite,Foreground,Centre,"sb/heart.png",0,0 M,19,86896,87646,133,428,150,365 F,0,86896,87646,1,0 S,0,86896,87646,0.3,0.12 P,0,86896,87646,A C,0,86896,,255,219,111 R,0,86896,87646,2.630121,2.700453
Sprite,Foreground,Centre,"sb/heart.png",0,0 M,19,86896,87646,133,428,120,525 F,0,86896,87646,1,0 S,0,86896,87646,0.3,0.12 P,0,86896,87646,A C,0,86896,,255,219,111 R,0,86896,87646,2.523228,1.4459
Sprite,Foreground,Centre,"sb/heart.png",0,0 M,19,86896,87646,133,428,94,494 F,0,86896,87646,1,0 S,0,86896,87646,0.3,0.12 P,0,86896,87646,A C,0,86896,,255,219,111 R,0,86896,87646,1.341128,2.033155
Sprite,Foreground,Centre,"sb/heart.png",0,0 M,19,86896,87646,133,428,252,454 F,0,86896,87646,1,0 S,0,86896,87646,0.3,0.12 P,0,86896,87646,A C,0,86896,,255,219,111 R,0,86896,87646,0.2818161,1.959854
Sprite,Foreground,Centre,"sb/heart.png",0,0 M,19,86896,87646,133,428,250,517 F,0,86896,87646,1,0 S,0,86896,87646,0.3,0.12 P,0,86896,87646,A C,0,86896,,255,219,111 R,0,86896,87646,1.695027,0.4324067
Sprite,Foreground,Centre,"sb/heart.png",0,0 M,19,86896,87646,133,428,13,441 F,0,86896,87646,1,0 S,0,86896,87646,0.3,0.12 P,0,86896,87646,A C,0,86896,,255,219,111 R,0,86896,87646,2.111755,1.191407
Sprite,Foreground,Centre,"sb/hl.png",89,408 S,0,87058,,0.7 F,2,87053,87058,0,0.4 F,2,87058,87970,0.4,0 P,0,87058,87970,A C,0,87058,,255,219,111
Sprite,Foreground,Centre,"sb/hl.png",86.39671,402.6134 S,0,87074,,0.7 F,2,87069,87074,0,0.4 F,2,87074,87970,0.4,0 P,0,87058,87970,A C,0,87058,,255,219,111
Sprite,Foreground,Centre,"sb/hl.png",83.73064,397.2916 S,0,87090,,0.7 F,2,87085,87090,0,0.4 F,2,87090,87970,0.4,0 P,0,87058,87970,A C,0,87058,,255,219,111
Sprite,Foreground,Centre,"sb/hl.png",81.47932,391.745 S,0,87106,,0.7 F,2,87101,87106,0,0.4 F,2,87106,87970,0.4,0 P,0,87058,87970,A C,0,87058,,255,219,111
Sprite,Foreground,Centre,"sb/hl.png",80.36877,385.8663 S,0,87122,,0.7 F,2,87117,87122,0,0.4 F,2,87122,87970,0.4,0 P,0,87058,87970,A C,0,87058,,255,219,111
Sprite,Foreground,Centre,"sb/hl.png",79.33224,380.0153 S,0,87139,,0.7 F,2,87134,87139,0,0.4 F,2,87139,87970,0.4,0 P,0,87058,87970,A C,0,87058,,255,219,111
Sprite,Foreground,Centre,"sb/hl.png",78.75579,374.0754 S,0,87155,,0.7 F,2,87150,87155,0,0.4 F,2,87155,87970,0.4,0 P,0,87058,87970,A C,0,87058,,255,219,111
Sprite,Foreground,Centre,"sb/hl.png",79.21464,368.1104 S,0,87171,,0.7 F,2,87166,87171,0,0.4 F,2,87171,87970,0.4,0 P,0,87058,87970,A C,0,87058,,255,219,111
Sprite,Foreground,Centre,"sb/hl.png",79.88876,362.2131 S,0,87187,,0.7 F,2,87182,87187,0,0.4 F,2,87187,87970,0.4,0 P,0,87058,87970,A C,0,87058,,255,219,111
Sprite,Foreground,Centre,"sb/hl.png",81.02609,356.3694 S,0,87203,,0.7 F,2,87198,87203,0,0.4 F,2,87203,87970,0.4,0 P,0,87058,87970,A C,0,87058,,255,219,111
Sprite,Foreground,Centre,"sb/heart.png",0,0 M,19,87058,87808,89,408,176,366 F,0,87058,87808,1,0 S,0,87058,87808,0.3,0.12 P,0,87058,87808,A C,0,87058,,255,219,111 R,0,87058,87808,2.471286,1.633503
Sprite,Foreground,Centre,"sb/heart.png",0,0 M,19,87058,87808,89,408,168,417 F,0,87058,87808,1,0 S,0,87058,87808,0.3,0.12 P,0,87058,87808,A C,0,87058,,255,219,111 R,0,87058,87808,1.641516,0.5117943
Sprite,Foreground,Centre,"sb/heart.png",0,0 M,19,87058,87808,89,408,121,420 F,0,87058,87808,1,0 S,0,87058,87808,0.3,0.12 P,0,87058,87808,A C,0,87058,,255,219,111 R,0,87058,87808,0.9883765,0.7852429
Sprite,Foreground,Centre,"sb/heart.png",0,0 M,19,87058,87808,89,408,161,398 F,0,87058,87808,1,0 S,0,87058,87808,0.3,0.12 P,0,87058,87808,A C,0,87058,,255,219,111 R,0,87058,87808,2.895294,1.059964
Sprite,Foreground,Centre,"sb/heart.png",0,0 M,19,87058,87808,89,408,15,324 F,0,87058,87808,1,0 S,0,87058,87808,0.3,0.12 P,0,87058,87808,A C,0,87058,,255,219,111 R,0,87058,87808,2.077667,0.644942
Sprite,Foreground,Centre,"sb/heart.png",0,0 M,19,87058,87808,89,408,97,410 F,0,87058,87808,1,0 S,0,87058,87808,0.3,0.12 P,0,87058,87808,A C,0,87058,,255,219,111 R,0,87058,87808,2.42924,1.515327
Sprite,Foreground,Centre,"sb/heart.png",0,0 M,19,87058,87808,89,408,-7,393 F,0,87058,87808,1,0 S,0,87058,87808,0.3,0.12 P,0,87058,87808,A C,0,87058,,255,219,111 R,0,87058,87808,0.3751411,2.700617
Sprite,Foreground,Centre,"sb/hl.png",150,283 S,0,87544,,0.7 F,2,87544,88294,1,0 P,0,87544,88294,A C,0,87544,,255,219,111
Sprite,Foreground,Centre,"sb/heart.png",0,0 M,19,87544,88294,150,283,164,331 F,0,87544,88294,1,0 S,0,87544,88294,0.3,0.12 P,0,87544,88294,A C,0,87544,,255,219,111 R,0,87544,88294,2.012734,0.0487236
Sprite,Foreground,Centre,"sb/heart.png",0,0 M,19,87544,88294,150,283,166,272 F,0,87544,88294,1,0 S,0,87544,88294,0.3,0.12 P,0,87544,88294,A C,0,87544,,255,219,111 R,0,87544,88294,3.120899,0.3843499
Sprite,Foreground,Centre,"sb/heart.png",0,0 M,19,87544,88294,150,283,58,230 F,0,87544,88294,1,0 S,0,87544,88294,0.3,0.12 P,0,87544,88294,A C,0,87544,,255,219,111 R,0,87544,88294,1.981113,2.511014
Sprite,Foreground,Centre,"sb/heart.png",0,0 M,19,87544,88294,150,283,91,226 F,0,87544,88294,1,0 S,0,87544,88294,0.3,0.12 P,0,87544,88294,A C,0,87544,,255,219,111 R,0,87544,88294,0.04080344,1.400434
Sprite,Foreground,Centre,"sb/heart.png",0,0 M,19,87544,88294,150,283,100,364 F,0,87544,88294,1,0 S,0,87544,88294,0.3,0.12 P,0,87544,88294,A C,0,87544,,255,219,111 R,0,87544,88294,2.586192,1.666676
Sprite,Foreground,Centre,"sb/heart.png",0,0 M,19,87544,88294,150,283,258,211 F,0,87544,88294,1,0 S,0,87544,88294,0.3,0.12 P,0,87544,88294,A C,0,87544,,255,219,111 R,0,87544,88294,2.970021,2.675807
Sprite,Foreground,Centre,"sb/heart.png",0,0 M,19,87544,88294,150,283,245,275 F,0,87544,88294,1,0 S,0,87544,88294,0.3,0.12 P,0,87544,88294,A C,0,87544,,255,219,111 R,0,87544,88294,2.652571,1.119029
Sprite,Foreground,Centre,"sb/hl.png",194,263 S,0,87707,,0.7 F,2,87702,87707,0,0.4 F,2,87707,88700,0.4,0 P,0,87707,88700,A C,0,87707,,255,219,111
Sprite,Foreground,Centre,"sb/hl.png",196.5749,257.5969 S,0,87723,,0.7 F,2,87718,87723,0,0.4 F,2,87723,88700,0.4,0 P,0,87707,88700,A C,0,87707,,255,219,111
Sprite,Foreground,Centre,"sb/hl.png",199.1642,252.2318 S,0,87739,,0.7 F,2,87734,87739,0,0.4 F,2,87739,88700,0.4,0 P,0,87707,88700,A C,0,87707,,255,219,111
Sprite,Foreground,Centre,"sb/hl.png",201.3367,246.6605 S,0,87755,,0.7 F,2,87750,87755,0,0.4 F,2,87755,88700,0.4,0 P,0,87707,88700,A C,0,87707,,255,219,111
Sprite,Foreground,Centre,"sb/hl.png",202.539,240.7972 S,0,87771,,0.7 F,2,87766,87771,0,0.4 F,2,87771,88700,0.4,0 P,0,87707,88700,A C,0,87707,,255,219,111
Sprite,Foreground,Centre,"sb/hl.png",203.5613,234.9384 S,0,87788,,0.7 F,2,87783,87788,0,0.4 F,2,87788,88700,0.4,0 P,0,87707,88700,A C,0,87707,,255,219,111
Sprite,Foreground,Centre,"sb/hl.png",204.1277,229.0043 S,0,87804,,0.7 F,2,87799,87804,0,0.4 F,2,87804,88700,0.4,0 P,0,87707,88700,A C,0,87707,,255,219,111
Sprite,Foreground,Centre,"sb/hl.png",204.2309,223.0191 S,0,87820,,0.7 F,2,87815,87820,0,0.4 F,2,87820,88700,0.4,0 P,0,87707,88700,A C,0,87707,,255,219,111
Sprite,Foreground,Centre,"sb/hl.png",203.2687,217.1116 S,0,87836,,0.7 F,2,87831,87836,0,0.4 F,2,87836,88700,0.4,0 P,0,87707,88700,A C,0,87707,,255,219,111
Sprite,Foreground,Centre,"sb/hl.png",202.1936,211.2603 S,0,87852,,0.7 F,2,87847,87852,0,0.4 F,2,87852,88700,0.4,0 P,0,87707,88700,A C,0,87707,,255,219,111
Sprite,Foreground,Centre,"sb/hl.png",200.6638,205.4944 S,0,87869,,0.7 F,2,87864,87869,0,0.4 F,2,87869,88700,0.4,0 P,0,87707,88700,A C,0,87707,,255,219,111
Sprite,Foreground,Centre,"sb/hl.png",198.6803,199.8393 S,0,87885,,0.7 F,2,87880,87885,0,0.4 F,2,87885,88700,0.4,0 P,0,87707,88700,A C,0,87707,,255,219,111
Sprite,Foreground,Centre,"sb/hl.png",195.6795,194.6606 S,0,87901,,0.7 F,2,87896,87901,0,0.4 F,2,87901,88700,0.4,0 P,0,87707,88700,A C,0,87707,,255,219,111
Sprite,Foreground,Centre,"sb/hl.png",192.6391,189.544 S,0,87917,,0.7 F,2,87912,87917,0,0.4 F,2,87917,88700,0.4,0 P,0,87707,88700,A C,0,87707,,255,219,111
Sprite,Foreground,Centre,"sb/hl.png",189.1999,184.6638 S,0,87934,,0.7 F,2,87929,87934,0,0.4 F,2,87934,88700,0.4,0 P,0,87707,88700,A C,0,87707,,255,219,111
Sprite,Foreground,Centre,"sb/heart.png",0,0 M,19,87707,88457,194,263,206,216 F,0,87707,88457,1,0 S,0,87707,88457,0.3,0.12 P,0,87707,88457,A C,0,87707,,255,219,111 R,0,87707,88457,1.31555,1.228284
Sprite,Foreground,Centre,"sb/heart.png",0,0 M,19,87707,88457,194,263,175,302 F,0,87707,88457,1,0 S,0,87707,88457,0.3,0.12 P,0,87707,88457,A C,0,87707,,255,219,111 R,0,87707,88457,1.886618,2.927956
Sprite,Foreground,Centre,"sb/heart.png",0,0 M,19,87707,88457,194,263,293,214 F,0,87707,88457,1,0 S,0,87707,88457,0.3,0.12 P,0,87707,88457,A C,0,87707,,255,219,111 R,0,87707,88457,2.137882,1.07654
Sprite,Foreground,Centre,"sb/heart.png",0,0 M,19,87707,88457,194,263,186,334 F,0,87707,88457,1,0 S,0,87707,88457,0.3,0.12 P,0,87707,88457,A C,0,87707,,255,219,111 R,0,87707,88457,0.6814031,2.855846
Sprite,Foreground,Centre,"sb/heart.png",0,0 M,19,87707,88457,194,263,198,349 F,0,87707,88457,1,0 S,0,87707,88457,0.3,0.12 P,0,87707,88457,A C,0,87707,,255,219,111 R,0,87707,88457,2.983466,0.8510941
Sprite,Foreground,Centre,"sb/heart.png",0,0 M,19,87707,88457,194,263,193,221 F,0,87707,88457,1,0 S,0,87707,88457,0.3,0.12 P,0,87707,88457,A C,0,87707,,255,219,111 R,0,87707,88457,0.5906864,0.8213795
Sprite,Foreground,Centre,"sb/heart.png",0,0 M,19,87707,88457,194,263,221,284 F,0,87707,88457,1,0 S,0,87707,88457,0.3,0.12 P,0,87707,88457,A C,0,87707,,255,219,111 R,0,87707,88457,2.852785,1.131705
Sprite,Foreground,Centre,"sb/hl.png",143,157 S,0,88112,,0.7 F,2,88107,88112,0,0.4 F,2,88112,89105,0.4,0 P,0,88112,89105,A C,0,88112,,255,219,111
Sprite,Foreground,Centre,"sb/hl.png",140.4251,151.5969 S,0,88128,,0.7 F,2,88123,88128,0,0.4 F,2,88128,89105,0.4,0 P,0,88112,89105,A C,0,88112,,255,219,111
Sprite,Foreground,Centre,"sb/hl.png",137.8358,146.2318 S,0,88144,,0.7 F,2,88139,88144,0,0.4 F,2,88144,89105,0.4,0 P,0,88112,89105,A C,0,88112,,255,219,111
Sprite,Foreground,Centre,"sb/hl.png",135.6633,140.6605 S,0,88160,,0.7 F,2,88155,88160,0,0.4 F,2,88160,89105,0.4,0 P,0,88112,89105,A C,0,88112,,255,219,111
Sprite,Foreground,Centre,"sb/hl.png",134.461,134.7972 S,0,88176,,0.7 F,2,88171,88176,0,0.4 F,2,88176,89105,0.4,0 P,0,88112,89105,A C,0,88112,,255,219,111
Sprite,Foreground,Centre,"sb/hl.png",133.4387,128.9384 S,0,88193,,0.7 F,2,88188,88193,0,0.4 F,2,88193,89105,0.4,0 P,0,88112,89105,A C,0,88112,,255,219,111
Sprite,Foreground,Centre,"sb/hl.png",132.8723,123.0043 S,0,88209,,0.7 F,2,88204,88209,0,0.4 F,2,88209,89105,0.4,0 P,0,88112,89105,A C,0,88112,,255,219,111
Sprite,Foreground,Centre,"sb/hl.png",132.7691,117.0191 S,0,88225,,0.7 F,2,88220,88225,0,0.4 F,2,88225,89105,0.4,0 P,0,88112,89105,A C,0,88112,,255,219,111
Sprite,Foreground,Centre,"sb/hl.png",133.7313,111.1116 S,0,88241,,0.7 F,2,88236,88241,0,0.4 F,2,88241,89105,0.4,0 P,0,88112,89105,A C,0,88112,,255,219,111
Sprite,Foreground,Centre,"sb/hl.png",134.8063,105.2603 S,0,88257,,0.7 F,2,88252,88257,0,0.4 F,2,88257,89105,0.4,0 P,0,88112,89105,A C,0,88112,,255,219,111
Sprite,Foreground,Centre,"sb/hl.png",136.3362,99.4944 S,0,88274,,0.7 F,2,88269,88274,0,0.4 F,2,88274,89105,0.4,0 P,0,88112,89105,A C,0,88112,,255,219,111
Sprite,Foreground,Centre,"sb/hl.png",138.3197,93.8393 S,0,88290,,0.7 F,2,88285,88290,0,0.4 F,2,88290,89105,0.4,0 P,0,88112,89105,A C,0,88112,,255,219,111
Sprite,Foreground,Centre,"sb/hl.png",141.3205,88.66058 S,0,88306,,0.7 F,2,88301,88306,0,0.4 F,2,88306,89105,0.4,0 P,0,88112,89105,A C,0,88112,,255,219,111
Sprite,Foreground,Centre,"sb/hl.png",144.3609,83.54402 S,0,88322,,0.7 F,2,88317,88322,0,0.4 F,2,88322,89105,0.4,0 P,0,88112,89105,A C,0,88112,,255,219,111
Sprite,Foreground,Centre,"sb/hl.png",147.8001,78.66377 S,0,88339,,0.7 F,2,88334,88339,0,0.4 F,2,88339,89105,0.4,0 P,0,88112,89105,A C,0,88112,,255,219,111
Sprite,Foreground,Centre,"sb/heart.png",0,0 M,19,88112,88862,143,157,204,226 F,0,88112,88862,1,0 S,0,88112,88862,0.3,0.12 P,0,88112,88862,A C,0,88112,,255,219,111 R,0,88112,88862,0.3750615,0.3221405
Sprite,Foreground,Centre,"sb/heart.png",0,0 M,19,88112,88862,143,157,170,189 F,0,88112,88862,1,0 S,0,88112,88862,0.3,0.12 P,0,88112,88862,A C,0,88112,,255,219,111 R,0,88112,88862,1.792481,2.564194
Sprite,Foreground,Centre,"sb/heart.png",0,0 M,19,88112,88862,143,157,230,94 F,0,88112,88862,1,0 S,0,88112,88862,0.3,0.12 P,0,88112,88862,A C,0,88112,,255,219,111 R,0,88112,88862,1.185918,1.86217
Sprite,Foreground,Centre,"sb/heart.png",0,0 M,19,88112,88862,143,157,182,56 F,0,88112,88862,1,0 S,0,88112,88862,0.3,0.12 P,0,88112,88862,A C,0,88112,,255,219,111 R,0,88112,88862,1.675131,3.12658
Sprite,Foreground,Centre,"sb/heart.png",0,0 M,19,88112,88862,143,157,61,152 F,0,88112,88862,1,0 S,0,88112,88862,0.3,0.12 P,0,88112,88862,A C,0,88112,,255,219,111 R,0,88112,88862,0.2004366,0.4784798
Sprite,Foreground,Centre,"sb/heart.png",0,0 M,19,88112,88862,143,157,259,45 F,0,88112,88862,1,0 S,0,88112,88862,0.3,0.12 P,0,88112,88862,A C,0,88112,,255,219,111 R,0,88112,88862,1.043266,0.1070087
Sprite,Foreground,Centre,"sb/heart.png",0,0 M,19,88112,88862,143,157,147,174 F,0,88112,88862,1,0 S,0,88112,88862,0.3,0.12 P,0,88112,88862,A C,0,88112,,255,219,111 R,0,88112,88862,2.699307,0.704655
Sprite,Foreground,Centre,"sb/hl.png",199,68 S,0,88517,,0.7 F,2,88517,89267,1,0 P,0,88517,89267,A C,0,88517,,255,219,111
Sprite,Foreground,Centre,"sb/heart.png",0,0 M,19,88517,89267,199,68,106,-15 F,0,88517,89267,1,0 S,0,88517,89267,0.3,0.12 P,0,88517,89267,A C,0,88517,,255,219,111 R,0,88517,89267,2.436379,2.616631
Sprite,Foreground,Centre,"sb/heart.png",0,0 M,19,88517,89267,199,68,260,5 F,0,88517,89267,1,0 S,0,88517,89267,0.3,0.12 P,0,88517,89267,A C,0,88517,,255,219,111 R,0,88517,89267,0.550396,0.3883751
Sprite,Foreground,Centre,"sb/heart.png",0,0 M,19,88517,89267,199,68,122,86 F,0,88517,89267,1,0 S,0,88517,89267,0.3,0.12 P,0,88517,89267,A C,0,88517,,255,219,111 R,0,88517,89267,2.290398,2.605962
Sprite,Foreground,Centre,"sb/heart.png",0,0 M,19,88517,89267,199,68,133,44 F,0,88517,89267,1,0 S,0,88517,89267,0.3,0.12 P,0,88517,89267,A C,0,88517,,255,219,111 R,0,88517,89267,0.1400777,0.879711
Sprite,Foreground,Centre,"sb/heart.png",0,0 M,19,88517,89267,199,68,195,33 F,0,88517,89267,1,0 S,0,88517,89267,0.3,0.12 P,0,88517,89267,A C,0,88517,,255,219,111 R,0,88517,89267,1.908379,1.306875
Sprite,Foreground,Centre,"sb/heart.png",0,0 M,19,88517,89267,199,68,269,-6 F,0,88517,89267,1,0 S,0,88517,89267,0.3,0.12 P,0,88517,89267,A C,0,88517,,255,219,111 R,0,88517,89267,0.3210958,0.4238446
Sprite,Foreground,Centre,"sb/heart.png",0,0 M,19,88517,89267,199,68,205,129 F,0,88517,89267,1,0 S,0,88517,89267,0.3,0.12 P,0,88517,89267,A C,0,88517,,255,219,111 R,0,88517,89267,1.178045,2.263385
Sprite,Foreground,Centre,"sb/hl.png",292,89 S,0,88842,,0.7 F,2,88842,89592,1,0 P,0,88842,89592,A C,0,88842,,128,128,255
Sprite,Foreground,Centre,"sb/heart.png",0,0 M,19,88842,89592,292,89,281,-11 F,0,88842,89592,1,0 S,0,88842,89592,0.3,0.12 P,0,88842,89592,A C,0,88842,,128,128,255 R,0,88842,89592,1.838794,0.1262575
Sprite,Foreground,Centre,"sb/heart.png",0,0 M,19,88842,89592,292,89,358,52 F,0,88842,89592,1,0 S,0,88842,89592,0.3,0.12 P,0,88842,89592,A C,0,88842,,128,128,255 R,0,88842,89592,2.198921,2.221598
Sprite,Foreground,Centre,"sb/heart.png",0,0 M,19,88842,89592,292,89,283,99 F,0,88842,89592,1,0 S,0,88842,89592,0.3,0.12 P,0,88842,89592,A C,0,88842,,128,128,255 R,0,88842,89592,2.632463,1.329395
Sprite,Foreground,Centre,"sb/heart.png",0,0 M,19,88842,89592,292,89,389,67 F,0,88842,89592,1,0 S,0,88842,89592,0.3,0.12 P,0,88842,89592,A C,0,88842,,128,128,255 R,0,88842,89592,2.561989,1.826135
Sprite,Foreground,Centre,"sb/heart.png",0,0 M,19,88842,89592,292,89,352,25 F,0,88842,89592,1,0 S,0,88842,89592,0.3,0.12 P,0,88842,89592,A C,0,88842,,128,128,255 R,0,88842,89592,2.901609,1.836451
Sprite,Foreground,Centre,"sb/heart.png",0,0 M,19,88842,89592,292,89,410,-19 F,0,88842,89592,1,0 S,0,88842,89592,0.3,0.12 P,0,88842,89592,A C,0,88842,,128,128,255 R,0,88842,89592,1.726273,0.5036429
Sprite,Foreground,Centre,"sb/heart.png",0,0 M,19,88842,89592,292,89,403,75 F,0,88842,89592,1,0 S,0,88842,89592,0.3,0.12 P,0,88842,89592,A C,0,88842,,128,128,255 R,0,88842,89592,1.35098,2.901167
Sprite,Foreground,Centre,"sb/hl.png",335,174 S,0,89166,,0.7 F,2,89166,89916,1,0 P,0,89166,89916,A C,0,89166,,128,128,255
Sprite,Foreground,Centre,"sb/heart.png",0,0 M,19,89166,89916,335,174,228,207 F,0,89166,89916,1,0 S,0,89166,89916,0.3,0.12 P,0,89166,89916,A C,0,89166,,128,128,255 R,0,89166,89916,0.9670098,3.138587
Sprite,Foreground,Centre,"sb/heart.png",0,0 M,19,89166,89916,335,174,422,163 F,0,89166,89916,1,0 S,0,89166,89916,0.3,0.12 P,0,89166,89916,A C,0,89166,,128,128,255 R,0,89166,89916,2.094714,0.2965387
Sprite,Foreground,Centre,"sb/heart.png",0,0 M,19,89166,89916,335,174,453,219 F,0,89166,89916,1,0 S,0,89166,89916,0.3,0.12 P,0,89166,89916,A C,0,89166,,128,128,255 R,0,89166,89916,0.1618061,2.77223
Sprite,Foreground,Centre,"sb/heart.png",0,0 M,19,89166,89916,335,174,383,134 F,0,89166,89916,1,0 S,0,89166,89916,0.3,0.12 P,0,89166,89916,A C,0,89166,,128,128,255 R,0,89166,89916,2.563261,2.953041
Sprite,Foreground,Centre,"sb/heart.png",0,0 M,19,89166,89916,335,174,339,98 F,0,89166,89916,1,0 S,0,89166,89916,0.3,0.12 P,0,89166,89916,A C,0,89166,,128,128,255 R,0,89166,89916,1.602831,1.208511
Sprite,Foreground,Centre,"sb/heart.png",0,0 M,19,89166,89916,335,174,305,179 F,0,89166,89916,1,0 S,0,89166,89916,0.3,0.12 P,0,89166,89916,A C,0,89166,,128,128,255 R,0,89166,89916,1.20459,0.9135538
Sprite,Foreground,Centre,"sb/heart.png",0,0 M,19,89166,89916,335,174,414,243 F,0,89166,89916,1,0 S,0,89166,89916,0.3,0.12 P,0,89166,89916,A C,0,89166,,128,128,255 R,0,89166,89916,2.289287,1.271698
Sprite,Foreground,Centre,"sb/hl.png",251,221 S,0,89490,,0.7 F,2,89485,89490,0,0.4 F,2,89490,90564,0.4,0 P,0,89490,90564,A C,0,89490,,128,128,255
Sprite,Foreground,Centre,"sb/hl.png",251.1578,226.9979 S,0,89506,,0.7 F,2,89501,89506,0,0.4 F,2,89506,90564,0.4,0 P,0,89490,90564,A C,0,89490,,128,128,255
Sprite,Foreground,Centre,"sb/hl.png",251.3157,232.9958 S,0,89522,,0.7 F,2,89517,89522,0,0.4 F,2,89522,90564,0.4,0 P,0,89490,90564,A C,0,89490,,128,128,255
Sprite,Foreground,Centre,"sb/hl.png",251.4735,238.9938 S,0,89538,,0.7 F,2,89533,89538,0,0.4 F,2,89538,90564,0.4,0 P,0,89490,90564,A C,0,89490,,128,128,255
Sprite,Foreground,Centre,"sb/hl.png",251.6314,244.9917 S,0,89554,,0.7 F,2,89549,89554,0,0.4 F,2,89554,90564,0.4,0 P,0,89490,90564,A C,0,89490,,128,128,255
Sprite,Foreground,Centre,"sb/hl.png",251.7892,250.9896 S,0,89571,,0.7 F,2,89566,89571,0,0.4 F,2,89571,90564,0.4,0 P,0,89490,90564,A C,0,89490,,128,128,255
Sprite,Foreground,Centre,"sb/hl.png",251.947,256.9875 S,0,89587,,0.7 F,2,89582,89587,0,0.4 F,2,89587,90564,0.4,0 P,0,89490,90564,A C,0,89490,,128,128,255
Sprite,Foreground,Centre,"sb/hl.png",252.1049,262.9855 S,0,89603,,0.7 F,2,89598,89603,0,0.4 F,2,89603,90564,0.4,0 P,0,89490,90564,A C,0,89490,,128,128,255
Sprite,Foreground,Centre,"sb/hl.png",252.2627,268.9834 S,0,89619,,0.7 F,2,89614,89619,0,0.4 F,2,89619,90564,0.4,0 P,0,89490,90564,A C,0,89490,,128,128,255
Sprite,Foreground,Centre,"sb/hl.png",252.4206,274.9813 S,0,89635,,0.7 F,2,89630,89635,0,0.4 F,2,89635,90564,0.4,0 P,0,89490,90564,A C,0,89490,,128,128,255
Sprite,Foreground,Centre,"sb/hl.png",252.5784,280.9792 S,0,89652,,0.7 F,2,89647,89652,0,0.4 F,2,89652,90564,0.4,0 P,0,89490,90564,A C,0,89490,,128,128,255
Sprite,Foreground,Centre,"sb/hl.png",252.4206,274.9813 S,0,89668,,0.7 F,2,89663,89668,0,0.4 F,2,89668,90564,0.4,0 P,0,89490,90564,A C,0,89490,,128,128,255
Sprite,Foreground,Centre,"sb/hl.png",252.2627,268.9834 S,0,89684,,0.7 F,2,89679,89684,0,0.4 F,2,89684,90564,0.4,0 P,0,89490,90564,A C,0,89490,,128,128,255
Sprite,Foreground,Centre,"sb/hl.png",252.1049,262.9855 S,0,89700,,0.7 F,2,89695,89700,0,0.4 F,2,89700,90564,0.4,0 P,0,89490,90564,A C,0,89490,,128,128,255
Sprite,Foreground,Centre,"sb/hl.png",251.947,256.9875 S,0,89717,,0.7 F,2,89712,89717,0,0.4 F,2,89717,90564,0.4,0 P,0,89490,90564,A C,0,89490,,128,128,255
Sprite,Foreground,Centre,"sb/hl.png",251.7892,250.9896 S,0,89733,,0.7 F,2,89728,89733,0,0.4 F,2,89733,90564,0.4,0 P,0,89490,90564,A C,0,89490,,128,128,255
Sprite,Foreground,Centre,"sb/hl.png",251.6314,244.9917 S,0,89749,,0.7 F,2,89744,89749,0,0.4 F,2,89749,90564,0.4,0 P,0,89490,90564,A C,0,89490,,128,128,255
Sprite,Foreground,Centre,"sb/hl.png",251.4735,238.9938 S,0,89765,,0.7 F,2,89760,89765,0,0.4 F,2,89765,90564,0.4,0 P,0,89490,90564,A C,0,89490,,128,128,255
Sprite,Foreground,Centre,"sb/hl.png",251.3157,232.9958 S,0,89781,,0.7 F,2,89776,89781,0,0.4 F,2,89781,90564,0.4,0 P,0,89490,90564,A C,0,89490,,128,128,255
Sprite,Foreground,Centre,"sb/hl.png",251.1578,226.9979 S,0,89798,,0.7 F,2,89793,89798,0,0.4 F,2,89798,90564,0.4,0 P,0,89490,90564,A C,0,89490,,128,128,255
Sprite,Foreground,Centre,"sb/heart.png",0,0 M,19,89490,90240,251,221,259,202 F,0,89490,90240,1,0 S,0,89490,90240,0.3,0.12 P,0,89490,90240,A C,0,89490,,128,128,255 R,0,89490,90240,0.2331588,1.051724
Sprite,Foreground,Centre,"sb/heart.png",0,0 M,19,89490,90240,251,221,350,287 F,0,89490,90240,1,0 S,0,89490,90240,0.3,0.12 P,0,89490,90240,A C,0,89490,,128,128,255 R,0,89490,90240,2.048523,2.587101
Sprite,Foreground,Centre,"sb/heart.png",0,0 M,19,89490,90240,251,221,187,302 F,0,89490,90240,1,0 S,0,89490,90240,0.3,0.12 P,0,89490,90240,A C,0,89490,,128,128,255 R,0,89490,90240,1.752527,1.417033
Sprite,Foreground,Centre,"sb/heart.png",0,0 M,19,89490,90240,251,221,309,274 F,0,89490,90240,1,0 S,0,89490,90240,0.3,0.12 P,0,89490,90240,A C,0,89490,,128,128,255 R,0,89490,90240,1.849187,0.1967065
Sprite,Foreground,Centre,"sb/heart.png",0,0 M,19,89490,90240,251,221,174,110 F,0,89490,90240,1,0 S,0,89490,90240,0.3,0.12 P,0,89490,90240,A C,0,89490,,128,128,255 R,0,89490,90240,2.776571,2.055618
Sprite,Foreground,Centre,"sb/heart.png",0,0 M,19,89490,90240,251,221,187,247 F,0,89490,90240,1,0 S,0,89490,90240,0.3,0.12 P,0,89490,90240,A C,0,89490,,128,128,255 R,0,89490,90240,2.014809,2.455708
Sprite,Foreground,Centre,"sb/heart.png",0,0 M,19,89490,90240,251,221,354,111 F,0,89490,90240,1,0 S,0,89490,90240,0.3,0.12 P,0,89490,90240,A C,0,89490,,128,128,255 R,0,89490,90240,1.715864,1.678113
Sprite,Foreground,Centre,"sb/hl.png",159,204 S,0,90139,,0.7 F,2,90139,90889,1,0 P,0,90139,90889,A C,0,90139,,128,128,255
Sprite,Foreground,Centre,"sb/heart.png",0,0 M,19,90139,90889,159,204,100,88 F,0,90139,90889,1,0 S,0,90139,90889,0.3,0.12 P,0,90139,90889,A C,0,90139,,128,128,255 R,0,90139,90889,0.5242981,0.2352735
Sprite,Foreground,Centre,"sb/heart.png",0,0 M,19,90139,90889,159,204,213,146 F,0,90139,90889,1,0 S,0,90139,90889,0.3,0.12 P,0,90139,90889,A C,0,90139,,128,128,255 R,0,90139,90889,1.754759,1.78339
Sprite,Foreground,Centre,"sb/heart.png",0,0 M,19,90139,90889,159,204,186,256 F,0,90139,90889,1,0 S,0,90139,90889,0.3,0.12 P,0,90139,90889,A C,0,90139,,128,128,255 R,0,90139,90889,3.035383,2.903718
Sprite,Foreground,Centre,"sb/heart.png",0,0 M,19,90139,90889,159,204,203,322 F,0,90139,90889,1,0 S,0,90139,90889,0.3,0.12 P,0,90139,90889,A C,0,90139,,128,128,255 R,0,90139,90889,2.209172,2.13655
Sprite,Foreground,Centre,"sb/heart.png",0,0 M,19,90139,90889,159,204,189,98 F,0,90139,90889,1,0 S,0,90139,90889,0.3,0.12 P,0,90139,90889,A C,0,90139,,128,128,255 R,0,90139,90889,2.016469,2.061445
Sprite,Foreground,Centre,"sb/heart.png",0,0 M,19,90139,90889,159,204,262,160 F,0,90139,90889,1,0 S,0,90139,90889,0.3,0.12 P,0,90139,90889,A C,0,90139,,128,128,255 R,0,90139,90889,0.3392926,2.484909
Sprite,Foreground,Centre,"sb/heart.png",0,0 M,19,90139,90889,159,204,256,101 F,0,90139,90889,1,0 S,0,90139,90889,0.3,0.12 P,0,90139,90889,A C,0,90139,,128,128,255 R,0,90139,90889,0.5298108,2.910141
Sprite,Foreground,Centre,"sb/hl.png",125,238 S,0,90301,,0.7 F,2,90301,91051,1,0 P,0,90301,91051,A C,0,90301,,128,128,255
Sprite,Foreground,Centre,"sb/heart.png",0,0 M,19,90301,91051,125,238,193,188 F,0,90301,91051,1,0 S,0,90301,91051,0.3,0.12 P,0,90301,91051,A C,0,90301,,128,128,255 R,0,90301,91051,1.262122,2.73597
Sprite,Foreground,Centre,"sb/heart.png",0,0 M,19,90301,91051,125,238,60,146 F,0,90301,91051,1,0 S,0,90301,91051,0.3,0.12 P,0,90301,91051,A C,0,90301,,128,128,255 R,0,90301,91051,1.779156,0.6904136
Sprite,Foreground,Centre,"sb/heart.png",0,0 M,19,90301,91051,125,238,166,233 F,0,90301,91051,1,0 S,0,90301,91051,0.3,0.12 P,0,90301,91051,A C,0,90301,,128,128,255 R,0,90301,91051,2.277716,1.510618
Sprite,Foreground,Centre,"sb/heart.png",0,0 M,19,90301,91051,125,238,44,123 F,0,90301,91051,1,0 S,0,90301,91051,0.3,0.12 P,0,90301,91051,A C,0,90301,,128,128,255 R,0,90301,91051,1.407318,1.464179
Sprite,Foreground,Centre,"sb/heart.png",0,0 M,19,90301,91051,125,238,22,348 F,0,90301,91051,1,0 S,0,90301,91051,0.3,0.12 P,0,90301,91051,A C,0,90301,,128,128,255 R,0,90301,91051,3.044068,0.7657272
Sprite,Foreground,Centre,"sb/heart.png",0,0 M,19,90301,91051,125,238,222,348 F,0,90301,91051,1,0 S,0,90301,91051,0.3,0.12 P,0,90301,91051,A C,0,90301,,128,128,255 R,0,90301,91051,0.4876589,2.745397
Sprite,Foreground,Centre,"sb/heart.png",0,0 M,19,90301,91051,125,238,101,331 F,0,90301,91051,1,0 S,0,90301,91051,0.3,0.12 P,0,90301,91051,A C,0,90301,,128,128,255 R,0,90301,91051,1.890747,2.941653
Sprite,Foreground,Centre,"sb/hl.png",110,283 S,0,90463,,0.7 F,2,90458,90463,0,0.4 F,2,90463,91375,0.4,0 P,0,90463,91375,A C,0,90463,,128,128,255
Sprite,Foreground,Centre,"sb/hl.png",109.5641,288.9796 S,0,90479,,0.7 F,2,90474,90479,0,0.4 F,2,90479,91375,0.4,0 P,0,90463,91375,A C,0,90463,,128,128,255
Sprite,Foreground,Centre,"sb/hl.png",109.0872,294.9482 S,0,90495,,0.7 F,2,90490,90495,0,0.4 F,2,90495,91375,0.4,0 P,0,90463,91375,A C,0,90463,,128,128,255
Sprite,Foreground,Centre,"sb/hl.png",108.8493,300.9399 S,0,90511,,0.7 F,2,90506,90511,0,0.4 F,2,90511,91375,0.4,0 P,0,90463,91375,A C,0,90463,,128,128,255
Sprite,Foreground,Centre,"sb/hl.png",109.2156,306.9242 S,0,90527,,0.7 F,2,90522,90527,0,0.4 F,2,90527,91375,0.4,0 P,0,90463,91375,A C,0,90463,,128,128,255
Sprite,Foreground,Centre,"sb/hl.png",109.6179,312.8956 S,0,90544,,0.7 F,2,90539,90544,0,0.4 F,2,90544,91375,0.4,0 P,0,90463,91375,A C,0,90463,,128,128,255
Sprite,Foreground,Centre,"sb/hl.png",110.2596,318.8527 S,0,90560,,0.7 F,2,90555,90560,0,0.4 F,2,90560,91375,0.4,0 P,0,90463,91375,A C,0,90463,,128,128,255
Sprite,Foreground,Centre,"sb/hl.png",111.4214,324.7346 S,0,90576,,0.7 F,2,90571,90576,0,0.4 F,2,90576,91375,0.4,0 P,0,90463,91375,A C,0,90463,,128,128,255
Sprite,Foreground,Centre,"sb/hl.png",112.6938,330.5811 S,0,90592,,0.7 F,2,90587,90592,0,0.4 F,2,90592,91375,0.4,0 P,0,90463,91375,A C,0,90463,,128,128,255
Sprite,Foreground,Centre,"sb/hl.png",114.2001,336.3763 S,0,90608,,0.7 F,2,90603,90608,0,0.4 F,2,90608,91375,0.4,0 P,0,90463,91375,A C,0,90463,,128,128,255
Sprite,Foreground,Centre,"sb/heart.png",0,0 M,19,90463,91213,110,283,208,253 F,0,90463,91213,1,0 S,0,90463,91213,0.3,0.12 P,0,90463,91213,A C,0,90463,,128,128,255 R,0,90463,91213,0.5286576,2.04724
Sprite,Foreground,Centre,"sb/heart.png",0,0 M,19,90463,91213,110,283,12,314 F,0,90463,91213,1,0 S,0,90463,91213,0.3,0.12 P,0,90463,91213,A C,0,90463,,128,128,255 R,0,90463,91213,2.463048,1.011938
Sprite,Foreground,Centre,"sb/heart.png",0,0 M,19,90463,91213,110,283,65,185 F,0,90463,91213,1,0 S,0,90463,91213,0.3,0.12 P,0,90463,91213,A C,0,90463,,128,128,255 R,0,90463,91213,2.180236,1.782732
Sprite,Foreground,Centre,"sb/heart.png",0,0 M,19,90463,91213,110,283,92,279 F,0,90463,91213,1,0 S,0,90463,91213,0.3,0.12 P,0,90463,91213,A C,0,90463,,128,128,255 R,0,90463,91213,0.02537992,0.4507948
Sprite,Foreground,Centre,"sb/heart.png",0,0 M,19,90463,91213,110,283,70,201 F,0,90463,91213,1,0 S,0,90463,91213,0.3,0.12 P,0,90463,91213,A C,0,90463,,128,128,255 R,0,90463,91213,1.550755,2.863162
Sprite,Foreground,Centre,"sb/heart.png",0,0 M,19,90463,91213,110,283,199,317 F,0,90463,91213,1,0 S,0,90463,91213,0.3,0.12 P,0,90463,91213,A C,0,90463,,128,128,255 R,0,90463,91213,2.24932,2.975356
Sprite,Foreground,Centre,"sb/heart.png",0,0 M,19,90463,91213,110,283,15,384 F,0,90463,91213,1,0 S,0,90463,91213,0.3,0.12 P,0,90463,91213,A C,0,90463,,128,128,255 R,0,90463,91213,0.06289509,2.583676
Sprite,Foreground,Centre,"sb/hl.png",159,363 S,0,90788,,0.7 F,2,90783,90788,0,0.4 F,2,90788,91700,0.4,0 P,0,90788,91700,A C,0,90788,,128,128,255
Sprite,Foreground,Centre,"sb/hl.png",159.0249,368.9799 S,0,90804,,0.7 F,2,90799,90804,0,0.4 F,2,90804,91700,0.4,0 P,0,90788,91700,A C,0,90788,,128,128,255
Sprite,Foreground,Centre,"sb/hl.png",159.1303,374.9231 S,0,90820,,0.7 F,2,90815,90820,0,0.4 F,2,90820,91700,0.4,0 P,0,90788,91700,A C,0,90788,,128,128,255
Sprite,Foreground,Centre,"sb/hl.png",158.7222,380.8908 S,0,90836,,0.7 F,2,90831,90836,0,0.4 F,2,90836,91700,0.4,0 P,0,90788,91700,A C,0,90788,,128,128,255
Sprite,Foreground,Centre,"sb/hl.png",157.0737,386.6391 S,0,90852,,0.7 F,2,90847,90852,0,0.4 F,2,90852,91700,0.4,0 P,0,90788,91700,A C,0,90788,,128,128,255
Sprite,Foreground,Centre,"sb/hl.png",155.3452,392.3134 S,0,90869,,0.7 F,2,90864,90869,0,0.4 F,2,90869,91700,0.4,0 P,0,90788,91700,A C,0,90788,,128,128,255
Sprite,Foreground,Centre,"sb/hl.png",153.1271,397.8446 S,0,90885,,0.7 F,2,90880,90885,0,0.4 F,2,90885,91700,0.4,0 P,0,90788,91700,A C,0,90788,,128,128,255
Sprite,Foreground,Centre,"sb/hl.png",150.4193,403.2049 S,0,90901,,0.7 F,2,90896,90901,0,0.4 F,2,90901,91700,0.4,0 P,0,90788,91700,A C,0,90788,,128,128,255
Sprite,Foreground,Centre,"sb/hl.png",146.5465,407.7614 S,0,90917,,0.7 F,2,90912,90917,0,0.4 F,2,90917,91700,0.4,0 P,0,90788,91700,A C,0,90788,,128,128,255
Sprite,Foreground,Centre,"sb/hl.png",142.7426,412.3266 S,0,90933,,0.7 F,2,90928,90933,0,0.4 F,2,90933,91700,0.4,0 P,0,90788,91700,A C,0,90788,,128,128,255
Sprite,Foreground,Centre,"sb/heart.png",0,0 M,19,90788,91538,159,363,71,369 F,0,90788,91538,1,0 S,0,90788,91538,0.3,0.12 P,0,90788,91538,A C,0,90788,,128,128,255 R,0,90788,91538,1.468378,1.069064
Sprite,Foreground,Centre,"sb/heart.png",0,0 M,19,90788,91538,159,363,162,394 F,0,90788,91538,1,0 S,0,90788,91538,0.3,0.12 P,0,90788,91538,A C,0,90788,,128,128,255 R,0,90788,91538,0.9762501,0.9301889
Sprite,Foreground,Centre,"sb/heart.png",0,0 M,19,90788,91538,159,363,114,260 F,0,90788,91538,1,0 S,0,90788,91538,0.3,0.12 P,0,90788,91538,A C,0,90788,,128,128,255 R,0,90788,91538,1.217413,1.666072
Sprite,Foreground,Centre,"sb/heart.png",0,0 M,19,90788,91538,159,363,95,273 F,0,90788,91538,1,0 S,0,90788,91538,0.3,0.12 P,0,90788,91538,A C,0,90788,,128,128,255 R,0,90788,91538,0.4746252,3.077768
Sprite,Foreground,Centre,"sb/heart.png",0,0 M,19,90788,91538,159,363,102,339 F,0,90788,91538,1,0 S,0,90788,91538,0.3,0.12 P,0,90788,91538,A C,0,90788,,128,128,255 R,0,90788,91538,2.568723,1.328488
Sprite,Foreground,Centre,"sb/heart.png",0,0 M,19,90788,91538,159,363,267,245 F,0,90788,91538,1,0 S,0,90788,91538,0.3,0.12 P,0,90788,91538,A C,0,90788,,128,128,255 R,0,90788,91538,1.695722,0.7617412
Sprite,Foreground,Centre,"sb/heart.png",0,0 M,19,90788,91538,159,363,134,408 F,0,90788,91538,1,0 S,0,90788,91538,0.3,0.12 P,0,90788,91538,A C,0,90788,,128,128,255 R,0,90788,91538,0.1994943,0.8390495
Sprite,Foreground,Centre,"sb/hl.png",265,349 S,0,91436,,0.7 F,2,91436,92186,1,0 P,0,91436,92186,A C,0,91436,,252,173,194
Sprite,Foreground,Centre,"sb/heart.png",0,0 M,19,91436,92186,265,349,303,282 F,0,91436,92186,1,0 S,0,91436,92186,0.3,0.12 P,0,91436,92186,A C,0,91436,,252,173,194 R,0,91436,92186,1.716045,0.5291218
Sprite,Foreground,Centre,"sb/heart.png",0,0 M,19,91436,92186,265,349,291,459 F,0,91436,92186,1,0 S,0,91436,92186,0.3,0.12 P,0,91436,92186,A C,0,91436,,252,173,194 R,0,91436,92186,0.5805531,2.472828
Sprite,Foreground,Centre,"sb/heart.png",0,0 M,19,91436,92186,265,349,295,313 F,0,91436,92186,1,0 S,0,91436,92186,0.3,0.12 P,0,91436,92186,A C,0,91436,,252,173,194 R,0,91436,92186,0.1614768,2.501093
Sprite,Foreground,Centre,"sb/heart.png",0,0 M,19,91436,92186,265,349,186,399 F,0,91436,92186,1,0 S,0,91436,92186,0.3,0.12 P,0,91436,92186,A C,0,91436,,252,173,194 R,0,91436,92186,2.603791,0.8191974
Sprite,Foreground,Centre,"sb/heart.png",0,0 M,19,91436,92186,265,349,330,460 F,0,91436,92186,1,0 S,0,91436,92186,0.3,0.12 P,0,91436,92186,A C,0,91436,,252,173,194 R,0,91436,92186,2.11882,2.346779
Sprite,Foreground,Centre,"sb/heart.png",0,0 M,19,91436,92186,265,349,262,405 F,0,91436,92186,1,0 S,0,91436,92186,0.3,0.12 P,0,91436,92186,A C,0,91436,,252,173,194 R,0,91436,92186,2.141146,2.211451
Sprite,Foreground,Centre,"sb/heart.png",0,0 M,19,91436,92186,265,349,170,372 F,0,91436,92186,1,0 S,0,91436,92186,0.3,0.12 P,0,91436,92186,A C,0,91436,,252,173,194 R,0,91436,92186,2.730798,0.3945206
Sprite,Foreground,Centre,"sb/hl.png",348,395 S,0,91760,,0.7 F,2,91760,92510,1,0 P,0,91760,92510,A C,0,91760,,252,173,194
Sprite,Foreground,Centre,"sb/heart.png",0,0 M,19,91760,92510,348,395,465,328 F,0,91760,92510,1,0 S,0,91760,92510,0.3,0.12 P,0,91760,92510,A C,0,91760,,252,173,194 R,0,91760,92510,2.965401,2.593671
Sprite,Foreground,Centre,"sb/heart.png",0,0 M,19,91760,92510,348,395,363,285 F,0,91760,92510,1,0 S,0,91760,92510,0.3,0.12 P,0,91760,92510,A C,0,91760,,252,173,194 R,0,91760,92510,1.998527,0.2937022
Sprite,Foreground,Centre,"sb/heart.png",0,0 M,19,91760,92510,348,395,354,327 F,0,91760,92510,1,0 S,0,91760,92510,0.3,0.12 P,0,91760,92510,A C,0,91760,,252,173,194 R,0,91760,92510,2.884349,0.864971
Sprite,Foreground,Centre,"sb/heart.png",0,0 M,19,91760,92510,348,395,453,362 F,0,91760,92510,1,0 S,0,91760,92510,0.3,0.12 P,0,91760,92510,A C,0,91760,,252,173,194 R,0,91760,92510,1.105139,2.864631
Sprite,Foreground,Centre,"sb/heart.png",0,0 M,19,91760,92510,348,395,312,280 F,0,91760,92510,1,0 S,0,91760,92510,0.3,0.12 P,0,91760,92510,A C,0,91760,,252,173,194 R,0,91760,92510,0.7859796,0.7576875
Sprite,Foreground,Centre,"sb/heart.png",0,0 M,19,91760,92510,348,395,271,341 F,0,91760,92510,1,0 S,0,91760,92510,0.3,0.12 P,0,91760,92510,A C,0,91760,,252,173,194 R,0,91760,92510,1.473303,1.360575
Sprite,Foreground,Centre,"sb/heart.png",0,0 M,19,91760,92510,348,395,231,350 F,0,91760,92510,1,0 S,0,91760,92510,0.3,0.12 P,0,91760,92510,A C,0,91760,,252,173,194 R,0,91760,92510,2.43856,2.901702
Sprite,Foreground,Centre,"sb/hl.png",443,383 S,0,92085,,0.7 F,2,92085,92835,1,0 P,0,92085,92835,A C,0,92085,,252,173,194
Sprite,Foreground,Centre,"sb/heart.png",0,0 M,19,92085,92835,443,383,452,465 F,0,92085,92835,1,0 S,0,92085,92835,0.3,0.12 P,0,92085,92835,A C,0,92085,,252,173,194 R,0,92085,92835,0.1921689,0.0473158
Sprite,Foreground,Centre,"sb/heart.png",0,0 M,19,92085,92835,443,383,345,277 F,0,92085,92835,1,0 S,0,92085,92835,0.3,0.12 P,0,92085,92835,A C,0,92085,,252,173,194 R,0,92085,92835,2.510233,1.265992
Sprite,Foreground,Centre,"sb/heart.png",0,0 M,19,92085,92835,443,383,421,317 F,0,92085,92835,1,0 S,0,92085,92835,0.3,0.12 P,0,92085,92835,A C,0,92085,,252,173,194 R,0,92085,92835,0.7214918,0.4053071
Sprite,Foreground,Centre,"sb/heart.png",0,0 M,19,92085,92835,443,383,341,439 F,0,92085,92835,1,0 S,0,92085,92835,0.3,0.12 P,0,92085,92835,A C,0,92085,,252,173,194 R,0,92085,92835,2.304766,1.74174
Sprite,Foreground,Centre,"sb/heart.png",0,0 M,19,92085,92835,443,383,333,358 F,0,92085,92835,1,0 S,0,92085,92835,0.3,0.12 P,0,92085,92835,A C,0,92085,,252,173,194 R,0,92085,92835,2.531953,0.3986919
Sprite,Foreground,Centre,"sb/heart.png",0,0 M,19,92085,92835,443,383,415,447 F,0,92085,92835,1,0 S,0,92085,92835,0.3,0.12 P,0,92085,92835,A C,0,92085,,252,173,194 R,0,92085,92835,1.111593,0.2693228
Sprite,Foreground,Centre,"sb/heart.png",0,0 M,19,92085,92835,443,383,406,413 F,0,92085,92835,1,0 S,0,92085,92835,0.3,0.12 P,0,92085,92835,A C,0,92085,,252,173,194 R,0,92085,92835,2.961448,2.227663
Sprite,Foreground,Centre,"sb/hl.png",535,408 S,0,92409,,0.7 F,2,92404,92409,0,0.4 F,2,92409,93321,0.4,0 P,0,92409,93321,A C,0,92409,,252,173,194
Sprite,Foreground,Centre,"sb/hl.png",536.7483,402.2692 S,0,92425,,0.7 F,2,92420,92425,0,0.4 F,2,92425,93321,0.4,0 P,0,92409,93321,A C,0,92409,,252,173,194
Sprite,Foreground,Centre,"sb/hl.png",538.5997,396.584 S,0,92441,,0.7 F,2,92436,92441,0,0.4 F,2,92441,93321,0.4,0 P,0,92409,93321,A C,0,92409,,252,173,194
Sprite,Foreground,Centre,"sb/hl.png",540.1758,390.7933 S,0,92457,,0.7 F,2,92452,92457,0,0.4 F,2,92457,93321,0.4,0 P,0,92409,93321,A C,0,92409,,252,173,194
Sprite,Foreground,Centre,"sb/hl.png",540.8457,384.8393 S,0,92473,,0.7 F,2,92468,92473,0,0.4 F,2,92473,93321,0.4,0 P,0,92409,93321,A C,0,92409,,252,173,194
Sprite,Foreground,Centre,"sb/hl.png",541.5904,378.909 S,0,92490,,0.7 F,2,92485,92490,0,0.4 F,2,92490,93321,0.4,0 P,0,92409,93321,A C,0,92409,,252,173,194
Sprite,Foreground,Centre,"sb/hl.png",542.0448,372.9286 S,0,92506,,0.7 F,2,92501,92506,0,0.4 F,2,92506,93321,0.4,0 P,0,92409,93321,A C,0,92409,,252,173,194
Sprite,Foreground,Centre,"sb/hl.png",541.614,366.9526 S,0,92522,,0.7 F,2,92517,92522,0,0.4 F,2,92522,93321,0.4,0 P,0,92409,93321,A C,0,92409,,252,173,194
Sprite,Foreground,Centre,"sb/hl.png",541.2257,360.9903 S,0,92538,,0.7 F,2,92533,92538,0,0.4 F,2,92538,93321,0.4,0 P,0,92409,93321,A C,0,92409,,252,173,194
Sprite,Foreground,Centre,"sb/hl.png",540.5436,355.0351 S,0,92554,,0.7 F,2,92549,92554,0,0.4 F,2,92554,93321,0.4,0 P,0,92409,93321,A C,0,92409,,252,173,194
Sprite,Foreground,Centre,"sb/heart.png",0,0 M,19,92409,93159,535,408,596,410 F,0,92409,93159,1,0 S,0,92409,93159,0.3,0.12 P,0,92409,93159,A C,0,92409,,252,173,194 R,0,92409,93159,2.543314,0.7852938
Sprite,Foreground,Centre,"sb/heart.png",0,0 M,19,92409,93159,535,408,479,459 F,0,92409,93159,1,0 S,0,92409,93159,0.3,0.12 P,0,92409,93159,A C,0,92409,,252,173,194 R,0,92409,93159,1.739955,2.15143
Sprite,Foreground,Centre,"sb/heart.png",0,0 M,19,92409,93159,535,408,452,504 F,0,92409,93159,1,0 S,0,92409,93159,0.3,0.12 P,0,92409,93159,A C,0,92409,,252,173,194 R,0,92409,93159,0.5748047,2.770387
Sprite,Foreground,Centre,"sb/heart.png",0,0 M,19,92409,93159,535,408,550,515 F,0,92409,93159,1,0 S,0,92409,93159,0.3,0.12 P,0,92409,93159,A C,0,92409,,252,173,194 R,0,92409,93159,1.577268,0.3904605
Sprite,Foreground,Centre,"sb/heart.png",0,0 M,19,92409,93159,535,408,605,317 F,0,92409,93159,1,0 S,0,92409,93159,0.3,0.12 P,0,92409,93159,A C,0,92409,,252,173,194 R,0,92409,93159,0.5194311,1.406169
Sprite,Foreground,Centre,"sb/heart.png",0,0 M,19,92409,93159,535,408,545,507 F,0,92409,93159,1,0 S,0,92409,93159,0.3,0.12 P,0,92409,93159,A C,0,92409,,252,173,194 R,0,92409,93159,1.218649,1.938102
Sprite,Foreground,Centre,"sb/heart.png",0,0 M,19,92409,93159,535,408,537,443 F,0,92409,93159,1,0 S,0,92409,93159,0.3,0.12 P,0,92409,93159,A C,0,92409,,252,173,194 R,0,92409,93159,1.693696,2.418825
Sprite,Foreground,Centre,"sb/hl.png",504,315 S,0,92734,,0.7 F,2,92734,93484,1,0 P,0,92734,93484,A C,0,92734,,252,173,194
Sprite,Foreground,Centre,"sb/heart.png",0,0 M,19,92734,93484,504,315,501,429 F,0,92734,93484,1,0 S,0,92734,93484,0.3,0.12 P,0,92734,93484,A C,0,92734,,252,173,194 R,0,92734,93484,2.098888,1.458649
Sprite,Foreground,Centre,"sb/heart.png",0,0 M,19,92734,93484,504,315,411,216 F,0,92734,93484,1,0 S,0,92734,93484,0.3,0.12 P,0,92734,93484,A C,0,92734,,252,173,194 R,0,92734,93484,2.032659,2.82413
Sprite,Foreground,Centre,"sb/heart.png",0,0 M,19,92734,93484,504,315,483,430 F,0,92734,93484,1,0 S,0,92734,93484,0.3,0.12 P,0,92734,93484,A C,0,92734,,252,173,194 R,0,92734,93484,2.706667,1.141431
Sprite,Foreground,Centre,"sb/heart.png",0,0 M,19,92734,93484,504,315,427,206 F,0,92734,93484,1,0 S,0,92734,93484,0.3,0.12 P,0,92734,93484,A C,0,92734,,252,173,194 R,0,92734,93484,1.245618,0.4464851
Sprite,Foreground,Centre,"sb/heart.png",0,0 M,19,92734,93484,504,315,435,416 F,0,92734,93484,1,0 S,0,92734,93484,0.3,0.12 P,0,92734,93484,A C,0,92734,,252,173,194 R,0,92734,93484,1.765535,1.368858
Sprite,Foreground,Centre,"sb/heart.png",0,0 M,19,92734,93484,504,315,448,250 F,0,92734,93484,1,0 S,0,92734,93484,0.3,0.12 P,0,92734,93484,A C,0,92734,,252,173,194 R,0,92734,93484,0.9231845,0.7093481
Sprite,Foreground,Centre,"sb/heart.png",0,0 M,19,92734,93484,504,315,495,313 F,0,92734,93484,1,0 S,0,92734,93484,0.3,0.12 P,0,92734,93484,A C,0,92734,,252,173,194 R,0,92734,93484,0.514311,2.643363
Sprite,Foreground,Centre,"sb/hl.png",515,268 S,0,92896,,0.7 F,2,92896,93646,1,0 P,0,92896,93646,A C,0,92896,,252,173,194
Sprite,Foreground,Centre,"sb/heart.png",0,0 M,19,92896,93646,515,268,424,194 F,0,92896,93646,1,0 S,0,92896,93646,0.3,0.12 P,0,92896,93646,A C,0,92896,,252,173,194 R,0,92896,93646,2.322939,1.941957
Sprite,Foreground,Centre,"sb/heart.png",0,0 M,19,92896,93646,515,268,436,336 F,0,92896,93646,1,0 S,0,92896,93646,0.3,0.12 P,0,92896,93646,A C,0,92896,,252,173,194 R,0,92896,93646,0.6168364,0.5732758
Sprite,Foreground,Centre,"sb/heart.png",0,0 M,19,92896,93646,515,268,451,320 F,0,92896,93646,1,0 S,0,92896,93646,0.3,0.12 P,0,92896,93646,A C,0,92896,,252,173,194 R,0,92896,93646,2.404209,1.49218
Sprite,Foreground,Centre,"sb/heart.png",0,0 M,19,92896,93646,515,268,467,292 F,0,92896,93646,1,0 S,0,92896,93646,0.3,0.12 P,0,92896,93646,A C,0,92896,,252,173,194 R,0,92896,93646,2.224376,2.551533
Sprite,Foreground,Centre,"sb/heart.png",0,0 M,19,92896,93646,515,268,457,340 F,0,92896,93646,1,0 S,0,92896,93646,0.3,0.12 P,0,92896,93646,A C,0,92896,,252,173,194 R,0,92896,93646,0.8360351,1.560017
Sprite,Foreground,Centre,"sb/heart.png",0,0 M,19,92896,93646,515,268,519,206 F,0,92896,93646,1,0 S,0,92896,93646,0.3,0.12 P,0,92896,93646,A C,0,92896,,252,173,194 R,0,92896,93646,1.259058,1.842382
Sprite,Foreground,Centre,"sb/heart.png",0,0 M,19,92896,93646,515,268,415,172 F,0,92896,93646,1,0 S,0,92896,93646,0.3,0.12 P,0,92896,93646,A C,0,92896,,252,173,194 R,0,92896,93646,1.577985,0.813462
Sprite,Foreground,Centre,"sb/hl.png",486,224 S,0,93058,,0.7 F,2,93053,93058,0,0.4 F,2,93058,94132,0.4,0 P,0,93058,94132,A C,0,93058,,252,173,194
Sprite,Foreground,Centre,"sb/hl.png",480.7234,221.1683 S,0,93074,,0.7 F,2,93069,93074,0,0.4 F,2,93074,94132,0.4,0 P,0,93058,94132,A C,0,93058,,252,173,194
Sprite,Foreground,Centre,"sb/hl.png",475.494,218.2926 S,0,93090,,0.7 F,2,93085,93090,0,0.4 F,2,93090,94132,0.4,0 P,0,93058,94132,A C,0,93058,,252,173,194
Sprite,Foreground,Centre,"sb/hl.png",470.0692,215.7538 S,0,93106,,0.7 F,2,93101,93106,0,0.4 F,2,93106,94132,0.4,0 P,0,93058,94132,A C,0,93058,,252,173,194
Sprite,Foreground,Centre,"sb/hl.png",464.31,214.1124 S,0,93122,,0.7 F,2,93117,93122,0,0.4 F,2,93122,94132,0.4,0 P,0,93058,94132,A C,0,93058,,252,173,194
Sprite,Foreground,Centre,"sb/hl.png",458.5579,212.549 S,0,93139,,0.7 F,2,93134,93139,0,0.4 F,2,93139,94132,0.4,0 P,0,93058,94132,A C,0,93058,,252,173,194
Sprite,Foreground,Centre,"sb/hl.png",452.7008,211.3589 S,0,93155,,0.7 F,2,93150,93155,0,0.4 F,2,93155,94132,0.4,0 P,0,93058,94132,A C,0,93058,,252,173,194
Sprite,Foreground,Centre,"sb/hl.png",446.7522,210.5494 S,0,93171,,0.7 F,2,93166,93171,0,0.4 F,2,93171,94132,0.4,0 P,0,93058,94132,A C,0,93058,,252,173,194
Sprite,Foreground,Centre,"sb/hl.png",440.7697,210.8168 S,0,93187,,0.7 F,2,93182,93187,0,0.4 F,2,93187,94132,0.4,0 P,0,93058,94132,A C,0,93058,,252,173,194
Sprite,Foreground,Centre,"sb/hl.png",434.8068,211.0368 S,0,93203,,0.7 F,2,93198,93203,0,0.4 F,2,93203,94132,0.4,0 P,0,93058,94132,A C,0,93058,,252,173,194
Sprite,Foreground,Centre,"sb/hl.png",428.8307,211.5738 S,0,93220,,0.7 F,2,93215,93220,0,0.4 F,2,93220,94132,0.4,0 P,0,93058,94132,A C,0,93058,,252,173,194
Sprite,Foreground,Centre,"sb/hl.png",434.8068,211.0368 S,0,93236,,0.7 F,2,93231,93236,0,0.4 F,2,93236,94132,0.4,0 P,0,93058,94132,A C,0,93058,,252,173,194
Sprite,Foreground,Centre,"sb/hl.png",440.7697,210.8168 S,0,93252,,0.7 F,2,93247,93252,0,0.4 F,2,93252,94132,0.4,0 P,0,93058,94132,A C,0,93058,,252,173,194
Sprite,Foreground,Centre,"sb/hl.png",446.7522,210.5494 S,0,93268,,0.7 F,2,93263,93268,0,0.4 F,2,93268,94132,0.4,0 P,0,93058,94132,A C,0,93058,,252,173,194
Sprite,Foreground,Centre,"sb/hl.png",452.7008,211.3589 S,0,93285,,0.7 F,2,93280,93285,0,0.4 F,2,93285,94132,0.4,0 P,0,93058,94132,A C,0,93058,,252,173,194
Sprite,Foreground,Centre,"sb/hl.png",458.5579,212.549 S,0,93301,,0.7 F,2,93296,93301,0,0.4 F,2,93301,94132,0.4,0 P,0,93058,94132,A C,0,93058,,252,173,194
Sprite,Foreground,Centre,"sb/hl.png",464.31,214.1124 S,0,93317,,0.7 F,2,93312,93317,0,0.4 F,2,93317,94132,0.4,0 P,0,93058,94132,A C,0,93058,,252,173,194
Sprite,Foreground,Centre,"sb/hl.png",470.0692,215.7538 S,0,93333,,0.7 F,2,93328,93333,0,0.4 F,2,93333,94132,0.4,0 P,0,93058,94132,A C,0,93058,,252,173,194
Sprite,Foreground,Centre,"sb/hl.png",475.494,218.2926 S,0,93349,,0.7 F,2,93344,93349,0,0.4 F,2,93349,94132,0.4,0 P,0,93058,94132,A C,0,93058,,252,173,194
Sprite,Foreground,Centre,"sb/hl.png",480.7234,221.1683 S,0,93366,,0.7 F,2,93361,93366,0,0.4 F,2,93366,94132,0.4,0 P,0,93058,94132,A C,0,93058,,252,173,194
Sprite,Foreground,Centre,"sb/heart.png",0,0 M,19,93058,93808,486,224,529,210 F,0,93058,93808,1,0 S,0,93058,93808,0.3,0.12 P,0,93058,93808,A C,0,93058,,252,173,194 R,0,93058,93808,0.004969891,1.952492
Sprite,Foreground,Centre,"sb/heart.png",0,0 M,19,93058,93808,486,224,588,297 F,0,93058,93808,1,0 S,0,93058,93808,0.3,0.12 P,0,93058,93808,A C,0,93058,,252,173,194 R,0,93058,93808,2.437953,0.7024652
Sprite,Foreground,Centre,"sb/heart.png",0,0 M,19,93058,93808,486,224,423,162 F,0,93058,93808,1,0 S,0,93058,93808,0.3,0.12 P,0,93058,93808,A C,0,93058,,252,173,194 R,0,93058,93808,0.5967097,1.249005
Sprite,Foreground,Centre,"sb/heart.png",0,0 M,19,93058,93808,486,224,570,155 F,0,93058,93808,1,0 S,0,93058,93808,0.3,0.12 P,0,93058,93808,A C,0,93058,,252,173,194 R,0,93058,93808,2.849932,1.562888
Sprite,Foreground,Centre,"sb/heart.png",0,0 M,19,93058,93808,486,224,404,124 F,0,93058,93808,1,0 S,0,93058,93808,0.3,0.12 P,0,93058,93808,A C,0,93058,,252,173,194 R,0,93058,93808,0.4207774,2.087701
Sprite,Foreground,Centre,"sb/heart.png",0,0 M,19,93058,93808,486,224,491,219 F,0,93058,93808,1,0 S,0,93058,93808,0.3,0.12 P,0,93058,93808,A C,0,93058,,252,173,194 R,0,93058,93808,3.035343,2.075679
Sprite,Foreground,Centre,"sb/heart.png",0,0 M,19,93058,93808,486,224,420,264 F,0,93058,93808,1,0 S,0,93058,93808,0.3,0.12 P,0,93058,93808,A C,0,93058,,252,173,194 R,0,93058,93808,1.015826,2.755606
Sprite,Foreground,Centre,"sb/hl.png",284,432 S,19,21382,21582,0.7 F,2,21382,21582,1,0 P,0,21382,21582,A C,0,21382,,128,128,255
Sprite,Foreground,Centre,"sb/hl.png",200,351 S,0,21707,21869,0.7 S,19,21869,22069,0.7 F,2,21702,21707,0,0.4 F,2,21707,22069,0.4,0 P,0,21707,22069,A C,0,21707,,128,128,255
Sprite,Foreground,Centre,"sb/hl.png",193.2036,348.6571 S,0,21723,21869,0.7 S,19,21869,22069,0.7 F,2,21718,21723,0,0.4 F,2,21723,22069,0.4,0 P,0,21707,22069,A C,0,21707,,128,128,255
Sprite,Foreground,Centre,"sb/hl.png",186.3827,346.4685 S,0,21739,21869,0.7 S,19,21869,22069,0.7 F,2,21734,21739,0,0.4 F,2,21739,22069,0.4,0 P,0,21707,22069,A C,0,21707,,128,128,255
Sprite,Foreground,Centre,"sb/hl.png",179.4068,344.82 S,0,21755,21869,0.7 S,19,21869,22069,0.7 F,2,21750,21755,0,0.4 F,2,21755,22069,0.4,0 P,0,21707,22069,A C,0,21707,,128,128,255
Sprite,Foreground,Centre,"sb/hl.png",172.3166,343.7224 S,0,21771,21869,0.7 S,19,21869,22069,0.7 F,2,21766,21771,0,0.4 F,2,21771,22069,0.4,0 P,0,21707,22069,A C,0,21707,,128,128,255
Sprite,Foreground,Centre,"sb/hl.png",165.1531,343.1836 S,0,21788,21869,0.7 S,19,21869,22069,0.7 F,2,21783,21788,0,0.4 F,2,21788,22069,0.4,0 P,0,21707,22069,A C,0,21707,,128,128,255
Sprite,Foreground,Centre,"sb/hl.png",157.9582,343.2087 S,0,21804,21869,0.7 S,19,21869,22069,0.7 F,2,21799,21804,0,0.4 F,2,21804,22069,0.4,0 P,0,21707,22069,A C,0,21707,,128,128,255
Sprite,Foreground,Centre,"sb/hl.png",150.8488,344.2749 S,0,21820,21869,0.7 S,19,21869,22069,0.7 F,2,21815,21820,0,0.4 F,2,21820,22069,0.4,0 P,0,21707,22069,A C,0,21707,,128,128,255
Sprite,Foreground,Centre,"sb/hl.png",143.7999,345.5437 S,0,21836,21869,0.7 S,19,21869,22069,0.7 F,2,21831,21836,0,0.4 F,2,21836,22069,0.4,0 P,0,21707,22069,A C,0,21707,,128,128,255
Sprite,Foreground,Centre,"sb/hl.png",136.8687,347.3618 S,0,21852,21869,0.7 S,19,21869,22069,0.7 F,2,21847,21852,0,0.4 F,2,21852,22069,0.4,0 P,0,21707,22069,A C,0,21707,,128,128,255
Sprite,Foreground,Centre,"sb/hl.png",64,395 S,0,22031,22355,0.7 S,19,22355,22555,0.7 F,2,22026,22031,0,0.4 F,2,22031,22555,0.4,0 P,0,22031,22555,A C,0,22031,,128,128,255
Sprite,Foreground,Centre,"sb/hl.png",60.13508,388.9415 S,0,22047,22355,0.7 S,19,22355,22555,0.7 F,2,22042,22047,0,0.4 F,2,22047,22555,0.4,0 P,0,22031,22555,A C,0,22031,,128,128,255
Sprite,Foreground,Centre,"sb/hl.png",56.46468,382.8002 S,0,22063,22355,0.7 S,19,22355,22555,0.7 F,2,22058,22063,0,0.4 F,2,22063,22555,0.4,0 P,0,22031,22555,A C,0,22031,,128,128,255
Sprite,Foreground,Centre,"sb/hl.png",53.36388,376.3484 S,0,22079,22355,0.7 S,19,22355,22555,0.7 F,2,22074,22079,0,0.4 F,2,22079,22555,0.4,0 P,0,22031,22555,A C,0,22031,,128,128,255
Sprite,Foreground,Centre,"sb/hl.png",50.85825,369.6369 S,0,22095,22355,0.7 S,19,22355,22555,0.7 F,2,22090,22095,0,0.4 F,2,22095,22555,0.4,0 P,0,22031,22555,A C,0,22031,,128,128,255
Sprite,Foreground,Centre,"sb/hl.png",48.96906,362.7188 S,0,22112,22355,0.7 S,19,22355,22555,0.7 F,2,22107,22112,0,0.4 F,2,22112,22555,0.4,0 P,0,22031,22555,A C,0,22031,,128,128,255
Sprite,Foreground,Centre,"sb/hl.png",47.71309,355.6488 S,0,22128,22355,0.7 S,19,22355,22555,0.7 F,2,22123,22128,0,0.4 F,2,22128,22555,0.4,0 P,0,22031,22555,A C,0,22031,,128,128,255
Sprite,Foreground,Centre,"sb/hl.png",47.10253,348.4829 S,0,22144,22355,0.7 S,19,22355,22555,0.7 F,2,22139,22144,0,0.4 F,2,22144,22555,0.4,0 P,0,22031,22555,A C,0,22031,,128,128,255
Sprite,Foreground,Centre,"sb/hl.png",47.6284,341.3158 S,0,22160,22355,0.7 S,19,22355,22555,0.7 F,2,22155,22160,0,0.4 F,2,22160,22555,0.4,0 P,0,22031,22555,A C,0,22031,,128,128,255
Sprite,Foreground,Centre,"sb/hl.png",48.43203,334.208 S,0,22176,22355,0.7 S,19,22355,22555,0.7 F,2,22171,22176,0,0.4 F,2,22176,22555,0.4,0 P,0,22031,22555,A C,0,22031,,128,128,255
Sprite,Foreground,Centre,"sb/hl.png",49.87648,327.1996 S,0,22193,22355,0.7 S,19,22355,22555,0.7 F,2,22188,22193,0,0.4 F,2,22193,22555,0.4,0 P,0,22031,22555,A C,0,22031,,128,128,255
Sprite,Foreground,Centre,"sb/hl.png",51.95097,320.3465 S,0,22209,22355,0.7 S,19,22355,22555,0.7 F,2,22204,22209,0,0.4 F,2,22209,22555,0.4,0 P,0,22031,22555,A C,0,22031,,128,128,255
Sprite,Foreground,Centre,"sb/hl.png",54.64011,313.7037 S,0,22225,22355,0.7 S,19,22355,22555,0.7 F,2,22220,22225,0,0.4 F,2,22225,22555,0.4,0 P,0,22031,22555,A C,0,22031,,128,128,255
Sprite,Foreground,Centre,"sb/hl.png",57.92388,307.3247 S,0,22241,22355,0.7 S,19,22355,22555,0.7 F,2,22236,22241,0,0.4 F,2,22241,22555,0.4,0 P,0,22031,22555,A C,0,22031,,128,128,255
Sprite,Foreground,Centre,"sb/hl.png",61.77783,301.2612 S,0,22258,22355,0.7 S,19,22355,22555,0.7 F,2,22253,22258,0,0.4 F,2,22258,22555,0.4,0 P,0,22031,22555,A C,0,22031,,128,128,255
Sprite,Foreground,Centre,"sb/hl.png",66.17316,295.5628 S,0,22274,22355,0.7 S,19,22355,22555,0.7 F,2,22269,22274,0,0.4 F,2,22274,22555,0.4,0 P,0,22031,22555,A C,0,22031,,128,128,255
Sprite,Foreground,Centre,"sb/hl.png",71.43317,290.6664 S,0,22290,22355,0.7 S,19,22355,22555,0.7 F,2,22285,22290,0,0.4 F,2,22290,22555,0.4,0 P,0,22031,22555,A C,0,22031,,128,128,255
Sprite,Foreground,Centre,"sb/hl.png",76.82909,285.9694 S,0,22306,22355,0.7 S,19,22355,22555,0.7 F,2,22301,22306,0,0.4 F,2,22306,22555,0.4,0 P,0,22031,22555,A C,0,22031,,128,128,255
Sprite,Foreground,Centre,"sb/hl.png",82.6308,281.7783 S,0,22322,22355,0.7 S,19,22355,22555,0.7 F,2,22317,22322,0,0.4 F,2,22322,22555,0.4,0 P,0,22031,22555,A C,0,22031,,128,128,255
Sprite,Foreground,Centre,"sb/hl.png",88.79266,278.1273 S,0,22339,22355,0.7 S,19,22355,22555,0.7 F,2,22334,22339,0,0.4 F,2,22339,22555,0.4,0 P,0,22031,22555,A C,0,22031,,128,128,255
Sprite,Foreground,Centre,"sb/hl.png",230,220 S,19,22680,22880,0.7 F,2,22680,22880,1,0 P,0,22680,22880,A C,0,22680,,128,128,255
Sprite,Foreground,Centre,"sb/hl.png",278,251 S,19,22842,23042,0.7 F,2,22842,23042,1,0 P,0,22842,23042,A C,0,22842,,128,128,255
Sprite,Foreground,Centre,"sb/hl.png",330,227 S,0,23004,23328,0.7 S,19,23328,23528,0.7 F,2,22999,23004,0,0.4 F,2,23004,23528,0.4,0 P,0,23004,23528,A C,0,23004,,128,128,255
Sprite,Foreground,Centre,"sb/hl.png",334.4445,221.3492 S,0,23020,23328,0.7 S,19,23328,23528,0.7 F,2,23015,23020,0,0.4 F,2,23020,23528,0.4,0 P,0,23004,23528,A C,0,23004,,128,128,255
Sprite,Foreground,Centre,"sb/hl.png",338.7094,215.593 S,0,23036,23328,0.7 S,19,23328,23528,0.7 F,2,23031,23036,0,0.4 F,2,23036,23528,0.4,0 P,0,23004,23528,A C,0,23004,,128,128,255
Sprite,Foreground,Centre,"sb/hl.png",342.4868,209.5031 S,0,23052,23328,0.7 S,19,23328,23528,0.7 F,2,23047,23052,0,0.4 F,2,23052,23528,0.4,0 P,0,23004,23528,A C,0,23004,,128,128,255
Sprite,Foreground,Centre,"sb/hl.png",345.7512,203.1198 S,0,23068,23328,0.7 S,19,23328,23528,0.7 F,2,23063,23068,0,0.4 F,2,23068,23528,0.4,0 P,0,23004,23528,A C,0,23004,,128,128,255
Sprite,Foreground,Centre,"sb/hl.png",348.4802,196.4851 S,0,23085,23328,0.7 S,19,23328,23528,0.7 F,2,23080,23085,0,0.4 F,2,23085,23528,0.4,0 P,0,23004,23528,A C,0,23004,,128,128,255
Sprite,Foreground,Centre,"sb/hl.png",350.6548,189.6429 S,0,23101,23328,0.7 S,19,23328,23528,0.7 F,2,23096,23101,0,0.4 F,2,23101,23528,0.4,0 P,0,23004,23528,A C,0,23004,,128,128,255
Sprite,Foreground,Centre,"sb/hl.png",352.2593,182.6382 S,0,23117,23328,0.7 S,19,23328,23528,0.7 F,2,23112,23117,0,0.4 F,2,23117,23528,0.4,0 P,0,23004,23528,A C,0,23004,,128,128,255
Sprite,Foreground,Centre,"sb/hl.png",353.282,175.5173 S,0,23133,23328,0.7 S,19,23328,23528,0.7 F,2,23128,23133,0,0.4 F,2,23133,23528,0.4,0 P,0,23004,23528,A C,0,23004,,128,128,255
Sprite,Foreground,Centre,"sb/hl.png",353.298,168.3282 S,0,23149,23328,0.7 S,19,23328,23528,0.7 F,2,23144,23149,0,0.4 F,2,23149,23528,0.4,0 P,0,23004,23528,A C,0,23004,,128,128,255
Sprite,Foreground,Centre,"sb/hl.png",353.049,161.1693 S,0,23166,23328,0.7 S,19,23328,23528,0.7 F,2,23161,23166,0,0.4 F,2,23166,23528,0.4,0 P,0,23004,23528,A C,0,23004,,128,128,255
Sprite,Foreground,Centre,"sb/hl.png",352.211,154.0538 S,0,23182,23328,0.7 S,19,23328,23528,0.7 F,2,23177,23182,0,0.4 F,2,23182,23528,0.4,0 P,0,23004,23528,A C,0,23004,,128,128,255
Sprite,Foreground,Centre,"sb/hl.png",350.7892,147.029 S,0,23198,23328,0.7 S,19,23328,23528,0.7 F,2,23193,23198,0,0.4 F,2,23198,23528,0.4,0 P,0,23004,23528,A C,0,23004,,128,128,255
Sprite,Foreground,Centre,"sb/hl.png",348.7924,140.1416 S,0,23214,23328,0.7 S,19,23328,23528,0.7 F,2,23209,23214,0,0.4 F,2,23214,23528,0.4,0 P,0,23004,23528,A C,0,23004,,128,128,255
Sprite,Foreground,Centre,"sb/hl.png",346.2332,133.4378 S,0,23231,23328,0.7 S,19,23328,23528,0.7 F,2,23226,23231,0,0.4 F,2,23231,23528,0.4,0 P,0,23004,23528,A C,0,23004,,128,128,255
Sprite,Foreground,Centre,"sb/hl.png",343.1275,126.9623 S,0,23247,23328,0.7 S,19,23328,23528,0.7 F,2,23242,23247,0,0.4 F,2,23247,23528,0.4,0 P,0,23004,23528,A C,0,23004,,128,128,255
Sprite,Foreground,Centre,"sb/hl.png",339.4951,120.7589 S,0,23263,23328,0.7 S,19,23328,23528,0.7 F,2,23258,23263,0,0.4 F,2,23263,23528,0.4,0 P,0,23004,23528,A C,0,23004,,128,128,255
Sprite,Foreground,Centre,"sb/hl.png",335.3587,114.8697 S,0,23279,23328,0.7 S,19,23328,23528,0.7 F,2,23274,23279,0,0.4 F,2,23279,23528,0.4,0 P,0,23004,23528,A C,0,23004,,128,128,255
Sprite,Foreground,Centre,"sb/hl.png",330.4221,109.6433 S,0,23295,23328,0.7 S,19,23328,23528,0.7 F,2,23290,23295,0,0.4 F,2,23295,23528,0.4,0 P,0,23004,23528,A C,0,23004,,128,128,255
Sprite,Foreground,Centre,"sb/hl.png",325.3351,104.5995 S,0,23312,23328,0.7 S,19,23328,23528,0.7 F,2,23307,23312,0,0.4 F,2,23312,23528,0.4,0 P,0,23004,23528,A C,0,23004,,128,128,255
Sprite,Foreground,Centre,"sb/hl.png",430,302 S,19,23977,24177,0.7 F,2,23977,24177,1,0 P,0,23977,24177,A C,0,23977,,252,173,194
Sprite,Foreground,Centre,"sb/hl.png",471,409 S,0,24301,24949,0.7 S,19,24949,25149,0.7 F,2,24296,24301,0,0.4 F,2,24301,25149,0.4,0 P,0,24301,25149,A C,0,24301,,252,173,194
Sprite,Foreground,Centre,"sb/hl.png",464.6412,412.3599 S,0,24317,24949,0.7 S,19,24949,25149,0.7 F,2,24312,24317,0,0.4 F,2,24317,25149,0.4,0 P,0,24301,25149,A C,0,24301,,252,173,194
Sprite,Foreground,Centre,"sb/hl.png",458.2101,415.5367 S,0,24333,24949,0.7 S,19,24949,25149,0.7 F,2,24328,24333,0,0.4 F,2,24333,25149,0.4,0 P,0,24301,25149,A C,0,24301,,252,173,194
Sprite,Foreground,Centre,"sb/hl.png",451.5632,418.2363 S,0,24349,24949,0.7 S,19,24949,25149,0.7 F,2,24344,24349,0,0.4 F,2,24349,25149,0.4,0 P,0,24301,25149,A C,0,24301,,252,173,194
Sprite,Foreground,Centre,"sb/hl.png",444.7353,420.4442 S,0,24365,24949,0.7 S,19,24949,25149,0.7 F,2,24360,24365,0,0.4 F,2,24365,25149,0.4,0 P,0,24301,25149,A C,0,24301,,252,173,194
Sprite,Foreground,Centre,"sb/hl.png",437.7621,422.1485 S,0,24382,24949,0.7 S,19,24949,25149,0.7 F,2,24377,24382,0,0.4 F,2,24382,25149,0.4,0 P,0,24301,25149,A C,0,24301,,252,173,194
Sprite,Foreground,Centre,"sb/hl.png",430.6801,423.3399 S,0,24398,24949,0.7 S,19,24949,25149,0.7 F,2,24393,24398,0,0.4 F,2,24398,25149,0.4,0 P,0,24301,25149,A C,0,24301,,252,173,194
Sprite,Foreground,Centre,"sb/hl.png",423.5264,424.0115 S,0,24414,24949,0.7 S,19,24949,25149,0.7 F,2,24409,24414,0,0.4 F,2,24414,25149,0.4,0 P,0,24301,25149,A C,0,24301,,252,173,194
Sprite,Foreground,Centre,"sb/hl.png",416.3384,424.1592 S,0,24430,24949,0.7 S,19,24949,25149,0.7 F,2,24425,24430,0,0.4 F,2,24430,25149,0.4,0 P,0,24301,25149,A C,0,24301,,252,173,194
Sprite,Foreground,Centre,"sb/hl.png",409.1541,423.7815 S,0,24446,24949,0.7 S,19,24949,25149,0.7 F,2,24441,24446,0,0.4 F,2,24446,25149,0.4,0 P,0,24301,25149,A C,0,24301,,252,173,194
Sprite,Foreground,Centre,"sb/hl.png",402.0683,422.5506 S,0,24463,24949,0.7 S,19,24949,25149,0.7 F,2,24458,24463,0,0.4 F,2,24463,25149,0.4,0 P,0,24301,25149,A C,0,24301,,252,173,194
Sprite,Foreground,Centre,"sb/hl.png",395.0503,421.0704 S,0,24479,24949,0.7 S,19,24949,25149,0.7 F,2,24474,24479,0,0.4 F,2,24479,25149,0.4,0 P,0,24301,25149,A C,0,24301,,252,173,194
Sprite,Foreground,Centre,"sb/hl.png",388.1584,419.0819 S,0,24495,24949,0.7 S,19,24949,25149,0.7 F,2,24490,24495,0,0.4 F,2,24495,25149,0.4,0 P,0,24301,25149,A C,0,24301,,252,173,194
Sprite,Foreground,Centre,"sb/hl.png",381.4288,416.5955 S,0,24511,24949,0.7 S,19,24949,25149,0.7 F,2,24506,24511,0,0.4 F,2,24511,25149,0.4,0 P,0,24301,25149,A C,0,24301,,252,173,194
Sprite,Foreground,Centre,"sb/hl.png",374.8968,413.6238 S,0,24528,24949,0.7 S,19,24949,25149,0.7 F,2,24523,24528,0,0.4 F,2,24528,25149,0.4,0 P,0,24301,25149,A C,0,24301,,252,173,194
Sprite,Foreground,Centre,"sb/hl.png",368.597,410.1823 S,0,24544,24949,0.7 S,19,24949,25149,0.7 F,2,24539,24544,0,0.4 F,2,24544,25149,0.4,0 P,0,24301,25149,A C,0,24301,,252,173,194
Sprite,Foreground,Centre,"sb/hl.png",362.5624,406.2884 S,0,24560,24949,0.7 S,19,24949,25149,0.7 F,2,24555,24560,0,0.4 F,2,24560,25149,0.4,0 P,0,24301,25149,A C,0,24301,,252,173,194
Sprite,Foreground,Centre,"sb/hl.png",356.8253,401.9622 S,0,24576,24949,0.7 S,19,24949,25149,0.7 F,2,24571,24576,0,0.4 F,2,24576,25149,0.4,0 P,0,24301,25149,A C,0,24301,,252,173,194
Sprite,Foreground,Centre,"sb/hl.png",351.416,397.2259 S,0,24592,24949,0.7 S,19,24949,25149,0.7 F,2,24587,24592,0,0.4 F,2,24592,25149,0.4,0 P,0,24301,25149,A C,0,24301,,252,173,194
Sprite,Foreground,Centre,"sb/hl.png",346.3635,392.1037 S,0,24609,24949,0.7 S,19,24949,25149,0.7 F,2,24604,24609,0,0.4 F,2,24609,25149,0.4,0 P,0,24301,25149,A C,0,24301,,252,173,194
Sprite,Foreground,Centre,"sb/hl.png",341.963,386.4153 S,0,24625,24949,0.7 S,19,24949,25149,0.7 F,2,24620,24625,0,0.4 F,2,24625,25149,0.4,0 P,0,24301,25149,A C,0,24301,,252,173,194
Sprite,Foreground,Centre,"sb/hl.png",346.3635,392.1037 S,0,24641,24949,0.7 S,19,24949,25149,0.7 F,2,24636,24641,0,0.4 F,2,24641,25149,0.4,0 P,0,24301,25149,A C,0,24301,,252,173,194
Sprite,Foreground,Centre,"sb/hl.png",351.416,397.2259 S,0,24657,24949,0.7 S,19,24949,25149,0.7 F,2,24652,24657,0,0.4 F,2,24657,25149,0.4,0 P,0,24301,25149,A C,0,24301,,252,173,194
Sprite,Foreground,Centre,"sb/hl.png",356.8253,401.9622 S,0,24673,24949,0.7 S,19,24949,25149,0.7 F,2,24668,24673,0,0.4 F,2,24673,25149,0.4,0 P,0,24301,25149,A C,0,24301,,252,173,194
Sprite,Foreground,Centre,"sb/hl.png",362.5624,406.2884 S,0,24690,24949,0.7 S,19,24949,25149,0.7 F,2,24685,24690,0,0.4 F,2,24690,25149,0.4,0 P,0,24301,25149,A C,0,24301,,252,173,194
Sprite,Foreground,Centre,"sb/hl.png",368.597,410.1823 S,0,24706,24949,0.7 S,19,24949,25149,0.7 F,2,24701,24706,0,0.4 F,2,24706,25149,0.4,0 P,0,24301,25149,A C,0,24301,,252,173,194
Sprite,Foreground,Centre,"sb/hl.png",374.8968,413.6238 S,0,24722,24949,0.7 S,19,24949,25149,0.7 F,2,24717,24722,0,0.4 F,2,24722,25149,0.4,0 P,0,24301,25149,A C,0,24301,,252,173,194
Sprite,Foreground,Centre,"sb/hl.png",381.4288,416.5955 S,0,24738,24949,0.7 S,19,24949,25149,0.7 F,2,24733,24738,0,0.4 F,2,24738,25149,0.4,0 P,0,24301,25149,A C,0,24301,,252,173,194
Sprite,Foreground,Centre,"sb/hl.png",388.1584,419.0819 S,0,24755,24949,0.7 S,19,24949,25149,0.7 F,2,24750,24755,0,0.4 F,2,24755,25149,0.4,0 P,0,24301,25149,A C,0,24301,,252,173,194
Sprite,Foreground,Centre,"sb/hl.png",395.0503,421.0704 S,0,24771,24949,0.7 S,19,24949,25149,0.7 F,2,24766,24771,0,0.4 F,2,24771,25149,0.4,0 P,0,24301,25149,A C,0,24301,,252,173,194
Sprite,Foreground,Centre,"sb/hl.png",402.0683,422.5506 S,0,24787,24949,0.7 S,19,24949,25149,0.7 F,2,24782,24787,0,0.4 F,2,24787,25149,0.4,0 P,0,24301,25149,A C,0,24301,,252,173,194
Sprite,Foreground,Centre,"sb/hl.png",409.1541,423.7815 S,0,24803,24949,0.7 S,19,24949,25149,0.7 F,2,24798,24803,0,0.4 F,2,24803,25149,0.4,0 P,0,24301,25149,A C,0,24301,,252,173,194
Sprite,Foreground,Centre,"sb/hl.png",416.3385,424.1592 S,0,24819,24949,0.7 S,19,24949,25149,0.7 F,2,24814,24819,0,0.4 F,2,24819,25149,0.4,0 P,0,24301,25149,A C,0,24301,,252,173,194
Sprite,Foreground,Centre,"sb/hl.png",423.5264,424.0115 S,0,24836,24949,0.7 S,19,24949,25149,0.7 F,2,24831,24836,0,0.4 F,2,24836,25149,0.4,0 P,0,24301,25149,A C,0,24301,,252,173,194
Sprite,Foreground,Centre,"sb/hl.png",430.6801,423.3399 S,0,24852,24949,0.7 S,19,24949,25149,0.7 F,2,24847,24852,0,0.4 F,2,24852,25149,0.4,0 P,0,24301,25149,A C,0,24301,,252,173,194
Sprite,Foreground,Centre,"sb/hl.png",437.7621,422.1485 S,0,24868,24949,0.7 S,19,24949,25149,0.7 F,2,24863,24868,0,0.4 F,2,24868,25149,0.4,0 P,0,24301,25149,A C,0,24301,,252,173,194
Sprite,Foreground,Centre,"sb/hl.png",444.7353,420.4442 S,0,24884,24949,0.7 S,19,24949,25149,0.7 F,2,24879,24884,0,0.4 F,2,24884,25149,0.4,0 P,0,24301,25149,A C,0,24301,,252,173,194
Sprite,Foreground,Centre,"sb/hl.png",451.5632,418.2363 S,0,24901,24949,0.7 S,19,24949,25149,0.7 F,2,24896,24901,0,0.4 F,2,24901,25149,0.4,0 P,0,24301,25149,A C,0,24301,,252,173,194
Sprite,Foreground,Centre,"sb/hl.png",458.2101,415.5367 S,0,24917,24949,0.7 S,19,24949,25149,0.7 F,2,24912,24917,0,0.4 F,2,24917,25149,0.4,0 P,0,24301,25149,A C,0,24301,,252,173,194
Sprite,Foreground,Centre,"sb/hl.png",464.6412,412.3599 S,0,24933,24949,0.7 S,19,24949,25149,0.7 F,2,24928,24933,0,0.4 F,2,24933,25149,0.4,0 P,0,24301,25149,A C,0,24301,,252,173,194
Sprite,Foreground,Centre,"sb/hl.png",443,296 S,0,25274,25598,0.7 S,19,25598,25798,0.7 F,2,25269,25274,0,0.4 F,2,25274,25798,0.4,0 P,0,25274,25798,A C,0,25274,,252,173,194
Sprite,Foreground,Centre,"sb/hl.png",438.8202,290.1482 S,0,25290,25598,0.7 S,19,25598,25798,0.7 F,2,25285,25290,0,0.4 F,2,25290,25798,0.4,0 P,0,25274,25798,A C,0,25274,,252,173,194
Sprite,Foreground,Centre,"sb/hl.png",434.7766,284.2259 S,0,25306,25598,0.7 S,19,25598,25798,0.7 F,2,25301,25306,0,0.4 F,2,25306,25798,0.4,0 P,0,25274,25798,A C,0,25274,,252,173,194
Sprite,Foreground,Centre,"sb/hl.png",431.1619,278.0291 S,0,25322,25598,0.7 S,19,25598,25798,0.7 F,2,25317,25322,0,0.4 F,2,25322,25798,0.4,0 P,0,25274,25798,A C,0,25274,,252,173,194
Sprite,Foreground,Centre,"sb/hl.png",427.9942,271.5873 S,0,25338,25598,0.7 S,19,25598,25798,0.7 F,2,25333,25338,0,0.4 F,2,25338,25798,0.4,0 P,0,25274,25798,A C,0,25274,,252,173,194
Sprite,Foreground,Centre,"sb/hl.png",425.2896,264.9315 S,0,25355,25598,0.7 S,19,25598,25798,0.7 F,2,25350,25355,0,0.4 F,2,25355,25798,0.4,0 P,0,25274,25798,A C,0,25274,,252,173,194
Sprite,Foreground,Centre,"sb/hl.png",423.0623,258.0934 S,0,25371,25598,0.7 S,19,25598,25798,0.7 F,2,25366,25371,0,0.4 F,2,25371,25798,0.4,0 P,0,25274,25798,A C,0,25274,,252,173,194
Sprite,Foreground,Centre,"sb/hl.png",421.6796,251.0364 S,0,25387,25598,0.7 S,19,25598,25798,0.7 F,2,25382,25387,0,0.4 F,2,25387,25798,0.4,0 P,0,25274,25798,A C,0,25274,,252,173,194
Sprite,Foreground,Centre,"sb/hl.png",420.5483,243.9566 S,0,25403,25598,0.7 S,19,25598,25798,0.7 F,2,25398,25403,0,0.4 F,2,25403,25798,0.4,0 P,0,25274,25798,A C,0,25274,,252,173,194
Sprite,Foreground,Centre,"sb/hl.png",419.922,236.8128 S,0,25419,25598,0.7 S,19,25598,25798,0.7 F,2,25414,25419,0,0.4 F,2,25419,25798,0.4,0 P,0,25274,25798,A C,0,25274,,252,173,194
Sprite,Foreground,Centre,"sb/hl.png",419.8042,229.6396 S,0,25436,25598,0.7 S,19,25598,25798,0.7 F,2,25431,25436,0,0.4 F,2,25436,25798,0.4,0 P,0,25274,25798,A C,0,25274,,252,173,194
Sprite,Foreground,Centre,"sb/hl.png",420.1961,222.4717 S,0,25452,25598,0.7 S,19,25598,25798,0.7 F,2,25447,25452,0,0.4 F,2,25452,25798,0.4,0 P,0,25274,25798,A C,0,25274,,252,173,194
Sprite,Foreground,Centre,"sb/hl.png",421.0966,215.3438 S,0,25468,25598,0.7 S,19,25598,25798,0.7 F,2,25463,25468,0,0.4 F,2,25468,25798,0.4,0 P,0,25274,25798,A C,0,25274,,252,173,194
Sprite,Foreground,Centre,"sb/hl.png",422.5025,208.2906 S,0,25484,25598,0.7 S,19,25598,25798,0.7 F,2,25479,25484,0,0.4 F,2,25484,25798,0.4,0 P,0,25274,25798,A C,0,25274,,252,173,194
Sprite,Foreground,Centre,"sb/hl.png",424.7552,201.4613 S,0,25501,25598,0.7 S,19,25598,25798,0.7 F,2,25496,25501,0,0.4 F,2,25501,25798,0.4,0 P,0,25274,25798,A C,0,25274,,252,173,194
Sprite,Foreground,Centre,"sb/hl.png",427.2351,194.7342 S,0,25517,25598,0.7 S,19,25598,25798,0.7 F,2,25512,25517,0,0.4 F,2,25517,25798,0.4,0 P,0,25274,25798,A C,0,25274,,252,173,194
Sprite,Foreground,Centre,"sb/hl.png",430.1867,188.1985 S,0,25533,25598,0.7 S,19,25598,25798,0.7 F,2,25528,25533,0,0.4 F,2,25533,25798,0.4,0 P,0,25274,25798,A C,0,25274,,252,173,194
Sprite,Foreground,Centre,"sb/hl.png",433.5961,181.8862 S,0,25549,25598,0.7 S,19,25598,25798,0.7 F,2,25544,25549,0,0.4 F,2,25549,25798,0.4,0 P,0,25274,25798,A C,0,25274,,252,173,194
Sprite,Foreground,Centre,"sb/hl.png",437.4473,175.8279 S,0,25565,25598,0.7 S,19,25598,25798,0.7 F,2,25560,25565,0,0.4 F,2,25565,25798,0.4,0 P,0,25274,25798,A C,0,25274,,252,173,194
Sprite,Foreground,Centre,"sb/hl.png",441.7225,170.0534 S,0,25582,25598,0.7 S,19,25598,25798,0.7 F,2,25577,25582,0,0.4 F,2,25582,25798,0.4,0 P,0,25274,25798,A C,0,25274,,252,173,194
Sprite,Foreground,Centre,"sb/hl.png",491,97 S,0,25761,25923,0.7 S,19,25923,26123,0.7 F,2,25756,25761,0,0.4 F,2,25761,26123,0.4,0 P,0,25761,26123,A C,0,25761,,252,173,194
Sprite,Foreground,Centre,"sb/hl.png",485.2526,92.69846 S,0,25777,25923,0.7 S,19,25923,26123,0.7 F,2,25772,25777,0,0.4 F,2,25777,26123,0.4,0 P,0,25761,26123,A C,0,25761,,252,173,194
Sprite,Foreground,Centre,"sb/hl.png",479.4227,88.59306 S,0,25793,25923,0.7 S,19,25923,26123,0.7 F,2,25788,25793,0,0.4 F,2,25793,26123,0.4,0 P,0,25761,26123,A C,0,25761,,252,173,194
Sprite,Foreground,Centre,"sb/hl.png",473.1766,85.13524 S,0,25809,25923,0.7 S,19,25923,26123,0.7 F,2,25804,25809,0,0.4 F,2,25809,26123,0.4,0 P,0,25761,26123,A C,0,25761,,252,173,194
Sprite,Foreground,Centre,"sb/hl.png",466.582,82.36569 S,0,25825,25923,0.7 S,19,25923,26123,0.7 F,2,25820,25825,0,0.4 F,2,25825,26123,0.4,0 P,0,25761,26123,A C,0,25761,,252,173,194
Sprite,Foreground,Centre,"sb/hl.png",459.7101,80.31882 S,0,25842,25923,0.7 S,19,25923,26123,0.7 F,2,25837,25842,0,0.4 F,2,25842,26123,0.4,0 P,0,25761,26123,A C,0,25761,,252,173,194
Sprite,Foreground,Centre,"sb/hl.png",452.6356,79.02237 S,0,25858,25923,0.7 S,19,25923,26123,0.7 F,2,25853,25858,0,0.4 F,2,25858,26123,0.4,0 P,0,25761,26123,A C,0,25761,,252,173,194
Sprite,Foreground,Centre,"sb/hl.png",445.4584,79.17839 S,0,25874,25923,0.7 S,19,25923,26123,0.7 F,2,25869,25874,0,0.4 F,2,25874,26123,0.4,0 P,0,25761,26123,A C,0,25761,,252,173,194
Sprite,Foreground,Centre,"sb/hl.png",438.3427,79.60239 S,0,25890,25923,0.7 S,19,25923,26123,0.7 F,2,25885,25890,0,0.4 F,2,25890,26123,0.4,0 P,0,25761,26123,A C,0,25761,,252,173,194
Sprite,Foreground,Centre,"sb/hl.png",431.3069,80.79147 S,0,25906,25923,0.7 S,19,25923,26123,0.7 F,2,25901,25906,0,0.4 F,2,25906,26123,0.4,0 P,0,25761,26123,A C,0,25761,,252,173,194
Sprite,Foreground,Centre,"sb/hl.png",375,112 S,19,26085,26285,0.7 F,2,26085,26285,1,0 P,0,26085,26285,A C,0,26085,,252,173,194
Sprite,Foreground,Centre,"sb/hl.png",326,88 S,19,26247,26447,0.7 F,2,26247,26447,1,0 P,0,26247,26447,A C,0,26247,,252,173,194
Sprite,Foreground,Centre,"sb/hl.png",187,86 S,19,26571,26771,0.7 F,2,26571,26771,1,0 P,0,26571,26771,A C,0,26571,,222,77,253
Sprite,Foreground,Centre,"sb/hl.png",96,163 S,0,26896,27058,0.7 S,19,27058,27258,0.7 F,2,26891,26896,0,0.4 F,2,26896,27258,0.4,0 P,0,26896,27258,A C,0,26896,,222,77,253
Sprite,Foreground,Centre,"sb/hl.png",101.1895,167.9577 S,0,26912,27058,0.7 S,19,27058,27258,0.7 F,2,26907,26912,0,0.4 F,2,26912,27258,0.4,0 P,0,26896,27258,A C,0,26896,,222,77,253
Sprite,Foreground,Centre,"sb/hl.png",106.126,173.0934 S,0,26928,27058,0.7 S,19,27058,27258,0.7 F,2,26923,26928,0,0.4 F,2,26928,27258,0.4,0 P,0,26896,27258,A C,0,26896,,222,77,253
Sprite,Foreground,Centre,"sb/hl.png",110.4107,178.7898 S,0,26944,27058,0.7 S,19,27058,27258,0.7 F,2,26939,26944,0,0.4 F,2,26944,27258,0.4,0 P,0,26896,27258,A C,0,26896,,222,77,253
Sprite,Foreground,Centre,"sb/hl.png",113.9813,184.9668 S,0,26960,27058,0.7 S,19,27058,27258,0.7 F,2,26955,26960,0,0.4 F,2,26960,27258,0.4,0 P,0,26896,27258,A C,0,26896,,222,77,253
Sprite,Foreground,Centre,"sb/hl.png",116.7849,191.5374 S,0,26977,27058,0.7 S,19,27058,27258,0.7 F,2,26972,26977,0,0.4 F,2,26977,27258,0.4,0 P,0,26896,27258,A C,0,26896,,222,77,253
Sprite,Foreground,Centre,"sb/hl.png",118.779,198.4088 S,0,26993,27058,0.7 S,19,27058,27258,0.7 F,2,26988,26993,0,0.4 F,2,26993,27258,0.4,0 P,0,26896,27258,A C,0,26896,,222,77,253
Sprite,Foreground,Centre,"sb/hl.png",119.9317,205.4838 S,0,27009,27058,0.7 S,19,27058,27258,0.7 F,2,27004,27009,0,0.4 F,2,27009,27258,0.4,0 P,0,26896,27258,A C,0,26896,,222,77,253
Sprite,Foreground,Centre,"sb/hl.png",120.2228,212.6619 S,0,27025,27058,0.7 S,19,27058,27258,0.7 F,2,27020,27025,0,0.4 F,2,27025,27258,0.4,0 P,0,26896,27258,A C,0,26896,,222,77,253
Sprite,Foreground,Centre,"sb/hl.png",119.0706,219.7458 S,0,27041,27058,0.7 S,19,27058,27258,0.7 F,2,27036,27041,0,0.4 F,2,27041,27258,0.4,0 P,0,26896,27258,A C,0,26896,,222,77,253
Sprite,Foreground,Centre,"sb/hl.png",64,283 S,0,27220,27544,0.7 S,19,27544,27744,0.7 F,2,27215,27220,0,0.4 F,2,27220,27744,0.4,0 P,0,27220,27744,A C,0,27220,,222,77,253
Sprite,Foreground,Centre,"sb/hl.png",59.88876,288.8976 S,0,27236,27544,0.7 S,19,27544,27744,0.7 F,2,27231,27236,0,0.4 F,2,27236,27744,0.4,0 P,0,27220,27744,A C,0,27220,,222,77,253
Sprite,Foreground,Centre,"sb/hl.png",55.9771,294.8995 S,0,27252,27544,0.7 S,19,27544,27744,0.7 F,2,27247,27252,0,0.4 F,2,27252,27744,0.4,0 P,0,27220,27744,A C,0,27220,,222,77,253
Sprite,Foreground,Centre,"sb/hl.png",52.58212,301.21 S,0,27268,27544,0.7 S,19,27544,27744,0.7 F,2,27263,27268,0,0.4 F,2,27268,27744,0.4,0 P,0,27220,27744,A C,0,27220,,222,77,253
Sprite,Foreground,Centre,"sb/hl.png",49.72772,307.7855 S,0,27284,27544,0.7 S,19,27544,27744,0.7 F,2,27279,27284,0,0.4 F,2,27284,27744,0.4,0 P,0,27220,27744,A C,0,27220,,222,77,253
Sprite,Foreground,Centre,"sb/hl.png",47.43424,314.5804 S,0,27301,27544,0.7 S,19,27544,27744,0.7 F,2,27296,27301,0,0.4 F,2,27301,27744,0.4,0 P,0,27220,27744,A C,0,27220,,222,77,253
Sprite,Foreground,Centre,"sb/hl.png",45.71827,321.5481 S,0,27317,27544,0.7 S,19,27544,27744,0.7 F,2,27312,27317,0,0.4 F,2,27317,27744,0.4,0 P,0,27220,27744,A C,0,27220,,222,77,253
Sprite,Foreground,Centre,"sb/hl.png",44.59256,328.6401 S,0,27333,27544,0.7 S,19,27544,27744,0.7 F,2,27328,27333,0,0.4 F,2,27333,27744,0.4,0 P,0,27220,27744,A C,0,27220,,222,77,253
Sprite,Foreground,Centre,"sb/hl.png",44.06598,335.8075 S,0,27349,27544,0.7 S,19,27544,27744,0.7 F,2,27344,27349,0,0.4 F,2,27349,27744,0.4,0 P,0,27220,27744,A C,0,27220,,222,77,253
Sprite,Foreground,Centre,"sb/hl.png",44.14335,343.0005 S,0,27365,27544,0.7 S,19,27544,27744,0.7 F,2,27360,27365,0,0.4 F,2,27365,27744,0.4,0 P,0,27220,27744,A C,0,27220,,222,77,253
Sprite,Foreground,Centre,"sb/hl.png",45.21751,350.109 S,0,27382,27544,0.7 S,19,27544,27744,0.7 F,2,27377,27382,0,0.4 F,2,27382,27744,0.4,0 P,0,27220,27744,A C,0,27220,,222,77,253
Sprite,Foreground,Centre,"sb/hl.png",46.56801,357.1439 S,0,27398,27544,0.7 S,19,27544,27744,0.7 F,2,27393,27398,0,0.4 F,2,27398,27744,0.4,0 P,0,27220,27744,A C,0,27220,,222,77,253
Sprite,Foreground,Centre,"sb/hl.png",48.50436,364.0416 S,0,27414,27544,0.7 S,19,27544,27744,0.7 F,2,27409,27414,0,0.4 F,2,27414,27744,0.4,0 P,0,27220,27744,A C,0,27220,,222,77,253
Sprite,Foreground,Centre,"sb/hl.png",51.0134,370.7542 S,0,27430,27544,0.7 S,19,27544,27744,0.7 F,2,27425,27430,0,0.4 F,2,27430,27744,0.4,0 P,0,27220,27744,A C,0,27220,,222,77,253
Sprite,Foreground,Centre,"sb/hl.png",54.07812,377.235 S,0,27447,27544,0.7 S,19,27544,27744,0.7 F,2,27442,27447,0,0.4 F,2,27447,27744,0.4,0 P,0,27220,27744,A C,0,27220,,222,77,253
Sprite,Foreground,Centre,"sb/hl.png",57.67778,383.4388 S,0,27463,27544,0.7 S,19,27544,27744,0.7 F,2,27458,27463,0,0.4 F,2,27463,27744,0.4,0 P,0,27220,27744,A C,0,27220,,222,77,253
Sprite,Foreground,Centre,"sb/hl.png",61.78803,389.322 S,0,27479,27544,0.7 S,19,27544,27744,0.7 F,2,27474,27479,0,0.4 F,2,27479,27744,0.4,0 P,0,27220,27744,A C,0,27220,,222,77,253
Sprite,Foreground,Centre,"sb/hl.png",66.38108,394.8434 S,0,27495,27544,0.7 S,19,27544,27744,0.7 F,2,27490,27495,0,0.4 F,2,27495,27744,0.4,0 P,0,27220,27744,A C,0,27220,,222,77,253
Sprite,Foreground,Centre,"sb/hl.png",71.42583,399.9638 S,0,27511,27544,0.7 S,19,27544,27744,0.7 F,2,27506,27511,0,0.4 F,2,27511,27744,0.4,0 P,0,27220,27744,A C,0,27220,,222,77,253
Sprite,Foreground,Centre,"sb/hl.png",76.88809,404.6468 S,0,27528,27544,0.7 S,19,27544,27744,0.7 F,2,27523,27528,0,0.4 F,2,27528,27744,0.4,0 P,0,27220,27744,A C,0,27220,,222,77,253
Sprite,Foreground,Centre,"sb/hl.png",227,412 S,19,27869,28069,0.7 F,2,27869,28069,1,0 P,0,27869,28069,A C,0,27869,,222,77,253
Sprite,Foreground,Centre,"sb/hl.png",273,378 S,19,28031,28231,0.7 F,2,28031,28231,1,0 P,0,28031,28231,A C,0,28031,,222,77,253
Sprite,Foreground,Centre,"sb/hl.png",316,415 S,0,28193,28517,0.7 S,19,28517,28717,0.7 F,2,28188,28193,0,0.4 F,2,28193,28717,0.4,0 P,0,28193,28717,A C,0,28193,,222,77,253
Sprite,Foreground,Centre,"sb/hl.png",321.8977,419.1112 S,0,28209,28517,0.7 S,19,28517,28717,0.7 F,2,28204,28209,0,0.4 F,2,28209,28717,0.4,0 P,0,28193,28717,A C,0,28193,,222,77,253
Sprite,Foreground,Centre,"sb/hl.png",327.8995,423.0229 S,0,28225,28517,0.7 S,19,28517,28717,0.7 F,2,28220,28225,0,0.4 F,2,28225,28717,0.4,0 P,0,28193,28717,A C,0,28193,,222,77,253
Sprite,Foreground,Centre,"sb/hl.png",334.21,426.4179 S,0,28241,28517,0.7 S,19,28517,28717,0.7 F,2,28236,28241,0,0.4 F,2,28241,28717,0.4,0 P,0,28193,28717,A C,0,28193,,222,77,253
Sprite,Foreground,Centre,"sb/hl.png",340.7855,429.2723 S,0,28257,28517,0.7 S,19,28517,28717,0.7 F,2,28252,28257,0,0.4 F,2,28257,28717,0.4,0 P,0,28193,28717,A C,0,28193,,222,77,253
Sprite,Foreground,Centre,"sb/hl.png",347.5804,431.5658 S,0,28274,28517,0.7 S,19,28517,28717,0.7 F,2,28269,28274,0,0.4 F,2,28274,28717,0.4,0 P,0,28193,28717,A C,0,28193,,222,77,253
Sprite,Foreground,Centre,"sb/hl.png",354.5481,433.2817 S,0,28290,28517,0.7 S,19,28517,28717,0.7 F,2,28285,28290,0,0.4 F,2,28290,28717,0.4,0 P,0,28193,28717,A C,0,28193,,222,77,253
Sprite,Foreground,Centre,"sb/hl.png",361.6401,434.4074 S,0,28306,28517,0.7 S,19,28517,28717,0.7 F,2,28301,28306,0,0.4 F,2,28306,28717,0.4,0 P,0,28193,28717,A C,0,28193,,222,77,253
Sprite,Foreground,Centre,"sb/hl.png",368.8075,434.934 S,0,28322,28517,0.7 S,19,28517,28717,0.7 F,2,28317,28322,0,0.4 F,2,28322,28717,0.4,0 P,0,28193,28717,A C,0,28193,,222,77,253
Sprite,Foreground,Centre,"sb/hl.png",376.0005,434.8567 S,0,28338,28517,0.7 S,19,28517,28717,0.7 F,2,28333,28338,0,0.4 F,2,28338,28717,0.4,0 P,0,28193,28717,A C,0,28193,,222,77,253
Sprite,Foreground,Centre,"sb/hl.png",383.109,433.7825 S,0,28355,28517,0.7 S,19,28517,28717,0.7 F,2,28350,28355,0,0.4 F,2,28355,28717,0.4,0 P,0,28193,28717,A C,0,28193,,222,77,253
Sprite,Foreground,Centre,"sb/hl.png",390.1439,432.432 S,0,28371,28517,0.7 S,19,28517,28717,0.7 F,2,28366,28371,0,0.4 F,2,28371,28717,0.4,0 P,0,28193,28717,A C,0,28193,,222,77,253
Sprite,Foreground,Centre,"sb/hl.png",397.0416,430.4956 S,0,28387,28517,0.7 S,19,28517,28717,0.7 F,2,28382,28387,0,0.4 F,2,28387,28717,0.4,0 P,0,28193,28717,A C,0,28193,,222,77,253
Sprite,Foreground,Centre,"sb/hl.png",403.7542,427.9866 S,0,28403,28517,0.7 S,19,28517,28717,0.7 F,2,28398,28403,0,0.4 F,2,28403,28717,0.4,0 P,0,28193,28717,A C,0,28193,,222,77,253
Sprite,Foreground,Centre,"sb/hl.png",410.235,424.9219 S,0,28420,28517,0.7 S,19,28517,28717,0.7 F,2,28415,28420,0,0.4 F,2,28420,28717,0.4,0 P,0,28193,28717,A C,0,28193,,222,77,253
Sprite,Foreground,Centre,"sb/hl.png",416.4388,421.3222 S,0,28436,28517,0.7 S,19,28517,28717,0.7 F,2,28431,28436,0,0.4 F,2,28436,28717,0.4,0 P,0,28193,28717,A C,0,28193,,222,77,253
Sprite,Foreground,Centre,"sb/hl.png",422.322,417.212 S,0,28452,28517,0.7 S,19,28517,28717,0.7 F,2,28447,28452,0,0.4 F,2,28452,28717,0.4,0 P,0,28193,28717,A C,0,28193,,222,77,253
Sprite,Foreground,Centre,"sb/hl.png",427.8434,412.6189 S,0,28468,28517,0.7 S,19,28517,28717,0.7 F,2,28463,28468,0,0.4 F,2,28468,28717,0.4,0 P,0,28193,28717,A C,0,28193,,222,77,253
Sprite,Foreground,Centre,"sb/hl.png",432.9638,407.5742 S,0,28484,28517,0.7 S,19,28517,28717,0.7 F,2,28479,28484,0,0.4 F,2,28484,28717,0.4,0 P,0,28193,28717,A C,0,28193,,222,77,253
Sprite,Foreground,Centre,"sb/hl.png",437.6468,402.1119 S,0,28501,28517,0.7 S,19,28517,28717,0.7 F,2,28496,28501,0,0.4 F,2,28501,28717,0.4,0 P,0,28193,28717,A C,0,28193,,222,77,253
Sprite,Foreground,Centre,"sb/hl.png",305,209 S,19,29166,29366,0.7 F,2,29166,29366,1,0 P,0,29166,29366,A C,0,29166,,255,219,111
Sprite,Foreground,Centre,"sb/hl.png",383,125 S,0,29490,29814,0.7 S,19,29814,30014,0.7 F,2,29485,29490,0,0.4 F,2,29490,30014,0.4,0 P,0,29490,30014,A C,0,29490,,255,219,111
Sprite,Foreground,Centre,"sb/hl.png",389.1019,121.196 S,0,29506,29814,0.7 S,19,29814,30014,0.7 F,2,29501,29506,0,0.4 F,2,29506,30014,0.4,0 P,0,29490,30014,A C,0,29490,,255,219,111
Sprite,Foreground,Centre,"sb/hl.png",395.2698,117.5426 S,0,29522,29814,0.7 S,19,29814,30014,0.7 F,2,29517,29522,0,0.4 F,2,29522,30014,0.4,0 P,0,29490,30014,A C,0,29490,,255,219,111
Sprite,Foreground,Centre,"sb/hl.png",401.6946,114.3561 S,0,29538,29814,0.7 S,19,29814,30014,0.7 F,2,29533,29538,0,0.4 F,2,29538,30014,0.4,0 P,0,29490,30014,A C,0,29490,,255,219,111
Sprite,Foreground,Centre,"sb/hl.png",408.3426,111.6539 S,0,29554,29814,0.7 S,19,29814,30014,0.7 F,2,29549,29554,0,0.4 F,2,29554,30014,0.4,0 P,0,29490,30014,A C,0,29490,,255,219,111
Sprite,Foreground,Centre,"sb/hl.png",415.1787,109.4513 S,0,29571,29814,0.7 S,19,29814,30014,0.7 F,2,29566,29571,0,0.4 F,2,29571,30014,0.4,0 P,0,29490,30014,A C,0,29490,,255,219,111
Sprite,Foreground,Centre,"sb/hl.png",422.1668,107.7612 S,0,29587,29814,0.7 S,19,29814,30014,0.7 F,2,29582,29587,0,0.4 F,2,29587,30014,0.4,0 P,0,29490,30014,A C,0,29490,,255,219,111
Sprite,Foreground,Centre,"sb/hl.png",429.2701,106.5939 S,0,29603,29814,0.7 S,19,29814,30014,0.7 F,2,29598,29603,0,0.4 F,2,29603,30014,0.4,0 P,0,29490,30014,A C,0,29490,,255,219,111
Sprite,Foreground,Centre,"sb/hl.png",436.4585,106.4163 S,0,29619,29814,0.7 S,19,29814,30014,0.7 F,2,29614,29619,0,0.4 F,2,29619,30014,0.4,0 P,0,29490,30014,A C,0,29490,,255,219,111
Sprite,Foreground,Centre,"sb/hl.png",443.6269,106.418 S,0,29635,29814,0.7 S,19,29814,30014,0.7 F,2,29630,29635,0,0.4 F,2,29635,30014,0.4,0 P,0,29490,30014,A C,0,29490,,255,219,111
Sprite,Foreground,Centre,"sb/hl.png",450.778,106.9522 S,0,29652,29814,0.7 S,19,29814,30014,0.7 F,2,29647,29652,0,0.4 F,2,29652,30014,0.4,0 P,0,29490,30014,A C,0,29490,,255,219,111
Sprite,Foreground,Centre,"sb/hl.png",457.874,108.0168 S,0,29668,29814,0.7 S,19,29814,30014,0.7 F,2,29663,29668,0,0.4 F,2,29668,30014,0.4,0 P,0,29490,30014,A C,0,29490,,255,219,111
Sprite,Foreground,Centre,"sb/hl.png",464.8768,109.607 S,0,29684,29814,0.7 S,19,29814,30014,0.7 F,2,29679,29684,0,0.4 F,2,29684,30014,0.4,0 P,0,29490,30014,A C,0,29490,,255,219,111
Sprite,Foreground,Centre,"sb/hl.png",471.7491,111.7153 S,0,29700,29814,0.7 S,19,29814,30014,0.7 F,2,29695,29700,0,0.4 F,2,29700,30014,0.4,0 P,0,29490,30014,A C,0,29490,,255,219,111
Sprite,Foreground,Centre,"sb/hl.png",478.4536,114.3321 S,0,29717,29814,0.7 S,19,29814,30014,0.7 F,2,29712,29717,0,0.4 F,2,29717,30014,0.4,0 P,0,29490,30014,A C,0,29490,,255,219,111
Sprite,Foreground,Centre,"sb/hl.png",484.736,117.83 S,0,29733,29814,0.7 S,19,29814,30014,0.7 F,2,29728,29733,0,0.4 F,2,29733,30014,0.4,0 P,0,29490,30014,A C,0,29490,,255,219,111
Sprite,Foreground,Centre,"sb/hl.png",490.9016,121.4859 S,0,29749,29814,0.7 S,19,29814,30014,0.7 F,2,29744,29749,0,0.4 F,2,29749,30014,0.4,0 P,0,29490,30014,A C,0,29490,,255,219,111
Sprite,Foreground,Centre,"sb/hl.png",496.7808,125.5911 S,0,29765,29814,0.7 S,19,29814,30014,0.7 F,2,29760,29765,0,0.4 F,2,29765,30014,0.4,0 P,0,29490,30014,A C,0,29490,,255,219,111
Sprite,Foreground,Centre,"sb/hl.png",502.3419,130.1243 S,0,29781,29814,0.7 S,19,29814,30014,0.7 F,2,29776,29781,0,0.4 F,2,29781,30014,0.4,0 P,0,29490,30014,A C,0,29490,,255,219,111
Sprite,Foreground,Centre,"sb/hl.png",507.5548,135.0618 S,0,29798,29814,0.7 S,19,29814,30014,0.7 F,2,29793,29798,0,0.4 F,2,29798,30014,0.4,0 P,0,29490,30014,A C,0,29490,,255,219,111
Sprite,Foreground,Centre,"sb/hl.png",572,239 S,19,30139,30339,0.7 F,2,30139,30339,1,0 P,0,30139,30339,A C,0,30139,,255,219,111
Sprite,Foreground,Centre,"sb/hl.png",463,276 S,0,30463,30625,0.7 S,19,30625,30825,0.7 F,2,30458,30463,0,0.4 F,2,30463,30825,0.4,0 P,0,30463,30825,A C,0,30463,,255,219,111
Sprite,Foreground,Centre,"sb/hl.png",459.4813,282.2612 S,0,30479,30625,0.7 S,19,30625,30825,0.7 F,2,30474,30479,0,0.4 F,2,30479,30825,0.4,0 P,0,30463,30825,A C,0,30463,,255,219,111
Sprite,Foreground,Centre,"sb/hl.png",456.119,288.5621 S,0,30495,30625,0.7 S,19,30625,30825,0.7 F,2,30490,30495,0,0.4 F,2,30495,30825,0.4,0 P,0,30463,30825,A C,0,30463,,255,219,111
Sprite,Foreground,Centre,"sb/hl.png",453.3714,295.1649 S,0,30511,30625,0.7 S,19,30625,30825,0.7 F,2,30506,30511,0,0.4 F,2,30511,30825,0.4,0 P,0,30463,30825,A C,0,30463,,255,219,111
Sprite,Foreground,Centre,"sb/hl.png",451.2649,302.0145 S,0,30527,30625,0.7 S,19,30625,30825,0.7 F,2,30522,30527,0,0.4 F,2,30527,30825,0.4,0 P,0,30463,30825,A C,0,30463,,255,219,111
Sprite,Foreground,Centre,"sb/hl.png",449.8212,309.0535 S,0,30544,30625,0.7 S,19,30625,30825,0.7 F,2,30539,30544,0,0.4 F,2,30544,30825,0.4,0 P,0,30463,30825,A C,0,30463,,255,219,111
Sprite,Foreground,Centre,"sb/hl.png",449.6461,316.2336 S,0,30560,30625,0.7 S,19,30625,30825,0.7 F,2,30555,30560,0,0.4 F,2,30560,30825,0.4,0 P,0,30463,30825,A C,0,30463,,255,219,111
Sprite,Foreground,Centre,"sb/hl.png",449.7573,323.3708 S,0,30576,30625,0.7 S,19,30625,30825,0.7 F,2,30571,30576,0,0.4 F,2,30576,30825,0.4,0 P,0,30463,30825,A C,0,30463,,255,219,111
Sprite,Foreground,Centre,"sb/hl.png",450.5515,330.4709 S,0,30592,30625,0.7 S,19,30625,30825,0.7 F,2,30587,30592,0,0.4 F,2,30592,30825,0.4,0 P,0,30463,30825,A C,0,30463,,255,219,111
Sprite,Foreground,Centre,"sb/hl.png",452.0242,337.4732 S,0,30608,30625,0.7 S,19,30625,30825,0.7 F,2,30603,30608,0,0.4 F,2,30608,30825,0.4,0 P,0,30463,30825,A C,0,30463,,255,219,111
Sprite,Foreground,Centre,"sb/hl.png",529,369 S,0,30788,30950,0.7 S,19,30950,31150,0.7 F,2,30783,30788,0,0.4 F,2,30788,31150,0.4,0 P,0,30788,31150,A C,0,30788,,255,219,111
Sprite,Foreground,Centre,"sb/hl.png",531.0597,375.8809 S,0,30804,30950,0.7 S,19,30950,31150,0.7 F,2,30799,30804,0,0.4 F,2,30804,31150,0.4,0 P,0,30788,31150,A C,0,30788,,255,219,111
Sprite,Foreground,Centre,"sb/hl.png",532.8332,382.799 S,0,30820,30950,0.7 S,19,30950,31150,0.7 F,2,30815,30820,0,0.4 F,2,30820,31150,0.4,0 P,0,30788,31150,A C,0,30788,,255,219,111
Sprite,Foreground,Centre,"sb/hl.png",533.8577,389.8697 S,0,30836,30950,0.7 S,19,30950,31150,0.7 F,2,30831,30836,0,0.4 F,2,30836,31150,0.4,0 P,0,30788,31150,A C,0,30788,,255,219,111
Sprite,Foreground,Centre,"sb/hl.png",534.1208,397.0133 S,0,30852,30950,0.7 S,19,30950,31150,0.7 F,2,30847,30852,0,0.4 F,2,30852,31150,0.4,0 P,0,30788,31150,A C,0,30788,,255,219,111
Sprite,Foreground,Centre,"sb/hl.png",533.6184,404.1494 S,0,30869,30950,0.7 S,19,30950,31150,0.7 F,2,30864,30869,0,0.4 F,2,30869,31150,0.4,0 P,0,30788,31150,A C,0,30788,,255,219,111
Sprite,Foreground,Centre,"sb/hl.png",532.3549,411.1974 S,0,30885,30950,0.7 S,19,30950,31150,0.7 F,2,30880,30885,0,0.4 F,2,30885,31150,0.4,0 P,0,30788,31150,A C,0,30788,,255,219,111
Sprite,Foreground,Centre,"sb/hl.png",530.3425,418.0776 S,0,30901,30950,0.7 S,19,30950,31150,0.7 F,2,30896,30901,0,0.4 F,2,30901,31150,0.4,0 P,0,30788,31150,A C,0,30788,,255,219,111
Sprite,Foreground,Centre,"sb/hl.png",527.6023,424.7115 S,0,30917,30950,0.7 S,19,30950,31150,0.7 F,2,30912,30917,0,0.4 F,2,30917,31150,0.4,0 P,0,30788,31150,A C,0,30788,,255,219,111
Sprite,Foreground,Centre,"sb/hl.png",524.1969,431.0507 S,0,30933,30950,0.7 S,19,30950,31150,0.7 F,2,30928,30933,0,0.4 F,2,30933,31150,0.4,0 P,0,30788,31150,A C,0,30788,,255,219,111
Sprite,Foreground,Centre,"sb/hl.png",520,436 S,19,31760,31960,0.7 F,2,31760,31960,1,0 P,0,31760,31960,A C,0,31760,,128,128,255
Sprite,Foreground,Centre,"sb/hl.png",421,375 S,0,32085,32247,0.7 S,19,32247,32447,0.7 F,2,32080,32085,0,0.4 F,2,32085,32447,0.4,0 P,0,32085,32447,A C,0,32085,,128,128,255
Sprite,Foreground,Centre,"sb/hl.png",418.9861,368.1165 S,0,32101,32247,0.7 S,19,32247,32447,0.7 F,2,32096,32101,0,0.4 F,2,32101,32447,0.4,0 P,0,32085,32447,A C,0,32085,,128,128,255
Sprite,Foreground,Centre,"sb/hl.png",417.2003,361.2359 S,0,32117,32247,0.7 S,19,32247,32447,0.7 F,2,32112,32117,0,0.4 F,2,32117,32447,0.4,0 P,0,32085,32447,A C,0,32085,,128,128,255
Sprite,Foreground,Centre,"sb/hl.png",416.2652,354.1758 S,0,32133,32247,0.7 S,19,32247,32447,0.7 F,2,32128,32133,0,0.4 F,2,32133,32447,0.4,0 P,0,32085,32447,A C,0,32085,,128,128,255
Sprite,Foreground,Centre,"sb/hl.png",416.199,347.0348 S,0,32149,32247,0.7 S,19,32247,32447,0.7 F,2,32144,32149,0,0.4 F,2,32149,32447,0.4,0 P,0,32085,32447,A C,0,32085,,128,128,255
Sprite,Foreground,Centre,"sb/hl.png",417.0096,339.9133 S,0,32166,32247,0.7 S,19,32247,32447,0.7 F,2,32161,32166,0,0.4 F,2,32166,32447,0.4,0 P,0,32085,32447,A C,0,32085,,128,128,255
Sprite,Foreground,Centre,"sb/hl.png",418.6944,332.9131 S,0,32182,32247,0.7 S,19,32247,32447,0.7 F,2,32177,32182,0,0.4 F,2,32182,32447,0.4,0 P,0,32085,32447,A C,0,32085,,128,128,255
Sprite,Foreground,Centre,"sb/hl.png",421.9962,326.5462 S,0,32198,32247,0.7 S,19,32247,32447,0.7 F,2,32193,32198,0,0.4 F,2,32198,32447,0.4,0 P,0,32085,32447,A C,0,32085,,128,128,255
Sprite,Foreground,Centre,"sb/hl.png",425.4712,320.3456 S,0,32214,32247,0.7 S,19,32247,32447,0.7 F,2,32209,32214,0,0.4 F,2,32214,32447,0.4,0 P,0,32085,32447,A C,0,32085,,128,128,255
Sprite,Foreground,Centre,"sb/hl.png",429.684,314.6048 S,0,32230,32247,0.7 S,19,32247,32447,0.7 F,2,32225,32230,0,0.4 F,2,32230,32447,0.4,0 P,0,32085,32447,A C,0,32085,,128,128,255
Sprite,Foreground,Centre,"sb/hl.png",504,271 S,0,32409,32733,0.7 S,19,32733,32933,0.7 F,2,32404,32409,0,0.4 F,2,32409,32933,0.4,0 P,0,32409,32933,A C,0,32409,,128,128,255
Sprite,Foreground,Centre,"sb/hl.png",507.8649,264.9415 S,0,32425,32733,0.7 S,19,32733,32933,0.7 F,2,32420,32425,0,0.4 F,2,32425,32933,0.4,0 P,0,32409,32933,A C,0,32409,,128,128,255
Sprite,Foreground,Centre,"sb/hl.png",511.5353,258.8002 S,0,32441,32733,0.7 S,19,32733,32933,0.7 F,2,32436,32441,0,0.4 F,2,32441,32933,0.4,0 P,0,32409,32933,A C,0,32409,,128,128,255
Sprite,Foreground,Centre,"sb/hl.png",514.6361,252.3484 S,0,32457,32733,0.7 S,19,32733,32933,0.7 F,2,32452,32457,0,0.4 F,2,32457,32933,0.4,0 P,0,32409,32933,A C,0,32409,,128,128,255
Sprite,Foreground,Centre,"sb/hl.png",517.1417,245.6369 S,0,32473,32733,0.7 S,19,32733,32933,0.7 F,2,32468,32473,0,0.4 F,2,32473,32933,0.4,0 P,0,32409,32933,A C,0,32409,,128,128,255
Sprite,Foreground,Centre,"sb/hl.png",519.0309,238.7188 S,0,32490,32733,0.7 S,19,32733,32933,0.7 F,2,32485,32490,0,0.4 F,2,32490,32933,0.4,0 P,0,32409,32933,A C,0,32409,,128,128,255
Sprite,Foreground,Centre,"sb/hl.png",520.2869,231.6488 S,0,32506,32733,0.7 S,19,32733,32933,0.7 F,2,32501,32506,0,0.4 F,2,32506,32933,0.4,0 P,0,32409,32933,A C,0,32409,,128,128,255
Sprite,Foreground,Centre,"sb/hl.png",520.8975,224.4829 S,0,32522,32733,0.7 S,19,32733,32933,0.7 F,2,32517,32522,0,0.4 F,2,32522,32933,0.4,0 P,0,32409,32933,A C,0,32409,,128,128,255
Sprite,Foreground,Centre,"sb/hl.png",520.3716,217.3158 S,0,32538,32733,0.7 S,19,32733,32933,0.7 F,2,32533,32538,0,0.4 F,2,32538,32933,0.4,0 P,0,32409,32933,A C,0,32409,,128,128,255
Sprite,Foreground,Centre,"sb/hl.png",519.568,210.208 S,0,32554,32733,0.7 S,19,32733,32933,0.7 F,2,32549,32554,0,0.4 F,2,32554,32933,0.4,0 P,0,32409,32933,A C,0,32409,,128,128,255
Sprite,Foreground,Centre,"sb/hl.png",518.1235,203.1996 S,0,32571,32733,0.7 S,19,32733,32933,0.7 F,2,32566,32571,0,0.4 F,2,32571,32933,0.4,0 P,0,32409,32933,A C,0,32409,,128,128,255
Sprite,Foreground,Centre,"sb/hl.png",516.0491,196.3465 S,0,32587,32733,0.7 S,19,32733,32933,0.7 F,2,32582,32587,0,0.4 F,2,32587,32933,0.4,0 P,0,32409,32933,A C,0,32409,,128,128,255
Sprite,Foreground,Centre,"sb/hl.png",513.3599,189.7037 S,0,32603,32733,0.7 S,19,32733,32933,0.7 F,2,32598,32603,0,0.4 F,2,32603,32933,0.4,0 P,0,32409,32933,A C,0,32409,,128,128,255
Sprite,Foreground,Centre,"sb/hl.png",510.0761,183.3247 S,0,32619,32733,0.7 S,19,32733,32933,0.7 F,2,32614,32619,0,0.4 F,2,32619,32933,0.4,0 P,0,32409,32933,A C,0,32409,,128,128,255
Sprite,Foreground,Centre,"sb/hl.png",506.2222,177.2612 S,0,32636,32733,0.7 S,19,32733,32933,0.7 F,2,32631,32636,0,0.4 F,2,32636,32933,0.4,0 P,0,32409,32933,A C,0,32409,,128,128,255
Sprite,Foreground,Centre,"sb/hl.png",501.8268,171.5628 S,0,32652,32733,0.7 S,19,32733,32933,0.7 F,2,32647,32652,0,0.4 F,2,32652,32933,0.4,0 P,0,32409,32933,A C,0,32409,,128,128,255
Sprite,Foreground,Centre,"sb/hl.png",496.5668,166.6664 S,0,32668,32733,0.7 S,19,32733,32933,0.7 F,2,32663,32668,0,0.4 F,2,32668,32933,0.4,0 P,0,32409,32933,A C,0,32409,,128,128,255
Sprite,Foreground,Centre,"sb/hl.png",491.1709,161.9693 S,0,32684,32733,0.7 S,19,32733,32933,0.7 F,2,32679,32684,0,0.4 F,2,32684,32933,0.4,0 P,0,32409,32933,A C,0,32409,,128,128,255
Sprite,Foreground,Centre,"sb/hl.png",485.3692,157.7783 S,0,32700,32733,0.7 S,19,32733,32933,0.7 F,2,32695,32700,0,0.4 F,2,32700,32933,0.4,0 P,0,32409,32933,A C,0,32409,,128,128,255
Sprite,Foreground,Centre,"sb/hl.png",479.2074,154.1273 S,0,32717,32733,0.7 S,19,32733,32933,0.7 F,2,32712,32717,0,0.4 F,2,32717,32933,0.4,0 P,0,32409,32933,A C,0,32409,,128,128,255
Sprite,Foreground,Centre,"sb/hl.png",326,157 S,19,33058,33258,0.7 F,2,33058,33258,1,0 P,0,33058,33258,A C,0,33058,,128,128,255
Sprite,Foreground,Centre,"sb/hl.png",279,122 S,19,33220,33420,0.7 F,2,33220,33420,1,0 P,0,33220,33420,A C,0,33220,,128,128,255
Sprite,Foreground,Centre,"sb/hl.png",237,162 S,0,33382,33706,0.7 S,19,33706,33906,0.7 F,2,33377,33382,0,0.4 F,2,33382,33906,0.4,0 P,0,33382,33906,A C,0,33382,,128,128,255
Sprite,Foreground,Centre,"sb/hl.png",231.3492,166.4445 S,0,33398,33706,0.7 S,19,33706,33906,0.7 F,2,33393,33398,0,0.4 F,2,33398,33906,0.4,0 P,0,33382,33906,A C,0,33382,,128,128,255
Sprite,Foreground,Centre,"sb/hl.png",225.593,170.7094 S,0,33414,33706,0.7 S,19,33706,33906,0.7 F,2,33409,33414,0,0.4 F,2,33414,33906,0.4,0 P,0,33382,33906,A C,0,33382,,128,128,255
Sprite,Foreground,Centre,"sb/hl.png",219.5031,174.4868 S,0,33430,33706,0.7 S,19,33706,33906,0.7 F,2,33425,33430,0,0.4 F,2,33430,33906,0.4,0 P,0,33382,33906,A C,0,33382,,128,128,255
Sprite,Foreground,Centre,"sb/hl.png",213.1198,177.7512 S,0,33446,33706,0.7 S,19,33706,33906,0.7 F,2,33441,33446,0,0.4 F,2,33446,33906,0.4,0 P,0,33382,33906,A C,0,33382,,128,128,255
Sprite,Foreground,Centre,"sb/hl.png",206.4852,180.4802 S,0,33463,33706,0.7 S,19,33706,33906,0.7 F,2,33458,33463,0,0.4 F,2,33463,33906,0.4,0 P,0,33382,33906,A C,0,33382,,128,128,255
Sprite,Foreground,Centre,"sb/hl.png",199.6429,182.6548 S,0,33479,33706,0.7 S,19,33706,33906,0.7 F,2,33474,33479,0,0.4 F,2,33479,33906,0.4,0 P,0,33382,33906,A C,0,33382,,128,128,255
Sprite,Foreground,Centre,"sb/hl.png",192.6382,184.2593 S,0,33495,33706,0.7 S,19,33706,33906,0.7 F,2,33490,33495,0,0.4 F,2,33495,33906,0.4,0 P,0,33382,33906,A C,0,33382,,128,128,255
Sprite,Foreground,Centre,"sb/hl.png",185.5173,185.282 S,0,33511,33706,0.7 S,19,33706,33906,0.7 F,2,33506,33511,0,0.4 F,2,33511,33906,0.4,0 P,0,33382,33906,A C,0,33382,,128,128,255
Sprite,Foreground,Centre,"sb/hl.png",178.3282,185.298 S,0,33527,33706,0.7 S,19,33706,33906,0.7 F,2,33522,33527,0,0.4 F,2,33527,33906,0.4,0 P,0,33382,33906,A C,0,33382,,128,128,255
Sprite,Foreground,Centre,"sb/hl.png",171.1693,185.049 S,0,33544,33706,0.7 S,19,33706,33906,0.7 F,2,33539,33544,0,0.4 F,2,33544,33906,0.4,0 P,0,33382,33906,A C,0,33382,,128,128,255
Sprite,Foreground,Centre,"sb/hl.png",164.0538,184.211 S,0,33560,33706,0.7 S,19,33706,33906,0.7 F,2,33555,33560,0,0.4 F,2,33560,33906,0.4,0 P,0,33382,33906,A C,0,33382,,128,128,255
Sprite,Foreground,Centre,"sb/hl.png",157.029,182.7892 S,0,33576,33706,0.7 S,19,33706,33906,0.7 F,2,33571,33576,0,0.4 F,2,33576,33906,0.4,0 P,0,33382,33906,A C,0,33382,,128,128,255
Sprite,Foreground,Centre,"sb/hl.png",150.1416,180.7924 S,0,33592,33706,0.7 S,19,33706,33906,0.7 F,2,33587,33592,0,0.4 F,2,33592,33906,0.4,0 P,0,33382,33906,A C,0,33382,,128,128,255
Sprite,Foreground,Centre,"sb/hl.png",143.4378,178.2332 S,0,33609,33706,0.7 S,19,33706,33906,0.7 F,2,33604,33609,0,0.4 F,2,33609,33906,0.4,0 P,0,33382,33906,A C,0,33382,,128,128,255
Sprite,Foreground,Centre,"sb/hl.png",136.9623,175.1275 S,0,33625,33706,0.7 S,19,33706,33906,0.7 F,2,33620,33625,0,0.4 F,2,33625,33906,0.4,0 P,0,33382,33906,A C,0,33382,,128,128,255
Sprite,Foreground,Centre,"sb/hl.png",130.7589,171.495 S,0,33641,33706,0.7 S,19,33706,33906,0.7 F,2,33636,33641,0,0.4 F,2,33641,33906,0.4,0 P,0,33382,33906,A C,0,33382,,128,128,255
Sprite,Foreground,Centre,"sb/hl.png",124.8697,167.3587 S,0,33657,33706,0.7 S,19,33706,33906,0.7 F,2,33652,33657,0,0.4 F,2,33657,33906,0.4,0 P,0,33382,33906,A C,0,33382,,128,128,255
Sprite,Foreground,Centre,"sb/hl.png",119.6433,162.4221 S,0,33673,33706,0.7 S,19,33706,33906,0.7 F,2,33668,33673,0,0.4 F,2,33673,33906,0.4,0 P,0,33382,33906,A C,0,33382,,128,128,255
Sprite,Foreground,Centre,"sb/hl.png",114.5995,157.3351 S,0,33690,33706,0.7 S,19,33706,33906,0.7 F,2,33685,33690,0,0.4 F,2,33690,33906,0.4,0 P,0,33382,33906,A C,0,33382,,128,128,255
Sprite,Foreground,Centre,"sb/hl.png",318,249 S,19,34355,34555,0.7 F,2,34355,34555,1,0 P,0,34355,34555,A C,0,34355,,252,173,194
Sprite,Foreground,Centre,"sb/hl.png",214,300 S,0,34679,35327,0.7 S,19,35327,35527,0.7 F,2,34674,34679,0,0.4 F,2,34679,35527,0.4,0 P,0,34679,35527,A C,0,34679,,252,173,194
Sprite,Foreground,Centre,"sb/hl.png",209.2808,305.4194 S,0,34695,35327,0.7 S,19,35327,35527,0.7 F,2,34690,34695,0,0.4 F,2,34695,35527,0.4,0 P,0,34679,35527,A C,0,34679,,252,173,194
Sprite,Foreground,Centre,"sb/hl.png",204.7341,310.9428 S,0,34711,35327,0.7 S,19,35327,35527,0.7 F,2,34706,34711,0,0.4 F,2,34711,35527,0.4,0 P,0,34679,35527,A C,0,34679,,252,173,194
Sprite,Foreground,Centre,"sb/hl.png",200.7009,316.8568 S,0,34727,35327,0.7 S,19,35327,35527,0.7 F,2,34722,34727,0,0.4 F,2,34727,35527,0.4,0 P,0,34679,35527,A C,0,34679,,252,173,194
Sprite,Foreground,Centre,"sb/hl.png",197.2138,323.1158 S,0,34743,35327,0.7 S,19,35327,35527,0.7 F,2,34738,34743,0,0.4 F,2,34743,35527,0.4,0 P,0,34679,35527,A C,0,34679,,252,173,194
Sprite,Foreground,Centre,"sb/hl.png",194.3015,329.6714 S,0,34760,35327,0.7 S,19,35327,35527,0.7 F,2,34755,34760,0,0.4 F,2,34760,35527,0.4,0 P,0,34679,35527,A C,0,34679,,252,173,194
Sprite,Foreground,Centre,"sb/hl.png",191.9888,336.4731 S,0,34776,35327,0.7 S,19,35327,35527,0.7 F,2,34771,34776,0,0.4 F,2,34776,35527,0.4,0 P,0,34679,35527,A C,0,34679,,252,173,194
Sprite,Foreground,Centre,"sb/hl.png",190.2962,343.4681 S,0,34792,35327,0.7 S,19,35327,35527,0.7 F,2,34787,34792,0,0.4 F,2,34792,35527,0.4,0 P,0,34679,35527,A C,0,34679,,252,173,194
Sprite,Foreground,Centre,"sb/hl.png",189.7837,350.636 S,0,34808,35327,0.7 S,19,35327,35527,0.7 F,2,34803,34808,0,0.4 F,2,34808,35527,0.4,0 P,0,34679,35527,A C,0,34679,,252,173,194
Sprite,Foreground,Centre,"sb/hl.png",189.4995,357.7838 S,0,34824,35327,0.7 S,19,35327,35527,0.7 F,2,34819,34824,0,0.4 F,2,34824,35527,0.4,0 P,0,34679,35527,A C,0,34679,,252,173,194
Sprite,Foreground,Centre,"sb/hl.png",189.8604,364.9319 S,0,34841,35327,0.7 S,19,35327,35527,0.7 F,2,34836,34841,0,0.4 F,2,34841,35527,0.4,0 P,0,34679,35527,A C,0,34679,,252,173,194
Sprite,Foreground,Centre,"sb/hl.png",190.8647,372.0243 S,0,34857,35327,0.7 S,19,35327,35527,0.7 F,2,34852,34857,0,0.4 F,2,34857,35527,0.4,0 P,0,34679,35527,A C,0,34679,,252,173,194
Sprite,Foreground,Centre,"sb/hl.png",192.5058,379.0052 S,0,34873,35327,0.7 S,19,35327,35527,0.7 F,2,34868,34873,0,0.4 F,2,34873,35527,0.4,0 P,0,34679,35527,A C,0,34679,,252,173,194
Sprite,Foreground,Centre,"sb/hl.png",194.7729,385.8195 S,0,34889,35327,0.7 S,19,35327,35527,0.7 F,2,34884,34889,0,0.4 F,2,34889,35527,0.4,0 P,0,34679,35527,A C,0,34679,,252,173,194
Sprite,Foreground,Centre,"sb/hl.png",197.6505,392.4128 S,0,34906,35327,0.7 S,19,35327,35527,0.7 F,2,34901,34906,0,0.4 F,2,34906,35527,0.4,0 P,0,34679,35527,A C,0,34679,,252,173,194
Sprite,Foreground,Centre,"sb/hl.png",201.5507,398.4485 S,0,34922,35327,0.7 S,19,35327,35527,0.7 F,2,34917,34922,0,0.4 F,2,34922,35527,0.4,0 P,0,34679,35527,A C,0,34679,,252,173,194
Sprite,Foreground,Centre,"sb/hl.png",205.6438,404.3144 S,0,34938,35327,0.7 S,19,35327,35527,0.7 F,2,34933,34938,0,0.4 F,2,34938,35527,0.4,0 P,0,34679,35527,A C,0,34679,,252,173,194
Sprite,Foreground,Centre,"sb/hl.png",210.2508,409.7904 S,0,34954,35327,0.7 S,19,35327,35527,0.7 F,2,34949,34954,0,0.4 F,2,34954,35527,0.4,0 P,0,34679,35527,A C,0,34679,,252,173,194
Sprite,Foreground,Centre,"sb/hl.png",215.3362,414.833 S,0,34970,35327,0.7 S,19,35327,35527,0.7 F,2,34965,34970,0,0.4 F,2,34970,35527,0.4,0 P,0,34679,35527,A C,0,34679,,252,173,194
Sprite,Foreground,Centre,"sb/hl.png",220.8611,419.4017 S,0,34987,35327,0.7 S,19,35327,35527,0.7 F,2,34982,34987,0,0.4 F,2,34987,35527,0.4,0 P,0,34679,35527,A C,0,34679,,252,173,194
Sprite,Foreground,Centre,"sb/hl.png",226.7835,423.4592 S,0,35003,35327,0.7 S,19,35327,35527,0.7 F,2,34998,35003,0,0.4 F,2,35003,35527,0.4,0 P,0,34679,35527,A C,0,34679,,252,173,194
Sprite,Foreground,Centre,"sb/hl.png",220.8611,419.4017 S,0,35019,35327,0.7 S,19,35327,35527,0.7 F,2,35014,35019,0,0.4 F,2,35019,35527,0.4,0 P,0,34679,35527,A C,0,34679,,252,173,194
Sprite,Foreground,Centre,"sb/hl.png",215.3362,414.833 S,0,35035,35327,0.7 S,19,35327,35527,0.7 F,2,35030,35035,0,0.4 F,2,35035,35527,0.4,0 P,0,34679,35527,A C,0,34679,,252,173,194
Sprite,Foreground,Centre,"sb/hl.png",210.2508,409.7904 S,0,35051,35327,0.7 S,19,35327,35527,0.7 F,2,35046,35051,0,0.4 F,2,35051,35527,0.4,0 P,0,34679,35527,A C,0,34679,,252,173,194
Sprite,Foreground,Centre,"sb/hl.png",205.6438,404.3144 S,0,35068,35327,0.7 S,19,35327,35527,0.7 F,2,35063,35068,0,0.4 F,2,35068,35527,0.4,0 P,0,34679,35527,A C,0,34679,,252,173,194
Sprite,Foreground,Centre,"sb/hl.png",201.5507,398.4485 S,0,35084,35327,0.7 S,19,35327,35527,0.7 F,2,35079,35084,0,0.4 F,2,35084,35527,0.4,0 P,0,34679,35527,A C,0,34679,,252,173,194
Sprite,Foreground,Centre,"sb/hl.png",197.6505,392.4128 S,0,35100,35327,0.7 S,19,35327,35527,0.7 F,2,35095,35100,0,0.4 F,2,35100,35527,0.4,0 P,0,34679,35527,A C,0,34679,,252,173,194
Sprite,Foreground,Centre,"sb/hl.png",194.7729,385.8195 S,0,35116,35327,0.7 S,19,35327,35527,0.7 F,2,35111,35116,0,0.4 F,2,35116,35527,0.4,0 P,0,34679,35527,A C,0,34679,,252,173,194
Sprite,Foreground,Centre,"sb/hl.png",192.5058,379.0052 S,0,35133,35327,0.7 S,19,35327,35527,0.7 F,2,35128,35133,0,0.4 F,2,35133,35527,0.4,0 P,0,34679,35527,A C,0,34679,,252,173,194
Sprite,Foreground,Centre,"sb/hl.png",190.8647,372.0243 S,0,35149,35327,0.7 S,19,35327,35527,0.7 F,2,35144,35149,0,0.4 F,2,35149,35527,0.4,0 P,0,34679,35527,A C,0,34679,,252,173,194
Sprite,Foreground,Centre,"sb/hl.png",189.8604,364.9318 S,0,35165,35327,0.7 S,19,35327,35527,0.7 F,2,35160,35165,0,0.4 F,2,35165,35527,0.4,0 P,0,34679,35527,A C,0,34679,,252,173,194
Sprite,Foreground,Centre,"sb/hl.png",189.4995,357.7837 S,0,35181,35327,0.7 S,19,35327,35527,0.7 F,2,35176,35181,0,0.4 F,2,35181,35527,0.4,0 P,0,34679,35527,A C,0,34679,,252,173,194
Sprite,Foreground,Centre,"sb/hl.png",189.7837,350.636 S,0,35197,35327,0.7 S,19,35327,35527,0.7 F,2,35192,35197,0,0.4 F,2,35197,35527,0.4,0 P,0,34679,35527,A C,0,34679,,252,173,194
Sprite,Foreground,Centre,"sb/hl.png",190.2962,343.4681 S,0,35214,35327,0.7 S,19,35327,35527,0.7 F,2,35209,35214,0,0.4 F,2,35214,35527,0.4,0 P,0,34679,35527,A C,0,34679,,252,173,194
Sprite,Foreground,Centre,"sb/hl.png",191.9888,336.4731 S,0,35230,35327,0.7 S,19,35327,35527,0.7 F,2,35225,35230,0,0.4 F,2,35230,35527,0.4,0 P,0,34679,35527,A C,0,34679,,252,173,194
Sprite,Foreground,Centre,"sb/hl.png",194.3015,329.6714 S,0,35246,35327,0.7 S,19,35327,35527,0.7 F,2,35241,35246,0,0.4 F,2,35246,35527,0.4,0 P,0,34679,35527,A C,0,34679,,252,173,194
Sprite,Foreground,Centre,"sb/hl.png",197.2138,323.1158 S,0,35262,35327,0.7 S,19,35327,35527,0.7 F,2,35257,35262,0,0.4 F,2,35262,35527,0.4,0 P,0,34679,35527,A C,0,34679,,252,173,194
Sprite,Foreground,Centre,"sb/hl.png",200.7009,316.8568 S,0,35278,35327,0.7 S,19,35327,35527,0.7 F,2,35273,35278,0,0.4 F,2,35278,35527,0.4,0 P,0,34679,35527,A C,0,34679,,252,173,194
Sprite,Foreground,Centre,"sb/hl.png",204.7341,310.9428 S,0,35295,35327,0.7 S,19,35327,35527,0.7 F,2,35290,35295,0,0.4 F,2,35295,35527,0.4,0 P,0,34679,35527,A C,0,34679,,252,173,194
Sprite,Foreground,Centre,"sb/hl.png",209.2808,305.4194 S,0,35311,35327,0.7 S,19,35327,35527,0.7 F,2,35306,35311,0,0.4 F,2,35311,35527,0.4,0 P,0,34679,35527,A C,0,34679,,252,173,194
Sprite,Foreground,Centre,"sb/hl.png",316,352 S,0,35652,35976,0.7 S,19,35976,36176,0.7 F,2,35647,35652,0,0.4 F,2,35652,36176,0.4,0 P,0,35652,36176,A C,0,35652,,252,173,194
Sprite,Foreground,Centre,"sb/hl.png",321.8518,347.8202 S,0,35668,35976,0.7 S,19,35976,36176,0.7 F,2,35663,35668,0,0.4 F,2,35668,36176,0.4,0 P,0,35652,36176,A C,0,35652,,252,173,194
Sprite,Foreground,Centre,"sb/hl.png",327.7741,343.7766 S,0,35684,35976,0.7 S,19,35976,36176,0.7 F,2,35679,35684,0,0.4 F,2,35684,36176,0.4,0 P,0,35652,36176,A C,0,35652,,252,173,194
Sprite,Foreground,Centre,"sb/hl.png",333.9709,340.1619 S,0,35700,35976,0.7 S,19,35976,36176,0.7 F,2,35695,35700,0,0.4 F,2,35700,36176,0.4,0 P,0,35652,36176,A C,0,35652,,252,173,194
Sprite,Foreground,Centre,"sb/hl.png",340.4126,336.9942 S,0,35716,35976,0.7 S,19,35976,36176,0.7 F,2,35711,35716,0,0.4 F,2,35716,36176,0.4,0 P,0,35652,36176,A C,0,35652,,252,173,194
Sprite,Foreground,Centre,"sb/hl.png",347.0685,334.2896 S,0,35733,35976,0.7 S,19,35976,36176,0.7 F,2,35728,35733,0,0.4 F,2,35733,36176,0.4,0 P,0,35652,36176,A C,0,35652,,252,173,194
Sprite,Foreground,Centre,"sb/hl.png",353.9066,332.0623 S,0,35749,35976,0.7 S,19,35976,36176,0.7 F,2,35744,35749,0,0.4 F,2,35749,36176,0.4,0 P,0,35652,36176,A C,0,35652,,252,173,194
Sprite,Foreground,Centre,"sb/hl.png",360.9636,330.6796 S,0,35765,35976,0.7 S,19,35976,36176,0.7 F,2,35760,35765,0,0.4 F,2,35765,36176,0.4,0 P,0,35652,36176,A C,0,35652,,252,173,194
Sprite,Foreground,Centre,"sb/hl.png",368.0434,329.5483 S,0,35781,35976,0.7 S,19,35976,36176,0.7 F,2,35776,35781,0,0.4 F,2,35781,36176,0.4,0 P,0,35652,36176,A C,0,35652,,252,173,194
Sprite,Foreground,Centre,"sb/hl.png",375.1872,328.922 S,0,35797,35976,0.7 S,19,35976,36176,0.7 F,2,35792,35797,0,0.4 F,2,35797,36176,0.4,0 P,0,35652,36176,A C,0,35652,,252,173,194
Sprite,Foreground,Centre,"sb/hl.png",382.3604,328.8042 S,0,35814,35976,0.7 S,19,35976,36176,0.7 F,2,35809,35814,0,0.4 F,2,35814,36176,0.4,0 P,0,35652,36176,A C,0,35652,,252,173,194
Sprite,Foreground,Centre,"sb/hl.png",389.5283,329.1961 S,0,35830,35976,0.7 S,19,35976,36176,0.7 F,2,35825,35830,0,0.4 F,2,35830,36176,0.4,0 P,0,35652,36176,A C,0,35652,,252,173,194
Sprite,Foreground,Centre,"sb/hl.png",396.6562,330.0966 S,0,35846,35976,0.7 S,19,35976,36176,0.7 F,2,35841,35846,0,0.4 F,2,35846,36176,0.4,0 P,0,35652,36176,A C,0,35652,,252,173,194
Sprite,Foreground,Centre,"sb/hl.png",403.7094,331.5025 S,0,35862,35976,0.7 S,19,35976,36176,0.7 F,2,35857,35862,0,0.4 F,2,35862,36176,0.4,0 P,0,35652,36176,A C,0,35652,,252,173,194
Sprite,Foreground,Centre,"sb/hl.png",410.5387,333.7552 S,0,35879,35976,0.7 S,19,35976,36176,0.7 F,2,35874,35879,0,0.4 F,2,35879,36176,0.4,0 P,0,35652,36176,A C,0,35652,,252,173,194
Sprite,Foreground,Centre,"sb/hl.png",417.2658,336.2351 S,0,35895,35976,0.7 S,19,35976,36176,0.7 F,2,35890,35895,0,0.4 F,2,35895,36176,0.4,0 P,0,35652,36176,A C,0,35652,,252,173,194
Sprite,Foreground,Centre,"sb/hl.png",423.8015,339.1867 S,0,35911,35976,0.7 S,19,35976,36176,0.7 F,2,35906,35911,0,0.4 F,2,35911,36176,0.4,0 P,0,35652,36176,A C,0,35652,,252,173,194
Sprite,Foreground,Centre,"sb/hl.png",430.1138,342.5961 S,0,35927,35976,0.7 S,19,35976,36176,0.7 F,2,35922,35927,0,0.4 F,2,35927,36176,0.4,0 P,0,35652,36176,A C,0,35652,,252,173,194
Sprite,Foreground,Centre,"sb/hl.png",436.1721,346.4473 S,0,35943,35976,0.7 S,19,35976,36176,0.7 F,2,35938,35943,0,0.4 F,2,35943,36176,0.4,0 P,0,35652,36176,A C,0,35652,,252,173,194
Sprite,Foreground,Centre,"sb/hl.png",441.9465,350.7225 S,0,35960,35976,0.7 S,19,35976,36176,0.7 F,2,35955,35960,0,0.4 F,2,35960,36176,0.4,0 P,0,35652,36176,A C,0,35652,,252,173,194
Sprite,Foreground,Centre,"sb/hl.png",513,404 S,0,36139,36301,0.7 S,19,36301,36501,0.7 F,2,36134,36139,0,0.4 F,2,36139,36501,0.4,0 P,0,36139,36501,A C,0,36139,,252,173,194
Sprite,Foreground,Centre,"sb/hl.png",517.3015,398.2526 S,0,36155,36301,0.7 S,19,36301,36501,0.7 F,2,36150,36155,0,0.4 F,2,36155,36501,0.4,0 P,0,36139,36501,A C,0,36139,,252,173,194
Sprite,Foreground,Centre,"sb/hl.png",521.407,392.4227 S,0,36171,36301,0.7 S,19,36301,36501,0.7 F,2,36166,36171,0,0.4 F,2,36171,36501,0.4,0 P,0,36139,36501,A C,0,36139,,252,173,194
Sprite,Foreground,Centre,"sb/hl.png",524.8647,386.1766 S,0,36187,36301,0.7 S,19,36301,36501,0.7 F,2,36182,36187,0,0.4 F,2,36187,36501,0.4,0 P,0,36139,36501,A C,0,36139,,252,173,194
Sprite,Foreground,Centre,"sb/hl.png",527.6343,379.582 S,0,36203,36301,0.7 S,19,36301,36501,0.7 F,2,36198,36203,0,0.4 F,2,36203,36501,0.4,0 P,0,36139,36501,A C,0,36139,,252,173,194
Sprite,Foreground,Centre,"sb/hl.png",529.6812,372.7101 S,0,36220,36301,0.7 S,19,36301,36501,0.7 F,2,36215,36220,0,0.4 F,2,36220,36501,0.4,0 P,0,36139,36501,A C,0,36139,,252,173,194
Sprite,Foreground,Centre,"sb/hl.png",530.9777,365.6356 S,0,36236,36301,0.7 S,19,36301,36501,0.7 F,2,36231,36236,0,0.4 F,2,36236,36501,0.4,0 P,0,36139,36501,A C,0,36139,,252,173,194
Sprite,Foreground,Centre,"sb/hl.png",530.8216,358.4584 S,0,36252,36301,0.7 S,19,36301,36501,0.7 F,2,36247,36252,0,0.4 F,2,36252,36501,0.4,0 P,0,36139,36501,A C,0,36139,,252,173,194
Sprite,Foreground,Centre,"sb/hl.png",530.3976,351.3427 S,0,36268,36301,0.7 S,19,36301,36501,0.7 F,2,36263,36268,0,0.4 F,2,36268,36501,0.4,0 P,0,36139,36501,A C,0,36139,,252,173,194
Sprite,Foreground,Centre,"sb/hl.png",529.2085,344.3069 S,0,36284,36301,0.7 S,19,36301,36501,0.7 F,2,36279,36284,0,0.4 F,2,36284,36501,0.4,0 P,0,36139,36501,A C,0,36139,,252,173,194
Sprite,Foreground,Centre,"sb/hl.png",508,282 S,19,36463,36663,0.7 F,2,36463,36663,1,0 P,0,36463,36663,A C,0,36463,,252,173,194
Sprite,Foreground,Centre,"sb/hl.png",547,240 S,19,36625,36825,0.7 F,2,36625,36825,1,0 P,0,36625,36825,A C,0,36625,,252,173,194
Sprite,Foreground,Centre,"sb/hl.png",486,116 S,19,36949,37149,0.7 F,2,36949,37149,1,0 P,0,36949,37149,A C,0,36949,,222,77,253
Sprite,Foreground,Centre,"sb/hl.png",371,132 S,0,37274,37436,0.7 S,19,37436,37636,0.7 F,2,37269,37274,0,0.4 F,2,37274,37636,0.4,0 P,0,37274,37636,A C,0,37274,,222,77,253
Sprite,Foreground,Centre,"sb/hl.png",366.0423,137.1895 S,0,37290,37436,0.7 S,19,37436,37636,0.7 F,2,37285,37290,0,0.4 F,2,37290,37636,0.4,0 P,0,37274,37636,A C,0,37274,,222,77,253
Sprite,Foreground,Centre,"sb/hl.png",360.9066,142.126 S,0,37306,37436,0.7 S,19,37436,37636,0.7 F,2,37301,37306,0,0.4 F,2,37306,37636,0.4,0 P,0,37274,37636,A C,0,37274,,222,77,253
Sprite,Foreground,Centre,"sb/hl.png",355.2102,146.4107 S,0,37322,37436,0.7 S,19,37436,37636,0.7 F,2,37317,37322,0,0.4 F,2,37322,37636,0.4,0 P,0,37274,37636,A C,0,37274,,222,77,253
Sprite,Foreground,Centre,"sb/hl.png",349.0332,149.9813 S,0,37338,37436,0.7 S,19,37436,37636,0.7 F,2,37333,37338,0,0.4 F,2,37338,37636,0.4,0 P,0,37274,37636,A C,0,37274,,222,77,253
Sprite,Foreground,Centre,"sb/hl.png",342.4626,152.7849 S,0,37355,37436,0.7 S,19,37436,37636,0.7 F,2,37350,37355,0,0.4 F,2,37355,37636,0.4,0 P,0,37274,37636,A C,0,37274,,222,77,253
Sprite,Foreground,Centre,"sb/hl.png",335.5912,154.779 S,0,37371,37436,0.7 S,19,37436,37636,0.7 F,2,37366,37371,0,0.4 F,2,37371,37636,0.4,0 P,0,37274,37636,A C,0,37274,,222,77,253
Sprite,Foreground,Centre,"sb/hl.png",328.5162,155.9317 S,0,37387,37436,0.7 S,19,37436,37636,0.7 F,2,37382,37387,0,0.4 F,2,37387,37636,0.4,0 P,0,37274,37636,A C,0,37274,,222,77,253
Sprite,Foreground,Centre,"sb/hl.png",321.3381,156.2227 S,0,37403,37436,0.7 S,19,37436,37636,0.7 F,2,37398,37403,0,0.4 F,2,37403,37636,0.4,0 P,0,37274,37636,A C,0,37274,,222,77,253
Sprite,Foreground,Centre,"sb/hl.png",314.2542,155.0706 S,0,37419,37436,0.7 S,19,37436,37636,0.7 F,2,37414,37419,0,0.4 F,2,37419,37636,0.4,0 P,0,37274,37636,A C,0,37274,,222,77,253
Sprite,Foreground,Centre,"sb/hl.png",233,134 S,0,37598,37922,0.7 S,19,37922,38122,0.7 F,2,37593,37598,0,0.4 F,2,37598,38122,0.4,0 P,0,37598,38122,A C,0,37598,,222,77,253
Sprite,Foreground,Centre,"sb/hl.png",228.8888,139.8977 S,0,37614,37922,0.7 S,19,37922,38122,0.7 F,2,37609,37614,0,0.4 F,2,37614,38122,0.4,0 P,0,37598,38122,A C,0,37598,,222,77,253
Sprite,Foreground,Centre,"sb/hl.png",224.9771,145.8996 S,0,37630,37922,0.7 S,19,37922,38122,0.7 F,2,37625,37630,0,0.4 F,2,37630,38122,0.4,0 P,0,37598,38122,A C,0,37598,,222,77,253
Sprite,Foreground,Centre,"sb/hl.png",221.5821,152.21 S,0,37646,37922,0.7 S,19,37922,38122,0.7 F,2,37641,37646,0,0.4 F,2,37646,38122,0.4,0 P,0,37598,38122,A C,0,37598,,222,77,253
Sprite,Foreground,Centre,"sb/hl.png",218.7277,158.7854 S,0,37662,37922,0.7 S,19,37922,38122,0.7 F,2,37657,37662,0,0.4 F,2,37662,38122,0.4,0 P,0,37598,38122,A C,0,37598,,222,77,253
Sprite,Foreground,Centre,"sb/hl.png",216.4342,165.5804 S,0,37679,37922,0.7 S,19,37922,38122,0.7 F,2,37674,37679,0,0.4 F,2,37679,38122,0.4,0 P,0,37598,38122,A C,0,37598,,222,77,253
Sprite,Foreground,Centre,"sb/hl.png",214.7183,172.5481 S,0,37695,37922,0.7 S,19,37922,38122,0.7 F,2,37690,37695,0,0.4 F,2,37695,38122,0.4,0 P,0,37598,38122,A C,0,37598,,222,77,253
Sprite,Foreground,Centre,"sb/hl.png",213.5926,179.6401 S,0,37711,37922,0.7 S,19,37922,38122,0.7 F,2,37706,37711,0,0.4 F,2,37711,38122,0.4,0 P,0,37598,38122,A C,0,37598,,222,77,253
Sprite,Foreground,Centre,"sb/hl.png",213.066,186.8075 S,0,37727,37922,0.7 S,19,37922,38122,0.7 F,2,37722,37727,0,0.4 F,2,37727,38122,0.4,0 P,0,37598,38122,A C,0,37598,,222,77,253
Sprite,Foreground,Centre,"sb/hl.png",213.1434,194.0005 S,0,37743,37922,0.7 S,19,37922,38122,0.7 F,2,37738,37743,0,0.4 F,2,37743,38122,0.4,0 P,0,37598,38122,A C,0,37598,,222,77,253
Sprite,Foreground,Centre,"sb/hl.png",214.2175,201.109 S,0,37760,37922,0.7 S,19,37922,38122,0.7 F,2,37755,37760,0,0.4 F,2,37760,38122,0.4,0 P,0,37598,38122,A C,0,37598,,222,77,253
Sprite,Foreground,Centre,"sb/hl.png",215.568,208.1439 S,0,37776,37922,0.7 S,19,37922,38122,0.7 F,2,37771,37776,0,0.4 F,2,37776,38122,0.4,0 P,0,37598,38122,A C,0,37598,,222,77,253
Sprite,Foreground,Centre,"sb/hl.png",217.5044,215.0416 S,0,37792,37922,0.7 S,19,37922,38122,0.7 F,2,37787,37792,0,0.4 F,2,37792,38122,0.4,0 P,0,37598,38122,A C,0,37598,,222,77,253
Sprite,Foreground,Centre,"sb/hl.png",220.0134,221.7542 S,0,37808,37922,0.7 S,19,37922,38122,0.7 F,2,37803,37808,0,0.4 F,2,37808,38122,0.4,0 P,0,37598,38122,A C,0,37598,,222,77,253
Sprite,Foreground,Centre,"sb/hl.png",223.0781,228.235 S,0,37825,37922,0.7 S,19,37922,38122,0.7 F,2,37820,37825,0,0.4 F,2,37825,38122,0.4,0 P,0,37598,38122,A C,0,37598,,222,77,253
Sprite,Foreground,Centre,"sb/hl.png",226.6778,234.4387 S,0,37841,37922,0.7 S,19,37922,38122,0.7 F,2,37836,37841,0,0.4 F,2,37841,38122,0.4,0 P,0,37598,38122,A C,0,37598,,222,77,253
Sprite,Foreground,Centre,"sb/hl.png",230.788,240.322 S,0,37857,37922,0.7 S,19,37922,38122,0.7 F,2,37852,37857,0,0.4 F,2,37857,38122,0.4,0 P,0,37598,38122,A C,0,37598,,222,77,253
Sprite,Foreground,Centre,"sb/hl.png",235.3811,245.8433 S,0,37873,37922,0.7 S,19,37922,38122,0.7 F,2,37868,37873,0,0.4 F,2,37873,38122,0.4,0 P,0,37598,38122,A C,0,37598,,222,77,253
Sprite,Foreground,Centre,"sb/hl.png",240.4258,250.9638 S,0,37889,37922,0.7 S,19,37922,38122,0.7 F,2,37884,37889,0,0.4 F,2,37889,38122,0.4,0 P,0,37598,38122,A C,0,37598,,222,77,253
Sprite,Foreground,Centre,"sb/hl.png",245.8881,255.6468 S,0,37906,37922,0.7 S,19,37922,38122,0.7 F,2,37901,37906,0,0.4 F,2,37906,38122,0.4,0 P,0,37598,38122,A C,0,37598,,222,77,253
Sprite,Foreground,Centre,"sb/hl.png",368,322 S,19,38248,38448,0.7 F,2,38248,38448,1,0 P,0,38248,38448,A C,0,38248,,222,77,253
Sprite,Foreground,Centre,"sb/hl.png",405,365 S,19,38410,38610,0.7 F,2,38410,38610,1,0 P,0,38410,38610,A C,0,38410,,222,77,253
Sprite,Foreground,Centre,"sb/hl.png",363,405 S,0,38572,38896,0.7 S,19,38896,39096,0.7 F,2,38567,38572,0,0.4 F,2,38572,39096,0.4,0 P,0,38572,39096,A C,0,38572,,222,77,253
Sprite,Foreground,Centre,"sb/hl.png",357.1023,409.1112 S,0,38588,38896,0.7 S,19,38896,39096,0.7 F,2,38583,38588,0,0.4 F,2,38588,39096,0.4,0 P,0,38572,39096,A C,0,38572,,222,77,253
Sprite,Foreground,Centre,"sb/hl.png",351.1005,413.0229 S,0,38604,38896,0.7 S,19,38896,39096,0.7 F,2,38599,38604,0,0.4 F,2,38604,39096,0.4,0 P,0,38572,39096,A C,0,38572,,222,77,253
Sprite,Foreground,Centre,"sb/hl.png",344.79,416.4179 S,0,38620,38896,0.7 S,19,38896,39096,0.7 F,2,38615,38620,0,0.4 F,2,38620,39096,0.4,0 P,0,38572,39096,A C,0,38572,,222,77,253
Sprite,Foreground,Centre,"sb/hl.png",338.2145,419.2723 S,0,38636,38896,0.7 S,19,38896,39096,0.7 F,2,38631,38636,0,0.4 F,2,38636,39096,0.4,0 P,0,38572,39096,A C,0,38572,,222,77,253
Sprite,Foreground,Centre,"sb/hl.png",331.4196,421.5658 S,0,38653,38896,0.7 S,19,38896,39096,0.7 F,2,38648,38653,0,0.4 F,2,38653,39096,0.4,0 P,0,38572,39096,A C,0,38572,,222,77,253
Sprite,Foreground,Centre,"sb/hl.png",324.4519,423.2817 S,0,38669,38896,0.7 S,19,38896,39096,0.7 F,2,38664,38669,0,0.4 F,2,38669,39096,0.4,0 P,0,38572,39096,A C,0,38572,,222,77,253
Sprite,Foreground,Centre,"sb/hl.png",317.3599,424.4074 S,0,38685,38896,0.7 S,19,38896,39096,0.7 F,2,38680,38685,0,0.4 F,2,38685,39096,0.4,0 P,0,38572,39096,A C,0,38572,,222,77,253
Sprite,Foreground,Centre,"sb/hl.png",310.1925,424.934 S,0,38701,38896,0.7 S,19,38896,39096,0.7 F,2,38696,38701,0,0.4 F,2,38701,39096,0.4,0 P,0,38572,39096,A C,0,38572,,222,77,253
Sprite,Foreground,Centre,"sb/hl.png",302.9995,424.8567 S,0,38717,38896,0.7 S,19,38896,39096,0.7 F,2,38712,38717,0,0.4 F,2,38717,39096,0.4,0 P,0,38572,39096,A C,0,38572,,222,77,253
Sprite,Foreground,Centre,"sb/hl.png",295.891,423.7825 S,0,38734,38896,0.7 S,19,38896,39096,0.7 F,2,38729,38734,0,0.4 F,2,38734,39096,0.4,0 P,0,38572,39096,A C,0,38572,,222,77,253
Sprite,Foreground,Centre,"sb/hl.png",288.8561,422.432 S,0,38750,38896,0.7 S,19,38896,39096,0.7 F,2,38745,38750,0,0.4 F,2,38750,39096,0.4,0 P,0,38572,39096,A C,0,38572,,222,77,253
Sprite,Foreground,Centre,"sb/hl.png",281.9584,420.4956 S,0,38766,38896,0.7 S,19,38896,39096,0.7 F,2,38761,38766,0,0.4 F,2,38766,39096,0.4,0 P,0,38572,39096,A C,0,38572,,222,77,253
Sprite,Foreground,Centre,"sb/hl.png",275.2458,417.9866 S,0,38782,38896,0.7 S,19,38896,39096,0.7 F,2,38777,38782,0,0.4 F,2,38782,39096,0.4,0 P,0,38572,39096,A C,0,38572,,222,77,253
Sprite,Foreground,Centre,"sb/hl.png",268.765,414.9219 S,0,38799,38896,0.7 S,19,38896,39096,0.7 F,2,38794,38799,0,0.4 F,2,38799,39096,0.4,0 P,0,38572,39096,A C,0,38572,,222,77,253
Sprite,Foreground,Centre,"sb/hl.png",262.5613,411.3222 S,0,38815,38896,0.7 S,19,38896,39096,0.7 F,2,38810,38815,0,0.4 F,2,38815,39096,0.4,0 P,0,38572,39096,A C,0,38572,,222,77,253
Sprite,Foreground,Centre,"sb/hl.png",256.678,407.212 S,0,38831,38896,0.7 S,19,38896,39096,0.7 F,2,38826,38831,0,0.4 F,2,38831,39096,0.4,0 P,0,38572,39096,A C,0,38572,,222,77,253
Sprite,Foreground,Centre,"sb/hl.png",251.1567,402.6189 S,0,38847,38896,0.7 S,19,38896,39096,0.7 F,2,38842,38847,0,0.4 F,2,38847,39096,0.4,0 P,0,38572,39096,A C,0,38572,,222,77,253
Sprite,Foreground,Centre,"sb/hl.png",246.0362,397.5742 S,0,38863,38896,0.7 S,19,38896,39096,0.7 F,2,38858,38863,0,0.4 F,2,38863,39096,0.4,0 P,0,38572,39096,A C,0,38572,,222,77,253
Sprite,Foreground,Centre,"sb/hl.png",241.3532,392.1119 S,0,38880,38896,0.7 S,19,38896,39096,0.7 F,2,38875,38880,0,0.4 F,2,38880,39096,0.4,0 P,0,38572,39096,A C,0,38572,,222,77,253
Sprite,Foreground,Centre,"sb/hl.png",462,434 S,19,39545,39745,0.7 F,2,39545,39745,1,0 P,0,39545,39745,A C,0,39545,,255,219,111
Sprite,Foreground,Centre,"sb/hl.png",541,351 S,19,39869,40069,0.7 F,2,39869,40069,1,0 P,0,39869,40069,A C,0,39869,,255,219,111
Sprite,Foreground,Centre,"sb/hl.png",514,299 S,19,40031,40231,0.7 F,2,40031,40231,1,0 P,0,40031,40231,A C,0,40031,,255,219,111
Sprite,Foreground,Centre,"sb/hl.png",540,247 S,19,40193,40393,0.7 F,2,40193,40393,1,0 P,0,40193,40393,A C,0,40193,,255,219,111
Sprite,Foreground,Centre,"sb/hl.png",445,181 S,19,40518,40718,0.7 F,2,40518,40718,1,0 P,0,40518,40718,A C,0,40518,,255,219,111
Sprite,Foreground,Centre,"sb/hl.png",361,260 S,0,40842,41004,0.7 S,19,41004,41204,0.7 F,2,40837,40842,0,0.4 F,2,40842,41204,0.4,0 P,0,40842,41204,A C,0,40842,,255,219,111
Sprite,Foreground,Centre,"sb/hl.png",354.7388,263.5187 S,0,40858,41004,0.7 S,19,41004,41204,0.7 F,2,40853,40858,0,0.4 F,2,40858,41204,0.4,0 P,0,40842,41204,A C,0,40842,,255,219,111
Sprite,Foreground,Centre,"sb/hl.png",348.4379,266.881 S,0,40874,41004,0.7 S,19,41004,41204,0.7 F,2,40869,40874,0,0.4 F,2,40874,41204,0.4,0 P,0,40842,41204,A C,0,40842,,255,219,111
Sprite,Foreground,Centre,"sb/hl.png",341.8351,269.6285 S,0,40890,41004,0.7 S,19,41004,41204,0.7 F,2,40885,40890,0,0.4 F,2,40890,41204,0.4,0 P,0,40842,41204,A C,0,40842,,255,219,111
Sprite,Foreground,Centre,"sb/hl.png",334.9855,271.7351 S,0,40906,41004,0.7 S,19,41004,41204,0.7 F,2,40901,40906,0,0.4 F,2,40906,41204,0.4,0 P,0,40842,41204,A C,0,40842,,255,219,111
Sprite,Foreground,Centre,"sb/hl.png",327.9465,273.1788 S,0,40923,41004,0.7 S,19,41004,41204,0.7 F,2,40918,40923,0,0.4 F,2,40923,41204,0.4,0 P,0,40842,41204,A C,0,40842,,255,219,111
Sprite,Foreground,Centre,"sb/hl.png",320.7664,273.3539 S,0,40939,41004,0.7 S,19,41004,41204,0.7 F,2,40934,40939,0,0.4 F,2,40939,41204,0.4,0 P,0,40842,41204,A C,0,40842,,255,219,111
Sprite,Foreground,Centre,"sb/hl.png",313.6292,273.2427 S,0,40955,41004,0.7 S,19,41004,41204,0.7 F,2,40950,40955,0,0.4 F,2,40955,41204,0.4,0 P,0,40842,41204,A C,0,40842,,255,219,111
Sprite,Foreground,Centre,"sb/hl.png",306.5291,272.4485 S,0,40971,41004,0.7 S,19,41004,41204,0.7 F,2,40966,40971,0,0.4 F,2,40971,41204,0.4,0 P,0,40842,41204,A C,0,40842,,255,219,111
Sprite,Foreground,Centre,"sb/hl.png",299.5268,270.9758 S,0,40987,41004,0.7 S,19,41004,41204,0.7 F,2,40982,40987,0,0.4 F,2,40987,41204,0.4,0 P,0,40842,41204,A C,0,40842,,255,219,111
Sprite,Foreground,Centre,"sb/hl.png",247,202 S,0,41167,41329,0.7 S,19,41329,41529,0.7 F,2,41162,41167,0,0.4 F,2,41167,41529,0.4,0 P,0,41167,41529,A C,0,41167,,255,219,111
Sprite,Foreground,Centre,"sb/hl.png",240.1191,199.9403 S,0,41183,41329,0.7 S,19,41329,41529,0.7 F,2,41178,41183,0,0.4 F,2,41183,41529,0.4,0 P,0,41167,41529,A C,0,41167,,255,219,111
Sprite,Foreground,Centre,"sb/hl.png",233.201,198.1668 S,0,41199,41329,0.7 S,19,41329,41529,0.7 F,2,41194,41199,0,0.4 F,2,41199,41529,0.4,0 P,0,41167,41529,A C,0,41167,,255,219,111
Sprite,Foreground,Centre,"sb/hl.png",226.1303,197.1423 S,0,41215,41329,0.7 S,19,41329,41529,0.7 F,2,41210,41215,0,0.4 F,2,41215,41529,0.4,0 P,0,41167,41529,A C,0,41167,,255,219,111
Sprite,Foreground,Centre,"sb/hl.png",218.9867,196.8792 S,0,41231,41329,0.7 S,19,41329,41529,0.7 F,2,41226,41231,0,0.4 F,2,41231,41529,0.4,0 P,0,41167,41529,A C,0,41167,,255,219,111
Sprite,Foreground,Centre,"sb/hl.png",211.8506,197.3816 S,0,41248,41329,0.7 S,19,41329,41529,0.7 F,2,41243,41248,0,0.4 F,2,41248,41529,0.4,0 P,0,41167,41529,A C,0,41167,,255,219,111
Sprite,Foreground,Centre,"sb/hl.png",204.8026,198.6452 S,0,41264,41329,0.7 S,19,41329,41529,0.7 F,2,41259,41264,0,0.4 F,2,41264,41529,0.4,0 P,0,41167,41529,A C,0,41167,,255,219,111
Sprite,Foreground,Centre,"sb/hl.png",197.9224,200.6575 S,0,41280,41329,0.7 S,19,41329,41529,0.7 F,2,41275,41280,0,0.4 F,2,41280,41529,0.4,0 P,0,41167,41529,A C,0,41167,,255,219,111
Sprite,Foreground,Centre,"sb/hl.png",191.2885,203.3977 S,0,41296,41329,0.7 S,19,41329,41529,0.7 F,2,41291,41296,0,0.4 F,2,41296,41529,0.4,0 P,0,41167,41529,A C,0,41167,,255,219,111
Sprite,Foreground,Centre,"sb/hl.png",184.9493,206.8031 S,0,41312,41329,0.7 S,19,41329,41529,0.7 F,2,41307,41312,0,0.4 F,2,41312,41529,0.4,0 P,0,41167,41529,A C,0,41167,,255,219,111
Sprite,Foreground,Centre,"sb/hl.png",435,75 S,19,42139,42339,0.7 F,2,42139,42339,1,0 P,0,42139,42339,A C,0,42139,,128,128,255
Sprite,Foreground,Centre,"sb/dot.png",0,0 M,2,20632,21382,320,240,284,432 S,2,20632,21582,0.2,1 P,0,20632,21382,A F,0,20632,20882,0,1 F,0,21182,21382,1,0 C,0,21382,,255,255,255
Sprite,Foreground,Centre,"sb/dot.png",0,0 M,2,20957,21707,320,240,200,351 S,2,20957,21907,0.2,1 P,0,20957,21707,A F,0,20957,21207,0,1 F,0,21507,21707,1,0 C,0,21707,,255,255,255
Sprite,Foreground,Centre,"sb/dot.png",0,0 M,2,21281,22031,320,240,64,395 S,2,21281,22231,0.2,1 P,0,21281,22031,A F,0,21281,21531,0,1 F,0,21831,22031,1,0 C,0,22031,,255,255,255
Sprite,Foreground,Centre,"sb/dot.png",0,0 M,2,21930,22680,320,240,230,220 S,2,21930,22880,0.45,1.25 P,0,21930,22680,A F,0,21930,22180,0,1 F,0,22480,22680,1,0 C,0,22680,,255,255,255
Sprite,Foreground,Centre,"sb/dot.png",0,0 M,2,22092,22842,320,240,278,251 S,2,22092,23042,0.45,1.25 P,0,22092,22842,A F,0,22092,22342,0,1 F,0,22642,22842,1,0 C,0,22842,,255,255,255
Sprite,Foreground,Centre,"sb/dot.png",0,0 M,2,22254,23004,320,240,330,227 S,2,22254,23204,0.45,1.25 P,0,22254,23004,A F,0,22254,22504,0,1 F,0,22804,23004,1,0 C,0,23004,,255,255,255
Sprite,Foreground,Centre,"sb/dot.png",0,0 M,2,23227,23977,320,240,430,302 S,2,23227,24177,0.45,1.25 P,0,23227,23977,A F,0,23227,23477,0,1 F,0,23777,23977,1,0 C,0,23977,,255,255,255
Sprite,Foreground,Centre,"sb/dot.png",0,0 M,2,23551,24301,320,240,471,409 S,2,23551,24501,0.45,1.25 P,0,23551,24301,A F,0,23551,23801,0,1 F,0,24101,24301,1,0 C,0,24301,,255,255,255
Sprite,Foreground,Centre,"sb/dot.png",0,0 M,2,24524,25274,320,240,443,296 S,2,24524,25474,0.45,1.25 P,0,24524,25274,A F,0,24524,24774,0,1 F,0,25074,25274,1,0 C,0,25274,,255,255,255
Sprite,Foreground,Centre,"sb/dot.png",0,0 M,2,25011,25761,320,240,491,97 S,2,25011,25961,0.45,1.25 P,0,25011,25761,A F,0,25011,25261,0,1 F,0,25561,25761,1,0 C,0,25761,,255,255,255
Sprite,Foreground,Centre,"sb/dot.png",0,0 M,2,25335,26085,320,240,375,112 S,2,25335,26285,0.45,1.25 P,0,25335,26085,A F,0,25335,25585,0,1 F,0,25885,26085,1,0 C,0,26085,,255,255,255
Sprite,Foreground,Centre,"sb/dot.png",0,0 M,2,25497,26247,320,240,326,88 S,2,25497,26447,0.45,1.25 P,0,25497,26247,A F,0,25497,25747,0,1 F,0,26047,26247,1,0 C,0,26247,,255,255,255
Sprite,Foreground,Centre,"sb/dot.png",0,0 M,2,25821,26571,320,240,187,86 S,2,25821,26771,0.45,1.25 P,0,25821,26571,A F,0,25821,26071,0,1 F,0,26371,26571,1,0 C,0,26571,,255,255,255
Sprite,Foreground,Centre,"sb/dot.png",0,0 M,2,26146,26896,320,240,96,163 S,2,26146,27096,0.45,1.25 P,0,26146,26896,A F,0,26146,26396,0,1 F,0,26696,26896,1,0 C,0,26896,,255,255,255
Sprite,Foreground,Centre,"sb/dot.png",0,0 M,2,26470,27220,320,240,64,283 S,2,26470,27420,0.45,1.25 P,0,26470,27220,A F,0,26470,26720,0,1 F,0,27020,27220,1,0 C,0,27220,,255,255,255
Sprite,Foreground,Centre,"sb/dot.png",0,0 M,2,27119,27869,320,240,227,412 S,2,27119,28069,0.45,1.25 P,0,27119,27869,A F,0,27119,27369,0,1 F,0,27669,27869,1,0 C,0,27869,,255,255,255
Sprite,Foreground,Centre,"sb/dot.png",0,0 M,2,27281,28031,320,240,273,378 S,2,27281,28231,0.45,1.25 P,0,27281,28031,A F,0,27281,27531,0,1 F,0,27831,28031,1,0 C,0,28031,,255,255,255
Sprite,Foreground,Centre,"sb/dot.png",0,0 M,2,27443,28193,320,240,316,415 S,2,27443,28393,0.45,1.25 P,0,27443,28193,A F,0,27443,27693,0,1 F,0,27993,28193,1,0 C,0,28193,,255,255,255
Sprite,Foreground,Centre,"sb/dot.png",0,0 M,2,28416,29166,320,240,305,209 S,2,28416,29366,0.45,1.25 P,0,28416,29166,A F,0,28416,28666,0,1 F,0,28966,29166,1,0 C,0,29166,,255,255,255
Sprite,Foreground,Centre,"sb/dot.png",0,0 M,2,28740,29490,320,240,383,125 S,2,28740,29690,0.45,1.25 P,0,28740,29490,A F,0,28740,28990,0,1 F,0,29290,29490,1,0 C,0,29490,,255,255,255
Sprite,Foreground,Centre,"sb/dot.png",0,0 M,2,29389,30139,320,240,572,239 S,2,29389,30339,0.45,1.25 P,0,29389,30139,A F,0,29389,29639,0,1 F,0,29939,30139,1,0 C,0,30139,,255,255,255
Sprite,Foreground,Centre,"sb/dot.png",0,0 M,2,29713,30463,320,240,463,276 S,2,29713,30663,0.45,1.25 P,0,29713,30463,A F,0,29713,29963,0,1 F,0,30263,30463,1,0 C,0,30463,,255,255,255
Sprite,Foreground,Centre,"sb/dot.png",0,0 M,2,30038,30788,320,240,529,369 S,2,30038,30988,0.45,1.25 P,0,30038,30788,A F,0,30038,30288,0,1 F,0,30588,30788,1,0 C,0,30788,,255,255,255
Sprite,Foreground,Centre,"sb/dot.png",0,0 M,2,31010,31760,320,240,520,436 S,2,31010,31960,0.45,1.25 P,0,31010,31760,A F,0,31010,31260,0,1 F,0,31560,31760,1,0 C,0,31760,,255,255,255
Sprite,Foreground,Centre,"sb/dot.png",0,0 M,2,31335,32085,320,240,421,375 S,2,31335,32285,0.45,1.25 P,0,31335,32085,A F,0,31335,31585,0,1 F,0,31885,32085,1,0 C,0,32085,,255,255,255
Sprite,Foreground,Centre,"sb/dot.png",0,0 M,2,31659,32409,320,240,504,271 S,2,31659,32609,0.45,1.25 P,0,31659,32409,A F,0,31659,31909,0,1 F,0,32209,32409,1,0 C,0,32409,,255,255,255
Sprite,Foreground,Centre,"sb/dot.png",0,0 M,2,32308,33058,320,240,326,157 S,2,32308,33258,0.45,1.25 P,0,32308,33058,A F,0,32308,32558,0,1 F,0,32858,33058,1,0 C,0,33058,,255,255,255
Sprite,Foreground,Centre,"sb/dot.png",0,0 M,2,32470,33220,320,240,279,122 S,2,32470,33420,0.45,1.25 P,0,32470,33220,A F,0,32470,32720,0,1 F,0,33020,33220,1,0 C,0,33220,,255,255,255
Sprite,Foreground,Centre,"sb/dot.png",0,0 M,2,32632,33382,320,240,237,162 S,2,32632,33582,0.45,1.25 P,0,32632,33382,A F,0,32632,32882,0,1 F,0,33182,33382,1,0 C,0,33382,,255,255,255
Sprite,Foreground,Centre,"sb/dot.png",0,0 M,2,33605,34355,320,240,318,249 S,2,33605,34555,0.45,1.25 P,0,33605,34355,A F,0,33605,33855,0,1 F,0,34155,34355,1,0 C,0,34355,,255,255,255
Sprite,Foreground,Centre,"sb/dot.png",0,0 M,2,33929,34679,320,240,214,300 S,2,33929,34879,0.45,1.25 P,0,33929,34679,A F,0,33929,34179,0,1 F,0,34479,34679,1,0 C,0,34679,,255,255,255
Sprite,Foreground,Centre,"sb/dot.png",0,0 M,2,34902,35652,320,240,316,352 S,2,34902,35852,0.45,1.25 P,0,34902,35652,A F,0,34902,35152,0,1 F,0,35452,35652,1,0 C,0,35652,,255,255,255
Sprite,Foreground,Centre,"sb/dot.png",0,0 M,2,35389,36139,320,240,513,404 S,2,35389,36339,0.45,1.25 P,0,35389,36139,A F,0,35389,35639,0,1 F,0,35939,36139,1,0 C,0,36139,,255,255,255
Sprite,Foreground,Centre,"sb/dot.png",0,0 M,2,35713,36463,320,240,508,282 S,2,35713,36663,0.45,1.25 P,0,35713,36463,A F,0,35713,35963,0,1 F,0,36263,36463,1,0 C,0,36463,,255,255,255
Sprite,Foreground,Centre,"sb/dot.png",0,0 M,2,35875,36625,320,240,547,240 S,2,35875,36825,0.45,1.25 P,0,35875,36625,A F,0,35875,36125,0,1 F,0,36425,36625,1,0 C,0,36625,,255,255,255
Sprite,Foreground,Centre,"sb/dot.png",0,0 M,2,36199,36949,320,240,486,116 S,2,36199,37149,0.45,1.25 P,0,36199,36949,A F,0,36199,36449,0,1 F,0,36749,36949,1,0 C,0,36949,,255,255,255
Sprite,Foreground,Centre,"sb/dot.png",0,0 M,2,36524,37274,320,240,371,132 S,2,36524,37474,0.45,1.25 P,0,36524,37274,A F,0,36524,36774,0,1 F,0,37074,37274,1,0 C,0,37274,,255,255,255
Sprite,Foreground,Centre,"sb/dot.png",0,0 M,2,36848,37598,320,240,233,134 S,2,36848,37798,0.45,1.25 P,0,36848,37598,A F,0,36848,37098,0,1 F,0,37398,37598,1,0 C,0,37598,,255,255,255
Sprite,Foreground,Centre,"sb/dot.png",0,0 M,2,37498,38248,320,240,368,322 S,2,37498,38448,0.45,1.25 P,0,37498,38248,A F,0,37498,37748,0,1 F,0,38048,38248,1,0 C,0,38248,,255,255,255
Sprite,Foreground,Centre,"sb/dot.png",0,0 M,2,37660,38410,320,240,405,365 S,2,37660,38610,0.45,1.25 P,0,37660,38410,A F,0,37660,37910,0,1 F,0,38210,38410,1,0 C,0,38410,,255,255,255
Sprite,Foreground,Centre,"sb/dot.png",0,0 M,2,37822,38572,320,240,363,405 S,2,37822,38772,0.45,1.25 P,0,37822,38572,A F,0,37822,38072,0,1 F,0,38372,38572,1,0 C,0,38572,,255,255,255
Sprite,Foreground,Centre,"sb/dot.png",0,0 M,2,38795,39545,320,240,462,434 S,2,38795,39745,0.45,1.25 P,0,38795,39545,A F,0,38795,39045,0,1 F,0,39345,39545,1,0 C,0,39545,,255,255,255
Sprite,Foreground,Centre,"sb/dot.png",0,0 M,2,39119,39869,320,240,541,351 S,2,39119,40069,0.45,1.25 P,0,39119,39869,A F,0,39119,39369,0,1 F,0,39669,39869,1,0 C,0,39869,,255,255,255
Sprite,Foreground,Centre,"sb/dot.png",0,0 M,2,39281,40031,320,240,514,299 S,2,39281,40231,0.45,1.25 P,0,39281,40031,A F,0,39281,39531,0,1 F,0,39831,40031,1,0 C,0,40031,,255,255,255
Sprite,Foreground,Centre,"sb/dot.png",0,0 M,2,39443,40193,320,240,540,247 S,2,39443,40393,0.45,1.25 P,0,39443,40193,A F,0,39443,39693,0,1 F,0,39993,40193,1,0 C,0,40193,,255,255,255
Sprite,Foreground,Centre,"sb/dot.png",0,0 M,2,39768,40518,320,240,445,181 S,2,39768,40718,0.45,1.25 P,0,39768,40518,A F,0,39768,40018,0,1 F,0,40318,40518,1,0 C,0,40518,,255,255,255
Sprite,Foreground,Centre,"sb/dot.png",0,0 M,2,40092,40842,320,240,361,260 S,2,40092,41042,0.45,1.25 P,0,40092,40842,A F,0,40092,40342,0,1 F,0,40642,40842,1,0 C,0,40842,,255,255,255
Sprite,Foreground,Centre,"sb/dot.png",0,0 M,2,40417,41167,320,240,247,202 S,2,40417,41367,0.45,1.25 P,0,40417,41167,A F,0,40417,40667,0,1 F,0,40967,41167,1,0 C,0,41167,,255,255,255
Sprite,Foreground,Centre,"sb/hl.png",424,397 S,0,62896,,0.7 F,2,62896,63646,1,0 P,0,62896,63646,A C,0,62896,,222,77,253
Sprite,Foreground,Centre,"sb/heart.png",0,0 M,19,62896,63646,424,397,469,460 F,0,62896,63646,1,0 S,0,62896,63646,0.2,0.08 P,0,62896,63646,A C,0,62896,,222,77,253 R,0,62896,63646,0.569007,0.294299
Sprite,Foreground,Centre,"sb/heart.png",0,0 M,19,62896,63646,424,397,365,408 F,0,62896,63646,1,0 S,0,62896,63646,0.2,0.08 P,0,62896,63646,A C,0,62896,,222,77,253 R,0,62896,63646,0.7496544,0.1424772
Sprite,Foreground,Centre,"sb/heart.png",0,0 M,19,62896,63646,424,397,519,351 F,0,62896,63646,1,0 S,0,62896,63646,0.2,0.08 P,0,62896,63646,A C,0,62896,,222,77,253 R,0,62896,63646,-0.05422788,0.1753812
Sprite,Foreground,Centre,"sb/heart.png",0,0 M,19,62896,63646,424,397,450,390 F,0,62896,63646,1,0 S,0,62896,63646,0.2,0.08 P,0,62896,63646,A C,0,62896,,222,77,253 R,0,62896,63646,0.8493007,-0.396582
Sprite,Foreground,Centre,"sb/heart.png",0,0 M,19,62896,63646,424,397,496,496 F,0,62896,63646,1,0 S,0,62896,63646,0.2,0.08 P,0,62896,63646,A C,0,62896,,222,77,253 R,0,62896,63646,0.4500957,-0.02453262
Sprite,Foreground,Centre,"sb/heart.png",0,0 M,19,62896,63646,424,397,487,466 F,0,62896,63646,1,0 S,0,62896,63646,0.2,0.08 P,0,62896,63646,A C,0,62896,,222,77,253 R,0,62896,63646,0.8620646,-0.393626
Sprite,Foreground,Centre,"sb/heart.png",0,0 M,19,62896,63646,424,397,463,402 F,0,62896,63646,1,0 S,0,62896,63646,0.2,0.08 P,0,62896,63646,A C,0,62896,,222,77,253 R,0,62896,63646,0.7862952,0.4637605
Sprite,Foreground,Centre,"sb/hl.png",512,344 S,0,63220,,0.7 F,2,63215,63220,0,0.4 F,2,63220,64132,0.4,0 P,0,63220,64132,A C,0,63220,,222,77,253
Sprite,Foreground,Centre,"sb/hl.png",514.3429,337.2036 S,0,63236,,0.7 F,2,63231,63236,0,0.4 F,2,63236,64132,0.4,0 P,0,63220,64132,A C,0,63220,,222,77,253
Sprite,Foreground,Centre,"sb/hl.png",516.5315,330.3827 S,0,63252,,0.7 F,2,63247,63252,0,0.4 F,2,63252,64132,0.4,0 P,0,63220,64132,A C,0,63220,,222,77,253
Sprite,Foreground,Centre,"sb/hl.png",518.1799,323.4068 S,0,63268,,0.7 F,2,63263,63268,0,0.4 F,2,63268,64132,0.4,0 P,0,63220,64132,A C,0,63220,,222,77,253
Sprite,Foreground,Centre,"sb/hl.png",519.2776,316.3166 S,0,63284,,0.7 F,2,63279,63284,0,0.4 F,2,63284,64132,0.4,0 P,0,63220,64132,A C,0,63220,,222,77,253
Sprite,Foreground,Centre,"sb/hl.png",519.8164,309.1531 S,0,63301,,0.7 F,2,63296,63301,0,0.4 F,2,63301,64132,0.4,0 P,0,63220,64132,A C,0,63220,,222,77,253
Sprite,Foreground,Centre,"sb/hl.png",519.7913,301.9582 S,0,63317,,0.7 F,2,63312,63317,0,0.4 F,2,63317,64132,0.4,0 P,0,63220,64132,A C,0,63220,,222,77,253
Sprite,Foreground,Centre,"sb/hl.png",518.7251,294.8488 S,0,63333,,0.7 F,2,63328,63333,0,0.4 F,2,63333,64132,0.4,0 P,0,63220,64132,A C,0,63220,,222,77,253
Sprite,Foreground,Centre,"sb/hl.png",517.4563,287.7999 S,0,63349,,0.7 F,2,63344,63349,0,0.4 F,2,63349,64132,0.4,0 P,0,63220,64132,A C,0,63220,,222,77,253
Sprite,Foreground,Centre,"sb/hl.png",515.6382,280.8687 S,0,63365,,0.7 F,2,63360,63365,0,0.4 F,2,63365,64132,0.4,0 P,0,63220,64132,A C,0,63220,,222,77,253
Sprite,Foreground,Centre,"sb/heart.png",0,0 M,19,63220,63970,512,344,521,260 F,0,63220,63970,1,0 S,0,63220,63970,0.2,0.08 P,0,63220,63970,A C,0,63220,,222,77,253 R,0,63220,63970,-0.1913868,0.1570716
Sprite,Foreground,Centre,"sb/heart.png",0,0 M,19,63220,63970,512,344,471,441 F,0,63220,63970,1,0 S,0,63220,63970,0.2,0.08 P,0,63220,63970,A C,0,63220,,222,77,253 R,0,63220,63970,0.4049567,0.5623847
Sprite,Foreground,Centre,"sb/heart.png",0,0 M,19,63220,63970,512,344,418,320 F,0,63220,63970,1,0 S,0,63220,63970,0.2,0.08 P,0,63220,63970,A C,0,63220,,222,77,253 R,0,63220,63970,0.01283931,0.8169736
Sprite,Foreground,Centre,"sb/heart.png",0,0 M,19,63220,63970,512,344,513,387 F,0,63220,63970,1,0 S,0,63220,63970,0.2,0.08 P,0,63220,63970,A C,0,63220,,222,77,253 R,0,63220,63970,-0.280617,-0.07838516
Sprite,Foreground,Centre,"sb/heart.png",0,0 M,19,63220,63970,512,344,593,402 F,0,63220,63970,1,0 S,0,63220,63970,0.2,0.08 P,0,63220,63970,A C,0,63220,,222,77,253 R,0,63220,63970,0.005009539,0.1621526
Sprite,Foreground,Centre,"sb/heart.png",0,0 M,19,63220,63970,512,344,441,288 F,0,63220,63970,1,0 S,0,63220,63970,0.2,0.08 P,0,63220,63970,A C,0,63220,,222,77,253 R,0,63220,63970,0.1004524,0.5044789
Sprite,Foreground,Centre,"sb/heart.png",0,0 M,19,63220,63970,512,344,535,341 F,0,63220,63970,1,0 S,0,63220,63970,0.2,0.08 P,0,63220,63970,A C,0,63220,,222,77,253 R,0,63220,63970,-0.1811912,0.7132177
Sprite,Foreground,Centre,"sb/hl.png",456,217 S,0,63544,,0.7 F,2,63539,63544,0,0.4 F,2,63544,64618,0.4,0 P,0,63544,64618,A C,0,63544,,222,77,253
Sprite,Foreground,Centre,"sb/hl.png",452.1351,210.9415 S,0,63560,,0.7 F,2,63555,63560,0,0.4 F,2,63560,64618,0.4,0 P,0,63544,64618,A C,0,63544,,222,77,253
Sprite,Foreground,Centre,"sb/hl.png",448.4647,204.8002 S,0,63576,,0.7 F,2,63571,63576,0,0.4 F,2,63576,64618,0.4,0 P,0,63544,64618,A C,0,63544,,222,77,253
Sprite,Foreground,Centre,"sb/hl.png",445.3639,198.3484 S,0,63592,,0.7 F,2,63587,63592,0,0.4 F,2,63592,64618,0.4,0 P,0,63544,64618,A C,0,63544,,222,77,253
Sprite,Foreground,Centre,"sb/hl.png",442.8582,191.6369 S,0,63608,,0.7 F,2,63603,63608,0,0.4 F,2,63608,64618,0.4,0 P,0,63544,64618,A C,0,63544,,222,77,253
Sprite,Foreground,Centre,"sb/hl.png",440.9691,184.7188 S,0,63625,,0.7 F,2,63620,63625,0,0.4 F,2,63625,64618,0.4,0 P,0,63544,64618,A C,0,63544,,222,77,253
Sprite,Foreground,Centre,"sb/hl.png",439.7131,177.6488 S,0,63641,,0.7 F,2,63636,63641,0,0.4 F,2,63641,64618,0.4,0 P,0,63544,64618,A C,0,63544,,222,77,253
Sprite,Foreground,Centre,"sb/hl.png",439.1025,170.4829 S,0,63657,,0.7 F,2,63652,63657,0,0.4 F,2,63657,64618,0.4,0 P,0,63544,64618,A C,0,63544,,222,77,253
Sprite,Foreground,Centre,"sb/hl.png",439.6284,163.3158 S,0,63673,,0.7 F,2,63668,63673,0,0.4 F,2,63673,64618,0.4,0 P,0,63544,64618,A C,0,63544,,222,77,253
Sprite,Foreground,Centre,"sb/hl.png",440.432,156.208 S,0,63689,,0.7 F,2,63684,63689,0,0.4 F,2,63689,64618,0.4,0 P,0,63544,64618,A C,0,63544,,222,77,253
Sprite,Foreground,Centre,"sb/hl.png",441.8765,149.1996 S,0,63706,,0.7 F,2,63701,63706,0,0.4 F,2,63706,64618,0.4,0 P,0,63544,64618,A C,0,63544,,222,77,253
Sprite,Foreground,Centre,"sb/hl.png",443.951,142.3465 S,0,63722,,0.7 F,2,63717,63722,0,0.4 F,2,63722,64618,0.4,0 P,0,63544,64618,A C,0,63544,,222,77,253
Sprite,Foreground,Centre,"sb/hl.png",446.6401,135.7037 S,0,63738,,0.7 F,2,63733,63738,0,0.4 F,2,63738,64618,0.4,0 P,0,63544,64618,A C,0,63544,,222,77,253
Sprite,Foreground,Centre,"sb/hl.png",449.9239,129.3247 S,0,63754,,0.7 F,2,63749,63754,0,0.4 F,2,63754,64618,0.4,0 P,0,63544,64618,A C,0,63544,,222,77,253
Sprite,Foreground,Centre,"sb/hl.png",453.7778,123.2612 S,0,63771,,0.7 F,2,63766,63771,0,0.4 F,2,63771,64618,0.4,0 P,0,63544,64618,A C,0,63544,,222,77,253
Sprite,Foreground,Centre,"sb/hl.png",458.1732,117.5628 S,0,63787,,0.7 F,2,63782,63787,0,0.4 F,2,63787,64618,0.4,0 P,0,63544,64618,A C,0,63544,,222,77,253
Sprite,Foreground,Centre,"sb/hl.png",463.4332,112.6664 S,0,63803,,0.7 F,2,63798,63803,0,0.4 F,2,63803,64618,0.4,0 P,0,63544,64618,A C,0,63544,,222,77,253
Sprite,Foreground,Centre,"sb/hl.png",468.8291,107.9693 S,0,63819,,0.7 F,2,63814,63819,0,0.4 F,2,63819,64618,0.4,0 P,0,63544,64618,A C,0,63544,,222,77,253
Sprite,Foreground,Centre,"sb/hl.png",474.6308,103.7783 S,0,63835,,0.7 F,2,63830,63835,0,0.4 F,2,63835,64618,0.4,0 P,0,63544,64618,A C,0,63544,,222,77,253
Sprite,Foreground,Centre,"sb/hl.png",480.7926,100.1273 S,0,63852,,0.7 F,2,63847,63852,0,0.4 F,2,63852,64618,0.4,0 P,0,63544,64618,A C,0,63544,,222,77,253
Sprite,Foreground,Centre,"sb/heart.png",0,0 M,19,63544,64294,456,217,521,264 F,0,63544,64294,1,0 S,0,63544,64294,0.2,0.08 P,0,63544,64294,A C,0,63544,,222,77,253 R,0,63544,64294,0.687074,0.4534571
Sprite,Foreground,Centre,"sb/heart.png",0,0 M,19,63544,64294,456,217,480,160 F,0,63544,64294,1,0 S,0,63544,64294,0.2,0.08 P,0,63544,64294,A C,0,63544,,222,77,253 R,0,63544,64294,0.7356944,0.7371047
Sprite,Foreground,Centre,"sb/heart.png",0,0 M,19,63544,64294,456,217,373,284 F,0,63544,64294,1,0 S,0,63544,64294,0.2,0.08 P,0,63544,64294,A C,0,63544,,222,77,253 R,0,63544,64294,-0.2136159,0.4068126
Sprite,Foreground,Centre,"sb/heart.png",0,0 M,19,63544,64294,456,217,521,160 F,0,63544,64294,1,0 S,0,63544,64294,0.2,0.08 P,0,63544,64294,A C,0,63544,,222,77,253 R,0,63544,64294,0.8726289,0.1937739
Sprite,Foreground,Centre,"sb/heart.png",0,0 M,19,63544,64294,456,217,486,260 F,0,63544,64294,1,0 S,0,63544,64294,0.2,0.08 P,0,63544,64294,A C,0,63544,,222,77,253 R,0,63544,64294,0.6232517,-0.3042082
Sprite,Foreground,Centre,"sb/heart.png",0,0 M,19,63544,64294,456,217,501,260 F,0,63544,64294,1,0 S,0,63544,64294,0.2,0.08 P,0,63544,64294,A C,0,63544,,222,77,253 R,0,63544,64294,-0.2720175,0.7485408
Sprite,Foreground,Centre,"sb/heart.png",0,0 M,19,63544,64294,456,217,393,212 F,0,63544,64294,1,0 S,0,63544,64294,0.2,0.08 P,0,63544,64294,A C,0,63544,,222,77,253 R,0,63544,64294,0.271567,-0.0102529
Sprite,Foreground,Centre,"sb/hl.png",372,81 S,0,64193,,0.7 F,2,64193,64943,1,0 P,0,64193,64943,A C,0,64193,,222,77,253
Sprite,Foreground,Centre,"sb/heart.png",0,0 M,19,64193,64943,372,81,406,74 F,0,64193,64943,1,0 S,0,64193,64943,0.2,0.08 P,0,64193,64943,A C,0,64193,,222,77,253 R,0,64193,64943,0.6547126,0.622913
Sprite,Foreground,Centre,"sb/heart.png",0,0 M,19,64193,64943,372,81,430,133 F,0,64193,64943,1,0 S,0,64193,64943,0.2,0.08 P,0,64193,64943,A C,0,64193,,222,77,253 R,0,64193,64943,0.7909052,-0.0501824
Sprite,Foreground,Centre,"sb/heart.png",0,0 M,19,64193,64943,372,81,376,113 F,0,64193,64943,1,0 S,0,64193,64943,0.2,0.08 P,0,64193,64943,A C,0,64193,,222,77,253 R,0,64193,64943,-0.0009742908,-0.06101353
Sprite,Foreground,Centre,"sb/heart.png",0,0 M,19,64193,64943,372,81,436,25 F,0,64193,64943,1,0 S,0,64193,64943,0.2,0.08 P,0,64193,64943,A C,0,64193,,222,77,253 R,0,64193,64943,-0.191718,-0.3466414
Sprite,Foreground,Centre,"sb/heart.png",0,0 M,19,64193,64943,372,81,396,119 F,0,64193,64943,1,0 S,0,64193,64943,0.2,0.08 P,0,64193,64943,A C,0,64193,,222,77,253 R,0,64193,64943,0.388852,0.7779422
Sprite,Foreground,Centre,"sb/heart.png",0,0 M,19,64193,64943,372,81,316,166 F,0,64193,64943,1,0 S,0,64193,64943,0.2,0.08 P,0,64193,64943,A C,0,64193,,222,77,253 R,0,64193,64943,-0.3492557,0.7419015
Sprite,Foreground,Centre,"sb/heart.png",0,0 M,19,64193,64943,372,81,407,-1 F,0,64193,64943,1,0 S,0,64193,64943,0.2,0.08 P,0,64193,64943,A C,0,64193,,222,77,253 R,0,64193,64943,-0.2411642,-0.2963057
Sprite,Foreground,Centre,"sb/hl.png",320,107 S,0,64355,,0.7 F,2,64355,65105,1,0 P,0,64355,65105,A C,0,64355,,222,77,253
Sprite,Foreground,Centre,"sb/heart.png",0,0 M,19,64355,65105,320,107,341,197 F,0,64355,65105,1,0 S,0,64355,65105,0.2,0.08 P,0,64355,65105,A C,0,64355,,222,77,253 R,0,64355,65105,0.2058946,-0.2425271
Sprite,Foreground,Centre,"sb/heart.png",0,0 M,19,64355,65105,320,107,355,120 F,0,64355,65105,1,0 S,0,64355,65105,0.2,0.08 P,0,64355,65105,A C,0,64355,,222,77,253 R,0,64355,65105,-0.1412803,0.3728662
Sprite,Foreground,Centre,"sb/heart.png",0,0 M,19,64355,65105,320,107,221,79 F,0,64355,65105,1,0 S,0,64355,65105,0.2,0.08 P,0,64355,65105,A C,0,64355,,222,77,253 R,0,64355,65105,0.6769499,-0.3547708
Sprite,Foreground,Centre,"sb/heart.png",0,0 M,19,64355,65105,320,107,276,147 F,0,64355,65105,1,0 S,0,64355,65105,0.2,0.08 P,0,64355,65105,A C,0,64355,,222,77,253 R,0,64355,65105,0.8184465,0.8580201
Sprite,Foreground,Centre,"sb/heart.png",0,0 M,19,64355,65105,320,107,297,111 F,0,64355,65105,1,0 S,0,64355,65105,0.2,0.08 P,0,64355,65105,A C,0,64355,,222,77,253 R,0,64355,65105,-0.06938732,0.2267743
Sprite,Foreground,Centre,"sb/heart.png",0,0 M,19,64355,65105,320,107,326,18 F,0,64355,65105,1,0 S,0,64355,65105,0.2,0.08 P,0,64355,65105,A C,0,64355,,222,77,253 R,0,64355,65105,-0.06908847,0.2130333
Sprite,Foreground,Centre,"sb/heart.png",0,0 M,19,64355,65105,320,107,389,129 F,0,64355,65105,1,0 S,0,64355,65105,0.2,0.08 P,0,64355,65105,A C,0,64355,,222,77,253 R,0,64355,65105,-0.299989,0.5353741
Sprite,Foreground,Centre,"sb/hl.png",266,84 S,0,64517,,0.7 F,2,64512,64517,0,0.4 F,2,64517,65591,0.4,0 P,0,64517,65591,A C,0,64517,,222,77,253
Sprite,Foreground,Centre,"sb/hl.png",260.3492,79.55553 S,0,64533,,0.7 F,2,64528,64533,0,0.4 F,2,64533,65591,0.4,0 P,0,64517,65591,A C,0,64517,,222,77,253
Sprite,Foreground,Centre,"sb/hl.png",254.593,75.2906 S,0,64549,,0.7 F,2,64544,64549,0,0.4 F,2,64549,65591,0.4,0 P,0,64517,65591,A C,0,64517,,222,77,253
Sprite,Foreground,Centre,"sb/hl.png",248.5031,71.51318 S,0,64565,,0.7 F,2,64560,64565,0,0.4 F,2,64565,65591,0.4,0 P,0,64517,65591,A C,0,64517,,222,77,253
Sprite,Foreground,Centre,"sb/hl.png",242.1198,68.2488 S,0,64581,,0.7 F,2,64576,64581,0,0.4 F,2,64581,65591,0.4,0 P,0,64517,65591,A C,0,64517,,222,77,253
Sprite,Foreground,Centre,"sb/hl.png",235.4851,65.51982 S,0,64598,,0.7 F,2,64593,64598,0,0.4 F,2,64598,65591,0.4,0 P,0,64517,65591,A C,0,64517,,222,77,253
Sprite,Foreground,Centre,"sb/hl.png",228.6429,63.34525 S,0,64614,,0.7 F,2,64609,64614,0,0.4 F,2,64614,65591,0.4,0 P,0,64517,65591,A C,0,64517,,222,77,253
Sprite,Foreground,Centre,"sb/hl.png",221.6382,61.74066 S,0,64630,,0.7 F,2,64625,64630,0,0.4 F,2,64630,65591,0.4,0 P,0,64517,65591,A C,0,64517,,222,77,253
Sprite,Foreground,Centre,"sb/hl.png",214.5173,60.71806 S,0,64646,,0.7 F,2,64641,64646,0,0.4 F,2,64646,65591,0.4,0 P,0,64517,65591,A C,0,64517,,222,77,253
Sprite,Foreground,Centre,"sb/hl.png",207.3282,60.70201 S,0,64662,,0.7 F,2,64657,64662,0,0.4 F,2,64662,65591,0.4,0 P,0,64517,65591,A C,0,64517,,222,77,253
Sprite,Foreground,Centre,"sb/hl.png",200.1693,60.95098 S,0,64679,,0.7 F,2,64674,64679,0,0.4 F,2,64679,65591,0.4,0 P,0,64517,65591,A C,0,64517,,222,77,253
Sprite,Foreground,Centre,"sb/hl.png",193.0538,61.78898 S,0,64695,,0.7 F,2,64690,64695,0,0.4 F,2,64695,65591,0.4,0 P,0,64517,65591,A C,0,64517,,222,77,253
Sprite,Foreground,Centre,"sb/hl.png",186.029,63.2108 S,0,64711,,0.7 F,2,64706,64711,0,0.4 F,2,64711,65591,0.4,0 P,0,64517,65591,A C,0,64517,,222,77,253
Sprite,Foreground,Centre,"sb/hl.png",179.1416,65.2076 S,0,64727,,0.7 F,2,64722,64727,0,0.4 F,2,64727,65591,0.4,0 P,0,64517,65591,A C,0,64517,,222,77,253
Sprite,Foreground,Centre,"sb/hl.png",172.4378,67.76685 S,0,64744,,0.7 F,2,64739,64744,0,0.4 F,2,64744,65591,0.4,0 P,0,64517,65591,A C,0,64517,,222,77,253
Sprite,Foreground,Centre,"sb/hl.png",165.9623,70.87249 S,0,64760,,0.7 F,2,64755,64760,0,0.4 F,2,64760,65591,0.4,0 P,0,64517,65591,A C,0,64517,,222,77,253
Sprite,Foreground,Centre,"sb/hl.png",159.7589,74.50496 S,0,64776,,0.7 F,2,64771,64776,0,0.4 F,2,64776,65591,0.4,0 P,0,64517,65591,A C,0,64517,,222,77,253
Sprite,Foreground,Centre,"sb/hl.png",153.8697,78.6413 S,0,64792,,0.7 F,2,64787,64792,0,0.4 F,2,64792,65591,0.4,0 P,0,64517,65591,A C,0,64517,,222,77,253
Sprite,Foreground,Centre,"sb/hl.png",148.6433,83.5779 S,0,64808,,0.7 F,2,64803,64808,0,0.4 F,2,64808,65591,0.4,0 P,0,64517,65591,A C,0,64517,,222,77,253
Sprite,Foreground,Centre,"sb/hl.png",143.5995,88.66487 S,0,64825,,0.7 F,2,64820,64825,0,0.4 F,2,64825,65591,0.4,0 P,0,64517,65591,A C,0,64517,,222,77,253
Sprite,Foreground,Centre,"sb/heart.png",0,0 M,19,64517,65267,266,84,246,170 F,0,64517,65267,1,0 S,0,64517,65267,0.2,0.08 P,0,64517,65267,A C,0,64517,,222,77,253 R,0,64517,65267,-0.2652486,0.4795104
Sprite,Foreground,Centre,"sb/heart.png",0,0 M,19,64517,65267,266,84,289,150 F,0,64517,65267,1,0 S,0,64517,65267,0.2,0.08 P,0,64517,65267,A C,0,64517,,222,77,253 R,0,64517,65267,0.4604962,0.3094589
Sprite,Foreground,Centre,"sb/heart.png",0,0 M,19,64517,65267,266,84,200,20 F,0,64517,65267,1,0 S,0,64517,65267,0.2,0.08 P,0,64517,65267,A C,0,64517,,222,77,253 R,0,64517,65267,0.360992,-0.1081035
Sprite,Foreground,Centre,"sb/heart.png",0,0 M,19,64517,65267,266,84,365,97 F,0,64517,65267,1,0 S,0,64517,65267,0.2,0.08 P,0,64517,65267,A C,0,64517,,222,77,253 R,0,64517,65267,-0.3532939,-0.09117111
Sprite,Foreground,Centre,"sb/heart.png",0,0 M,19,64517,65267,266,84,334,97 F,0,64517,65267,1,0 S,0,64517,65267,0.2,0.08 P,0,64517,65267,A C,0,64517,,222,77,253 R,0,64517,65267,0.4092668,0.2395894
Sprite,Foreground,Centre,"sb/heart.png",0,0 M,19,64517,65267,266,84,360,-1 F,0,64517,65267,1,0 S,0,64517,65267,0.2,0.08 P,0,64517,65267,A C,0,64517,,222,77,253 R,0,64517,65267,0.2351404,-0.232436
Sprite,Foreground,Centre,"sb/heart.png",0,0 M,19,64517,65267,266,84,328,112 F,0,64517,65267,1,0 S,0,64517,65267,0.2,0.08 P,0,64517,65267,A C,0,64517,,222,77,253 R,0,64517,65267,0.3168559,0.2873622
Sprite,Foreground,Centre,"sb/hl.png",353,208 S,0,65490,,0.7 F,2,65490,66240,1,0 P,0,65490,66240,A C,0,65490,,255,219,111
Sprite,Foreground,Centre,"sb/heart.png",0,0 M,19,65490,66240,353,208,387,306 F,0,65490,66240,1,0 S,0,65490,66240,0.2,0.08 P,0,65490,66240,A C,0,65490,,255,219,111 R,0,65490,66240,-0.04148546,-0.3519627
Sprite,Foreground,Centre,"sb/heart.png",0,0 M,19,65490,66240,353,208,346,204 F,0,65490,66240,1,0 S,0,65490,66240,0.2,0.08 P,0,65490,66240,A C,0,65490,,255,219,111 R,0,65490,66240,-0.1531884,-0.3424909
Sprite,Foreground,Centre,"sb/heart.png",0,0 M,19,65490,66240,353,208,299,138 F,0,65490,66240,1,0 S,0,65490,66240,0.2,0.08 P,0,65490,66240,A C,0,65490,,255,219,111 R,0,65490,66240,0.1486582,0.1541292
Sprite,Foreground,Centre,"sb/heart.png",0,0 M,19,65490,66240,353,208,256,185 F,0,65490,66240,1,0 S,0,65490,66240,0.2,0.08 P,0,65490,66240,A C,0,65490,,255,219,111 R,0,65490,66240,0.6318678,-0.1711241
Sprite,Foreground,Centre,"sb/heart.png",0,0 M,19,65490,66240,353,208,435,113 F,0,65490,66240,1,0 S,0,65490,66240,0.2,0.08 P,0,65490,66240,A C,0,65490,,255,219,111 R,0,65490,66240,0.230551,0.8240873
Sprite,Foreground,Centre,"sb/heart.png",0,0 M,19,65490,66240,353,208,451,111 F,0,65490,66240,1,0 S,0,65490,66240,0.2,0.08 P,0,65490,66240,A C,0,65490,,255,219,111 R,0,65490,66240,0.4191216,-0.07199982
Sprite,Foreground,Centre,"sb/heart.png",0,0 M,19,65490,66240,353,208,446,225 F,0,65490,66240,1,0 S,0,65490,66240,0.2,0.08 P,0,65490,66240,A C,0,65490,,255,219,111 R,0,65490,66240,0.5744774,-0.01199876
Sprite,Foreground,Centre,"sb/hl.png",267,285 S,0,65814,,0.7 F,2,65809,65814,0,0.4 F,2,65814,67212,0.4,0 P,0,65814,67212,A C,0,65814,,255,219,111
Sprite,Foreground,Centre,"sb/hl.png",260.6412,288.3599 S,0,65830,,0.7 F,2,65825,65830,0,0.4 F,2,65830,67212,0.4,0 P,0,65814,67212,A C,0,65814,,255,219,111
Sprite,Foreground,Centre,"sb/hl.png",254.2101,291.5367 S,0,65846,,0.7 F,2,65841,65846,0,0.4 F,2,65846,67212,0.4,0 P,0,65814,67212,A C,0,65814,,255,219,111
Sprite,Foreground,Centre,"sb/hl.png",247.5632,294.2363 S,0,65862,,0.7 F,2,65857,65862,0,0.4 F,2,65862,67212,0.4,0 P,0,65814,67212,A C,0,65814,,255,219,111
Sprite,Foreground,Centre,"sb/hl.png",240.7353,296.4442 S,0,65878,,0.7 F,2,65873,65878,0,0.4 F,2,65878,67212,0.4,0 P,0,65814,67212,A C,0,65814,,255,219,111
Sprite,Foreground,Centre,"sb/hl.png",233.7621,298.1485 S,0,65895,,0.7 F,2,65890,65895,0,0.4 F,2,65895,67212,0.4,0 P,0,65814,67212,A C,0,65814,,255,219,111
Sprite,Foreground,Centre,"sb/hl.png",226.6801,299.3399 S,0,65911,,0.7 F,2,65906,65911,0,0.4 F,2,65911,67212,0.4,0 P,0,65814,67212,A C,0,65814,,255,219,111
Sprite,Foreground,Centre,"sb/hl.png",219.5264,300.0115 S,0,65927,,0.7 F,2,65922,65927,0,0.4 F,2,65927,67212,0.4,0 P,0,65814,67212,A C,0,65814,,255,219,111
Sprite,Foreground,Centre,"sb/hl.png",212.3385,300.1592 S,0,65943,,0.7 F,2,65938,65943,0,0.4 F,2,65943,67212,0.4,0 P,0,65814,67212,A C,0,65814,,255,219,111
Sprite,Foreground,Centre,"sb/hl.png",205.154,299.7815 S,0,65959,,0.7 F,2,65954,65959,0,0.4 F,2,65959,67212,0.4,0 P,0,65814,67212,A C,0,65814,,255,219,111
Sprite,Foreground,Centre,"sb/hl.png",198.0683,298.5506 S,0,65976,,0.7 F,2,65971,65976,0,0.4 F,2,65976,67212,0.4,0 P,0,65814,67212,A C,0,65814,,255,219,111
Sprite,Foreground,Centre,"sb/hl.png",191.0503,297.0704 S,0,65992,,0.7 F,2,65987,65992,0,0.4 F,2,65992,67212,0.4,0 P,0,65814,67212,A C,0,65814,,255,219,111
Sprite,Foreground,Centre,"sb/hl.png",184.1584,295.082 S,0,66008,,0.7 F,2,66003,66008,0,0.4 F,2,66008,67212,0.4,0 P,0,65814,67212,A C,0,65814,,255,219,111
Sprite,Foreground,Centre,"sb/hl.png",177.4288,292.5955 S,0,66024,,0.7 F,2,66019,66024,0,0.4 F,2,66024,67212,0.4,0 P,0,65814,67212,A C,0,65814,,255,219,111
Sprite,Foreground,Centre,"sb/hl.png",170.8968,289.6239 S,0,66041,,0.7 F,2,66036,66041,0,0.4 F,2,66041,67212,0.4,0 P,0,65814,67212,A C,0,65814,,255,219,111
Sprite,Foreground,Centre,"sb/hl.png",164.5969,286.1823 S,0,66057,,0.7 F,2,66052,66057,0,0.4 F,2,66057,67212,0.4,0 P,0,65814,67212,A C,0,65814,,255,219,111
Sprite,Foreground,Centre,"sb/hl.png",158.5624,282.2884 S,0,66073,,0.7 F,2,66068,66073,0,0.4 F,2,66073,67212,0.4,0 P,0,65814,67212,A C,0,65814,,255,219,111
Sprite,Foreground,Centre,"sb/hl.png",152.8253,277.9622 S,0,66089,,0.7 F,2,66084,66089,0,0.4 F,2,66089,67212,0.4,0 P,0,65814,67212,A C,0,65814,,255,219,111
Sprite,Foreground,Centre,"sb/hl.png",147.416,273.2259 S,0,66105,,0.7 F,2,66100,66105,0,0.4 F,2,66105,67212,0.4,0 P,0,65814,67212,A C,0,65814,,255,219,111
Sprite,Foreground,Centre,"sb/hl.png",142.3635,268.1038 S,0,66122,,0.7 F,2,66117,66122,0,0.4 F,2,66122,67212,0.4,0 P,0,65814,67212,A C,0,65814,,255,219,111
Sprite,Foreground,Centre,"sb/hl.png",137.963,262.4153 S,0,66138,,0.7 F,2,66133,66138,0,0.4 F,2,66138,67212,0.4,0 P,0,65814,67212,A C,0,65814,,255,219,111
Sprite,Foreground,Centre,"sb/hl.png",142.3635,268.1038 S,0,66154,,0.7 F,2,66149,66154,0,0.4 F,2,66154,67212,0.4,0 P,0,65814,67212,A C,0,65814,,255,219,111
Sprite,Foreground,Centre,"sb/hl.png",147.416,273.2259 S,0,66170,,0.7 F,2,66165,66170,0,0.4 F,2,66170,67212,0.4,0 P,0,65814,67212,A C,0,65814,,255,219,111
Sprite,Foreground,Centre,"sb/hl.png",152.8253,277.9622 S,0,66186,,0.7 F,2,66181,66186,0,0.4 F,2,66186,67212,0.4,0 P,0,65814,67212,A C,0,65814,,255,219,111
Sprite,Foreground,Centre,"sb/hl.png",158.5624,282.2884 S,0,66203,,0.7 F,2,66198,66203,0,0.4 F,2,66203,67212,0.4,0 P,0,65814,67212,A C,0,65814,,255,219,111
Sprite,Foreground,Centre,"sb/hl.png",164.5969,286.1823 S,0,66219,,0.7 F,2,66214,66219,0,0.4 F,2,66219,67212,0.4,0 P,0,65814,67212,A C,0,65814,,255,219,111
Sprite,Foreground,Centre,"sb/hl.png",170.8968,289.6239 S,0,66235,,0.7 F,2,66230,66235,0,0.4 F,2,66235,67212,0.4,0 P,0,65814,67212,A C,0,65814,,255,219,111
Sprite,Foreground,Centre,"sb/hl.png",177.4288,292.5955 S,0,66251,,0.7 F,2,66246,66251,0,0.4 F,2,66251,67212,0.4,0 P,0,65814,67212,A C,0,65814,,255,219,111
Sprite,Foreground,Centre,"sb/hl.png",184.1584,295.082 S,0,66268,,0.7 F,2,66263,66268,0,0.4 F,2,66268,67212,0.4,0 P,0,65814,67212,A C,0,65814,,255,219,111
Sprite,Foreground,Centre,"sb/hl.png",191.0503,297.0704 S,0,66284,,0.7 F,2,66279,66284,0,0.4 F,2,66284,67212,0.4,0 P,0,65814,67212,A C,0,65814,,255,219,111
Sprite,Foreground,Centre,"sb/hl.png",198.0683,298.5506 S,0,66300,,0.7 F,2,66295,66300,0,0.4 F,2,66300,67212,0.4,0 P,0,65814,67212,A C,0,65814,,255,219,111
Sprite,Foreground,Centre,"sb/hl.png",205.1541,299.7815 S,0,66316,,0.7 F,2,66311,66316,0,0.4 F,2,66316,67212,0.4,0 P,0,65814,67212,A C,0,65814,,255,219,111
Sprite,Foreground,Centre,"sb/hl.png",212.3385,300.1592 S,0,66332,,0.7 F,2,66327,66332,0,0.4 F,2,66332,67212,0.4,0 P,0,65814,67212,A C,0,65814,,255,219,111
Sprite,Foreground,Centre,"sb/hl.png",219.5264,300.0115 S,0,66349,,0.7 F,2,66344,66349,0,0.4 F,2,66349,67212,0.4,0 P,0,65814,67212,A C,0,65814,,255,219,111
Sprite,Foreground,Centre,"sb/hl.png",226.6801,299.3399 S,0,66365,,0.7 F,2,66360,66365,0,0.4 F,2,66365,67212,0.4,0 P,0,65814,67212,A C,0,65814,,255,219,111
Sprite,Foreground,Centre,"sb/hl.png",233.7621,298.1485 S,0,66381,,0.7 F,2,66376,66381,0,0.4 F,2,66381,67212,0.4,0 P,0,65814,67212,A C,0,65814,,255,219,111
Sprite,Foreground,Centre,"sb/hl.png",240.7353,296.4442 S,0,66397,,0.7 F,2,66392,66397,0,0.4 F,2,66397,67212,0.4,0 P,0,65814,67212,A C,0,65814,,255,219,111
Sprite,Foreground,Centre,"sb/hl.png",247.5632,294.2363 S,0,66413,,0.7 F,2,66408,66413,0,0.4 F,2,66413,67212,0.4,0 P,0,65814,67212,A C,0,65814,,255,219,111
Sprite,Foreground,Centre,"sb/hl.png",254.2101,291.5367 S,0,66430,,0.7 F,2,66425,66430,0,0.4 F,2,66430,67212,0.4,0 P,0,65814,67212,A C,0,65814,,255,219,111
Sprite,Foreground,Centre,"sb/hl.png",260.6412,288.3599 S,0,66446,,0.7 F,2,66441,66446,0,0.4 F,2,66446,67212,0.4,0 P,0,65814,67212,A C,0,65814,,255,219,111
Sprite,Foreground,Centre,"sb/heart.png",0,0 M,19,65814,66564,267,285,251,379 F,0,65814,66564,1,0 S,0,65814,66564,0.2,0.08 P,0,65814,66564,A C,0,65814,,255,219,111 R,0,65814,66564,0.7234384,0.8371741
Sprite,Foreground,Centre,"sb/heart.png",0,0 M,19,65814,66564,267,285,218,211 F,0,65814,66564,1,0 S,0,65814,66564,0.2,0.08 P,0,65814,66564,A C,0,65814,,255,219,111 R,0,65814,66564,0.7381695,-0.2030413
Sprite,Foreground,Centre,"sb/heart.png",0,0 M,19,65814,66564,267,285,343,293 F,0,65814,66564,1,0 S,0,65814,66564,0.2,0.08 P,0,65814,66564,A C,0,65814,,255,219,111 R,0,65814,66564,0.5912895,0.2365454
Sprite,Foreground,Centre,"sb/heart.png",0,0 M,19,65814,66564,267,285,237,383 F,0,65814,66564,1,0 S,0,65814,66564,0.2,0.08 P,0,65814,66564,A C,0,65814,,255,219,111 R,0,65814,66564,-0.3925554,0.4691368
Sprite,Foreground,Centre,"sb/heart.png",0,0 M,19,65814,66564,267,285,191,223 F,0,65814,66564,1,0 S,0,65814,66564,0.2,0.08 P,0,65814,66564,A C,0,65814,,255,219,111 R,0,65814,66564,0.2136067,0.3245738
Sprite,Foreground,Centre,"sb/heart.png",0,0 M,19,65814,66564,267,285,219,247 F,0,65814,66564,1,0 S,0,65814,66564,0.2,0.08 P,0,65814,66564,A C,0,65814,,255,219,111 R,0,65814,66564,-0.119377,0.5900204
Sprite,Foreground,Centre,"sb/heart.png",0,0 M,19,65814,66564,267,285,193,307 F,0,65814,66564,1,0 S,0,65814,66564,0.2,0.08 P,0,65814,66564,A C,0,65814,,255,219,111 R,0,65814,66564,0.2957767,0.4218713
Sprite,Foreground,Centre,"sb/hl.png",360,217 S,0,66787,,0.7 F,2,66782,66787,0,0.4 F,2,66787,67861,0.4,0 P,0,66787,67861,A C,0,66787,,255,219,111
Sprite,Foreground,Centre,"sb/hl.png",365.3528,212.1991 S,0,66803,,0.7 F,2,66798,66803,0,0.4 F,2,66803,67861,0.4,0 P,0,66787,67861,A C,0,66787,,255,219,111
Sprite,Foreground,Centre,"sb/hl.png",370.8092,207.5509 S,0,66819,,0.7 F,2,66814,66819,0,0.4 F,2,66819,67861,0.4,0 P,0,66787,67861,A C,0,66787,,255,219,111
Sprite,Foreground,Centre,"sb/hl.png",376.6084,203.334 S,0,66835,,0.7 F,2,66830,66835,0,0.4 F,2,66835,67861,0.4,0 P,0,66787,67861,A C,0,66787,,255,219,111
Sprite,Foreground,Centre,"sb/hl.png",382.7173,199.5729 S,0,66851,,0.7 F,2,66846,66851,0,0.4 F,2,66851,67861,0.4,0 P,0,66787,67861,A C,0,66787,,255,219,111
Sprite,Foreground,Centre,"sb/hl.png",389.1012,196.2899 S,0,66868,,0.7 F,2,66863,66868,0,0.4 F,2,66868,67861,0.4,0 P,0,66787,67861,A C,0,66787,,255,219,111
Sprite,Foreground,Centre,"sb/hl.png",395.724,193.5048 S,0,66884,,0.7 F,2,66879,66884,0,0.4 F,2,66884,67861,0.4,0 P,0,66787,67861,A C,0,66787,,255,219,111
Sprite,Foreground,Centre,"sb/hl.png",402.548,191.2345 S,0,66900,,0.7 F,2,66895,66900,0,0.4 F,2,66900,67861,0.4,0 P,0,66787,67861,A C,0,66787,,255,219,111
Sprite,Foreground,Centre,"sb/hl.png",409.6055,189.8588 S,0,66916,,0.7 F,2,66911,66916,0,0.4 F,2,66916,67861,0.4,0 P,0,66787,67861,A C,0,66787,,255,219,111
Sprite,Foreground,Centre,"sb/hl.png",416.6868,188.7561 S,0,66932,,0.7 F,2,66927,66932,0,0.4 F,2,66932,67861,0.4,0 P,0,66787,67861,A C,0,66787,,255,219,111
Sprite,Foreground,Centre,"sb/hl.png",423.8332,188.2001 S,0,66949,,0.7 F,2,66944,66949,0,0.4 F,2,66949,67861,0.4,0 P,0,66787,67861,A C,0,66787,,255,219,111
Sprite,Foreground,Centre,"sb/hl.png",431.0035,188.1945 S,0,66965,,0.7 F,2,66960,66965,0,0.4 F,2,66965,67861,0.4,0 P,0,66787,67861,A C,0,66787,,255,219,111
Sprite,Foreground,Centre,"sb/hl.png",438.1568,188.7398 S,0,66981,,0.7 F,2,66976,66981,0,0.4 F,2,66981,67861,0.4,0 P,0,66787,67861,A C,0,66787,,255,219,111
Sprite,Foreground,Centre,"sb/hl.png",445.2517,189.8337 S,0,66997,,0.7 F,2,66992,66997,0,0.4 F,2,66997,67861,0.4,0 P,0,66787,67861,A C,0,66787,,255,219,111
Sprite,Foreground,Centre,"sb/hl.png",452.2475,191.4707 S,0,67014,,0.7 F,2,67009,67014,0,0.4 F,2,67014,67861,0.4,0 P,0,66787,67861,A C,0,66787,,255,219,111
Sprite,Foreground,Centre,"sb/hl.png",459.1037,193.6426 S,0,67030,,0.7 F,2,67025,67030,0,0.4 F,2,67030,67861,0.4,0 P,0,66787,67861,A C,0,66787,,255,219,111
Sprite,Foreground,Centre,"sb/hl.png",465.6219,196.6781 S,0,67046,,0.7 F,2,67041,67046,0,0.4 F,2,67046,67861,0.4,0 P,0,66787,67861,A C,0,66787,,255,219,111
Sprite,Foreground,Centre,"sb/hl.png",472.0002,199.9459 S,0,67062,,0.7 F,2,67057,67062,0,0.4 F,2,67062,67861,0.4,0 P,0,66787,67861,A C,0,66787,,255,219,111
Sprite,Foreground,Centre,"sb/hl.png",478.11,203.6944 S,0,67078,,0.7 F,2,67073,67078,0,0.4 F,2,67078,67861,0.4,0 P,0,66787,67861,A C,0,66787,,255,219,111
Sprite,Foreground,Centre,"sb/hl.png",483.9158,207.9024 S,0,67095,,0.7 F,2,67090,67095,0,0.4 F,2,67095,67861,0.4,0 P,0,66787,67861,A C,0,66787,,255,219,111
Sprite,Foreground,Centre,"sb/heart.png",0,0 M,19,66787,67537,360,217,328,121 F,0,66787,67537,1,0 S,0,66787,67537,0.2,0.08 P,0,66787,67537,A C,0,66787,,255,219,111 R,0,66787,67537,-0.3089854,0.71285
Sprite,Foreground,Centre,"sb/heart.png",0,0 M,19,66787,67537,360,217,402,295 F,0,66787,67537,1,0 S,0,66787,67537,0.2,0.08 P,0,66787,67537,A C,0,66787,,255,219,111 R,0,66787,67537,0.4161707,-0.1021354
Sprite,Foreground,Centre,"sb/heart.png",0,0 M,19,66787,67537,360,217,312,211 F,0,66787,67537,1,0 S,0,66787,67537,0.2,0.08 P,0,66787,67537,A C,0,66787,,255,219,111 R,0,66787,67537,-0.1798935,0.7255132
Sprite,Foreground,Centre,"sb/heart.png",0,0 M,19,66787,67537,360,217,358,244 F,0,66787,67537,1,0 S,0,66787,67537,0.2,0.08 P,0,66787,67537,A C,0,66787,,255,219,111 R,0,66787,67537,-0.01783002,0.04665097
Sprite,Foreground,Centre,"sb/heart.png",0,0 M,19,66787,67537,360,217,308,316 F,0,66787,67537,1,0 S,0,66787,67537,0.2,0.08 P,0,66787,67537,A C,0,66787,,255,219,111 R,0,66787,67537,0.3628184,-0.4339438
Sprite,Foreground,Centre,"sb/heart.png",0,0 M,19,66787,67537,360,217,456,309 F,0,66787,67537,1,0 S,0,66787,67537,0.2,0.08 P,0,66787,67537,A C,0,66787,,255,219,111 R,0,66787,67537,-0.230632,0.5745497
Sprite,Foreground,Centre,"sb/heart.png",0,0 M,19,66787,67537,360,217,278,155 F,0,66787,67537,1,0 S,0,66787,67537,0.2,0.08 P,0,66787,67537,A C,0,66787,,255,219,111 R,0,66787,67537,-0.3545167,-0.2922614
Sprite,Foreground,Centre,"sb/hl.png",467,289 S,0,67274,,0.7 F,2,67269,67274,0,0.4 F,2,67274,68186,0.4,0 P,0,67274,68186,A C,0,67274,,255,219,111
Sprite,Foreground,Centre,"sb/hl.png",463.4864,295.2589 S,0,67290,,0.7 F,2,67285,67290,0,0.4 F,2,67290,68186,0.4,0 P,0,67274,68186,A C,0,67274,,255,219,111
Sprite,Foreground,Centre,"sb/hl.png",460.2383,301.6014 S,0,67306,,0.7 F,2,67301,67306,0,0.4 F,2,67306,68186,0.4,0 P,0,67274,68186,A C,0,67274,,255,219,111
Sprite,Foreground,Centre,"sb/hl.png",457.7473,308.2838 S,0,67322,,0.7 F,2,67317,67322,0,0.4 F,2,67322,68186,0.4,0 P,0,67274,68186,A C,0,67274,,255,219,111
Sprite,Foreground,Centre,"sb/hl.png",456.0482,315.2188 S,0,67338,,0.7 F,2,67333,67338,0,0.4 F,2,67338,68186,0.4,0 P,0,67274,68186,A C,0,67274,,255,219,111
Sprite,Foreground,Centre,"sb/hl.png",455.1658,322.3156 S,0,67355,,0.7 F,2,67350,67355,0,0.4 F,2,67355,68186,0.4,0 P,0,67274,68186,A C,0,67274,,255,219,111
Sprite,Foreground,Centre,"sb/hl.png",455.1153,329.4811 S,0,67371,,0.7 F,2,67366,67371,0,0.4 F,2,67371,68186,0.4,0 P,0,67274,68186,A C,0,67274,,255,219,111
Sprite,Foreground,Centre,"sb/hl.png",455.9015,336.6205 S,0,67387,,0.7 F,2,67382,67387,0,0.4 F,2,67387,68186,0.4,0 P,0,67274,68186,A C,0,67274,,255,219,111
Sprite,Foreground,Centre,"sb/hl.png",458.0719,343.4622 S,0,67403,,0.7 F,2,67398,67403,0,0.4 F,2,67403,68186,0.4,0 P,0,67274,68186,A C,0,67274,,255,219,111
Sprite,Foreground,Centre,"sb/hl.png",460.6,350.1217 S,0,67419,,0.7 F,2,67414,67419,0,0.4 F,2,67419,68186,0.4,0 P,0,67274,68186,A C,0,67274,,255,219,111
Sprite,Foreground,Centre,"sb/heart.png",0,0 M,19,67274,68024,467,289,513,209 F,0,67274,68024,1,0 S,0,67274,68024,0.2,0.08 P,0,67274,68024,A C,0,67274,,255,219,111 R,0,67274,68024,0.662999,0.4049217
Sprite,Foreground,Centre,"sb/heart.png",0,0 M,19,67274,68024,467,289,481,237 F,0,67274,68024,1,0 S,0,67274,68024,0.2,0.08 P,0,67274,68024,A C,0,67274,,255,219,111 R,0,67274,68024,0.6595513,0.6888562
Sprite,Foreground,Centre,"sb/heart.png",0,0 M,19,67274,68024,467,289,456,370 F,0,67274,68024,1,0 S,0,67274,68024,0.2,0.08 P,0,67274,68024,A C,0,67274,,255,219,111 R,0,67274,68024,0.6150126,0.1661262
Sprite,Foreground,Centre,"sb/heart.png",0,0 M,19,67274,68024,467,289,435,344 F,0,67274,68024,1,0 S,0,67274,68024,0.2,0.08 P,0,67274,68024,A C,0,67274,,255,219,111 R,0,67274,68024,0.1224711,0.4108158
Sprite,Foreground,Centre,"sb/heart.png",0,0 M,19,67274,68024,467,289,566,310 F,0,67274,68024,1,0 S,0,67274,68024,0.2,0.08 P,0,67274,68024,A C,0,67274,,255,219,111 R,0,67274,68024,-0.3189089,0.3802734
Sprite,Foreground,Centre,"sb/heart.png",0,0 M,19,67274,68024,467,289,565,363 F,0,67274,68024,1,0 S,0,67274,68024,0.2,0.08 P,0,67274,68024,A C,0,67274,,255,219,111 R,0,67274,68024,0.2699291,-0.2561629
Sprite,Foreground,Centre,"sb/heart.png",0,0 M,19,67274,68024,467,289,367,300 F,0,67274,68024,1,0 S,0,67274,68024,0.2,0.08 P,0,67274,68024,A C,0,67274,,255,219,111 R,0,67274,68024,0.4435655,0.06008719
Sprite,Foreground,Centre,"sb/hl.png",516,378 S,0,67598,,0.7 F,2,67598,68348,1,0 P,0,67598,68348,A C,0,67598,,255,219,111
Sprite,Foreground,Centre,"sb/heart.png",0,0 M,19,67598,68348,516,378,589,343 F,0,67598,68348,1,0 S,0,67598,68348,0.2,0.08 P,0,67598,68348,A C,0,67598,,255,219,111 R,0,67598,68348,0.5933703,0.2442937
Sprite,Foreground,Centre,"sb/heart.png",0,0 M,19,67598,68348,516,378,581,386 F,0,67598,68348,1,0 S,0,67598,68348,0.2,0.08 P,0,67598,68348,A C,0,67598,,255,219,111 R,0,67598,68348,0.2476326,-0.2230847
Sprite,Foreground,Centre,"sb/heart.png",0,0 M,19,67598,68348,516,378,542,388 F,0,67598,68348,1,0 S,0,67598,68348,0.2,0.08 P,0,67598,68348,A C,0,67598,,255,219,111 R,0,67598,68348,-0.02450878,-0.1091478
Sprite,Foreground,Centre,"sb/heart.png",0,0 M,19,67598,68348,516,378,576,370 F,0,67598,68348,1,0 S,0,67598,68348,0.2,0.08 P,0,67598,68348,A C,0,67598,,255,219,111 R,0,67598,68348,0.7700403,0.005319462
Sprite,Foreground,Centre,"sb/heart.png",0,0 M,19,67598,68348,516,378,454,308 F,0,67598,68348,1,0 S,0,67598,68348,0.2,0.08 P,0,67598,68348,A C,0,67598,,255,219,111 R,0,67598,68348,0.4293623,-0.1676064
Sprite,Foreground,Centre,"sb/heart.png",0,0 M,19,67598,68348,516,378,522,379 F,0,67598,68348,1,0 S,0,67598,68348,0.2,0.08 P,0,67598,68348,A C,0,67598,,255,219,111 R,0,67598,68348,0.575851,0.1950539
Sprite,Foreground,Centre,"sb/heart.png",0,0 M,19,67598,68348,516,378,436,365 F,0,67598,68348,1,0 S,0,67598,68348,0.2,0.08 P,0,67598,68348,A C,0,67598,,255,219,111 R,0,67598,68348,-0.2800235,0.6889246
Sprite,Foreground,Centre,"sb/hl.png",510,435 S,0,67761,,0.7 F,2,67761,68511,1,0 P,0,67761,68511,A C,0,67761,,255,219,111
Sprite,Foreground,Centre,"sb/heart.png",0,0 M,19,67761,68511,510,435,522,475 F,0,67761,68511,1,0 S,0,67761,68511,0.2,0.08 P,0,67761,68511,A C,0,67761,,255,219,111 R,0,67761,68511,0.4023069,-0.4160308
Sprite,Foreground,Centre,"sb/heart.png",0,0 M,19,67761,68511,510,435,523,426 F,0,67761,68511,1,0 S,0,67761,68511,0.2,0.08 P,0,67761,68511,A C,0,67761,,255,219,111 R,0,67761,68511,0.8640422,-0.2761866
Sprite,Foreground,Centre,"sb/heart.png",0,0 M,19,67761,68511,510,435,434,391 F,0,67761,68511,1,0 S,0,67761,68511,0.2,0.08 P,0,67761,68511,A C,0,67761,,255,219,111 R,0,67761,68511,0.3891315,0.6099234
Sprite,Foreground,Centre,"sb/heart.png",0,0 M,19,67761,68511,510,435,461,387 F,0,67761,68511,1,0 S,0,67761,68511,0.2,0.08 P,0,67761,68511,A C,0,67761,,255,219,111 R,0,67761,68511,-0.4193309,0.1471817
Sprite,Foreground,Centre,"sb/heart.png",0,0 M,19,67761,68511,510,435,468,502 F,0,67761,68511,1,0 S,0,67761,68511,0.2,0.08 P,0,67761,68511,A C,0,67761,,255,219,111 R,0,67761,68511,0.6412479,0.2581161
Sprite,Foreground,Centre,"sb/heart.png",0,0 M,19,67761,68511,510,435,600,375 F,0,67761,68511,1,0 S,0,67761,68511,0.2,0.08 P,0,67761,68511,A C,0,67761,,255,219,111 R,0,67761,68511,0.8011764,0.6785873
Sprite,Foreground,Centre,"sb/heart.png",0,0 M,19,67761,68511,510,435,589,428 F,0,67761,68511,1,0 S,0,67761,68511,0.2,0.08 P,0,67761,68511,A C,0,67761,,255,219,111 R,0,67761,68511,0.6689058,0.02992961
Sprite,Foreground,Centre,"sb/hl.png",394,435 S,0,68085,,0.7 F,2,68085,68835,1,0 P,0,68085,68835,A C,0,68085,,128,128,255
Sprite,Foreground,Centre,"sb/heart.png",0,0 M,19,68085,68835,394,435,404,395 F,0,68085,68835,1,0 S,0,68085,68835,0.2,0.08 P,0,68085,68835,A C,0,68085,,128,128,255 R,0,68085,68835,0.1118135,0.07545248
Sprite,Foreground,Centre,"sb/heart.png",0,0 M,19,68085,68835,394,435,378,467 F,0,68085,68835,1,0 S,0,68085,68835,0.2,0.08 P,0,68085,68835,A C,0,68085,,128,128,255 R,0,68085,68835,0.3497587,0.7836494
Sprite,Foreground,Centre,"sb/heart.png",0,0 M,19,68085,68835,394,435,476,394 F,0,68085,68835,1,0 S,0,68085,68835,0.2,0.08 P,0,68085,68835,A C,0,68085,,128,128,255 R,0,68085,68835,0.4544519,0.01222611
Sprite,Foreground,Centre,"sb/heart.png",0,0 M,19,68085,68835,394,435,387,494 F,0,68085,68835,1,0 S,0,68085,68835,0.2,0.08 P,0,68085,68835,A C,0,68085,,128,128,255 R,0,68085,68835,-0.1524144,0.7536034
Sprite,Foreground,Centre,"sb/heart.png",0,0 M,19,68085,68835,394,435,397,507 F,0,68085,68835,1,0 S,0,68085,68835,0.2,0.08 P,0,68085,68835,A C,0,68085,,128,128,255 R,0,68085,68835,0.8067786,-0.08170977
Sprite,Foreground,Centre,"sb/heart.png",0,0 M,19,68085,68835,394,435,393,400 F,0,68085,68835,1,0 S,0,68085,68835,0.2,0.08 P,0,68085,68835,A C,0,68085,,128,128,255 R,0,68085,68835,-0.190213,-0.09409086
Sprite,Foreground,Centre,"sb/heart.png",0,0 M,19,68085,68835,394,435,417,452 F,0,68085,68835,1,0 S,0,68085,68835,0.2,0.08 P,0,68085,68835,A C,0,68085,,128,128,255 R,0,68085,68835,0.7523282,0.03521162
Sprite,Foreground,Centre,"sb/hl.png",325,341 S,0,68409,,0.7 F,2,68404,68409,0,0.4 F,2,68409,69321,0.4,0 P,0,68409,69321,A C,0,68409,,128,128,255
Sprite,Foreground,Centre,"sb/hl.png",318.2473,338.5375 S,0,68425,,0.7 F,2,68420,68425,0,0.4 F,2,68425,69321,0.4,0 P,0,68409,69321,A C,0,68409,,128,128,255
Sprite,Foreground,Centre,"sb/hl.png",311.4514,336.2857 S,0,68441,,0.7 F,2,68436,68441,0,0.4 F,2,68441,69321,0.4,0 P,0,68409,69321,A C,0,68409,,128,128,255
Sprite,Foreground,Centre,"sb/hl.png",304.4825,334.634 S,0,68457,,0.7 F,2,68452,68457,0,0.4 F,2,68457,69321,0.4,0 P,0,68409,69321,A C,0,68409,,128,128,255
Sprite,Foreground,Centre,"sb/hl.png",297.3921,333.5954 S,0,68473,,0.7 F,2,68468,68473,0,0.4 F,2,68473,69321,0.4,0 P,0,68409,69321,A C,0,68409,,128,128,255
Sprite,Foreground,Centre,"sb/hl.png",290.2326,333.1785 S,0,68490,,0.7 F,2,68485,68490,0,0.4 F,2,68490,69321,0.4,0 P,0,68409,69321,A C,0,68409,,128,128,255
Sprite,Foreground,Centre,"sb/hl.png",283.0571,333.3878 S,0,68506,,0.7 F,2,68501,68506,0,0.4 F,2,68506,69321,0.4,0 P,0,68409,69321,A C,0,68409,,128,128,255
Sprite,Foreground,Centre,"sb/hl.png",275.919,334.223 S,0,68522,,0.7 F,2,68517,68522,0,0.4 F,2,68522,69321,0.4,0 P,0,68409,69321,A C,0,68409,,128,128,255
Sprite,Foreground,Centre,"sb/hl.png",268.8716,335.6799 S,0,68538,,0.7 F,2,68533,68538,0,0.4 F,2,68538,69321,0.4,0 P,0,68409,69321,A C,0,68409,,128,128,255
Sprite,Foreground,Centre,"sb/hl.png",262.1404,338.2009 S,0,68554,,0.7 F,2,68549,68554,0,0.4 F,2,68554,69321,0.4,0 P,0,68409,69321,A C,0,68409,,128,128,255
Sprite,Foreground,Centre,"sb/heart.png",0,0 M,19,68409,69159,325,341,376,398 F,0,68409,69159,1,0 S,0,68409,69159,0.2,0.08 P,0,68409,69159,A C,0,68409,,128,128,255 R,0,68409,69159,-0.2800567,-0.3021071
Sprite,Foreground,Centre,"sb/heart.png",0,0 M,19,68409,69159,325,341,347,368 F,0,68409,69159,1,0 S,0,68409,69159,0.2,0.08 P,0,68409,69159,A C,0,68409,,128,128,255 R,0,68409,69159,0.3105348,0.632082
Sprite,Foreground,Centre,"sb/heart.png",0,0 M,19,68409,69159,325,341,397,288 F,0,68409,69159,1,0 S,0,68409,69159,0.2,0.08 P,0,68409,69159,A C,0,68409,,128,128,255 R,0,68409,69159,0.05780011,0.3395716
Sprite,Foreground,Centre,"sb/heart.png",0,0 M,19,68409,69159,325,341,357,257 F,0,68409,69159,1,0 S,0,68409,69159,0.2,0.08 P,0,68409,69159,A C,0,68409,,128,128,255 R,0,68409,69159,0.2616391,0.8664094
Sprite,Foreground,Centre,"sb/heart.png",0,0 M,19,68409,69159,325,341,256,337 F,0,68409,69159,1,0 S,0,68409,69159,0.2,0.08 P,0,68409,69159,A C,0,68409,,128,128,255 R,0,68409,69159,-0.3528171,-0.2369657
Sprite,Foreground,Centre,"sb/heart.png",0,0 M,19,68409,69159,325,341,422,248 F,0,68409,69159,1,0 S,0,68409,69159,0.2,0.08 P,0,68409,69159,A C,0,68409,,128,128,255 R,0,68409,69159,-0.001638005,-0.3917454
Sprite,Foreground,Centre,"sb/heart.png",0,0 M,19,68409,69159,325,341,328,355 F,0,68409,69159,1,0 S,0,68409,69159,0.2,0.08 P,0,68409,69159,A C,0,68409,,128,128,255 R,0,68409,69159,0.6883789,-0.1427261
Sprite,Foreground,Centre,"sb/hl.png",202,402 S,0,68734,,0.7 F,2,68729,68734,0,0.4 F,2,68734,69808,0.4,0 P,0,68734,69808,A C,0,68734,,128,128,255
Sprite,Foreground,Centre,"sb/hl.png",196.1023,406.1112 S,0,68750,,0.7 F,2,68745,68750,0,0.4 F,2,68750,69808,0.4,0 P,0,68734,69808,A C,0,68734,,128,128,255
Sprite,Foreground,Centre,"sb/hl.png",190.1004,410.0229 S,0,68766,,0.7 F,2,68761,68766,0,0.4 F,2,68766,69808,0.4,0 P,0,68734,69808,A C,0,68734,,128,128,255
Sprite,Foreground,Centre,"sb/hl.png",183.79,413.4179 S,0,68782,,0.7 F,2,68777,68782,0,0.4 F,2,68782,69808,0.4,0 P,0,68734,69808,A C,0,68734,,128,128,255
Sprite,Foreground,Centre,"sb/hl.png",177.2145,416.2723 S,0,68798,,0.7 F,2,68793,68798,0,0.4 F,2,68798,69808,0.4,0 P,0,68734,69808,A C,0,68734,,128,128,255
Sprite,Foreground,Centre,"sb/hl.png",170.4196,418.5658 S,0,68815,,0.7 F,2,68810,68815,0,0.4 F,2,68815,69808,0.4,0 P,0,68734,69808,A C,0,68734,,128,128,255
Sprite,Foreground,Centre,"sb/hl.png",163.4519,420.2817 S,0,68831,,0.7 F,2,68826,68831,0,0.4 F,2,68831,69808,0.4,0 P,0,68734,69808,A C,0,68734,,128,128,255
Sprite,Foreground,Centre,"sb/hl.png",156.3599,421.4074 S,0,68847,,0.7 F,2,68842,68847,0,0.4 F,2,68847,69808,0.4,0 P,0,68734,69808,A C,0,68734,,128,128,255
Sprite,Foreground,Centre,"sb/hl.png",149.1925,421.934 S,0,68863,,0.7 F,2,68858,68863,0,0.4 F,2,68863,69808,0.4,0 P,0,68734,69808,A C,0,68734,,128,128,255
Sprite,Foreground,Centre,"sb/hl.png",141.9995,421.8567 S,0,68879,,0.7 F,2,68874,68879,0,0.4 F,2,68879,69808,0.4,0 P,0,68734,69808,A C,0,68734,,128,128,255
Sprite,Foreground,Centre,"sb/hl.png",134.891,420.7825 S,0,68896,,0.7 F,2,68891,68896,0,0.4 F,2,68896,69808,0.4,0 P,0,68734,69808,A C,0,68734,,128,128,255
Sprite,Foreground,Centre,"sb/hl.png",127.8561,419.432 S,0,68912,,0.7 F,2,68907,68912,0,0.4 F,2,68912,69808,0.4,0 P,0,68734,69808,A C,0,68734,,128,128,255
Sprite,Foreground,Centre,"sb/hl.png",120.9584,417.4956 S,0,68928,,0.7 F,2,68923,68928,0,0.4 F,2,68928,69808,0.4,0 P,0,68734,69808,A C,0,68734,,128,128,255
Sprite,Foreground,Centre,"sb/hl.png",114.2458,414.9866 S,0,68944,,0.7 F,2,68939,68944,0,0.4 F,2,68944,69808,0.4,0 P,0,68734,69808,A C,0,68734,,128,128,255
Sprite,Foreground,Centre,"sb/hl.png",107.765,411.9219 S,0,68961,,0.7 F,2,68956,68961,0,0.4 F,2,68961,69808,0.4,0 P,0,68734,69808,A C,0,68734,,128,128,255
Sprite,Foreground,Centre,"sb/hl.png",101.5613,408.3222 S,0,68977,,0.7 F,2,68972,68977,0,0.4 F,2,68977,69808,0.4,0 P,0,68734,69808,A C,0,68734,,128,128,255
Sprite,Foreground,Centre,"sb/hl.png",95.67802,404.212 S,0,68993,,0.7 F,2,68988,68993,0,0.4 F,2,68993,69808,0.4,0 P,0,68734,69808,A C,0,68734,,128,128,255
Sprite,Foreground,Centre,"sb/hl.png",90.15666,399.6189 S,0,69009,,0.7 F,2,69004,69009,0,0.4 F,2,69009,69808,0.4,0 P,0,68734,69808,A C,0,68734,,128,128,255
Sprite,Foreground,Centre,"sb/hl.png",85.03623,394.5742 S,0,69025,,0.7 F,2,69020,69025,0,0.4 F,2,69025,69808,0.4,0 P,0,68734,69808,A C,0,68734,,128,128,255
Sprite,Foreground,Centre,"sb/hl.png",80.35318,389.1119 S,0,69042,,0.7 F,2,69037,69042,0,0.4 F,2,69042,69808,0.4,0 P,0,68734,69808,A C,0,68734,,128,128,255
Sprite,Foreground,Centre,"sb/heart.png",0,0 M,19,68734,69484,202,402,125,333 F,0,68734,69484,1,0 S,0,68734,69484,0.2,0.08 P,0,68734,69484,A C,0,68734,,128,128,255 R,0,68734,69484,0.5788258,0.6539305
Sprite,Foreground,Centre,"sb/heart.png",0,0 M,19,68734,69484,202,402,252,350 F,0,68734,69484,1,0 S,0,68734,69484,0.2,0.08 P,0,68734,69484,A C,0,68734,,128,128,255 R,0,68734,69484,-0.2070006,-0.2745094
Sprite,Foreground,Centre,"sb/heart.png",0,0 M,19,68734,69484,202,402,137,417 F,0,68734,69484,1,0 S,0,68734,69484,0.2,0.08 P,0,68734,69484,A C,0,68734,,128,128,255 R,0,68734,69484,0.5180002,0.6494852
Sprite,Foreground,Centre,"sb/heart.png",0,0 M,19,68734,69484,202,402,147,382 F,0,68734,69484,1,0 S,0,68734,69484,0.2,0.08 P,0,68734,69484,A C,0,68734,,128,128,255 R,0,68734,69484,-0.3779666,-0.06978605
Sprite,Foreground,Centre,"sb/heart.png",0,0 M,19,68734,69484,202,402,198,373 F,0,68734,69484,1,0 S,0,68734,69484,0.2,0.08 P,0,68734,69484,A C,0,68734,,128,128,255 R,0,68734,69484,0.3588255,0.1081987
Sprite,Foreground,Centre,"sb/heart.png",0,0 M,19,68734,69484,202,402,260,340 F,0,68734,69484,1,0 S,0,68734,69484,0.2,0.08 P,0,68734,69484,A C,0,68734,,128,128,255 R,0,68734,69484,-0.3025424,-0.2597304
Sprite,Foreground,Centre,"sb/heart.png",0,0 M,19,68734,69484,202,402,207,453 F,0,68734,69484,1,0 S,0,68734,69484,0.2,0.08 P,0,68734,69484,A C,0,68734,,128,128,255 R,0,68734,69484,0.05451994,0.5067447
Sprite,Foreground,Centre,"sb/hl.png",152,296 S,0,69382,,0.7 F,2,69382,70132,1,0 P,0,69382,70132,A C,0,69382,,128,128,255
Sprite,Foreground,Centre,"sb/heart.png",0,0 M,19,69382,70132,152,296,143,213 F,0,69382,70132,1,0 S,0,69382,70132,0.2,0.08 P,0,69382,70132,A C,0,69382,,128,128,255 R,0,69382,70132,0.3298318,-0.383725
Sprite,Foreground,Centre,"sb/heart.png",0,0 M,19,69382,70132,152,296,207,265 F,0,69382,70132,1,0 S,0,69382,70132,0.2,0.08 P,0,69382,70132,A C,0,69382,,128,128,255 R,0,69382,70132,0.4798848,0.4893334
Sprite,Foreground,Centre,"sb/heart.png",0,0 M,19,69382,70132,152,296,144,304 F,0,69382,70132,1,0 S,0,69382,70132,0.2,0.08 P,0,69382,70132,A C,0,69382,,128,128,255 R,0,69382,70132,0.6605272,0.1175823
Sprite,Foreground,Centre,"sb/heart.png",0,0 M,19,69382,70132,152,296,233,277 F,0,69382,70132,1,0 S,0,69382,70132,0.2,0.08 P,0,69382,70132,A C,0,69382,,128,128,255 R,0,69382,70132,0.631163,0.3245572
Sprite,Foreground,Centre,"sb/heart.png",0,0 M,19,69382,70132,152,296,202,242 F,0,69382,70132,1,0 S,0,69382,70132,0.2,0.08 P,0,69382,70132,A C,0,69382,,128,128,255 R,0,69382,70132,0.7726716,0.3288557
Sprite,Foreground,Centre,"sb/heart.png",0,0 M,19,69382,70132,152,296,250,206 F,0,69382,70132,1,0 S,0,69382,70132,0.2,0.08 P,0,69382,70132,A C,0,69382,,128,128,255 R,0,69382,70132,0.2829481,-0.2264811
Sprite,Foreground,Centre,"sb/heart.png",0,0 M,19,69382,70132,152,296,245,284 F,0,69382,70132,1,0 S,0,69382,70132,0.2,0.08 P,0,69382,70132,A C,0,69382,,128,128,255 R,0,69382,70132,0.1265761,0.7724872
Sprite,Foreground,Centre,"sb/hl.png",118,250 S,0,69544,,0.7 F,2,69544,70294,1,0 P,0,69544,70294,A C,0,69544,,128,128,255
Sprite,Foreground,Centre,"sb/heart.png",0,0 M,19,69544,70294,118,250,29,278 F,0,69544,70294,1,0 S,0,69544,70294,0.2,0.08 P,0,69544,70294,A C,0,69544,,128,128,255 R,0,69544,70294,-0.03341154,0.8714122
Sprite,Foreground,Centre,"sb/heart.png",0,0 M,19,69544,70294,118,250,191,240 F,0,69544,70294,1,0 S,0,69544,70294,0.2,0.08 P,0,69544,70294,A C,0,69544,,128,128,255 R,0,69544,70294,0.4364654,-0.3127745
Sprite,Foreground,Centre,"sb/heart.png",0,0 M,19,69544,70294,118,250,216,287 F,0,69544,70294,1,0 S,0,69544,70294,0.2,0.08 P,0,69544,70294,A C,0,69544,,128,128,255 R,0,69544,70294,-0.3689131,0.7187634
Sprite,Foreground,Centre,"sb/heart.png",0,0 M,19,69544,70294,118,250,158,217 F,0,69544,70294,1,0 S,0,69544,70294,0.2,0.08 P,0,69544,70294,A C,0,69544,,128,128,255 R,0,69544,70294,0.631693,0.7941016
Sprite,Foreground,Centre,"sb/heart.png",0,0 M,19,69544,70294,118,250,121,186 F,0,69544,70294,1,0 S,0,69544,70294,0.2,0.08 P,0,69544,70294,A C,0,69544,,128,128,255 R,0,69544,70294,0.2315138,0.06721403
Sprite,Foreground,Centre,"sb/heart.png",0,0 M,19,69544,70294,118,250,93,254 F,0,69544,70294,1,0 S,0,69544,70294,0.2,0.08 P,0,69544,70294,A C,0,69544,,128,128,255 R,0,69544,70294,0.06558034,-0.05568492
Sprite,Foreground,Centre,"sb/heart.png",0,0 M,19,69544,70294,118,250,184,308 F,0,69544,70294,1,0 S,0,69544,70294,0.2,0.08 P,0,69544,70294,A C,0,69544,,128,128,255 R,0,69544,70294,0.5175374,0.09354187
Sprite,Foreground,Centre,"sb/hl.png",155,207 S,0,69707,,0.7 F,2,69702,69707,0,0.4 F,2,69707,70781,0.4,0 P,0,69707,70781,A C,0,69707,,128,128,255
Sprite,Foreground,Centre,"sb/hl.png",159.1112,201.1023 S,0,69723,,0.7 F,2,69718,69723,0,0.4 F,2,69723,70781,0.4,0 P,0,69707,70781,A C,0,69707,,128,128,255
Sprite,Foreground,Centre,"sb/hl.png",163.0229,195.1004 S,0,69739,,0.7 F,2,69734,69739,0,0.4 F,2,69739,70781,0.4,0 P,0,69707,70781,A C,0,69707,,128,128,255
Sprite,Foreground,Centre,"sb/hl.png",166.4179,188.79 S,0,69755,,0.7 F,2,69750,69755,0,0.4 F,2,69755,70781,0.4,0 P,0,69707,70781,A C,0,69707,,128,128,255
Sprite,Foreground,Centre,"sb/hl.png",169.2723,182.2145 S,0,69771,,0.7 F,2,69766,69771,0,0.4 F,2,69771,70781,0.4,0 P,0,69707,70781,A C,0,69707,,128,128,255
Sprite,Foreground,Centre,"sb/hl.png",171.5658,175.4196 S,0,69788,,0.7 F,2,69783,69788,0,0.4 F,2,69788,70781,0.4,0 P,0,69707,70781,A C,0,69707,,128,128,255
Sprite,Foreground,Centre,"sb/hl.png",173.2817,168.4519 S,0,69804,,0.7 F,2,69799,69804,0,0.4 F,2,69804,70781,0.4,0 P,0,69707,70781,A C,0,69707,,128,128,255
Sprite,Foreground,Centre,"sb/hl.png",174.4074,161.3599 S,0,69820,,0.7 F,2,69815,69820,0,0.4 F,2,69820,70781,0.4,0 P,0,69707,70781,A C,0,69707,,128,128,255
Sprite,Foreground,Centre,"sb/hl.png",174.934,154.1925 S,0,69836,,0.7 F,2,69831,69836,0,0.4 F,2,69836,70781,0.4,0 P,0,69707,70781,A C,0,69707,,128,128,255
Sprite,Foreground,Centre,"sb/hl.png",174.8567,146.9995 S,0,69852,,0.7 F,2,69847,69852,0,0.4 F,2,69852,70781,0.4,0 P,0,69707,70781,A C,0,69707,,128,128,255
Sprite,Foreground,Centre,"sb/hl.png",173.7825,139.891 S,0,69869,,0.7 F,2,69864,69869,0,0.4 F,2,69869,70781,0.4,0 P,0,69707,70781,A C,0,69707,,128,128,255
Sprite,Foreground,Centre,"sb/hl.png",172.432,132.8561 S,0,69885,,0.7 F,2,69880,69885,0,0.4 F,2,69885,70781,0.4,0 P,0,69707,70781,A C,0,69707,,128,128,255
Sprite,Foreground,Centre,"sb/hl.png",170.4956,125.9584 S,0,69901,,0.7 F,2,69896,69901,0,0.4 F,2,69901,70781,0.4,0 P,0,69707,70781,A C,0,69707,,128,128,255
Sprite,Foreground,Centre,"sb/hl.png",167.9866,119.2458 S,0,69917,,0.7 F,2,69912,69917,0,0.4 F,2,69917,70781,0.4,0 P,0,69707,70781,A C,0,69707,,128,128,255
Sprite,Foreground,Centre,"sb/hl.png",164.9219,112.765 S,0,69934,,0.7 F,2,69929,69934,0,0.4 F,2,69934,70781,0.4,0 P,0,69707,70781,A C,0,69707,,128,128,255
Sprite,Foreground,Centre,"sb/hl.png",161.3222,106.5613 S,0,69950,,0.7 F,2,69945,69950,0,0.4 F,2,69950,70781,0.4,0 P,0,69707,70781,A C,0,69707,,128,128,255
Sprite,Foreground,Centre,"sb/hl.png",157.212,100.678 S,0,69966,,0.7 F,2,69961,69966,0,0.4 F,2,69966,70781,0.4,0 P,0,69707,70781,A C,0,69707,,128,128,255
Sprite,Foreground,Centre,"sb/hl.png",152.6189,95.15666 S,0,69982,,0.7 F,2,69977,69982,0,0.4 F,2,69982,70781,0.4,0 P,0,69707,70781,A C,0,69707,,128,128,255
Sprite,Foreground,Centre,"sb/hl.png",147.5742,90.03623 S,0,69998,,0.7 F,2,69993,69998,0,0.4 F,2,69998,70781,0.4,0 P,0,69707,70781,A C,0,69707,,128,128,255
Sprite,Foreground,Centre,"sb/hl.png",142.1119,85.35318 S,0,70015,,0.7 F,2,70010,70015,0,0.4 F,2,70015,70781,0.4,0 P,0,69707,70781,A C,0,69707,,128,128,255
Sprite,Foreground,Centre,"sb/heart.png",0,0 M,19,69707,70457,155,207,162,191 F,0,69707,70457,1,0 S,0,69707,70457,0.2,0.08 P,0,69707,70457,A C,0,69707,,128,128,255 R,0,69707,70457,-0.3391828,0.001885844
Sprite,Foreground,Centre,"sb/heart.png",0,0 M,19,69707,70457,155,207,238,262 F,0,69707,70457,1,0 S,0,69707,70457,0.2,0.08 P,0,69707,70457,A C,0,69707,,128,128,255 R,0,69707,70457,0.417219,0.6416264
Sprite,Foreground,Centre,"sb/heart.png",0,0 M,19,69707,70457,155,207,102,274 F,0,69707,70457,1,0 S,0,69707,70457,0.2,0.08 P,0,69707,70457,A C,0,69707,,128,128,255 R,0,69707,70457,0.2938875,0.154098
Sprite,Foreground,Centre,"sb/heart.png",0,0 M,19,69707,70457,155,207,203,251 F,0,69707,70457,1,0 S,0,69707,70457,0.2,0.08 P,0,69707,70457,A C,0,69707,,128,128,255 R,0,69707,70457,0.3341622,-0.3543713
Sprite,Foreground,Centre,"sb/heart.png",0,0 M,19,69707,70457,155,207,91,115 F,0,69707,70457,1,0 S,0,69707,70457,0.2,0.08 P,0,69707,70457,A C,0,69707,,128,128,255 R,0,69707,70457,0.7205723,0.420175
Sprite,Foreground,Centre,"sb/heart.png",0,0 M,19,69707,70457,155,207,102,228 F,0,69707,70457,1,0 S,0,69707,70457,0.2,0.08 P,0,69707,70457,A C,0,69707,,128,128,255 R,0,69707,70457,0.4031714,0.5868793
Sprite,Foreground,Centre,"sb/heart.png",0,0 M,19,69707,70457,155,207,241,116 F,0,69707,70457,1,0 S,0,69707,70457,0.2,0.08 P,0,69707,70457,A C,0,69707,,128,128,255 R,0,69707,70457,0.278611,0.2628816
Sprite,Foreground,Centre,"sb/hl.png",263,273 S,0,70680,,0.7 F,2,70680,71430,1,0 P,0,70680,71430,A C,0,70680,,252,173,194
Sprite,Foreground,Centre,"sb/heart.png",0,0 M,19,70680,71430,263,273,214,176 F,0,70680,71430,1,0 S,0,70680,71430,0.2,0.08 P,0,70680,71430,A C,0,70680,,252,173,194 R,0,70680,71430,-0.2178748,-0.3383017
Sprite,Foreground,Centre,"sb/heart.png",0,0 M,19,70680,71430,263,273,308,225 F,0,70680,71430,1,0 S,0,70680,71430,0.2,0.08 P,0,70680,71430,A C,0,70680,,252,173,194 R,0,70680,71430,0.2948173,0.3067467
Sprite,Foreground,Centre,"sb/heart.png",0,0 M,19,70680,71430,263,273,285,316 F,0,70680,71430,1,0 S,0,70680,71430,0.2,0.08 P,0,70680,71430,A C,0,70680,,252,173,194 R,0,70680,71430,0.8284108,0.7735505
Sprite,Foreground,Centre,"sb/heart.png",0,0 M,19,70680,71430,263,273,300,371 F,0,70680,71430,1,0 S,0,70680,71430,0.2,0.08 P,0,70680,71430,A C,0,70680,,252,173,194 R,0,70680,71430,0.4841559,0.4538971
Sprite,Foreground,Centre,"sb/heart.png",0,0 M,19,70680,71430,263,273,288,184 F,0,70680,71430,1,0 S,0,70680,71430,0.2,0.08 P,0,70680,71430,A C,0,70680,,252,173,194 R,0,70680,71430,0.4038632,0.4226033
Sprite,Foreground,Centre,"sb/heart.png",0,0 M,19,70680,71430,263,273,349,237 F,0,70680,71430,1,0 S,0,70680,71430,0.2,0.08 P,0,70680,71430,A C,0,70680,,252,173,194 R,0,70680,71430,-0.2949604,0.5990464
Sprite,Foreground,Centre,"sb/heart.png",0,0 M,19,70680,71430,263,273,344,187 F,0,70680,71430,1,0 S,0,70680,71430,0.2,0.08 P,0,70680,71430,A C,0,70680,,252,173,194 R,0,70680,71430,-0.2155778,0.7762262
Sprite,Foreground,Centre,"sb/hl.png",337,360 S,0,71004,,0.7 F,2,70999,71004,0,0.4 F,2,71004,72078,0.4,0 P,0,71004,72078,A C,0,71004,,252,173,194
Sprite,Foreground,Centre,"sb/hl.png",343.1019,363.804 S,0,71020,,0.7 F,2,71015,71020,0,0.4 F,2,71020,72078,0.4,0 P,0,71004,72078,A C,0,71004,,252,173,194
Sprite,Foreground,Centre,"sb/hl.png",349.2698,367.4574 S,0,71036,,0.7 F,2,71031,71036,0,0.4 F,2,71036,72078,0.4,0 P,0,71004,72078,A C,0,71004,,252,173,194
Sprite,Foreground,Centre,"sb/hl.png",355.6946,370.6439 S,0,71052,,0.7 F,2,71047,71052,0,0.4 F,2,71052,72078,0.4,0 P,0,71004,72078,A C,0,71004,,252,173,194
Sprite,Foreground,Centre,"sb/hl.png",362.3426,373.3461 S,0,71068,,0.7 F,2,71063,71068,0,0.4 F,2,71068,72078,0.4,0 P,0,71004,72078,A C,0,71004,,252,173,194
Sprite,Foreground,Centre,"sb/hl.png",369.1787,375.5487 S,0,71085,,0.7 F,2,71080,71085,0,0.4 F,2,71085,72078,0.4,0 P,0,71004,72078,A C,0,71004,,252,173,194
Sprite,Foreground,Centre,"sb/hl.png",376.1668,377.2388 S,0,71101,,0.7 F,2,71096,71101,0,0.4 F,2,71101,72078,0.4,0 P,0,71004,72078,A C,0,71004,,252,173,194
Sprite,Foreground,Centre,"sb/hl.png",383.2701,378.4061 S,0,71117,,0.7 F,2,71112,71117,0,0.4 F,2,71117,72078,0.4,0 P,0,71004,72078,A C,0,71004,,252,173,194
Sprite,Foreground,Centre,"sb/hl.png",390.4585,378.5837 S,0,71133,,0.7 F,2,71128,71133,0,0.4 F,2,71133,72078,0.4,0 P,0,71004,72078,A C,0,71004,,252,173,194
Sprite,Foreground,Centre,"sb/hl.png",397.6269,378.582 S,0,71149,,0.7 F,2,71144,71149,0,0.4 F,2,71149,72078,0.4,0 P,0,71004,72078,A C,0,71004,,252,173,194
Sprite,Foreground,Centre,"sb/hl.png",404.778,378.0478 S,0,71166,,0.7 F,2,71161,71166,0,0.4 F,2,71166,72078,0.4,0 P,0,71004,72078,A C,0,71004,,252,173,194
Sprite,Foreground,Centre,"sb/hl.png",411.874,376.9832 S,0,71182,,0.7 F,2,71177,71182,0,0.4 F,2,71182,72078,0.4,0 P,0,71004,72078,A C,0,71004,,252,173,194
Sprite,Foreground,Centre,"sb/hl.png",418.8768,375.393 S,0,71198,,0.7 F,2,71193,71198,0,0.4 F,2,71198,72078,0.4,0 P,0,71004,72078,A C,0,71004,,252,173,194
Sprite,Foreground,Centre,"sb/hl.png",425.7491,373.2847 S,0,71214,,0.7 F,2,71209,71214,0,0.4 F,2,71214,72078,0.4,0 P,0,71004,72078,A C,0,71004,,252,173,194
Sprite,Foreground,Centre,"sb/hl.png",432.4536,370.6679 S,0,71231,,0.7 F,2,71226,71231,0,0.4 F,2,71231,72078,0.4,0 P,0,71004,72078,A C,0,71004,,252,173,194
Sprite,Foreground,Centre,"sb/hl.png",438.736,367.17 S,0,71247,,0.7 F,2,71242,71247,0,0.4 F,2,71247,72078,0.4,0 P,0,71004,72078,A C,0,71004,,252,173,194
Sprite,Foreground,Centre,"sb/hl.png",444.9016,363.5141 S,0,71263,,0.7 F,2,71258,71263,0,0.4 F,2,71263,72078,0.4,0 P,0,71004,72078,A C,0,71004,,252,173,194
Sprite,Foreground,Centre,"sb/hl.png",450.7808,359.4088 S,0,71279,,0.7 F,2,71274,71279,0,0.4 F,2,71279,72078,0.4,0 P,0,71004,72078,A C,0,71004,,252,173,194
Sprite,Foreground,Centre,"sb/hl.png",456.3419,354.8758 S,0,71295,,0.7 F,2,71290,71295,0,0.4 F,2,71295,72078,0.4,0 P,0,71004,72078,A C,0,71004,,252,173,194
Sprite,Foreground,Centre,"sb/hl.png",461.5548,349.9382 S,0,71312,,0.7 F,2,71307,71312,0,0.4 F,2,71312,72078,0.4,0 P,0,71004,72078,A C,0,71004,,252,173,194
Sprite,Foreground,Centre,"sb/heart.png",0,0 M,19,71004,71754,337,360,393,318 F,0,71004,71754,1,0 S,0,71004,71754,0.2,0.08 P,0,71004,71754,A C,0,71004,,252,173,194 R,0,71004,71754,0.08955177,0.7036551
Sprite,Foreground,Centre,"sb/heart.png",0,0 M,19,71004,71754,337,360,283,283 F,0,71004,71754,1,0 S,0,71004,71754,0.2,0.08 P,0,71004,71754,A C,0,71004,,252,173,194 R,0,71004,71754,0.3049828,-0.14866
Sprite,Foreground,Centre,"sb/heart.png",0,0 M,19,71004,71754,337,360,371,356 F,0,71004,71754,1,0 S,0,71004,71754,0.2,0.08 P,0,71004,71754,A C,0,71004,,252,173,194 R,0,71004,71754,0.5127161,0.1930919
Sprite,Foreground,Centre,"sb/heart.png",0,0 M,19,71004,71754,337,360,269,264 F,0,71004,71754,1,0 S,0,71004,71754,0.2,0.08 P,0,71004,71754,A C,0,71004,,252,173,194 R,0,71004,71754,0.15005,0.1737421
Sprite,Foreground,Centre,"sb/heart.png",0,0 M,19,71004,71754,337,360,251,451 F,0,71004,71754,1,0 S,0,71004,71754,0.2,0.08 P,0,71004,71754,A C,0,71004,,252,173,194 R,0,71004,71754,0.8320294,-0.1172793
Sprite,Foreground,Centre,"sb/heart.png",0,0 M,19,71004,71754,337,360,418,452 F,0,71004,71754,1,0 S,0,71004,71754,0.2,0.08 P,0,71004,71754,A C,0,71004,,252,173,194 R,0,71004,71754,-0.2331411,0.707583
Sprite,Foreground,Centre,"sb/heart.png",0,0 M,19,71004,71754,337,360,317,437 F,0,71004,71754,1,0 S,0,71004,71754,0.2,0.08 P,0,71004,71754,A C,0,71004,,252,173,194 R,0,71004,71754,0.3514788,0.7893565
Sprite,Foreground,Centre,"sb/hl.png",542,257 S,0,71653,,0.7 F,2,71653,72403,1,0 P,0,71653,72403,A C,0,71653,,252,173,194
Sprite,Foreground,Centre,"sb/heart.png",0,0 M,19,71653,72403,542,257,623,232 F,0,71653,72403,1,0 S,0,71653,72403,0.2,0.08 P,0,71653,72403,A C,0,71653,,252,173,194 R,0,71653,72403,-0.2160583,0.4166841
Sprite,Foreground,Centre,"sb/heart.png",0,0 M,19,71653,72403,542,257,460,283 F,0,71653,72403,1,0 S,0,71653,72403,0.2,0.08 P,0,71653,72403,A C,0,71653,,252,173,194 R,0,71653,72403,0.5899375,-0.01469153
Sprite,Foreground,Centre,"sb/heart.png",0,0 M,19,71653,72403,542,257,504,176 F,0,71653,72403,1,0 S,0,71653,72403,0.2,0.08 P,0,71653,72403,A C,0,71653,,252,173,194 R,0,71653,72403,0.4720992,0.3064729
Sprite,Foreground,Centre,"sb/heart.png",0,0 M,19,71653,72403,542,257,527,253 F,0,71653,72403,1,0 S,0,71653,72403,0.2,0.08 P,0,71653,72403,A C,0,71653,,252,173,194 R,0,71653,72403,-0.4257573,-0.2485011
Sprite,Foreground,Centre,"sb/heart.png",0,0 M,19,71653,72403,542,257,508,189 F,0,71653,72403,1,0 S,0,71653,72403,0.2,0.08 P,0,71653,72403,A C,0,71653,,252,173,194 R,0,71653,72403,0.2098154,0.7566519
Sprite,Foreground,Centre,"sb/heart.png",0,0 M,19,71653,72403,542,257,616,285 F,0,71653,72403,1,0 S,0,71653,72403,0.2,0.08 P,0,71653,72403,A C,0,71653,,252,173,194 R,0,71653,72403,0.5008844,0.8033994
Sprite,Foreground,Centre,"sb/heart.png",0,0 M,19,71653,72403,542,257,463,341 F,0,71653,72403,1,0 S,0,71653,72403,0.2,0.08 P,0,71653,72403,A C,0,71653,,252,173,194 R,0,71653,72403,-0.410126,0.6401994
Sprite,Foreground,Centre,"sb/hl.png",436,211 S,0,71977,,0.7 F,2,71972,71977,0,0.4 F,2,71977,72889,0.4,0 P,0,71977,72889,A C,0,71977,,252,173,194
Sprite,Foreground,Centre,"sb/hl.png",432.4813,204.7388 S,0,71993,,0.7 F,2,71988,71993,0,0.4 F,2,71993,72889,0.4,0 P,0,71977,72889,A C,0,71977,,252,173,194
Sprite,Foreground,Centre,"sb/hl.png",429.119,198.4379 S,0,72009,,0.7 F,2,72004,72009,0,0.4 F,2,72009,72889,0.4,0 P,0,71977,72889,A C,0,71977,,252,173,194
Sprite,Foreground,Centre,"sb/hl.png",426.3715,191.8351 S,0,72025,,0.7 F,2,72020,72025,0,0.4 F,2,72025,72889,0.4,0 P,0,71977,72889,A C,0,71977,,252,173,194
Sprite,Foreground,Centre,"sb/hl.png",424.2649,184.9855 S,0,72041,,0.7 F,2,72036,72041,0,0.4 F,2,72041,72889,0.4,0 P,0,71977,72889,A C,0,71977,,252,173,194
Sprite,Foreground,Centre,"sb/hl.png",422.8212,177.9464 S,0,72058,,0.7 F,2,72053,72058,0,0.4 F,2,72058,72889,0.4,0 P,0,71977,72889,A C,0,71977,,252,173,194
Sprite,Foreground,Centre,"sb/hl.png",422.6461,170.7664 S,0,72074,,0.7 F,2,72069,72074,0,0.4 F,2,72074,72889,0.4,0 P,0,71977,72889,A C,0,71977,,252,173,194
Sprite,Foreground,Centre,"sb/hl.png",422.7573,163.6292 S,0,72090,,0.7 F,2,72085,72090,0,0.4 F,2,72090,72889,0.4,0 P,0,71977,72889,A C,0,71977,,252,173,194
Sprite,Foreground,Centre,"sb/hl.png",423.5515,156.5291 S,0,72106,,0.7 F,2,72101,72106,0,0.4 F,2,72106,72889,0.4,0 P,0,71977,72889,A C,0,71977,,252,173,194
Sprite,Foreground,Centre,"sb/hl.png",425.0242,149.5268 S,0,72122,,0.7 F,2,72117,72122,0,0.4 F,2,72122,72889,0.4,0 P,0,71977,72889,A C,0,71977,,252,173,194
Sprite,Foreground,Centre,"sb/heart.png",0,0 M,19,71977,72727,436,211,363,216 F,0,71977,72727,1,0 S,0,71977,72727,0.2,0.08 P,0,71977,72727,A C,0,71977,,252,173,194 R,0,71977,72727,0.1754917,0.009111248
Sprite,Foreground,Centre,"sb/heart.png",0,0 M,19,71977,72727,436,211,439,236 F,0,71977,72727,1,0 S,0,71977,72727,0.2,0.08 P,0,71977,72727,A C,0,71977,,252,173,194 R,0,71977,72727,-0.02956142,-0.04875362
Sprite,Foreground,Centre,"sb/heart.png",0,0 M,19,71977,72727,436,211,398,125 F,0,71977,72727,1,0 S,0,71977,72727,0.2,0.08 P,0,71977,72727,A C,0,71977,,252,173,194 R,0,71977,72727,0.07092299,0.2578645
Sprite,Foreground,Centre,"sb/heart.png",0,0 M,19,71977,72727,436,211,383,136 F,0,71977,72727,1,0 S,0,71977,72727,0.2,0.08 P,0,71977,72727,A C,0,71977,,252,173,194 R,0,71977,72727,-0.2385718,0.846071
Sprite,Foreground,Centre,"sb/heart.png",0,0 M,19,71977,72727,436,211,389,191 F,0,71977,72727,1,0 S,0,71977,72727,0.2,0.08 P,0,71977,72727,A C,0,71977,,252,173,194 R,0,71977,72727,0.6339691,0.1172041
Sprite,Foreground,Centre,"sb/heart.png",0,0 M,19,71977,72727,436,211,526,113 F,0,71977,72727,1,0 S,0,71977,72727,0.2,0.08 P,0,71977,72727,A C,0,71977,,252,173,194 R,0,71977,72727,0.2702187,-0.1189401
Sprite,Foreground,Centre,"sb/heart.png",0,0 M,19,71977,72727,436,211,415,249 F,0,71977,72727,1,0 S,0,71977,72727,0.2,0.08 P,0,71977,72727,A C,0,71977,,252,173,194 R,0,71977,72727,-0.3532097,-0.08672838
Sprite,Foreground,Centre,"sb/hl.png",506,124 S,0,72301,,0.7 F,2,72296,72301,0,0.4 F,2,72301,73213,0.4,0 P,0,72301,73213,A C,0,72301,,252,173,194
Sprite,Foreground,Centre,"sb/hl.png",508.0597,117.1191 S,0,72317,,0.7 F,2,72312,72317,0,0.4 F,2,72317,73213,0.4,0 P,0,72301,73213,A C,0,72301,,252,173,194
Sprite,Foreground,Centre,"sb/hl.png",509.8332,110.201 S,0,72333,,0.7 F,2,72328,72333,0,0.4 F,2,72333,73213,0.4,0 P,0,72301,73213,A C,0,72301,,252,173,194
Sprite,Foreground,Centre,"sb/hl.png",510.8576,103.1303 S,0,72349,,0.7 F,2,72344,72349,0,0.4 F,2,72349,73213,0.4,0 P,0,72301,73213,A C,0,72301,,252,173,194
Sprite,Foreground,Centre,"sb/hl.png",511.1208,95.9867 S,0,72365,,0.7 F,2,72360,72365,0,0.4 F,2,72365,73213,0.4,0 P,0,72301,73213,A C,0,72301,,252,173,194
Sprite,Foreground,Centre,"sb/hl.png",510.6184,88.85059 S,0,72382,,0.7 F,2,72377,72382,0,0.4 F,2,72382,73213,0.4,0 P,0,72301,73213,A C,0,72301,,252,173,194
Sprite,Foreground,Centre,"sb/hl.png",509.3548,81.80254 S,0,72398,,0.7 F,2,72393,72398,0,0.4 F,2,72398,73213,0.4,0 P,0,72301,73213,A C,0,72301,,252,173,194
Sprite,Foreground,Centre,"sb/hl.png",507.3425,74.92243 S,0,72414,,0.7 F,2,72409,72414,0,0.4 F,2,72414,73213,0.4,0 P,0,72301,73213,A C,0,72301,,252,173,194
Sprite,Foreground,Centre,"sb/hl.png",504.6023,68.2885 S,0,72430,,0.7 F,2,72425,72430,0,0.4 F,2,72430,73213,0.4,0 P,0,72301,73213,A C,0,72301,,252,173,194
Sprite,Foreground,Centre,"sb/hl.png",501.1969,61.94933 S,0,72446,,0.7 F,2,72441,72446,0,0.4 F,2,72446,73213,0.4,0 P,0,72301,73213,A C,0,72301,,252,173,194
Sprite,Foreground,Centre,"sb/heart.png",0,0 M,19,72301,73051,506,124,537,68 F,0,72301,73051,1,0 S,0,72301,73051,0.2,0.08 P,0,72301,73051,A C,0,72301,,252,173,194 R,0,72301,73051,0.2786865,-0.2158649
Sprite,Foreground,Centre,"sb/heart.png",0,0 M,19,72301,73051,506,124,528,216 F,0,72301,73051,1,0 S,0,72301,73051,0.2,0.08 P,0,72301,73051,A C,0,72301,,252,173,194 R,0,72301,73051,-0.1944352,0.5940128
Sprite,Foreground,Centre,"sb/heart.png",0,0 M,19,72301,73051,506,124,531,94 F,0,72301,73051,1,0 S,0,72301,73051,0.2,0.08 P,0,72301,73051,A C,0,72301,,252,173,194 R,0,72301,73051,-0.3690503,0.6057899
Sprite,Foreground,Centre,"sb/heart.png",0,0 M,19,72301,73051,506,124,440,166 F,0,72301,73051,1,0 S,0,72301,73051,0.2,0.08 P,0,72301,73051,A C,0,72301,,252,173,194 R,0,72301,73051,0.6485807,-0.09500008
Sprite,Foreground,Centre,"sb/heart.png",0,0 M,19,72301,73051,506,124,560,216 F,0,72301,73051,1,0 S,0,72301,73051,0.2,0.08 P,0,72301,73051,A C,0,72301,,252,173,194 R,0,72301,73051,0.4465092,0.5414924
Sprite,Foreground,Centre,"sb/heart.png",0,0 M,19,72301,73051,506,124,504,171 F,0,72301,73051,1,0 S,0,72301,73051,0.2,0.08 P,0,72301,73051,A C,0,72301,,252,173,194 R,0,72301,73051,0.4558121,0.4851057
Sprite,Foreground,Centre,"sb/heart.png",0,0 M,19,72301,73051,506,124,427,143 F,0,72301,73051,1,0 S,0,72301,73051,0.2,0.08 P,0,72301,73051,A C,0,72301,,252,173,194 R,0,72301,73051,0.7015001,-0.2719487
Sprite,Foreground,Centre,"sb/hl.png",497,56 S,0,73274,,0.7 F,2,73274,74024,1,0 P,0,73274,74024,A C,0,73274,,222,77,253
Sprite,Foreground,Centre,"sb/heart.png",0,0 M,19,73274,74024,497,56,594,0 F,0,73274,74024,1,0 S,0,73274,74024,0.2,0.08 P,0,73274,74024,A C,0,73274,,222,77,253 R,0,73274,74024,0.7992513,0.644364
Sprite,Foreground,Centre,"sb/heart.png",0,0 M,19,73274,74024,497,56,510,-36 F,0,73274,74024,1,0 S,0,73274,74024,0.2,0.08 P,0,73274,74024,A C,0,73274,,222,77,253 R,0,73274,74024,0.3963874,-0.3139564
Sprite,Foreground,Centre,"sb/heart.png",0,0 M,19,73274,74024,497,56,502,-1 F,0,73274,74024,1,0 S,0,73274,74024,0.2,0.08 P,0,73274,74024,A C,0,73274,,222,77,253 R,0,73274,74024,0.7654798,-0.0759277
Sprite,Foreground,Centre,"sb/heart.png",0,0 M,19,73274,74024,497,56,585,28 F,0,73274,74024,1,0 S,0,73274,74024,0.2,0.08 P,0,73274,74024,A C,0,73274,,222,77,253 R,0,73274,74024,0.02414239,0.757264
Sprite,Foreground,Centre,"sb/heart.png",0,0 M,19,73274,74024,497,56,467,-40 F,0,73274,74024,1,0 S,0,73274,74024,0.2,0.08 P,0,73274,74024,A C,0,73274,,222,77,253 R,0,73274,74024,-0.1088408,-0.1206292
Sprite,Foreground,Centre,"sb/heart.png",0,0 M,19,73274,74024,497,56,433,11 F,0,73274,74024,1,0 S,0,73274,74024,0.2,0.08 P,0,73274,74024,A C,0,73274,,222,77,253 R,0,73274,74024,0.1775439,0.1305737
Sprite,Foreground,Centre,"sb/heart.png",0,0 M,19,73274,74024,497,56,400,19 F,0,73274,74024,1,0 S,0,73274,74024,0.2,0.08 P,0,73274,74024,A C,0,73274,,222,77,253 R,0,73274,74024,0.5797346,0.7727102
Sprite,Foreground,Centre,"sb/hl.png",398,116 S,0,73598,,0.7 F,2,73593,73598,0,0.4 F,2,73598,74510,0.4,0 P,0,73598,74510,A C,0,73598,,222,77,253
Sprite,Foreground,Centre,"sb/hl.png",394.4155,122.2221 S,0,73614,,0.7 F,2,73609,73614,0,0.4 F,2,73614,74510,0.4,0 P,0,73598,74510,A C,0,73598,,222,77,253
Sprite,Foreground,Centre,"sb/hl.png",391.0498,128.515 S,0,73630,,0.7 F,2,73625,73630,0,0.4 F,2,73630,74510,0.4,0 P,0,73598,74510,A C,0,73598,,222,77,253
Sprite,Foreground,Centre,"sb/hl.png",388.3626,135.1331 S,0,73646,,0.7 F,2,73641,73646,0,0.4 F,2,73646,74510,0.4,0 P,0,73598,74510,A C,0,73598,,222,77,253
Sprite,Foreground,Centre,"sb/hl.png",386.3846,142.0066 S,0,73662,,0.7 F,2,73657,73662,0,0.4 F,2,73662,74510,0.4,0 P,0,73598,74510,A C,0,73598,,222,77,253
Sprite,Foreground,Centre,"sb/hl.png",385.1395,149.0628 S,0,73679,,0.7 F,2,73674,73679,0,0.4 F,2,73679,74510,0.4,0 P,0,73598,74510,A C,0,73598,,222,77,253
Sprite,Foreground,Centre,"sb/hl.png",384.6443,156.2268 S,0,73695,,0.7 F,2,73690,73695,0,0.4 F,2,73695,74510,0.4,0 P,0,73598,74510,A C,0,73598,,222,77,253
Sprite,Foreground,Centre,"sb/hl.png",384.9086,163.4221 S,0,73711,,0.7 F,2,73706,73711,0,0.4 F,2,73711,74510,0.4,0 P,0,73598,74510,A C,0,73598,,222,77,253
Sprite,Foreground,Centre,"sb/hl.png",386.594,170.4023 S,0,73727,,0.7 F,2,73722,73727,0,0.4 F,2,73727,74510,0.4,0 P,0,73598,74510,A C,0,73598,,222,77,253
Sprite,Foreground,Centre,"sb/hl.png",388.4881,177.2828 S,0,73743,,0.7 F,2,73738,73743,0,0.4 F,2,73743,74510,0.4,0 P,0,73598,74510,A C,0,73598,,222,77,253
Sprite,Foreground,Centre,"sb/heart.png",0,0 M,19,73598,74348,398,116,405,184 F,0,73598,74348,1,0 S,0,73598,74348,0.2,0.08 P,0,73598,74348,A C,0,73598,,222,77,253 R,0,73598,74348,-0.3562619,-0.4166174
Sprite,Foreground,Centre,"sb/heart.png",0,0 M,19,73598,74348,398,116,316,27 F,0,73598,74348,1,0 S,0,73598,74348,0.2,0.08 P,0,73598,74348,A C,0,73598,,222,77,253 R,0,73598,74348,0.609598,0.09116443
Sprite,Foreground,Centre,"sb/heart.png",0,0 M,19,73598,74348,398,116,379,61 F,0,73598,74348,1,0 S,0,73598,74348,0.2,0.08 P,0,73598,74348,A C,0,73598,,222,77,253 R,0,73598,74348,-0.1357107,-0.2674543
Sprite,Foreground,Centre,"sb/heart.png",0,0 M,19,73598,74348,398,116,313,163 F,0,73598,74348,1,0 S,0,73598,74348,0.2,0.08 P,0,73598,74348,A C,0,73598,,222,77,253 R,0,73598,74348,0.5239867,0.2893927
Sprite,Foreground,Centre,"sb/heart.png",0,0 M,19,73598,74348,398,116,307,95 F,0,73598,74348,1,0 S,0,73598,74348,0.2,0.08 P,0,73598,74348,A C,0,73598,,222,77,253 R,0,73598,74348,0.618648,-0.2702107
Sprite,Foreground,Centre,"sb/heart.png",0,0 M,19,73598,74348,398,116,374,169 F,0,73598,74348,1,0 S,0,73598,74348,0.2,0.08 P,0,73598,74348,A C,0,73598,,222,77,253 R,0,73598,74348,0.02683123,-0.3241145
Sprite,Foreground,Centre,"sb/heart.png",0,0 M,19,73598,74348,398,116,367,141 F,0,73598,74348,1,0 S,0,73598,74348,0.2,0.08 P,0,73598,74348,A C,0,73598,,222,77,253 R,0,73598,74348,0.7976042,0.4918606
Sprite,Foreground,Centre,"sb/hl.png",455,236 S,0,73923,,0.7 F,2,73918,73923,0,0.4 F,2,73923,74997,0.4,0 P,0,73923,74997,A C,0,73923,,222,77,253
Sprite,Foreground,Centre,"sb/hl.png",458.8649,242.0585 S,0,73939,,0.7 F,2,73934,73939,0,0.4 F,2,73939,74997,0.4,0 P,0,73923,74997,A C,0,73923,,222,77,253
Sprite,Foreground,Centre,"sb/hl.png",462.5353,248.1998 S,0,73955,,0.7 F,2,73950,73955,0,0.4 F,2,73955,74997,0.4,0 P,0,73923,74997,A C,0,73923,,222,77,253
Sprite,Foreground,Centre,"sb/hl.png",465.6361,254.6516 S,0,73971,,0.7 F,2,73966,73971,0,0.4 F,2,73971,74997,0.4,0 P,0,73923,74997,A C,0,73923,,222,77,253
Sprite,Foreground,Centre,"sb/hl.png",468.1418,261.3631 S,0,73987,,0.7 F,2,73982,73987,0,0.4 F,2,73987,74997,0.4,0 P,0,73923,74997,A C,0,73923,,222,77,253
Sprite,Foreground,Centre,"sb/hl.png",470.0309,268.2812 S,0,74004,,0.7 F,2,73999,74004,0,0.4 F,2,74004,74997,0.4,0 P,0,73923,74997,A C,0,73923,,222,77,253
Sprite,Foreground,Centre,"sb/hl.png",471.2869,275.3512 S,0,74020,,0.7 F,2,74015,74020,0,0.4 F,2,74020,74997,0.4,0 P,0,73923,74997,A C,0,73923,,222,77,253
Sprite,Foreground,Centre,"sb/hl.png",471.8975,282.5171 S,0,74036,,0.7 F,2,74031,74036,0,0.4 F,2,74036,74997,0.4,0 P,0,73923,74997,A C,0,73923,,222,77,253
Sprite,Foreground,Centre,"sb/hl.png",471.3716,289.6842 S,0,74052,,0.7 F,2,74047,74052,0,0.4 F,2,74052,74997,0.4,0 P,0,73923,74997,A C,0,73923,,222,77,253
Sprite,Foreground,Centre,"sb/hl.png",470.568,296.792 S,0,74068,,0.7 F,2,74063,74068,0,0.4 F,2,74068,74997,0.4,0 P,0,73923,74997,A C,0,73923,,222,77,253
Sprite,Foreground,Centre,"sb/hl.png",469.1235,303.8004 S,0,74085,,0.7 F,2,74080,74085,0,0.4 F,2,74085,74997,0.4,0 P,0,73923,74997,A C,0,73923,,222,77,253
Sprite,Foreground,Centre,"sb/hl.png",467.049,310.6535 S,0,74101,,0.7 F,2,74096,74101,0,0.4 F,2,74101,74997,0.4,0 P,0,73923,74997,A C,0,73923,,222,77,253
Sprite,Foreground,Centre,"sb/hl.png",464.3599,317.2963 S,0,74117,,0.7 F,2,74112,74117,0,0.4 F,2,74117,74997,0.4,0 P,0,73923,74997,A C,0,73923,,222,77,253
Sprite,Foreground,Centre,"sb/hl.png",461.0761,323.6753 S,0,74133,,0.7 F,2,74128,74133,0,0.4 F,2,74133,74997,0.4,0 P,0,73923,74997,A C,0,73923,,222,77,253
Sprite,Foreground,Centre,"sb/hl.png",457.2222,329.7388 S,0,74150,,0.7 F,2,74145,74150,0,0.4 F,2,74150,74997,0.4,0 P,0,73923,74997,A C,0,73923,,222,77,253
Sprite,Foreground,Centre,"sb/hl.png",452.8268,335.4372 S,0,74166,,0.7 F,2,74161,74166,0,0.4 F,2,74166,74997,0.4,0 P,0,73923,74997,A C,0,73923,,222,77,253
Sprite,Foreground,Centre,"sb/hl.png",447.5668,340.3336 S,0,74182,,0.7 F,2,74177,74182,0,0.4 F,2,74182,74997,0.4,0 P,0,73923,74997,A C,0,73923,,222,77,253
Sprite,Foreground,Centre,"sb/hl.png",442.1709,345.0307 S,0,74198,,0.7 F,2,74193,74198,0,0.4 F,2,74198,74997,0.4,0 P,0,73923,74997,A C,0,73923,,222,77,253
Sprite,Foreground,Centre,"sb/hl.png",436.3692,349.2217 S,0,74214,,0.7 F,2,74209,74214,0,0.4 F,2,74214,74997,0.4,0 P,0,73923,74997,A C,0,73923,,222,77,253
Sprite,Foreground,Centre,"sb/hl.png",430.2074,352.8727 S,0,74231,,0.7 F,2,74226,74231,0,0.4 F,2,74231,74997,0.4,0 P,0,73923,74997,A C,0,73923,,222,77,253
Sprite,Foreground,Centre,"sb/heart.png",0,0 M,19,73923,74673,455,236,506,238 F,0,73923,74673,1,0 S,0,73923,74673,0.2,0.08 P,0,73923,74673,A C,0,73923,,222,77,253 R,0,73923,74673,0.6233817,-0.1091266
Sprite,Foreground,Centre,"sb/heart.png",0,0 M,19,73923,74673,455,236,408,278 F,0,73923,74673,1,0 S,0,73923,74673,0.2,0.08 P,0,73923,74673,A C,0,73923,,222,77,253 R,0,73923,74673,0.2886488,0.460097
Sprite,Foreground,Centre,"sb/heart.png",0,0 M,19,73923,74673,455,236,386,316 F,0,73923,74673,1,0 S,0,73923,74673,0.2,0.08 P,0,73923,74673,A C,0,73923,,222,77,253 R,0,73923,74673,-0.1968304,0.7179955
Sprite,Foreground,Centre,"sb/heart.png",0,0 M,19,73923,74673,455,236,467,325 F,0,73923,74673,1,0 S,0,73923,74673,0.2,0.08 P,0,73923,74673,A C,0,73923,,222,77,253 R,0,73923,74673,0.2208627,-0.2736405
Sprite,Foreground,Centre,"sb/heart.png",0,0 M,19,73923,74673,455,236,513,160 F,0,73923,74673,1,0 S,0,73923,74673,0.2,0.08 P,0,73923,74673,A C,0,73923,,222,77,253 R,0,73923,74673,-0.2199027,0.1495716
Sprite,Foreground,Centre,"sb/heart.png",0,0 M,19,73923,74673,455,236,464,318 F,0,73923,74673,1,0 S,0,73923,74673,0.2,0.08 P,0,73923,74673,A C,0,73923,,222,77,253 R,0,73923,74673,0.07143805,0.37121
Sprite,Foreground,Centre,"sb/heart.png",0,0 M,19,73923,74673,455,236,457,265 F,0,73923,74673,1,0 S,0,73923,74673,0.2,0.08 P,0,73923,74673,A C,0,73923,,222,77,253 R,0,73923,74673,0.2693745,0.5715114
Sprite,Foreground,Centre,"sb/hl.png",319,405 S,0,74571,,0.7 F,2,74571,75321,1,0 P,0,74571,75321,A C,0,74571,,222,77,253
Sprite,Foreground,Centre,"sb/heart.png",0,0 M,19,74571,75321,319,405,316,500 F,0,74571,75321,1,0 S,0,74571,75321,0.2,0.08 P,0,74571,75321,A C,0,74571,,222,77,253 R,0,74571,75321,0.4382043,0.1714381
Sprite,Foreground,Centre,"sb/heart.png",0,0 M,19,74571,75321,319,405,242,322 F,0,74571,75321,1,0 S,0,74571,75321,0.2,0.08 P,0,74571,75321,A C,0,74571,,222,77,253 R,0,74571,75321,0.4106088,0.7403884
Sprite,Foreground,Centre,"sb/heart.png",0,0 M,19,74571,75321,319,405,302,500 F,0,74571,75321,1,0 S,0,74571,75321,0.2,0.08 P,0,74571,75321,A C,0,74571,,222,77,253 R,0,74571,75321,0.6914456,0.039264
Sprite,Foreground,Centre,"sb/heart.png",0,0 M,19,74571,75321,319,405,255,314 F,0,74571,75321,1,0 S,0,74571,75321,0.2,0.08 P,0,74571,75321,A C,0,74571,,222,77,253 R,0,74571,75321,0.08267524,-0.2502969
Sprite,Foreground,Centre,"sb/heart.png",0,0 M,19,74571,75321,319,405,262,489 F,0,74571,75321,1,0 S,0,74571,75321,0.2,0.08 P,0,74571,75321,A C,0,74571,,222,77,253 R,0,74571,75321,0.2993073,0.1340254
Sprite,Foreground,Centre,"sb/heart.png",0,0 M,19,74571,75321,319,405,272,350 F,0,74571,75321,1,0 S,0,74571,75321,0.2,0.08 P,0,74571,75321,A C,0,74571,,222,77,253 R,0,74571,75321,-0.05167212,-0.1407706
Sprite,Foreground,Centre,"sb/heart.png",0,0 M,19,74571,75321,319,405,311,404 F,0,74571,75321,1,0 S,0,74571,75321,0.2,0.08 P,0,74571,75321,A C,0,74571,,222,77,253 R,0,74571,75321,-0.2220361,0.6650691
Sprite,Foreground,Centre,"sb/hl.png",272,440 S,0,74734,,0.7 F,2,74734,75484,1,0 P,0,74734,75484,A C,0,74734,,222,77,253
Sprite,Foreground,Centre,"sb/heart.png",0,0 M,19,74734,75484,272,440,196,378 F,0,74734,75484,1,0 S,0,74734,75484,0.2,0.08 P,0,74734,75484,A C,0,74734,,222,77,253 R,0,74734,75484,0.5315589,0.3728163
Sprite,Foreground,Centre,"sb/heart.png",0,0 M,19,74734,75484,272,440,206,496 F,0,74734,75484,1,0 S,0,74734,75484,0.2,0.08 P,0,74734,75484,A C,0,74734,,222,77,253 R,0,74734,75484,-0.1793171,-0.1974674
Sprite,Foreground,Centre,"sb/heart.png",0,0 M,19,74734,75484,272,440,218,483 F,0,74734,75484,1,0 S,0,74734,75484,0.2,0.08 P,0,74734,75484,A C,0,74734,,222,77,253 R,0,74734,75484,0.5654215,0.1854092
Sprite,Foreground,Centre,"sb/heart.png",0,0 M,19,74734,75484,272,440,232,460 F,0,74734,75484,1,0 S,0,74734,75484,0.2,0.08 P,0,74734,75484,A C,0,74734,,222,77,253 R,0,74734,75484,0.4904909,0.6268064
Sprite,Foreground,Centre,"sb/heart.png",0,0 M,19,74734,75484,272,440,223,500 F,0,74734,75484,1,0 S,0,74734,75484,0.2,0.08 P,0,74734,75484,A C,0,74734,,222,77,253 R,0,74734,75484,-0.08798437,0.2136747
Sprite,Foreground,Centre,"sb/heart.png",0,0 M,19,74734,75484,272,440,275,389 F,0,74734,75484,1,0 S,0,74734,75484,0.2,0.08 P,0,74734,75484,A C,0,74734,,222,77,253 R,0,74734,75484,0.08827499,0.3313267
Sprite,Foreground,Centre,"sb/heart.png",0,0 M,19,74734,75484,272,440,189,360 F,0,74734,75484,1,0 S,0,74734,75484,0.2,0.08 P,0,74734,75484,A C,0,74734,,222,77,253 R,0,74734,75484,0.2211615,-0.09738982
Sprite,Foreground,Centre,"sb/hl.png",230,400 S,0,74896,,0.7 F,2,74891,74896,0,0.4 F,2,74896,75970,0.4,0 P,0,74896,75970,A C,0,74896,,222,77,253
Sprite,Foreground,Centre,"sb/hl.png",224.3492,395.5555 S,0,74912,,0.7 F,2,74907,74912,0,0.4 F,2,74912,75970,0.4,0 P,0,74896,75970,A C,0,74896,,222,77,253
Sprite,Foreground,Centre,"sb/hl.png",218.593,391.2906 S,0,74928,,0.7 F,2,74923,74928,0,0.4 F,2,74928,75970,0.4,0 P,0,74896,75970,A C,0,74896,,222,77,253
Sprite,Foreground,Centre,"sb/hl.png",212.5031,387.5132 S,0,74944,,0.7 F,2,74939,74944,0,0.4 F,2,74944,75970,0.4,0 P,0,74896,75970,A C,0,74896,,222,77,253
Sprite,Foreground,Centre,"sb/hl.png",206.1198,384.2488 S,0,74960,,0.7 F,2,74955,74960,0,0.4 F,2,74960,75970,0.4,0 P,0,74896,75970,A C,0,74896,,222,77,253
Sprite,Foreground,Centre,"sb/hl.png",199.4851,381.5198 S,0,74977,,0.7 F,2,74972,74977,0,0.4 F,2,74977,75970,0.4,0 P,0,74896,75970,A C,0,74896,,222,77,253
Sprite,Foreground,Centre,"sb/hl.png",192.6429,379.3452 S,0,74993,,0.7 F,2,74988,74993,0,0.4 F,2,74993,75970,0.4,0 P,0,74896,75970,A C,0,74896,,222,77,253
Sprite,Foreground,Centre,"sb/hl.png",185.6382,377.7407 S,0,75009,,0.7 F,2,75004,75009,0,0.4 F,2,75009,75970,0.4,0 P,0,74896,75970,A C,0,74896,,222,77,253
Sprite,Foreground,Centre,"sb/hl.png",178.5173,376.718 S,0,75025,,0.7 F,2,75020,75025,0,0.4 F,2,75025,75970,0.4,0 P,0,74896,75970,A C,0,74896,,222,77,253
Sprite,Foreground,Centre,"sb/hl.png",171.3282,376.702 S,0,75041,,0.7 F,2,75036,75041,0,0.4 F,2,75041,75970,0.4,0 P,0,74896,75970,A C,0,74896,,222,77,253
Sprite,Foreground,Centre,"sb/hl.png",164.1693,376.951 S,0,75058,,0.7 F,2,75053,75058,0,0.4 F,2,75058,75970,0.4,0 P,0,74896,75970,A C,0,74896,,222,77,253
Sprite,Foreground,Centre,"sb/hl.png",157.0538,377.789 S,0,75074,,0.7 F,2,75069,75074,0,0.4 F,2,75074,75970,0.4,0 P,0,74896,75970,A C,0,74896,,222,77,253
Sprite,Foreground,Centre,"sb/hl.png",150.029,379.2108 S,0,75090,,0.7 F,2,75085,75090,0,0.4 F,2,75090,75970,0.4,0 P,0,74896,75970,A C,0,74896,,222,77,253
Sprite,Foreground,Centre,"sb/hl.png",143.1416,381.2076 S,0,75106,,0.7 F,2,75101,75106,0,0.4 F,2,75106,75970,0.4,0 P,0,74896,75970,A C,0,74896,,222,77,253
Sprite,Foreground,Centre,"sb/hl.png",136.4378,383.7668 S,0,75123,,0.7 F,2,75118,75123,0,0.4 F,2,75123,75970,0.4,0 P,0,74896,75970,A C,0,74896,,222,77,253
Sprite,Foreground,Centre,"sb/hl.png",129.9623,386.8725 S,0,75139,,0.7 F,2,75134,75139,0,0.4 F,2,75139,75970,0.4,0 P,0,74896,75970,A C,0,74896,,222,77,253
Sprite,Foreground,Centre,"sb/hl.png",123.759,390.5049 S,0,75155,,0.7 F,2,75150,75155,0,0.4 F,2,75155,75970,0.4,0 P,0,74896,75970,A C,0,74896,,222,77,253
Sprite,Foreground,Centre,"sb/hl.png",117.8697,394.6413 S,0,75171,,0.7 F,2,75166,75171,0,0.4 F,2,75171,75970,0.4,0 P,0,74896,75970,A C,0,74896,,222,77,253
Sprite,Foreground,Centre,"sb/hl.png",112.6433,399.5779 S,0,75187,,0.7 F,2,75182,75187,0,0.4 F,2,75187,75970,0.4,0 P,0,74896,75970,A C,0,74896,,222,77,253
Sprite,Foreground,Centre,"sb/hl.png",107.5995,404.6649 S,0,75204,,0.7 F,2,75199,75204,0,0.4 F,2,75204,75970,0.4,0 P,0,74896,75970,A C,0,74896,,222,77,253
Sprite,Foreground,Centre,"sb/heart.png",0,0 M,19,74896,75646,230,400,266,388 F,0,74896,75646,1,0 S,0,74896,75646,0.2,0.08 P,0,74896,75646,A C,0,74896,,222,77,253 R,0,74896,75646,-0.4342615,0.377206
Sprite,Foreground,Centre,"sb/heart.png",0,0 M,19,74896,75646,230,400,315,461 F,0,74896,75646,1,0 S,0,74896,75646,0.2,0.08 P,0,74896,75646,A C,0,74896,,222,77,253 R,0,74896,75646,0.5794812,-0.1436385
Sprite,Foreground,Centre,"sb/heart.png",0,0 M,19,74896,75646,230,400,178,348 F,0,74896,75646,1,0 S,0,74896,75646,0.2,0.08 P,0,74896,75646,A C,0,74896,,222,77,253 R,0,74896,75646,-0.1877033,0.08408632
Sprite,Foreground,Centre,"sb/heart.png",0,0 M,19,74896,75646,230,400,300,342 F,0,74896,75646,1,0 S,0,74896,75646,0.2,0.08 P,0,74896,75646,A C,0,74896,,222,77,253 R,0,74896,75646,0.7511395,0.2148712
Sprite,Foreground,Centre,"sb/heart.png",0,0 M,19,74896,75646,230,400,161,317 F,0,74896,75646,1,0 S,0,74896,75646,0.2,0.08 P,0,74896,75646,A C,0,74896,,222,77,253 R,0,74896,75646,-0.2610084,0.4335433
Sprite,Foreground,Centre,"sb/heart.png",0,0 M,19,74896,75646,230,400,234,396 F,0,74896,75646,1,0 S,0,74896,75646,0.2,0.08 P,0,74896,75646,A C,0,74896,,222,77,253 R,0,74896,75646,0.8283938,0.428534
Sprite,Foreground,Centre,"sb/heart.png",0,0 M,19,74896,75646,230,400,175,433 F,0,74896,75646,1,0 S,0,74896,75646,0.2,0.08 P,0,74896,75646,A C,0,74896,,222,77,253 R,0,74896,75646,-0.01307145,0.7118369
Sprite,Foreground,Centre,"sb/hl.png",178,192 S,0,75869,,0.7 F,2,75869,76619,1,0 P,0,75869,76619,A C,0,75869,,255,219,111
Sprite,Foreground,Centre,"sb/heart.png",0,0 M,19,75869,76619,178,192,236,122 F,0,75869,76619,1,0 S,0,75869,76619,0.2,0.08 P,0,75869,76619,A C,0,75869,,255,219,111 R,0,75869,76619,0.2585106,-0.3447142
Sprite,Foreground,Centre,"sb/heart.png",0,0 M,19,75869,76619,178,192,134,279 F,0,75869,76619,1,0 S,0,75869,76619,0.2,0.08 P,0,75869,76619,A C,0,75869,,255,219,111 R,0,75869,76619,0.2193402,0.6012504
Sprite,Foreground,Centre,"sb/heart.png",0,0 M,19,75869,76619,178,192,221,120 F,0,75869,76619,1,0 S,0,75869,76619,0.2,0.08 P,0,75869,76619,A C,0,75869,,255,219,111 R,0,75869,76619,0.2819681,0.2131618
Sprite,Foreground,Centre,"sb/heart.png",0,0 M,19,75869,76619,178,192,243,188 F,0,75869,76619,1,0 S,0,75869,76619,0.2,0.08 P,0,75869,76619,A C,0,75869,,255,219,111 R,0,75869,76619,0.3122848,-0.4151291
Sprite,Foreground,Centre,"sb/heart.png",0,0 M,19,75869,76619,178,192,200,265 F,0,75869,76619,1,0 S,0,75869,76619,0.2,0.08 P,0,75869,76619,A C,0,75869,,255,219,111 R,0,75869,76619,0.4068002,-0.0383344
Sprite,Foreground,Centre,"sb/heart.png",0,0 M,19,75869,76619,178,192,145,272 F,0,75869,76619,1,0 S,0,75869,76619,0.2,0.08 P,0,75869,76619,A C,0,75869,,255,219,111 R,0,75869,76619,0.1234311,-0.4359246
Sprite,Foreground,Centre,"sb/heart.png",0,0 M,19,75869,76619,178,192,271,259 F,0,75869,76619,1,0 S,0,75869,76619,0.2,0.08 P,0,75869,76619,A C,0,75869,,255,219,111 R,0,75869,76619,0.5289617,-0.1746614
Sprite,Foreground,Centre,"sb/hl.png",254,278 S,0,76193,,0.7 F,2,76188,76193,0,0.4 F,2,76193,77591,0.4,0 P,0,76193,77591,A C,0,76193,,255,219,111
Sprite,Foreground,Centre,"sb/hl.png",259.4194,282.7192 S,0,76209,,0.7 F,2,76204,76209,0,0.4 F,2,76209,77591,0.4,0 P,0,76193,77591,A C,0,76193,,255,219,111
Sprite,Foreground,Centre,"sb/hl.png",264.9428,287.2659 S,0,76225,,0.7 F,2,76220,76225,0,0.4 F,2,76225,77591,0.4,0 P,0,76193,77591,A C,0,76193,,255,219,111
Sprite,Foreground,Centre,"sb/hl.png",270.8568,291.2991 S,0,76241,,0.7 F,2,76236,76241,0,0.4 F,2,76241,77591,0.4,0 P,0,76193,77591,A C,0,76193,,255,219,111
Sprite,Foreground,Centre,"sb/hl.png",277.1158,294.7862 S,0,76257,,0.7 F,2,76252,76257,0,0.4 F,2,76257,77591,0.4,0 P,0,76193,77591,A C,0,76193,,255,219,111
Sprite,Foreground,Centre,"sb/hl.png",283.6714,297.6985 S,0,76274,,0.7 F,2,76269,76274,0,0.4 F,2,76274,77591,0.4,0 P,0,76193,77591,A C,0,76193,,255,219,111
Sprite,Foreground,Centre,"sb/hl.png",290.4731,300.0112 S,0,76290,,0.7 F,2,76285,76290,0,0.4 F,2,76290,77591,0.4,0 P,0,76193,77591,A C,0,76193,,255,219,111
Sprite,Foreground,Centre,"sb/hl.png",297.4681,301.7038 S,0,76306,,0.7 F,2,76301,76306,0,0.4 F,2,76306,77591,0.4,0 P,0,76193,77591,A C,0,76193,,255,219,111
Sprite,Foreground,Centre,"sb/hl.png",304.636,302.2164 S,0,76322,,0.7 F,2,76317,76322,0,0.4 F,2,76322,77591,0.4,0 P,0,76193,77591,A C,0,76193,,255,219,111
Sprite,Foreground,Centre,"sb/hl.png",311.7838,302.5005 S,0,76338,,0.7 F,2,76333,76338,0,0.4 F,2,76338,77591,0.4,0 P,0,76193,77591,A C,0,76193,,255,219,111
Sprite,Foreground,Centre,"sb/hl.png",318.9318,302.1396 S,0,76355,,0.7 F,2,76350,76355,0,0.4 F,2,76355,77591,0.4,0 P,0,76193,77591,A C,0,76193,,255,219,111
Sprite,Foreground,Centre,"sb/hl.png",326.0243,301.1353 S,0,76371,,0.7 F,2,76366,76371,0,0.4 F,2,76371,77591,0.4,0 P,0,76193,77591,A C,0,76193,,255,219,111
Sprite,Foreground,Centre,"sb/hl.png",333.0052,299.4942 S,0,76387,,0.7 F,2,76382,76387,0,0.4 F,2,76387,77591,0.4,0 P,0,76193,77591,A C,0,76193,,255,219,111
Sprite,Foreground,Centre,"sb/hl.png",339.8195,297.2271 S,0,76403,,0.7 F,2,76398,76403,0,0.4 F,2,76403,77591,0.4,0 P,0,76193,77591,A C,0,76193,,255,219,111
Sprite,Foreground,Centre,"sb/hl.png",346.4128,294.3495 S,0,76420,,0.7 F,2,76415,76420,0,0.4 F,2,76420,77591,0.4,0 P,0,76193,77591,A C,0,76193,,255,219,111
Sprite,Foreground,Centre,"sb/hl.png",352.4485,290.4493 S,0,76436,,0.7 F,2,76431,76436,0,0.4 F,2,76436,77591,0.4,0 P,0,76193,77591,A C,0,76193,,255,219,111
Sprite,Foreground,Centre,"sb/hl.png",358.3144,286.3562 S,0,76452,,0.7 F,2,76447,76452,0,0.4 F,2,76452,77591,0.4,0 P,0,76193,77591,A C,0,76193,,255,219,111
Sprite,Foreground,Centre,"sb/hl.png",363.7904,281.7492 S,0,76468,,0.7 F,2,76463,76468,0,0.4 F,2,76468,77591,0.4,0 P,0,76193,77591,A C,0,76193,,255,219,111
Sprite,Foreground,Centre,"sb/hl.png",368.833,276.6638 S,0,76484,,0.7 F,2,76479,76484,0,0.4 F,2,76484,77591,0.4,0 P,0,76193,77591,A C,0,76193,,255,219,111
Sprite,Foreground,Centre,"sb/hl.png",373.4017,271.1389 S,0,76501,,0.7 F,2,76496,76501,0,0.4 F,2,76501,77591,0.4,0 P,0,76193,77591,A C,0,76193,,255,219,111
Sprite,Foreground,Centre,"sb/hl.png",377.4593,265.2165 S,0,76517,,0.7 F,2,76512,76517,0,0.4 F,2,76517,77591,0.4,0 P,0,76193,77591,A C,0,76193,,255,219,111
Sprite,Foreground,Centre,"sb/hl.png",373.4017,271.1389 S,0,76533,,0.7 F,2,76528,76533,0,0.4 F,2,76533,77591,0.4,0 P,0,76193,77591,A C,0,76193,,255,219,111
Sprite,Foreground,Centre,"sb/hl.png",368.833,276.6638 S,0,76549,,0.7 F,2,76544,76549,0,0.4 F,2,76549,77591,0.4,0 P,0,76193,77591,A C,0,76193,,255,219,111
Sprite,Foreground,Centre,"sb/hl.png",363.7904,281.7492 S,0,76565,,0.7 F,2,76560,76565,0,0.4 F,2,76565,77591,0.4,0 P,0,76193,77591,A C,0,76193,,255,219,111
Sprite,Foreground,Centre,"sb/hl.png",358.3144,286.3562 S,0,76582,,0.7 F,2,76577,76582,0,0.4 F,2,76582,77591,0.4,0 P,0,76193,77591,A C,0,76193,,255,219,111
Sprite,Foreground,Centre,"sb/hl.png",352.4485,290.4493 S,0,76598,,0.7 F,2,76593,76598,0,0.4 F,2,76598,77591,0.4,0 P,0,76193,77591,A C,0,76193,,255,219,111
Sprite,Foreground,Centre,"sb/hl.png",346.4128,294.3495 S,0,76614,,0.7 F,2,76609,76614,0,0.4 F,2,76614,77591,0.4,0 P,0,76193,77591,A C,0,76193,,255,219,111
Sprite,Foreground,Centre,"sb/hl.png",339.8195,297.2271 S,0,76630,,0.7 F,2,76625,76630,0,0.4 F,2,76630,77591,0.4,0 P,0,76193,77591,A C,0,76193,,255,219,111
Sprite,Foreground,Centre,"sb/hl.png",333.0052,299.4942 S,0,76647,,0.7 F,2,76642,76647,0,0.4 F,2,76647,77591,0.4,0 P,0,76193,77591,A C,0,76193,,255,219,111
Sprite,Foreground,Centre,"sb/hl.png",326.0243,301.1353 S,0,76663,,0.7 F,2,76658,76663,0,0.4 F,2,76663,77591,0.4,0 P,0,76193,77591,A C,0,76193,,255,219,111
Sprite,Foreground,Centre,"sb/hl.png",318.9318,302.1396 S,0,76679,,0.7 F,2,76674,76679,0,0.4 F,2,76679,77591,0.4,0 P,0,76193,77591,A C,0,76193,,255,219,111
Sprite,Foreground,Centre,"sb/hl.png",311.7838,302.5005 S,0,76695,,0.7 F,2,76690,76695,0,0.4 F,2,76695,77591,0.4,0 P,0,76193,77591,A C,0,76193,,255,219,111
Sprite,Foreground,Centre,"sb/hl.png",304.636,302.2164 S,0,76711,,0.7 F,2,76706,76711,0,0.4 F,2,76711,77591,0.4,0 P,0,76193,77591,A C,0,76193,,255,219,111
Sprite,Foreground,Centre,"sb/hl.png",297.4681,301.7038 S,0,76728,,0.7 F,2,76723,76728,0,0.4 F,2,76728,77591,0.4,0 P,0,76193,77591,A C,0,76193,,255,219,111
Sprite,Foreground,Centre,"sb/hl.png",290.4731,300.0112 S,0,76744,,0.7 F,2,76739,76744,0,0.4 F,2,76744,77591,0.4,0 P,0,76193,77591,A C,0,76193,,255,219,111
Sprite,Foreground,Centre,"sb/hl.png",283.6714,297.6985 S,0,76760,,0.7 F,2,76755,76760,0,0.4 F,2,76760,77591,0.4,0 P,0,76193,77591,A C,0,76193,,255,219,111
Sprite,Foreground,Centre,"sb/hl.png",277.1158,294.7862 S,0,76776,,0.7 F,2,76771,76776,0,0.4 F,2,76776,77591,0.4,0 P,0,76193,77591,A C,0,76193,,255,219,111
Sprite,Foreground,Centre,"sb/hl.png",270.8568,291.2991 S,0,76792,,0.7 F,2,76787,76792,0,0.4 F,2,76792,77591,0.4,0 P,0,76193,77591,A C,0,76193,,255,219,111
Sprite,Foreground,Centre,"sb/hl.png",264.9428,287.2659 S,0,76809,,0.7 F,2,76804,76809,0,0.4 F,2,76809,77591,0.4,0 P,0,76193,77591,A C,0,76193,,255,219,111
Sprite,Foreground,Centre,"sb/hl.png",259.4194,282.7192 S,0,76825,,0.7 F,2,76820,76825,0,0.4 F,2,76825,77591,0.4,0 P,0,76193,77591,A C,0,76193,,255,219,111
Sprite,Foreground,Centre,"sb/heart.png",0,0 M,19,76193,76943,254,278,249,246 F,0,76193,76943,1,0 S,0,76193,76943,0.2,0.08 P,0,76193,76943,A C,0,76193,,255,219,111 R,0,76193,76943,0.0775213,-0.09718041
Sprite,Foreground,Centre,"sb/heart.png",0,0 M,19,76193,76943,254,278,250,357 F,0,76193,76943,1,0 S,0,76193,76943,0.2,0.08 P,0,76193,76943,A C,0,76193,,255,219,111 R,0,76193,76943,0.1287971,-0.3220429
Sprite,Foreground,Centre,"sb/heart.png",0,0 M,19,76193,76943,254,278,296,201 F,0,76193,76943,1,0 S,0,76193,76943,0.2,0.08 P,0,76193,76943,A C,0,76193,,255,219,111 R,0,76193,76943,-0.2845542,0.7614664
Sprite,Foreground,Centre,"sb/heart.png",0,0 M,19,76193,76943,254,278,296,200 F,0,76193,76943,1,0 S,0,76193,76943,0.2,0.08 P,0,76193,76943,A C,0,76193,,255,219,111 R,0,76193,76943,0.5852104,-0.4166523
Sprite,Foreground,Centre,"sb/heart.png",0,0 M,19,76193,76943,254,278,261,305 F,0,76193,76943,1,0 S,0,76193,76943,0.2,0.08 P,0,76193,76943,A C,0,76193,,255,219,111 R,0,76193,76943,0.6598855,-0.3878163
Sprite,Foreground,Centre,"sb/heart.png",0,0 M,19,76193,76943,254,278,335,367 F,0,76193,76943,1,0 S,0,76193,76943,0.2,0.08 P,0,76193,76943,A C,0,76193,,255,219,111 R,0,76193,76943,-0.3726672,0.03542304
Sprite,Foreground,Centre,"sb/heart.png",0,0 M,19,76193,76943,254,278,158,181 F,0,76193,76943,1,0 S,0,76193,76943,0.2,0.08 P,0,76193,76943,A C,0,76193,,255,219,111 R,0,76193,76943,0.2685768,0.7268252
Sprite,Foreground,Centre,"sb/hl.png",313,179 S,0,77166,,0.7 F,2,77161,77166,0,0.4 F,2,77166,78240,0.4,0 P,0,77166,78240,A C,0,77166,,255,219,111
Sprite,Foreground,Centre,"sb/hl.png",318.8518,174.8202 S,0,77182,,0.7 F,2,77177,77182,0,0.4 F,2,77182,78240,0.4,0 P,0,77166,78240,A C,0,77166,,255,219,111
Sprite,Foreground,Centre,"sb/hl.png",324.7741,170.7766 S,0,77198,,0.7 F,2,77193,77198,0,0.4 F,2,77198,78240,0.4,0 P,0,77166,78240,A C,0,77166,,255,219,111
Sprite,Foreground,Centre,"sb/hl.png",330.9709,167.1619 S,0,77214,,0.7 F,2,77209,77214,0,0.4 F,2,77214,78240,0.4,0 P,0,77166,78240,A C,0,77166,,255,219,111
Sprite,Foreground,Centre,"sb/hl.png",337.4126,163.9942 S,0,77230,,0.7 F,2,77225,77230,0,0.4 F,2,77230,78240,0.4,0 P,0,77166,78240,A C,0,77166,,255,219,111
Sprite,Foreground,Centre,"sb/hl.png",344.0685,161.2896 S,0,77247,,0.7 F,2,77242,77247,0,0.4 F,2,77247,78240,0.4,0 P,0,77166,78240,A C,0,77166,,255,219,111
Sprite,Foreground,Centre,"sb/hl.png",350.9066,159.0623 S,0,77263,,0.7 F,2,77258,77263,0,0.4 F,2,77263,78240,0.4,0 P,0,77166,78240,A C,0,77166,,255,219,111
Sprite,Foreground,Centre,"sb/hl.png",357.9636,157.6796 S,0,77279,,0.7 F,2,77274,77279,0,0.4 F,2,77279,78240,0.4,0 P,0,77166,78240,A C,0,77166,,255,219,111
Sprite,Foreground,Centre,"sb/hl.png",365.0434,156.5483 S,0,77295,,0.7 F,2,77290,77295,0,0.4 F,2,77295,78240,0.4,0 P,0,77166,78240,A C,0,77166,,255,219,111
Sprite,Foreground,Centre,"sb/hl.png",372.1872,155.922 S,0,77311,,0.7 F,2,77306,77311,0,0.4 F,2,77311,78240,0.4,0 P,0,77166,78240,A C,0,77166,,255,219,111
Sprite,Foreground,Centre,"sb/hl.png",379.3604,155.8042 S,0,77328,,0.7 F,2,77323,77328,0,0.4 F,2,77328,78240,0.4,0 P,0,77166,78240,A C,0,77166,,255,219,111
Sprite,Foreground,Centre,"sb/hl.png",386.5283,156.1961 S,0,77344,,0.7 F,2,77339,77344,0,0.4 F,2,77344,78240,0.4,0 P,0,77166,78240,A C,0,77166,,255,219,111
Sprite,Foreground,Centre,"sb/hl.png",393.6562,157.0966 S,0,77360,,0.7 F,2,77355,77360,0,0.4 F,2,77360,78240,0.4,0 P,0,77166,78240,A C,0,77166,,255,219,111
Sprite,Foreground,Centre,"sb/hl.png",400.7094,158.5025 S,0,77376,,0.7 F,2,77371,77376,0,0.4 F,2,77376,78240,0.4,0 P,0,77166,78240,A C,0,77166,,255,219,111
Sprite,Foreground,Centre,"sb/hl.png",407.5387,160.7552 S,0,77393,,0.7 F,2,77388,77393,0,0.4 F,2,77393,78240,0.4,0 P,0,77166,78240,A C,0,77166,,255,219,111
Sprite,Foreground,Centre,"sb/hl.png",414.2658,163.2351 S,0,77409,,0.7 F,2,77404,77409,0,0.4 F,2,77409,78240,0.4,0 P,0,77166,78240,A C,0,77166,,255,219,111
Sprite,Foreground,Centre,"sb/hl.png",420.8015,166.1867 S,0,77425,,0.7 F,2,77420,77425,0,0.4 F,2,77425,78240,0.4,0 P,0,77166,78240,A C,0,77166,,255,219,111
Sprite,Foreground,Centre,"sb/hl.png",427.1138,169.5961 S,0,77441,,0.7 F,2,77436,77441,0,0.4 F,2,77441,78240,0.4,0 P,0,77166,78240,A C,0,77166,,255,219,111
Sprite,Foreground,Centre,"sb/hl.png",433.1721,173.4473 S,0,77457,,0.7 F,2,77452,77457,0,0.4 F,2,77457,78240,0.4,0 P,0,77166,78240,A C,0,77166,,255,219,111
Sprite,Foreground,Centre,"sb/hl.png",438.9465,177.7225 S,0,77474,,0.7 F,2,77469,77474,0,0.4 F,2,77474,78240,0.4,0 P,0,77166,78240,A C,0,77166,,255,219,111
Sprite,Foreground,Centre,"sb/heart.png",0,0 M,19,77166,77916,313,179,358,185 F,0,77166,77916,1,0 S,0,77166,77916,0.2,0.08 P,0,77166,77916,A C,0,77166,,255,219,111 R,0,77166,77916,-0.3047394,0.1446899
Sprite,Foreground,Centre,"sb/heart.png",0,0 M,19,77166,77916,313,179,252,139 F,0,77166,77916,1,0 S,0,77166,77916,0.2,0.08 P,0,77166,77916,A C,0,77166,,255,219,111 R,0,77166,77916,-0.02199527,0.05612396
Sprite,Foreground,Centre,"sb/heart.png",0,0 M,19,77166,77916,313,179,363,136 F,0,77166,77916,1,0 S,0,77166,77916,0.2,0.08 P,0,77166,77916,A C,0,77166,,255,219,111 R,0,77166,77916,-0.4181139,0.7786781
Sprite,Foreground,Centre,"sb/heart.png",0,0 M,19,77166,77916,313,179,223,175 F,0,77166,77916,1,0 S,0,77166,77916,0.2,0.08 P,0,77166,77916,A C,0,77166,,255,219,111 R,0,77166,77916,-0.03891559,0.207858
Sprite,Foreground,Centre,"sb/heart.png",0,0 M,19,77166,77916,313,179,363,224 F,0,77166,77916,1,0 S,0,77166,77916,0.2,0.08 P,0,77166,77916,A C,0,77166,,255,219,111 R,0,77166,77916,0.3371955,-0.1429614
Sprite,Foreground,Centre,"sb/heart.png",0,0 M,19,77166,77916,313,179,237,161 F,0,77166,77916,1,0 S,0,77166,77916,0.2,0.08 P,0,77166,77916,A C,0,77166,,255,219,111 R,0,77166,77916,0.1684778,-0.002136864
Sprite,Foreground,Centre,"sb/heart.png",0,0 M,19,77166,77916,313,179,213,219 F,0,77166,77916,1,0 S,0,77166,77916,0.2,0.08 P,0,77166,77916,A C,0,77166,,255,219,111 R,0,77166,77916,-0.05656275,0.2523873
Sprite,Foreground,Centre,"sb/hl.png",512,228 S,0,77653,,0.7 F,2,77648,77653,0,0.4 F,2,77653,78565,0.4,0 P,0,77653,78565,A C,0,77653,,255,219,111
Sprite,Foreground,Centre,"sb/hl.png",516.3015,222.2526 S,0,77669,,0.7 F,2,77664,77669,0,0.4 F,2,77669,78565,0.4,0 P,0,77653,78565,A C,0,77653,,255,219,111
Sprite,Foreground,Centre,"sb/hl.png",520.407,216.4227 S,0,77685,,0.7 F,2,77680,77685,0,0.4 F,2,77685,78565,0.4,0 P,0,77653,78565,A C,0,77653,,255,219,111
Sprite,Foreground,Centre,"sb/hl.png",523.8647,210.1767 S,0,77701,,0.7 F,2,77696,77701,0,0.4 F,2,77701,78565,0.4,0 P,0,77653,78565,A C,0,77653,,255,219,111
Sprite,Foreground,Centre,"sb/hl.png",526.6343,203.582 S,0,77717,,0.7 F,2,77712,77717,0,0.4 F,2,77717,78565,0.4,0 P,0,77653,78565,A C,0,77653,,255,219,111
Sprite,Foreground,Centre,"sb/hl.png",528.6812,196.7101 S,0,77734,,0.7 F,2,77729,77734,0,0.4 F,2,77734,78565,0.4,0 P,0,77653,78565,A C,0,77653,,255,219,111
Sprite,Foreground,Centre,"sb/hl.png",529.9777,189.6356 S,0,77750,,0.7 F,2,77745,77750,0,0.4 F,2,77750,78565,0.4,0 P,0,77653,78565,A C,0,77653,,255,219,111
Sprite,Foreground,Centre,"sb/hl.png",529.8216,182.4584 S,0,77766,,0.7 F,2,77761,77766,0,0.4 F,2,77766,78565,0.4,0 P,0,77653,78565,A C,0,77653,,255,219,111
Sprite,Foreground,Centre,"sb/hl.png",529.3976,175.3427 S,0,77782,,0.7 F,2,77777,77782,0,0.4 F,2,77782,78565,0.4,0 P,0,77653,78565,A C,0,77653,,255,219,111
Sprite,Foreground,Centre,"sb/hl.png",528.2085,168.3069 S,0,77798,,0.7 F,2,77793,77798,0,0.4 F,2,77798,78565,0.4,0 P,0,77653,78565,A C,0,77653,,255,219,111
Sprite,Foreground,Centre,"sb/heart.png",0,0 M,19,77653,78403,512,228,470,134 F,0,77653,78403,1,0 S,0,77653,78403,0.2,0.08 P,0,77653,78403,A C,0,77653,,255,219,111 R,0,77653,78403,-0.1273341,0.1696805
Sprite,Foreground,Centre,"sb/heart.png",0,0 M,19,77653,78403,512,228,484,236 F,0,77653,78403,1,0 S,0,77653,78403,0.2,0.08 P,0,77653,78403,A C,0,77653,,255,219,111 R,0,77653,78403,0.03748844,-0.1979841
Sprite,Foreground,Centre,"sb/heart.png",0,0 M,19,77653,78403,512,228,415,262 F,0,77653,78403,1,0 S,0,77653,78403,0.2,0.08 P,0,77653,78403,A C,0,77653,,255,219,111 R,0,77653,78403,0.4996909,0.103133
Sprite,Foreground,Centre,"sb/heart.png",0,0 M,19,77653,78403,512,228,571,208 F,0,77653,78403,1,0 S,0,77653,78403,0.2,0.08 P,0,77653,78403,A C,0,77653,,255,219,111 R,0,77653,78403,-0.09101428,-0.1108863
Sprite,Foreground,Centre,"sb/heart.png",0,0 M,19,77653,78403,512,228,536,309 F,0,77653,78403,1,0 S,0,77653,78403,0.2,0.08 P,0,77653,78403,A C,0,77653,,255,219,111 R,0,77653,78403,0.8521805,0.1202383
Sprite,Foreground,Centre,"sb/heart.png",0,0 M,19,77653,78403,512,228,541,239 F,0,77653,78403,1,0 S,0,77653,78403,0.2,0.08 P,0,77653,78403,A C,0,77653,,255,219,111 R,0,77653,78403,0.3592719,-0.05151238
Sprite,Foreground,Centre,"sb/heart.png",0,0 M,19,77653,78403,512,228,497,190 F,0,77653,78403,1,0 S,0,77653,78403,0.2,0.08 P,0,77653,78403,A C,0,77653,,255,219,111 R,0,77653,78403,0.5659671,-0.02695013
Sprite,Foreground,Centre,"sb/hl.png",507,106 S,0,77977,,0.7 F,2,77977,78727,1,0 P,0,77977,78727,A C,0,77977,,255,219,111
Sprite,Foreground,Centre,"sb/heart.png",0,0 M,19,77977,78727,507,106,420,159 F,0,77977,78727,1,0 S,0,77977,78727,0.2,0.08 P,0,77977,78727,A C,0,77977,,255,219,111 R,0,77977,78727,0.1442926,0.2176621
Sprite,Foreground,Centre,"sb/heart.png",0,0 M,19,77977,78727,507,106,409,164 F,0,77977,78727,1,0 S,0,77977,78727,0.2,0.08 P,0,77977,78727,A C,0,77977,,255,219,111 R,0,77977,78727,-0.3264123,0.5049284
Sprite,Foreground,Centre,"sb/heart.png",0,0 M,19,77977,78727,507,106,417,116 F,0,77977,78727,1,0 S,0,77977,78727,0.2,0.08 P,0,77977,78727,A C,0,77977,,255,219,111 R,0,77977,78727,0.3069459,0.2306959
Sprite,Foreground,Centre,"sb/heart.png",0,0 M,19,77977,78727,507,106,431,30 F,0,77977,78727,1,0 S,0,77977,78727,0.2,0.08 P,0,77977,78727,A C,0,77977,,255,219,111 R,0,77977,78727,0.1824401,-0.3309371
Sprite,Foreground,Centre,"sb/heart.png",0,0 M,19,77977,78727,507,106,409,41 F,0,77977,78727,1,0 S,0,77977,78727,0.2,0.08 P,0,77977,78727,A C,0,77977,,255,219,111 R,0,77977,78727,0.1214865,0.5044363
Sprite,Foreground,Centre,"sb/heart.png",0,0 M,19,77977,78727,507,106,436,48 F,0,77977,78727,1,0 S,0,77977,78727,0.2,0.08 P,0,77977,78727,A C,0,77977,,255,219,111 R,0,77977,78727,0.4902517,-0.3171424
Sprite,Foreground,Centre,"sb/heart.png",0,0 M,19,77977,78727,507,106,550,178 F,0,77977,78727,1,0 S,0,77977,78727,0.2,0.08 P,0,77977,78727,A C,0,77977,,255,219,111 R,0,77977,78727,0.715278,0.5267292
Sprite,Foreground,Centre,"sb/hl.png",546,64 S,0,78139,,0.7 F,2,78139,78889,1,0 P,0,78139,78889,A C,0,78139,,255,219,111
Sprite,Foreground,Centre,"sb/heart.png",0,0 M,19,78139,78889,546,64,530,152 F,0,78139,78889,1,0 S,0,78139,78889,0.2,0.08 P,0,78139,78889,A C,0,78139,,255,219,111 R,0,78139,78889,-0.3910516,-0.3761384
Sprite,Foreground,Centre,"sb/heart.png",0,0 M,19,78139,78889,546,64,601,-27 F,0,78139,78889,1,0 S,0,78139,78889,0.2,0.08 P,0,78139,78889,A C,0,78139,,255,219,111 R,0,78139,78889,-0.2876092,-0.1083118
Sprite,Foreground,Centre,"sb/heart.png",0,0 M,19,78139,78889,546,64,491,7 F,0,78139,78889,1,0 S,0,78139,78889,0.2,0.08 P,0,78139,78889,A C,0,78139,,255,219,111 R,0,78139,78889,0.08890092,-0.4263977
Sprite,Foreground,Centre,"sb/heart.png",0,0 M,19,78139,78889,546,64,510,72 F,0,78139,78889,1,0 S,0,78139,78889,0.2,0.08 P,0,78139,78889,A C,0,78139,,255,219,111 R,0,78139,78889,-0.1810365,-0.3409264
Sprite,Foreground,Centre,"sb/heart.png",0,0 M,19,78139,78889,546,64,514,58 F,0,78139,78889,1,0 S,0,78139,78889,0.2,0.08 P,0,78139,78889,A C,0,78139,,255,219,111 R,0,78139,78889,-0.04026859,0.2507054
Sprite,Foreground,Centre,"sb/heart.png",0,0 M,19,78139,78889,546,64,462,69 F,0,78139,78889,1,0 S,0,78139,78889,0.2,0.08 P,0,78139,78889,A C,0,78139,,255,219,111 R,0,78139,78889,-0.06981989,-0.1096628
Sprite,Foreground,Centre,"sb/heart.png",0,0 M,19,78139,78889,546,64,623,-27 F,0,78139,78889,1,0 S,0,78139,78889,0.2,0.08 P,0,78139,78889,A C,0,78139,,255,219,111 R,0,78139,78889,-0.2217156,0.6829258
Sprite,Foreground,Centre,"sb/hl.png",431,57 S,0,78463,,0.7 F,2,78463,79213,1,0 P,0,78463,79213,A C,0,78463,,128,128,255
Sprite,Foreground,Centre,"sb/heart.png",0,0 M,19,78463,79213,431,57,343,27 F,0,78463,79213,1,0 S,0,78463,79213,0.2,0.08 P,0,78463,79213,A C,0,78463,,128,128,255 R,0,78463,79213,0.5893969,-0.2452991
Sprite,Foreground,Centre,"sb/heart.png",0,0 M,19,78463,79213,431,57,513,26 F,0,78463,79213,1,0 S,0,78463,79213,0.2,0.08 P,0,78463,79213,A C,0,78463,,128,128,255 R,0,78463,79213,-0.05056265,-0.2903603
Sprite,Foreground,Centre,"sb/heart.png",0,0 M,19,78463,79213,431,57,434,61 F,0,78463,79213,1,0 S,0,78463,79213,0.2,0.08 P,0,78463,79213,A C,0,78463,,128,128,255 R,0,78463,79213,0.5220265,-0.340264
Sprite,Foreground,Centre,"sb/heart.png",0,0 M,19,78463,79213,431,57,332,1 F,0,78463,79213,1,0 S,0,78463,79213,0.2,0.08 P,0,78463,79213,A C,0,78463,,128,128,255 R,0,78463,79213,0.678932,0.6089433
Sprite,Foreground,Centre,"sb/heart.png",0,0 M,19,78463,79213,431,57,486,40 F,0,78463,79213,1,0 S,0,78463,79213,0.2,0.08 P,0,78463,79213,A C,0,78463,,128,128,255 R,0,78463,79213,0.0852698,0.3543757
Sprite,Foreground,Centre,"sb/heart.png",0,0 M,19,78463,79213,431,57,334,83 F,0,78463,79213,1,0 S,0,78463,79213,0.2,0.08 P,0,78463,79213,A C,0,78463,,128,128,255 R,0,78463,79213,0.5449283,-0.1205549
Sprite,Foreground,Centre,"sb/heart.png",0,0 M,19,78463,79213,431,57,443,27 F,0,78463,79213,1,0 S,0,78463,79213,0.2,0.08 P,0,78463,79213,A C,0,78463,,128,128,255 R,0,78463,79213,0.4170299,0.7379466
Sprite,Foreground,Centre,"sb/hl.png",347,136 S,0,78788,,0.7 F,2,78783,78788,0,0.4 F,2,78788,79700,0.4,0 P,0,78788,79700,A C,0,78788,,128,128,255
Sprite,Foreground,Centre,"sb/hl.png",340.6058,139.2581 S,0,78804,,0.7 F,2,78799,78804,0,0.4 F,2,78804,79700,0.4,0 P,0,78788,79700,A C,0,78788,,128,128,255
Sprite,Foreground,Centre,"sb/hl.png",334.161,142.2901 S,0,78820,,0.7 F,2,78815,78820,0,0.4 F,2,78820,79700,0.4,0 P,0,78788,79700,A C,0,78788,,128,128,255
Sprite,Foreground,Centre,"sb/hl.png",327.403,144.5687 S,0,78836,,0.7 F,2,78831,78836,0,0.4 F,2,78836,79700,0.4,0 P,0,78788,79700,A C,0,78788,,128,128,255
Sprite,Foreground,Centre,"sb/hl.png",320.4149,146.0624 S,0,78852,,0.7 F,2,78847,78852,0,0.4 F,2,78852,79700,0.4,0 P,0,78788,79700,A C,0,78788,,128,128,255
Sprite,Foreground,Centre,"sb/hl.png",313.2832,146.7481 S,0,78869,,0.7 F,2,78864,78869,0,0.4 F,2,78869,79700,0.4,0 P,0,78788,79700,A C,0,78788,,128,128,255
Sprite,Foreground,Centre,"sb/hl.png",306.0965,146.6113 S,0,78885,,0.7 F,2,78880,78885,0,0.4 F,2,78885,79700,0.4,0 P,0,78788,79700,A C,0,78788,,128,128,255
Sprite,Foreground,Centre,"sb/hl.png",299.1086,144.9773 S,0,78901,,0.7 F,2,78896,78901,0,0.4 F,2,78901,79700,0.4,0 P,0,78788,79700,A C,0,78788,,128,128,255
Sprite,Foreground,Centre,"sb/hl.png",292.2543,143.0522 S,0,78917,,0.7 F,2,78912,78917,0,0.4 F,2,78917,79700,0.4,0 P,0,78788,79700,A C,0,78788,,128,128,255
Sprite,Foreground,Centre,"sb/hl.png",285.6583,140.3538 S,0,78933,,0.7 F,2,78928,78933,0,0.4 F,2,78933,79700,0.4,0 P,0,78788,79700,A C,0,78788,,128,128,255
Sprite,Foreground,Centre,"sb/heart.png",0,0 M,19,78788,79538,347,136,379,193 F,0,78788,79538,1,0 S,0,78788,79538,0.2,0.08 P,0,78788,79538,A C,0,78788,,128,128,255 R,0,78788,79538,-0.2298577,0.519803
Sprite,Foreground,Centre,"sb/heart.png",0,0 M,19,78788,79538,347,136,424,87 F,0,78788,79538,1,0 S,0,78788,79538,0.2,0.08 P,0,78788,79538,A C,0,78788,,128,128,255 R,0,78788,79538,-0.1881222,0.7103575
Sprite,Foreground,Centre,"sb/heart.png",0,0 M,19,78788,79538,347,136,333,87 F,0,78788,79538,1,0 S,0,78788,79538,0.2,0.08 P,0,78788,79538,A C,0,78788,,128,128,255 R,0,78788,79538,-0.3094018,0.8359757
Sprite,Foreground,Centre,"sb/heart.png",0,0 M,19,78788,79538,347,136,297,52 F,0,78788,79538,1,0 S,0,78788,79538,0.2,0.08 P,0,78788,79538,A C,0,78788,,128,128,255 R,0,78788,79538,0.2921488,0.6365066
Sprite,Foreground,Centre,"sb/heart.png",0,0 M,19,78788,79538,347,136,395,81 F,0,78788,79538,1,0 S,0,78788,79538,0.2,0.08 P,0,78788,79538,A C,0,78788,,128,128,255 R,0,78788,79538,0.24036,0.691612
Sprite,Foreground,Centre,"sb/heart.png",0,0 M,19,78788,79538,347,136,382,132 F,0,78788,79538,1,0 S,0,78788,79538,0.2,0.08 P,0,78788,79538,A C,0,78788,,128,128,255 R,0,78788,79538,0.181508,0.1784997
Sprite,Foreground,Centre,"sb/heart.png",0,0 M,19,78788,79538,347,136,376,147 F,0,78788,79538,1,0 S,0,78788,79538,0.2,0.08 P,0,78788,79538,A C,0,78788,,128,128,255 R,0,78788,79538,0.6588575,0.1212969
Sprite,Foreground,Centre,"sb/hl.png",209,98 S,0,79112,,0.7 F,2,79107,79112,0,0.4 F,2,79112,80186,0.4,0 P,0,79112,80186,A C,0,79112,,128,128,255
Sprite,Foreground,Centre,"sb/hl.png",204.7525,103.8044 S,0,79128,,0.7 F,2,79123,79128,0,0.4 F,2,79128,80186,0.4,0 P,0,79112,80186,A C,0,79112,,128,128,255
Sprite,Foreground,Centre,"sb/hl.png",200.6464,109.6885 S,0,79144,,0.7 F,2,79139,79144,0,0.4 F,2,79144,80186,0.4,0 P,0,79112,80186,A C,0,79112,,128,128,255
Sprite,Foreground,Centre,"sb/hl.png",196.9465,115.8383 S,0,79160,,0.7 F,2,79155,79160,0,0.4 F,2,79160,80186,0.4,0 P,0,79112,80186,A C,0,79112,,128,128,255
Sprite,Foreground,Centre,"sb/hl.png",193.6695,122.2265 S,0,79176,,0.7 F,2,79171,79176,0,0.4 F,2,79176,80186,0.4,0 P,0,79112,80186,A C,0,79112,,128,128,255
Sprite,Foreground,Centre,"sb/hl.png",190.8304,128.8251 S,0,79193,,0.7 F,2,79188,79193,0,0.4 F,2,79193,80186,0.4,0 P,0,79112,80186,A C,0,79112,,128,128,255
Sprite,Foreground,Centre,"sb/hl.png",188.4424,135.6048 S,0,79209,,0.7 F,2,79204,79209,0,0.4 F,2,79209,80186,0.4,0 P,0,79112,80186,A C,0,79112,,128,128,255
Sprite,Foreground,Centre,"sb/hl.png",186.5169,142.5359 S,0,79225,,0.7 F,2,79220,79225,0,0.4 F,2,79225,80186,0.4,0 P,0,79112,80186,A C,0,79112,,128,128,255
Sprite,Foreground,Centre,"sb/hl.png",185.3857,149.6389 S,0,79241,,0.7 F,2,79236,79241,0,0.4 F,2,79241,80186,0.4,0 P,0,79112,80186,A C,0,79112,,128,128,255
Sprite,Foreground,Centre,"sb/hl.png",184.496,156.7577 S,0,79257,,0.7 F,2,79252,79257,0,0.4 F,2,79257,80186,0.4,0 P,0,79112,80186,A C,0,79112,,128,128,255
Sprite,Foreground,Centre,"sb/hl.png",184.0895,163.9214 S,0,79274,,0.7 F,2,79269,79274,0,0.4 F,2,79274,80186,0.4,0 P,0,79112,80186,A C,0,79112,,128,128,255
Sprite,Foreground,Centre,"sb/hl.png",184.1681,171.0979 S,0,79290,,0.7 F,2,79285,79290,0,0.4 F,2,79290,80186,0.4,0 P,0,79112,80186,A C,0,79112,,128,128,255
Sprite,Foreground,Centre,"sb/hl.png",184.7318,178.2556 S,0,79306,,0.7 F,2,79301,79306,0,0.4 F,2,79306,80186,0.4,0 P,0,79112,80186,A C,0,79112,,128,128,255
Sprite,Foreground,Centre,"sb/hl.png",185.7786,185.3624 S,0,79322,,0.7 F,2,79317,79322,0,0.4 F,2,79322,80186,0.4,0 P,0,79112,80186,A C,0,79112,,128,128,255
Sprite,Foreground,Centre,"sb/hl.png",187.3046,192.3866 S,0,79339,,0.7 F,2,79334,79339,0,0.4 F,2,79339,80186,0.4,0 P,0,79112,80186,A C,0,79112,,128,128,255
Sprite,Foreground,Centre,"sb/hl.png",189.3037,199.2969 S,0,79355,,0.7 F,2,79350,79355,0,0.4 F,2,79355,80186,0.4,0 P,0,79112,80186,A C,0,79112,,128,128,255
Sprite,Foreground,Centre,"sb/hl.png",192.0703,205.9361 S,0,79371,,0.7 F,2,79366,79371,0,0.4 F,2,79371,80186,0.4,0 P,0,79112,80186,A C,0,79112,,128,128,255
Sprite,Foreground,Centre,"sb/hl.png",195.0496,212.4624 S,0,79387,,0.7 F,2,79382,79387,0,0.4 F,2,79387,80186,0.4,0 P,0,79112,80186,A C,0,79112,,128,128,255
Sprite,Foreground,Centre,"sb/hl.png",198.4636,218.7733 S,0,79403,,0.7 F,2,79398,79403,0,0.4 F,2,79403,80186,0.4,0 P,0,79112,80186,A C,0,79112,,128,128,255
Sprite,Foreground,Centre,"sb/hl.png",202.2974,224.8407 S,0,79420,,0.7 F,2,79415,79420,0,0.4 F,2,79420,80186,0.4,0 P,0,79112,80186,A C,0,79112,,128,128,255
Sprite,Foreground,Centre,"sb/heart.png",0,0 M,19,79112,79862,209,98,229,106 F,0,79112,79862,1,0 S,0,79112,79862,0.2,0.08 P,0,79112,79862,A C,0,79112,,128,128,255 R,0,79112,79862,0.3275656,0.2910962
Sprite,Foreground,Centre,"sb/heart.png",0,0 M,19,79112,79862,209,98,248,77 F,0,79112,79862,1,0 S,0,79112,79862,0.2,0.08 P,0,79112,79862,A C,0,79112,,128,128,255 R,0,79112,79862,0.1519738,0.5209782
Sprite,Foreground,Centre,"sb/heart.png",0,0 M,19,79112,79862,209,98,181,-2 F,0,79112,79862,1,0 S,0,79112,79862,0.2,0.08 P,0,79112,79862,A C,0,79112,,128,128,255 R,0,79112,79862,-0.1900858,0.5445481
Sprite,Foreground,Centre,"sb/heart.png",0,0 M,19,79112,79862,209,98,115,193 F,0,79112,79862,1,0 S,0,79112,79862,0.2,0.08 P,0,79112,79862,A C,0,79112,,128,128,255 R,0,79112,79862,0.04364683,0.2472938
Sprite,Foreground,Centre,"sb/heart.png",0,0 M,19,79112,79862,209,98,173,83 F,0,79112,79862,1,0 S,0,79112,79862,0.2,0.08 P,0,79112,79862,A C,0,79112,,128,128,255 R,0,79112,79862,0.02709108,0.7874091
Sprite,Foreground,Centre,"sb/heart.png",0,0 M,19,79112,79862,209,98,124,184 F,0,79112,79862,1,0 S,0,79112,79862,0.2,0.08 P,0,79112,79862,A C,0,79112,,128,128,255 R,0,79112,79862,0.2163193,-0.00019556
Sprite,Foreground,Centre,"sb/heart.png",0,0 M,19,79112,79862,209,98,276,156 F,0,79112,79862,1,0 S,0,79112,79862,0.2,0.08 P,0,79112,79862,A C,0,79112,,128,128,255 R,0,79112,79862,-0.145995,-0.1999032
Sprite,Foreground,Centre,"sb/hl.png",308,284 S,0,79761,,0.7 F,2,79761,80511,1,0 P,0,79761,80511,A C,0,79761,,128,128,255
Sprite,Foreground,Centre,"sb/heart.png",0,0 M,19,79761,80511,308,284,270,321 F,0,79761,80511,1,0 S,0,79761,80511,0.2,0.08 P,0,79761,80511,A C,0,79761,,128,128,255 R,0,79761,80511,-0.3291227,-0.01041921
Sprite,Foreground,Centre,"sb/heart.png",0,0 M,19,79761,80511,308,284,292,336 F,0,79761,80511,1,0 S,0,79761,80511,0.2,0.08 P,0,79761,80511,A C,0,79761,,128,128,255 R,0,79761,80511,-0.07881378,0.7280094
Sprite,Foreground,Centre,"sb/heart.png",0,0 M,19,79761,80511,308,284,342,292 F,0,79761,80511,1,0 S,0,79761,80511,0.2,0.08 P,0,79761,80511,A C,0,79761,,128,128,255 R,0,79761,80511,-0.07551445,0.6794617
Sprite,Foreground,Centre,"sb/heart.png",0,0 M,19,79761,80511,308,284,334,349 F,0,79761,80511,1,0 S,0,79761,80511,0.2,0.08 P,0,79761,80511,A C,0,79761,,128,128,255 R,0,79761,80511,0.159897,0.533567
Sprite,Foreground,Centre,"sb/heart.png",0,0 M,19,79761,80511,308,284,216,337 F,0,79761,80511,1,0 S,0,79761,80511,0.2,0.08 P,0,79761,80511,A C,0,79761,,128,128,255 R,0,79761,80511,0.6490701,0.479035
Sprite,Foreground,Centre,"sb/heart.png",0,0 M,19,79761,80511,308,284,230,373 F,0,79761,80511,1,0 S,0,79761,80511,0.2,0.08 P,0,79761,80511,A C,0,79761,,128,128,255 R,0,79761,80511,-0.2424539,-0.1456976
Sprite,Foreground,Centre,"sb/heart.png",0,0 M,19,79761,80511,308,284,249,364 F,0,79761,80511,1,0 S,0,79761,80511,0.2,0.08 P,0,79761,80511,A C,0,79761,,128,128,255 R,0,79761,80511,0.01859981,0.4444173
Sprite,Foreground,Centre,"sb/hl.png",351,247 S,0,79923,,0.7 F,2,79923,80673,1,0 P,0,79923,80673,A C,0,79923,,128,128,255
Sprite,Foreground,Centre,"sb/heart.png",0,0 M,19,79923,80673,351,247,259,197 F,0,79923,80673,1,0 S,0,79923,80673,0.2,0.08 P,0,79923,80673,A C,0,79923,,128,128,255 R,0,79923,80673,0.5032159,0.7497399
Sprite,Foreground,Centre,"sb/heart.png",0,0 M,19,79923,80673,351,247,286,200 F,0,79923,80673,1,0 S,0,79923,80673,0.2,0.08 P,0,79923,80673,A C,0,79923,,128,128,255 R,0,79923,80673,0.1112104,0.4486347
Sprite,Foreground,Centre,"sb/heart.png",0,0 M,19,79923,80673,351,247,434,319 F,0,79923,80673,1,0 S,0,79923,80673,0.2,0.08 P,0,79923,80673,A C,0,79923,,128,128,255 R,0,79923,80673,-0.007720949,-0.08437135
Sprite,Foreground,Centre,"sb/heart.png",0,0 M,19,79923,80673,351,247,391,242 F,0,79923,80673,1,0 S,0,79923,80673,0.2,0.08 P,0,79923,80673,A C,0,79923,,128,128,255 R,0,79923,80673,0.6769917,0.5851193
Sprite,Foreground,Centre,"sb/heart.png",0,0 M,19,79923,80673,351,247,281,247 F,0,79923,80673,1,0 S,0,79923,80673,0.2,0.08 P,0,79923,80673,A C,0,79923,,128,128,255 R,0,79923,80673,-0.04260555,-0.1048058
Sprite,Foreground,Centre,"sb/heart.png",0,0 M,19,79923,80673,351,247,345,298 F,0,79923,80673,1,0 S,0,79923,80673,0.2,0.08 P,0,79923,80673,A C,0,79923,,128,128,255 R,0,79923,80673,-0.05394446,-0.3442639
Sprite,Foreground,Centre,"sb/heart.png",0,0 M,19,79923,80673,351,247,443,251 F,0,79923,80673,1,0 S,0,79923,80673,0.2,0.08 P,0,79923,80673,A C,0,79923,,128,128,255 R,0,79923,80673,-0.3501578,0.03922136
Sprite,Foreground,Centre,"sb/hl.png",391,289 S,0,80085,,0.7 F,2,80080,80085,0,0.4 F,2,80085,81159,0.4,0 P,0,80085,81159,A C,0,80085,,128,128,255
Sprite,Foreground,Centre,"sb/hl.png",389.3661,296.0121 S,0,80101,,0.7 F,2,80096,80101,0,0.4 F,2,80101,81159,0.4,0 P,0,80085,81159,A C,0,80085,,128,128,255
Sprite,Foreground,Centre,"sb/hl.png",387.7322,303.0243 S,0,80117,,0.7 F,2,80112,80117,0,0.4 F,2,80117,81159,0.4,0 P,0,80085,81159,A C,0,80085,,128,128,255
Sprite,Foreground,Centre,"sb/hl.png",386.0983,310.0365 S,0,80133,,0.7 F,2,80128,80133,0,0.4 F,2,80133,81159,0.4,0 P,0,80085,81159,A C,0,80085,,128,128,255
Sprite,Foreground,Centre,"sb/hl.png",384.4644,317.0486 S,0,80149,,0.7 F,2,80144,80149,0,0.4 F,2,80149,81159,0.4,0 P,0,80085,81159,A C,0,80085,,128,128,255
Sprite,Foreground,Centre,"sb/hl.png",382.8305,324.0608 S,0,80166,,0.7 F,2,80161,80166,0,0.4 F,2,80166,81159,0.4,0 P,0,80085,81159,A C,0,80085,,128,128,255
Sprite,Foreground,Centre,"sb/hl.png",381.1966,331.0729 S,0,80182,,0.7 F,2,80177,80182,0,0.4 F,2,80182,81159,0.4,0 P,0,80085,81159,A C,0,80085,,128,128,255
Sprite,Foreground,Centre,"sb/hl.png",379.5627,338.0851 S,0,80198,,0.7 F,2,80193,80198,0,0.4 F,2,80198,81159,0.4,0 P,0,80085,81159,A C,0,80085,,128,128,255
Sprite,Foreground,Centre,"sb/hl.png",377.9288,345.0973 S,0,80214,,0.7 F,2,80209,80214,0,0.4 F,2,80214,81159,0.4,0 P,0,80085,81159,A C,0,80085,,128,128,255
Sprite,Foreground,Centre,"sb/hl.png",376.2949,352.1094 S,0,80230,,0.7 F,2,80225,80230,0,0.4 F,2,80230,81159,0.4,0 P,0,80085,81159,A C,0,80085,,128,128,255
Sprite,Foreground,Centre,"sb/hl.png",374.661,359.1216 S,0,80247,,0.7 F,2,80242,80247,0,0.4 F,2,80247,81159,0.4,0 P,0,80085,81159,A C,0,80085,,128,128,255
Sprite,Foreground,Centre,"sb/hl.png",376.2949,352.1094 S,0,80263,,0.7 F,2,80258,80263,0,0.4 F,2,80263,81159,0.4,0 P,0,80085,81159,A C,0,80085,,128,128,255
Sprite,Foreground,Centre,"sb/hl.png",377.9288,345.0973 S,0,80279,,0.7 F,2,80274,80279,0,0.4 F,2,80279,81159,0.4,0 P,0,80085,81159,A C,0,80085,,128,128,255
Sprite,Foreground,Centre,"sb/hl.png",379.5627,338.0851 S,0,80295,,0.7 F,2,80290,80295,0,0.4 F,2,80295,81159,0.4,0 P,0,80085,81159,A C,0,80085,,128,128,255
Sprite,Foreground,Centre,"sb/hl.png",381.1966,331.0729 S,0,80312,,0.7 F,2,80307,80312,0,0.4 F,2,80312,81159,0.4,0 P,0,80085,81159,A C,0,80085,,128,128,255
Sprite,Foreground,Centre,"sb/hl.png",382.8305,324.0608 S,0,80328,,0.7 F,2,80323,80328,0,0.4 F,2,80328,81159,0.4,0 P,0,80085,81159,A C,0,80085,,128,128,255
Sprite,Foreground,Centre,"sb/hl.png",384.4644,317.0486 S,0,80344,,0.7 F,2,80339,80344,0,0.4 F,2,80344,81159,0.4,0 P,0,80085,81159,A C,0,80085,,128,128,255
Sprite,Foreground,Centre,"sb/hl.png",386.0983,310.0365 S,0,80360,,0.7 F,2,80355,80360,0,0.4 F,2,80360,81159,0.4,0 P,0,80085,81159,A C,0,80085,,128,128,255
Sprite,Foreground,Centre,"sb/hl.png",387.7322,303.0243 S,0,80376,,0.7 F,2,80371,80376,0,0.4 F,2,80376,81159,0.4,0 P,0,80085,81159,A C,0,80085,,128,128,255
Sprite,Foreground,Centre,"sb/hl.png",389.3661,296.0121 S,0,80393,,0.7 F,2,80388,80393,0,0.4 F,2,80393,81159,0.4,0 P,0,80085,81159,A C,0,80085,,128,128,255
Sprite,Foreground,Centre,"sb/heart.png",0,0 M,19,80085,80835,391,289,398,360 F,0,80085,80835,1,0 S,0,80085,80835,0.2,0.08 P,0,80085,80835,A C,0,80085,,128,128,255 R,0,80085,80835,-0.2799015,0.2444883
Sprite,Foreground,Centre,"sb/heart.png",0,0 M,19,80085,80835,391,289,374,309 F,0,80085,80835,1,0 S,0,80085,80835,0.2,0.08 P,0,80085,80835,A C,0,80085,,128,128,255 R,0,80085,80835,0.6707093,0.1152056
Sprite,Foreground,Centre,"sb/heart.png",0,0 M,19,80085,80835,391,289,455,262 F,0,80085,80835,1,0 S,0,80085,80835,0.2,0.08 P,0,80085,80835,A C,0,80085,,128,128,255 R,0,80085,80835,0.4493113,0.04180527
Sprite,Foreground,Centre,"sb/heart.png",0,0 M,19,80085,80835,391,289,372,344 F,0,80085,80835,1,0 S,0,80085,80835,0.2,0.08 P,0,80085,80835,A C,0,80085,,128,128,255 R,0,80085,80835,0.6385532,-0.2029168
Sprite,Foreground,Centre,"sb/heart.png",0,0 M,19,80085,80835,391,289,379,301 F,0,80085,80835,1,0 S,0,80085,80835,0.2,0.08 P,0,80085,80835,A C,0,80085,,128,128,255 R,0,80085,80835,0.8679791,0.3982848
Sprite,Foreground,Centre,"sb/heart.png",0,0 M,19,80085,80835,391,289,310,262 F,0,80085,80835,1,0 S,0,80085,80835,0.2,0.08 P,0,80085,80835,A C,0,80085,,128,128,255 R,0,80085,80835,-0.3431708,0.4855205
Sprite,Foreground,Centre,"sb/heart.png",0,0 M,19,80085,80835,391,289,411,207 F,0,80085,80835,1,0 S,0,80085,80835,0.2,0.08 P,0,80085,80835,A C,0,80085,,128,128,255 R,0,80085,80835,-0.176772,-0.0617844
Sprite,Foreground,Centre,"sb/hl.png",205,426 S,0,81058,,0.7 F,2,81058,81808,1,0 P,0,81058,81808,A C,0,81058,,252,173,194
Sprite,Foreground,Centre,"sb/heart.png",0,0 M,19,81058,81808,205,426,296,455 F,0,81058,81808,1,0 S,0,81058,81808,0.2,0.08 P,0,81058,81808,A C,0,81058,,252,173,194 R,0,81058,81808,0.8007277,0.418848
Sprite,Foreground,Centre,"sb/heart.png",0,0 M,19,81058,81808,205,426,145,336 F,0,81058,81808,1,0 S,0,81058,81808,0.2,0.08 P,0,81058,81808,A C,0,81058,,252,173,194 R,0,81058,81808,-0.2581263,-0.3578935
Sprite,Foreground,Centre,"sb/heart.png",0,0 M,19,81058,81808,205,426,253,487 F,0,81058,81808,1,0 S,0,81058,81808,0.2,0.08 P,0,81058,81808,A C,0,81058,,252,173,194 R,0,81058,81808,0.6799799,-0.3020453
Sprite,Foreground,Centre,"sb/heart.png",0,0 M,19,81058,81808,205,426,231,411 F,0,81058,81808,1,0 S,0,81058,81808,0.2,0.08 P,0,81058,81808,A C,0,81058,,252,173,194 R,0,81058,81808,0.8161685,0.5863953
Sprite,Foreground,Centre,"sb/heart.png",0,0 M,19,81058,81808,205,426,270,513 F,0,81058,81808,1,0 S,0,81058,81808,0.2,0.08 P,0,81058,81808,A C,0,81058,,252,173,194 R,0,81058,81808,0.6715663,0.4735947
Sprite,Foreground,Centre,"sb/heart.png",0,0 M,19,81058,81808,205,426,292,348 F,0,81058,81808,1,0 S,0,81058,81808,0.2,0.08 P,0,81058,81808,A C,0,81058,,252,173,194 R,0,81058,81808,0.3885355,0.08823542
Sprite,Foreground,Centre,"sb/heart.png",0,0 M,19,81058,81808,205,426,210,411 F,0,81058,81808,1,0 S,0,81058,81808,0.2,0.08 P,0,81058,81808,A C,0,81058,,252,173,194 R,0,81058,81808,-0.09066577,-0.2109949
Sprite,Foreground,Centre,"sb/hl.png",110,360 S,0,81382,,0.7 F,2,81382,82132,1,0 P,0,81382,82132,A C,0,81382,,252,173,194
Sprite,Foreground,Centre,"sb/heart.png",0,0 M,19,81382,82132,110,360,167,343 F,0,81382,82132,1,0 S,0,81382,82132,0.2,0.08 P,0,81382,82132,A C,0,81382,,252,173,194 R,0,81382,82132,0.7667665,-0.01509223
Sprite,Foreground,Centre,"sb/heart.png",0,0 M,19,81382,82132,110,360,90,371 F,0,81382,82132,1,0 S,0,81382,82132,0.2,0.08 P,0,81382,82132,A C,0,81382,,252,173,194 R,0,81382,82132,0.1698322,-0.2058644
Sprite,Foreground,Centre,"sb/heart.png",0,0 M,19,81382,82132,110,360,94,264 F,0,81382,82132,1,0 S,0,81382,82132,0.2,0.08 P,0,81382,82132,A C,0,81382,,252,173,194 R,0,81382,82132,-0.2238972,0.02430349
Sprite,Foreground,Centre,"sb/heart.png",0,0 M,19,81382,82132,110,360,138,412 F,0,81382,82132,1,0 S,0,81382,82132,0.2,0.08 P,0,81382,82132,A C,0,81382,,252,173,194 R,0,81382,82132,0.1331806,0.3920743
Sprite,Foreground,Centre,"sb/heart.png",0,0 M,19,81382,82132,110,360,151,438 F,0,81382,82132,1,0 S,0,81382,82132,0.2,0.08 P,0,81382,82132,A C,0,81382,,252,173,194 R,0,81382,82132,-0.4283049,0.4407656
Sprite,Foreground,Centre,"sb/heart.png",0,0 M,19,81382,82132,110,360,92,317 F,0,81382,82132,1,0 S,0,81382,82132,0.2,0.08 P,0,81382,82132,A C,0,81382,,252,173,194 R,0,81382,82132,0.7145377,0.4347972
Sprite,Foreground,Centre,"sb/heart.png",0,0 M,19,81382,82132,110,360,59,360 F,0,81382,82132,1,0 S,0,81382,82132,0.2,0.08 P,0,81382,82132,A C,0,81382,,252,173,194 R,0,81382,82132,0.02135192,0.6690656
Sprite,Foreground,Centre,"sb/hl.png",83,308 S,0,81544,,0.7 F,2,81544,82294,1,0 P,0,81544,82294,A C,0,81544,,252,173,194
Sprite,Foreground,Centre,"sb/heart.png",0,0 M,19,81544,82294,83,308,-14,316 F,0,81544,82294,1,0 S,0,81544,82294,0.2,0.08 P,0,81544,82294,A C,0,81544,,252,173,194 R,0,81544,82294,-0.2698044,0.5778127
Sprite,Foreground,Centre,"sb/heart.png",0,0 M,19,81544,82294,83,308,141,400 F,0,81544,82294,1,0 S,0,81544,82294,0.2,0.08 P,0,81544,82294,A C,0,81544,,252,173,194 R,0,81544,82294,-0.08130693,-0.007007797
Sprite,Foreground,Centre,"sb/heart.png",0,0 M,19,81544,82294,83,308,160,314 F,0,81544,82294,1,0 S,0,81544,82294,0.2,0.08 P,0,81544,82294,A C,0,81544,,252,173,194 R,0,81544,82294,0.4807461,-0.3422363
Sprite,Foreground,Centre,"sb/heart.png",0,0 M,19,81544,82294,83,308,176,364 F,0,81544,82294,1,0 S,0,81544,82294,0.2,0.08 P,0,81544,82294,A C,0,81544,,252,173,194 R,0,81544,82294,0.03071575,0.6131841
Sprite,Foreground,Centre,"sb/heart.png",0,0 M,19,81544,82294,83,308,137,306 F,0,81544,82294,1,0 S,0,81544,82294,0.2,0.08 P,0,81544,82294,A C,0,81544,,252,173,194 R,0,81544,82294,-0.3684585,-0.2069183
Sprite,Foreground,Centre,"sb/heart.png",0,0 M,19,81544,82294,83,308,118,407 F,0,81544,82294,1,0 S,0,81544,82294,0.2,0.08 P,0,81544,82294,A C,0,81544,,252,173,194 R,0,81544,82294,0.4711061,0.3912926
Sprite,Foreground,Centre,"sb/heart.png",0,0 M,19,81544,82294,83,308,67,326 F,0,81544,82294,1,0 S,0,81544,82294,0.2,0.08 P,0,81544,82294,A C,0,81544,,252,173,194 R,0,81544,82294,0.5600821,0.2166473
Sprite,Foreground,Centre,"sb/hl.png",109,256 S,0,81707,,0.7 F,2,81707,82457,1,0 P,0,81707,82457,A C,0,81707,,252,173,194
Sprite,Foreground,Centre,"sb/heart.png",0,0 M,19,81707,82457,109,256,116,206 F,0,81707,82457,1,0 S,0,81707,82457,0.2,0.08 P,0,81707,82457,A C,0,81707,,252,173,194 R,0,81707,82457,-0.3395962,0.7402399
Sprite,Foreground,Centre,"sb/heart.png",0,0 M,19,81707,82457,109,256,50,279 F,0,81707,82457,1,0 S,0,81707,82457,0.2,0.08 P,0,81707,82457,A C,0,81707,,252,173,194 R,0,81707,82457,-0.2284764,0.715852
Sprite,Foreground,Centre,"sb/heart.png",0,0 M,19,81707,82457,109,256,188,233 F,0,81707,82457,1,0 S,0,81707,82457,0.2,0.08 P,0,81707,82457,A C,0,81707,,252,173,194 R,0,81707,82457,0.297981,0.4528523
Sprite,Foreground,Centre,"sb/heart.png",0,0 M,19,81707,82457,109,256,107,177 F,0,81707,82457,1,0 S,0,81707,82457,0.2,0.08 P,0,81707,82457,A C,0,81707,,252,173,194 R,0,81707,82457,0.5383855,-0.2052781
Sprite,Foreground,Centre,"sb/heart.png",0,0 M,19,81707,82457,109,256,47,342 F,0,81707,82457,1,0 S,0,81707,82457,0.2,0.08 P,0,81707,82457,A C,0,81707,,252,173,194 R,0,81707,82457,0.4851441,0.3885516
Sprite,Foreground,Centre,"sb/heart.png",0,0 M,19,81707,82457,109,256,195,171 F,0,81707,82457,1,0 S,0,81707,82457,0.2,0.08 P,0,81707,82457,A C,0,81707,,252,173,194 R,0,81707,82457,0.7316431,0.5499057
Sprite,Foreground,Centre,"sb/heart.png",0,0 M,19,81707,82457,109,256,99,190 F,0,81707,82457,1,0 S,0,81707,82457,0.2,0.08 P,0,81707,82457,A C,0,81707,,252,173,194 R,0,81707,82457,-0.2193907,-0.4101815
Sprite,Foreground,Centre,"sb/hl.png",83,143 S,0,82031,,0.7 F,2,82031,82781,1,0 P,0,82031,82781,A C,0,82031,,252,173,194
Sprite,Foreground,Centre,"sb/heart.png",0,0 M,19,82031,82781,83,143,153,141 F,0,82031,82781,1,0 S,0,82031,82781,0.2,0.08 P,0,82031,82781,A C,0,82031,,252,173,194 R,0,82031,82781,0.0252858,-0.1785785
Sprite,Foreground,Centre,"sb/heart.png",0,0 M,19,82031,82781,83,143,23,197 F,0,82031,82781,1,0 S,0,82031,82781,0.2,0.08 P,0,82031,82781,A C,0,82031,,252,173,194 R,0,82031,82781,0.6002873,0.3943841
Sprite,Foreground,Centre,"sb/heart.png",0,0 M,19,82031,82781,83,143,74,203 F,0,82031,82781,1,0 S,0,82031,82781,0.2,0.08 P,0,82031,82781,A C,0,82031,,252,173,194 R,0,82031,82781,0.6919513,0.01852263
Sprite,Foreground,Centre,"sb/heart.png",0,0 M,19,82031,82781,83,143,107,138 F,0,82031,82781,1,0 S,0,82031,82781,0.2,0.08 P,0,82031,82781,A C,0,82031,,252,173,194 R,0,82031,82781,0.7492487,0.06853167
Sprite,Foreground,Centre,"sb/heart.png",0,0 M,19,82031,82781,83,143,169,117 F,0,82031,82781,1,0 S,0,82031,82781,0.2,0.08 P,0,82031,82781,A C,0,82031,,252,173,194 R,0,82031,82781,0.4606573,0.3119356
Sprite,Foreground,Centre,"sb/heart.png",0,0 M,19,82031,82781,83,143,33,146 F,0,82031,82781,1,0 S,0,82031,82781,0.2,0.08 P,0,82031,82781,A C,0,82031,,252,173,194 R,0,82031,82781,0.1383465,0.2022633
Sprite,Foreground,Centre,"sb/heart.png",0,0 M,19,82031,82781,83,143,161,69 F,0,82031,82781,1,0 S,0,82031,82781,0.2,0.08 P,0,82031,82781,A C,0,82031,,252,173,194 R,0,82031,82781,0.3042645,0.1640159
Sprite,Foreground,Centre,"sb/hl.png",184,87 S,0,82355,,0.7 F,2,82350,82355,0,0.4 F,2,82355,83267,0.4,0 P,0,82355,83267,A C,0,82355,,252,173,194
Sprite,Foreground,Centre,"sb/hl.png",190.2612,83.48132 S,0,82371,,0.7 F,2,82366,82371,0,0.4 F,2,82371,83267,0.4,0 P,0,82355,83267,A C,0,82355,,252,173,194
Sprite,Foreground,Centre,"sb/hl.png",196.5621,80.11897 S,0,82387,,0.7 F,2,82382,82387,0,0.4 F,2,82387,83267,0.4,0 P,0,82355,83267,A C,0,82355,,252,173,194
Sprite,Foreground,Centre,"sb/hl.png",203.1649,77.37144 S,0,82403,,0.7 F,2,82398,82403,0,0.4 F,2,82403,83267,0.4,0 P,0,82355,83267,A C,0,82355,,252,173,194
Sprite,Foreground,Centre,"sb/hl.png",210.0145,75.26487 S,0,82419,,0.7 F,2,82414,82419,0,0.4 F,2,82419,83267,0.4,0 P,0,82355,83267,A C,0,82355,,252,173,194
Sprite,Foreground,Centre,"sb/hl.png",217.0536,73.8212 S,0,82436,,0.7 F,2,82431,82436,0,0.4 F,2,82436,83267,0.4,0 P,0,82355,83267,A C,0,82355,,252,173,194
Sprite,Foreground,Centre,"sb/hl.png",224.2336,73.64607 S,0,82452,,0.7 F,2,82447,82452,0,0.4 F,2,82452,83267,0.4,0 P,0,82355,83267,A C,0,82355,,252,173,194
Sprite,Foreground,Centre,"sb/hl.png",231.3708,73.75726 S,0,82468,,0.7 F,2,82463,82468,0,0.4 F,2,82468,83267,0.4,0 P,0,82355,83267,A C,0,82355,,252,173,194
Sprite,Foreground,Centre,"sb/hl.png",238.4708,74.55151 S,0,82484,,0.7 F,2,82479,82484,0,0.4 F,2,82484,83267,0.4,0 P,0,82355,83267,A C,0,82355,,252,173,194
Sprite,Foreground,Centre,"sb/hl.png",245.4732,76.0242 S,0,82500,,0.7 F,2,82495,82500,0,0.4 F,2,82500,83267,0.4,0 P,0,82355,83267,A C,0,82355,,252,173,194
Sprite,Foreground,Centre,"sb/heart.png",0,0 M,19,82355,83105,184,87,156,51 F,0,82355,83105,1,0 S,0,82355,83105,0.2,0.08 P,0,82355,83105,A C,0,82355,,252,173,194 R,0,82355,83105,0.1494834,-0.3897932
Sprite,Foreground,Centre,"sb/heart.png",0,0 M,19,82355,83105,184,87,174,14 F,0,82355,83105,1,0 S,0,82355,83105,0.2,0.08 P,0,82355,83105,A C,0,82355,,252,173,194 R,0,82355,83105,-0.3981988,0.08870012
Sprite,Foreground,Centre,"sb/heart.png",0,0 M,19,82355,83105,184,87,90,59 F,0,82355,83105,1,0 S,0,82355,83105,0.2,0.08 P,0,82355,83105,A C,0,82355,,252,173,194 R,0,82355,83105,0.1874013,0.5030432
Sprite,Foreground,Centre,"sb/heart.png",0,0 M,19,82355,83105,184,87,147,9 F,0,82355,83105,1,0 S,0,82355,83105,0.2,0.08 P,0,82355,83105,A C,0,82355,,252,173,194 R,0,82355,83105,0.5053828,0.07610747
Sprite,Foreground,Centre,"sb/heart.png",0,0 M,19,82355,83105,184,87,98,58 F,0,82355,83105,1,0 S,0,82355,83105,0.2,0.08 P,0,82355,83105,A C,0,82355,,252,173,194 R,0,82355,83105,-0.4256254,0.1611867
Sprite,Foreground,Centre,"sb/heart.png",0,0 M,19,82355,83105,184,87,118,88 F,0,82355,83105,1,0 S,0,82355,83105,0.2,0.08 P,0,82355,83105,A C,0,82355,,252,173,194 R,0,82355,83105,0.6369563,-0.333262
Sprite,Foreground,Centre,"sb/heart.png",0,0 M,19,82355,83105,184,87,181,105 F,0,82355,83105,1,0 S,0,82355,83105,0.2,0.08 P,0,82355,83105,A C,0,82355,,252,173,194 R,0,82355,83105,0.5680751,0.001334226
Sprite,Foreground,Centre,"sb/hl.png",296,145 S,0,82680,,0.7 F,2,82675,82680,0,0.4 F,2,82680,83592,0.4,0 P,0,82680,83592,A C,0,82680,,252,173,194
Sprite,Foreground,Centre,"sb/hl.png",302.8809,147.0597 S,0,82696,,0.7 F,2,82691,82696,0,0.4 F,2,82696,83592,0.4,0 P,0,82680,83592,A C,0,82680,,252,173,194
Sprite,Foreground,Centre,"sb/hl.png",309.799,148.8332 S,0,82712,,0.7 F,2,82707,82712,0,0.4 F,2,82712,83592,0.4,0 P,0,82680,83592,A C,0,82680,,252,173,194
Sprite,Foreground,Centre,"sb/hl.png",316.8697,149.8577 S,0,82728,,0.7 F,2,82723,82728,0,0.4 F,2,82728,83592,0.4,0 P,0,82680,83592,A C,0,82680,,252,173,194
Sprite,Foreground,Centre,"sb/hl.png",324.0133,150.1208 S,0,82744,,0.7 F,2,82739,82744,0,0.4 F,2,82744,83592,0.4,0 P,0,82680,83592,A C,0,82680,,252,173,194
Sprite,Foreground,Centre,"sb/hl.png",331.1494,149.6184 S,0,82761,,0.7 F,2,82756,82761,0,0.4 F,2,82761,83592,0.4,0 P,0,82680,83592,A C,0,82680,,252,173,194
Sprite,Foreground,Centre,"sb/hl.png",338.1974,148.3548 S,0,82777,,0.7 F,2,82772,82777,0,0.4 F,2,82777,83592,0.4,0 P,0,82680,83592,A C,0,82680,,252,173,194
Sprite,Foreground,Centre,"sb/hl.png",345.0776,146.3425 S,0,82793,,0.7 F,2,82788,82793,0,0.4 F,2,82793,83592,0.4,0 P,0,82680,83592,A C,0,82680,,252,173,194
Sprite,Foreground,Centre,"sb/hl.png",351.7115,143.6023 S,0,82809,,0.7 F,2,82804,82809,0,0.4 F,2,82809,83592,0.4,0 P,0,82680,83592,A C,0,82680,,252,173,194
Sprite,Foreground,Centre,"sb/hl.png",358.0507,140.1969 S,0,82825,,0.7 F,2,82820,82825,0,0.4 F,2,82825,83592,0.4,0 P,0,82680,83592,A C,0,82680,,252,173,194
Sprite,Foreground,Centre,"sb/heart.png",0,0 M,19,82680,83430,296,145,207,217 F,0,82680,83430,1,0 S,0,82680,83430,0.2,0.08 P,0,82680,83430,A C,0,82680,,252,173,194 R,0,82680,83430,-0.0346676,-0.3424119
Sprite,Foreground,Centre,"sb/heart.png",0,0 M,19,82680,83430,296,145,237,111 F,0,82680,83430,1,0 S,0,82680,83430,0.2,0.08 P,0,82680,83430,A C,0,82680,,252,173,194 R,0,82680,83430,-0.07860682,-0.2574914
Sprite,Foreground,Centre,"sb/heart.png",0,0 M,19,82680,83430,296,145,266,210 F,0,82680,83430,1,0 S,0,82680,83430,0.2,0.08 P,0,82680,83430,A C,0,82680,,252,173,194 R,0,82680,83430,0.7346976,0.1961396
Sprite,Foreground,Centre,"sb/heart.png",0,0 M,19,82680,83430,296,145,285,145 F,0,82680,83430,1,0 S,0,82680,83430,0.2,0.08 P,0,82680,83430,A C,0,82680,,252,173,194 R,0,82680,83430,0.02286278,0.3090546
Sprite,Foreground,Centre,"sb/heart.png",0,0 M,19,82680,83430,296,145,375,238 F,0,82680,83430,1,0 S,0,82680,83430,0.2,0.08 P,0,82680,83430,A C,0,82680,,252,173,194 R,0,82680,83430,-0.1006302,-0.2495934
Sprite,Foreground,Centre,"sb/heart.png",0,0 M,19,82680,83430,296,145,355,54 F,0,82680,83430,1,0 S,0,82680,83430,0.2,0.08 P,0,82680,83430,A C,0,82680,,252,173,194 R,0,82680,83430,0.1076186,0.2621323
Sprite,Foreground,Centre,"sb/heart.png",0,0 M,19,82680,83430,296,145,220,66 F,0,82680,83430,1,0 S,0,82680,83430,0.2,0.08 P,0,82680,83430,A C,0,82680,,252,173,194 R,0,82680,83430,-0.0607536,0.6825441
//Storyboard Sound Samples

[TimingPoints]
626,324.324324324324,4,2,1,70,1,0
11004,-125,4,2,1,70,0,0
14896,-125,4,2,1,60,0,0
15382,-125,4,2,1,70,0,0
15707,-125,4,2,1,80,0,0
16193,-100,4,2,1,80,0,0
17490,-100,4,2,1,90,0,0
21382,-83.3333333333333,4,2,1,100,0,0
41815,-83.3333333333333,4,2,1,80,0,0
42139,-83.3333333333333,4,2,1,100,0,0
44085,-125,4,2,1,70,0,0
52680,-125,4,2,1,60,0,0
56247,-125,4,2,1,70,0,0
56896,-125,4,2,1,75,0,0
57707,-100,4,2,1,80,0,0
59004,-100,4,2,1,90,0,0
62896,-83.3333333333333,4,2,1,100,0,0
82680,-83.3333333333333,4,2,1,90,0,0
83653,-100,4,2,1,90,0,0
93869,-100,4,2,1,50,0,0
94031,-100,4,2,1,40,0,0
94355,-100,4,2,1,30,0,0
94680,-100,4,2,1,20,0,0
95004,-100,4,2,1,10,0,0

[Colours]
Combo1 : 255,219,111
Combo2 : 128,128,255
Combo3 : 252,173,194
Combo4 : 222,77,253

[HitObjects]
365,18,11004,5,4,0:0:0:0:
386,62,11166,2,0,P|441:77|495:62,2,96,2|2|0,0:0|0:0|0:0,0:0:0:0:
308,118,12139,1,0,0:0:0:0:
230,61,12463,1,2,0:0:0:0:
147,111,12788,2,0,P|94:116|44:90,2,96,2|0|0,0:0|0:0|0:0,0:0:0:0:
173,203,13761,5,2,0:0:0:0:
268,203,14085,2,0,L|381:209,1,96,2|0,0:0|0:0,0:0:0:0:
454,175,14734,2,0,P|460:225|428:277,1,96,0|2,0:0|0:0,0:0:0:0:
379,339,15382,1,2,0:0:0:0:
332,351,15544,2,0,P|269:328|199:356,1,144,4|2,0:3|0:0,0:0:0:0:
150,375,16193,6,0,L|31:338,1,120,4|4,3:2|1:3,0:0:0:0:
19,243,16842,2,0,L|32:99,1,120,4|4,0:3|1:3,0:0:0:0:
108,51,17490,1,4,0:3:0:0:
178,132,17815,1,4,1:3:0:0:
149,235,18139,1,4,0:3:0:0:
238,295,18463,1,4,1:3:0:0:
335,247,18788,6,0,P|305:164|366:88,1,180,4|4,0:3|0:3,0:0:0:0:
401,70,19436,1,2,0:0:0:0:
434,112,19598,1,4,1:3:0:0:
487,105,19761,2,0,P|504:142|476:213,1,120,4|4,1:3|0:3,0:0:0:0:
220,376,21382,5,4,3:2:0:0:
136,295,21707,2,0,P|99:287|47:304,1,71.9999978027344,0|2,1:0|0:0,0:0:0:0:
0,339,22031,2,0,P|-13:266|36:217,1,143.999995605469,4|0,0:3|1:0,0:0:0:0:
166,164,22680,1,4,0:3:0:0:
214,195,22842,1,2,0:0:0:0:
266,171,23004,2,0,P|289:101|240:34,1,143.999995605469,0|4,1:0|0:3,0:0:0:0:
366,246,23977,5,4,0:3:0:0:
407,353,24301,2,0,P|326:364|273:324,2,143.999995605469,0|4|0,1:0|0:3|1:0,0:0:0:0:
379,240,25274,2,0,P|358:154|394:98,1,143.999995605469,4|0,0:3|1:0,0:0:0:0:
427,41,25761,2,0,P|389:23|335:43,1,71.9999978027344,2|4,0:0|0:3,0:0:0:0:
311,56,26085,1,8,0:0:0:0:
262,32,26247,1,8,0:0:0:0:
123,30,26571,5,4,0:3:0:0:
32,107,26896,2,0,P|55:142|42:193,1,71.9999978027344,0|2,1:0|0:0,0:0:0:0:
0,227,27220,2,0,P|-20:278|26:357,1,143.999995605469,4|0,0:3|1:0,0:0:0:0:
163,356,27869,1,4,0:3:0:0:
209,322,28031,1,2,0:0:0:0:
252,359,28193,2,0,P|303:379|382:333,1,143.999995605469,0|4,1:0|0:3,0:0:0:0:
241,153,29166,5,4,0:3:0:0:
319,69,29490,2,0,P|377:50|461:104,1,143.999995605469,0|4,1:0|0:3,0:0:0:0:
508,183,30139,1,0,1:0:0:0:
399,220,30463,2,0,P|386:251|397:302,1,71.9999978027344,8|2,0:1|0:0,0:0:0:0:
465,313,30788,2,0,P|470:348|456:381,1,71.9999978027344,8|0,0:1|0:0,0:0:0:0:
456,380,31760,5,4,0:3:0:0:
357,319,32085,2,0,P|355:276|382:245,1,71.9999978027344,0|2,1:0|0:0,0:0:0:0:
440,215,32409,2,0,P|453:142|404:93,1,143.999995605469,4|0,0:3|1:0,0:0:0:0:
262,101,33058,1,4,0:3:0:0:
215,66,33220,1,2,0:0:0:0:
173,106,33382,2,0,P|103:129|36:80,1,143.999995605469,0|4,1:0|0:3,0:0:0:0:
254,193,34355,5,4,0:3:0:0:
150,244,34679,2,0,P|126:313|176:374,2,143.999995605469,0|4|0,1:0|0:3|1:0,0:0:0:0:
252,296,35652,2,0,P|338:275|394:311,1,143.999995605469,4|0,0:3|1:0,0:0:0:0:
449,348,36139,2,0,P|467:310|447:256,1,71.9999978027344,2|4,0:0|0:3,0:0:0:0:
444,226,36463,1,8,0:0:0:0:
483,184,36625,1,8,0:0:0:0:
422,60,36949,5,4,0:3:0:0:
307,76,37274,2,0,P|272:99|221:86,1,71.9999978027344,0|2,1:0|0:0,0:0:0:0:
169,78,37598,2,0,P|149:129|195:208,1,143.999995605469,4|0,0:3|1:0,0:0:0:0:
304,266,38248,1,4,0:3:0:0:
341,309,38410,1,2,0:0:0:0:
299,349,38572,2,0,P|248:369|169:323,1,143.999995605469,0|4,1:0|0:3,0:0:0:0:
398,378,39545,5,4,0:3:0:0:
477,295,39869,1,0,1:0:0:0:
450,243,40031,1,2,0:0:0:0:
476,191,40193,1,4,0:3:0:0:
381,125,40518,1,0,1:0:0:0:
297,204,40842,2,0,P|266:217|215:206,1,71.9999978027344,8|2,0:1|0:0,0:0:0:0:
183,146,41167,2,0,P|148:141|115:155,1,71.9999978027344,8|0,0:1|0:0,0:0:0:0:
371,19,42139,5,12,0:1:0:0:
371,19,44085,2,0,P|326:86|364:151,1,144,2|2,0:0|0:0,0:0:0:0:
389,163,44734,1,2,0:0:0:0:
435,150,44896,2,0,P|453:194|420:250,1,96,2|2,0:0|0:0,0:0:0:0:
374,310,45544,1,2,0:0:0:0:
278,299,45869,1,2,0:0:0:0:
192,343,46193,2,0,P|142:318|61:359,1,144,2|0,0:0|0:0,0:0:0:0:
66,351,48139,5,2,0:0:0:0:
137,286,48463,2,0,P|153:210|113:158,1,144,2|2,0:0|0:0,0:0:0:0:
28,121,49274,2,0,P|29:72|71:26,1,96,2|2,0:0|0:0,0:0:0:0:
150,16,49923,1,2,0:0:0:0:
224,79,50247,2,0,L|279:113,1,48,2|2,0:0|0:0,0:0:0:0:
358,82,50734,2,0,L|414:117,1,48,2|2,0:0|0:0,0:0:0:0:
398,107,52517,5,4,0:0:0:0:
421,148,52680,2,0,L|480:145,2,48,2|0|2,0:0|0:0|0:0,0:0:0:0:
331,182,53328,1,2,0:0:0:0:
238,159,53653,2,0,P|186:152|147:121,1,96,2|2,0:0|0:0,0:0:0:0:
106,42,54301,1,2,0:0:0:0:
38,105,54625,6,0,L|-23:91,2,48,2|0|0,0:0|0:0|0:0,0:0:0:0:
71,195,55274,1,2,0:0:0:0:
24,278,55598,1,2,0:0:0:0:
45,321,55761,2,0,P|106:282|179:309,1,144,0|2,0:0|0:0,0:0:0:0:
251,352,56571,1,2,0:0:0:0:
344,330,56896,1,2,0:0:0:0:
435,357,57220,1,2,0:0:0:0:
478,337,57382,1,4,0:3:0:0:
465,239,57707,6,0,L|477:113,1,120,4|4,0:3|1:3,0:0:0:0:
376,78,58356,2,0,L|260:3,1,120,4|4,0:3|1:3,0:0:0:0:
168,26,59004,1,4,0:3:0:0:
101,111,59329,1,4,1:3:0:0:
162,199,59653,1,4,0:3:0:0:
264,164,59977,1,4,1:3:0:0:
340,87,60301,6,0,P|375:170|324:248,1,180,4|4,0:3|0:3,0:0:0:0:
279,247,60949,1,2,0:0:0:0:
236,279,61111,1,4,1:3:0:0:
248,331,61274,2,0,P|288:351|365:339,1,120,4|4,1:3|0:3,0:0:0:0:
360,341,62896,5,4,3:2:0:0:
448,288,63220,2,0,P|456:251|439:199,1,71.9999978027344,0|2,1:0|0:0,0:0:0:0:
392,161,63544,2,0,P|379:88|428:39,1,143.999995605469,4|0,0:3|1:0,0:0:0:0:
308,25,64193,1,4,0:3:0:0:
256,51,64355,1,2,0:0:0:0:
202,28,64517,2,0,P|132:5|65:54,1,143.999995605469,0|4,1:0|0:3,0:0:0:0:
289,152,65490,5,4,0:3:0:0:
203,229,65814,2,0,P|122:240|69:200,2,143.999995605469,0|4|0,1:0|0:3|1:0,0:0:0:0:
296,161,66787,2,0,P|357:132|439:172,1,143.999995605469,4|0,0:3|1:0,0:0:0:0:
403,233,67274,2,0,P|391:275|418:320,1,71.9999978027344,2|4,0:0|0:3,0:0:0:0:
452,322,67598,1,8,0:0:0:0:
446,379,67761,1,8,0:0:0:0:
330,379,68085,5,4,0:3:0:0:
261,285,68409,2,0,P|222:277|176:294,1,71.9999978027344,0|2,1:0|0:0,0:0:0:0:
138,346,68734,2,0,P|87:366|8:320,1,143.999995605469,4|0,0:3|1:0,0:0:0:0:
88,240,69382,1,4,0:3:0:0:
54,194,69544,1,2,0:0:0:0:
91,151,69707,2,0,P|111:100|65:21,1,143.999995605469,0|4,1:0|0:3,0:0:0:0:
199,217,70680,5,4,0:3:0:0:
273,304,71004,2,0,P|331:323|415:269,1,143.999995605469,0|4,1:0|0:3,0:0:0:0:
478,201,71653,1,0,1:0:0:0:
372,155,71977,2,0,P|359:124|370:73,1,71.9999978027344,8|2,0:1|0:0,0:0:0:0:
442,68,72301,2,0,P|447:33|433:0,1,71.9999978027344,8|0,0:1|0:0,0:0:0:0:
433,0,73274,5,4,0:3:0:0:
334,60,73598,2,0,P|321:92|338:145,1,71.9999978027344,0|2,1:0|0:0,0:0:0:0:
391,180,73923,2,0,P|404:253|355:302,1,143.999995605469,4|0,0:3|1:0,0:0:0:0:
255,349,74571,1,4,0:3:0:0:
208,384,74734,1,2,0:0:0:0:
166,344,74896,2,0,P|96:321|29:370,1,143.999995605469,0|4,1:0|0:3,0:0:0:0:
114,136,75869,5,4,0:3:0:0:
190,222,76193,2,0,P|259:246|320:196,2,143.999995605469,0|4|0,1:0|0:3|1:0,0:0:0:0:
249,123,77166,2,0,P|335:102|391:138,1,143.999995605469,4|0,0:3|1:0,0:0:0:0:
448,172,77653,2,0,P|466:134|446:80,1,71.9999978027344,2|4,0:0|0:3,0:0:0:0:
443,50,77977,1,8,0:0:0:0:
482,8,78139,1,8,0:0:0:0:
367,1,78463,5,4,0:3:0:0:
283,80,78788,2,0,P|248:91|205:73,1,71.9999978027344,0|2,1:0|0:0,0:0:0:0:
145,42,79112,2,0,P|120:103|145:178,1,143.999995605469,4|0,0:3|1:0,0:0:0:0:
244,228,79761,1,4,0:3:0:0:
287,191,79923,1,2,0:0:0:0:
327,233,80085,2,0,L|303:336,2,71.9999978027344,2|2|4,1:0|0:1|0:3,0:0:0:0:
141,370,81058,5,4,0:3:0:0:
46,304,81382,1,0,1:0:0:0:
19,252,81544,1,2,0:0:0:0:
45,200,81707,1,4,0:3:0:0:
19,87,82031,1,0,1:0:0:0:
120,31,82355,2,0,P|151:18|202:29,1,71.9999978027344,8|2,0:1|0:0,0:0:0:0:
232,89,82680,2,0,P|267:94|300:80,1,71.9999978027344,8|0,0:1|0:0,0:0:0:0:
299,80,83653,5,4,0:3:0:0:
345,92,83815,1,0,0:0:0:0:
390,77,83977,2,0,P|451:70|507:120,1,120,0|4,1:0|0:3,0:0:0:0:
469,193,84625,1,0,1:0:0:0:
392,251,84950,2,0,P|376:296|397:348,2,90,4|2|0,0:3|0:0|0:0,0:0:0:0:
356,218,85598,1,4,0:3:0:0:
307,221,85761,1,0,0:0:0:0:
242,349,86247,5,4,0:3:0:0:
150,319,86571,1,0,1:0:0:0:
69,372,86896,1,4,0:3:0:0:
25,352,87058,2,0,P|15:325|31:274,1,60,2|0,0:0|1:0,0:0:0:0:
86,227,87544,1,4,0:3:0:0:
130,207,87707,2,0,P|140:179|109:114,1,90,2|2,0:0|0:0,0:0:0:0:
79,101,88112,2,0,P|69:73|100:8,1,90,2|2,0:0|0:0,0:0:0:0:
135,12,88517,1,12,0:3:0:0:
228,33,88842,5,4,0:3:0:0:
271,118,89166,1,0,1:0:0:0:
187,165,89490,2,0,L|189:241,2,60,4|2|0,0:3|0:0|1:0,0:0:0:0:
95,148,90139,1,4,0:3:0:0:
61,182,90301,1,2,0:0:0:0:
46,227,90463,2,0,P|46:262|62:308,1,60,0|2,1:0|0:0,0:0:0:0:
95,307,90788,2,0,P|93:333|54:372,1,60,4|2,0:3|0:0,0:0:0:0:
201,293,91436,5,4,0:3:0:0:
284,339,91760,1,0,1:0:0:0:
379,327,92085,1,4,0:3:0:0:
471,352,92409,2,0,P|478:311|469:275,1,60,0|2,1:0|0:0,0:0:0:0:
440,259,92734,1,4,0:3:0:0:
451,212,92896,1,0,0:0:0:0:
422,168,93058,2,0,P|398:157|358:157,2,60,4|2|4,0:3|0:0|1:3,0:0:0:0:
484,94,93707,5,4,0:3:0:0:
256,192,93869,12,0,95328,0:0:0:0:
