osu file format v14

[General]
AudioFilename: audio.mp3
AudioLeadIn: 0
PreviewTime: 21231
Countdown: 0
SampleSet: Normal
StackLeniency: 0.7
Mode: 1
LetterboxInBreaks: 0
WidescreenStoryboard: 0

[Editor]
Bookmarks: 50907,52366
DistanceSpacing: 0.7
BeatDivisor: 4
GridSize: 4
TimelineZoom: 2.7

[Metadata]
Title:TSLove
TitleUnicode:TSLove
Artist:O2i3
ArtistUnicode:O2i3
Creator:JessiChan
Version:Muzukashii
Source:
Tags:Ulqui game rock zigizigiefe kirara records happy hardcore
BeatmapID:1277997
BeatmapSetID:597779

[Difficulty]
HPDrainRate:7
CircleSize:3
OverallDifficulty:5
ApproachRate:10
SliderMultiplier:1.4
SliderTickRate:1

[Events]
//Background and Video events
0,0,"BGLOVE.jpg",0,50
//Break Periods
//Storyboard Layer 0 (Background)
//Storyboard Layer 1 (Fail)
//Storyboard Layer 2 (Pass)
//Storyboard Layer 3 (Foreground)
//Storyboard Sound Samples

[TimingPoints]
637,324.324324324324,4,1,0,60,1,0
5501,-100,4,1,0,40,0,0
5826,-100,4,1,0,60,0,0
11015,-100,4,1,0,70,0,0
16204,-100,4,1,0,80,0,0
18799,-100,4,1,0,90,0,0
21393,-100,4,1,0,100,0,1
31123,-100,4,1,0,100,0,0
31772,-100,4,1,0,100,0,1
42150,-100,4,1,0,60,0,0
57718,-100,4,1,0,70,0,0
60312,-100,4,1,0,80,0,0
62907,-100,4,1,0,100,0,1
72636,-100,4,1,0,100,0,0
73285,-100,4,1,0,100,0,1
83015,-100,4,1,0,60,0,0
83664,-100,4,1,0,60,0,1
85934,-100,4,1,0,60,0,0
86258,-100,4,1,0,60,0,1
88528,-100,4,1,0,60,0,0
88853,-100,4,1,0,60,0,1
93718,-100,4,1,0,60,0,0

[HitObjects]
256,192,637,5,0,0:0:0:0:
256,192,961,1,8,0:0:0:0:
256,192,1123,1,0,0:0:0:0:
256,192,1285,1,0,0:0:0:0:
256,192,1609,1,8,0:0:0:0:
256,192,1934,1,0,0:0:0:0:
256,192,2258,1,8,0:0:0:0:
256,192,2420,1,0,0:0:0:0:
256,192,2745,1,0,0:0:0:0:
256,192,2907,1,8,0:0:0:0:
256,192,3231,1,0,0:0:0:0:
256,192,3555,1,8,0:0:0:0:
256,192,3718,1,8,0:0:0:0:
256,192,3880,1,0,0:0:0:0:
256,192,4204,1,8,0:0:0:0:
256,192,4528,1,0,0:0:0:0:
256,192,4853,1,8,0:0:0:0:
256,192,5015,1,0,0:0:0:0:
256,192,5339,1,0,0:0:0:0:
256,192,5501,1,8,0:0:0:0:
256,192,5664,1,8,0:0:0:0:
256,192,5826,1,0,0:0:0:0:
256,192,6150,1,8,0:0:0:0:
256,192,6474,1,0,0:0:0:0:
256,192,6636,1,0,0:0:0:0:
256,192,6799,1,8,0:0:0:0:
256,192,7123,1,0,0:0:0:0:
256,192,7447,1,8,0:0:0:0:
256,192,7609,1,0,0:0:0:0:
256,192,7934,1,0,0:0:0:0:
256,192,8096,1,8,0:0:0:0:
256,192,8420,1,0,0:0:0:0:
256,192,8745,1,8,0:0:0:0:
256,192,9069,1,0,0:0:0:0:
256,192,9231,1,0,0:0:0:0:
256,192,9393,1,8,0:0:0:0:
256,192,9718,1,0,0:0:0:0:
256,192,10042,1,8,0:0:0:0:
256,192,10204,1,0,0:0:0:0:
256,192,10528,1,0,0:0:0:0:
256,192,10691,1,8,0:0:0:0:
256,192,10853,1,8,0:0:0:0:
256,192,11015,1,4,0:0:0:0:
256,192,11339,1,8,0:0:0:0:
256,192,11826,1,0,0:0:0:0:
256,192,11988,1,8,0:0:0:0:
256,192,12312,1,0,0:0:0:0:
256,192,12636,1,8,0:0:0:0:
256,192,12799,1,8,0:0:0:0:
256,192,13123,1,0,0:0:0:0:
256,192,13285,1,8,0:0:0:0:
256,192,13447,1,0,0:0:0:0:
256,192,13609,1,0,0:0:0:0:
256,192,13934,1,8,0:0:0:0:
256,192,14420,1,0,0:0:0:0:
256,192,14582,1,8,0:0:0:0:
256,192,14907,1,0,0:0:0:0:
256,192,15231,1,8,0:0:0:0:
256,192,15393,1,8,0:0:0:0:
256,192,15718,1,0,0:0:0:0:
256,192,15880,1,8,0:0:0:0:
256,192,16042,1,8,0:0:0:0:
256,192,16204,1,0,0:0:0:0:
256,192,16528,1,8,0:0:0:0:
256,192,16691,1,0,0:0:0:0:
256,192,16852,1,0,0:0:0:0:
256,192,17015,1,0,0:0:0:0:
256,192,17176,1,8,0:0:0:0:
256,192,17501,1,0,0:0:0:0:
256,192,17826,1,8,0:0:0:0:
256,192,17988,1,8,0:0:0:0:
256,192,18150,1,0,0:0:0:0:
256,192,18312,1,0,0:0:0:0:
256,192,18474,1,8,0:0:0:0:
256,192,18799,1,0,0:0:0:0:
256,192,18961,1,0,0:0:0:0:
256,192,19123,1,8,0:0:0:0:
256,192,19285,1,0,0:0:0:0:
256,192,19447,1,8,0:0:0:0:
256,192,19528,1,8,0:0:0:0:
256,192,19609,1,8,0:0:0:0:
256,192,19772,1,8,0:0:0:0:
256,192,19934,1,0,0:0:0:0:
256,192,20096,1,0,0:0:0:0:
256,192,21393,5,4,0:0:0:0:
256,192,21718,1,8,0:0:0:0:
256,192,21880,1,0,0:0:0:0:
256,192,21961,1,0,0:0:0:0:
256,192,22042,1,0,0:0:0:0:
256,192,22204,1,0,0:0:0:0:
256,192,22366,1,8,0:0:0:0:
256,192,22691,1,8,0:0:0:0:
256,192,23015,1,8,0:0:0:0:
256,192,23177,1,0,0:0:0:0:
256,192,23339,1,0,0:0:0:0:
256,192,23664,1,12,0:0:0:0:
256,192,23988,1,4,0:0:0:0:
256,192,24312,1,8,0:0:0:0:
256,192,24474,1,8,0:0:0:0:
256,192,24555,1,8,0:0:0:0:
256,192,24636,1,8,0:0:0:0:
256,192,24799,1,0,0:0:0:0:
256,192,24961,1,8,0:0:0:0:
256,192,25285,1,8,0:0:0:0:
256,192,25609,1,0,0:0:0:0:
256,192,25772,1,8,0:0:0:0:
256,192,25934,1,0,0:0:0:0:
256,192,26015,1,0,0:0:0:0:
256,192,26096,1,0,0:0:0:0:
256,192,26258,1,8,0:0:0:0:
256,192,26582,1,4,0:0:0:0:
256,192,26907,1,8,0:0:0:0:
256,192,27069,1,0,0:0:0:0:
256,192,27150,1,0,0:0:0:0:
256,192,27231,1,0,0:0:0:0:
256,192,27393,1,0,0:0:0:0:
256,192,27555,1,8,0:0:0:0:
256,192,27880,1,8,0:0:0:0:
256,192,28204,1,8,0:0:0:0:
256,192,28366,1,0,0:0:0:0:
256,192,28528,1,0,0:0:0:0:
256,192,28853,1,12,0:0:0:0:
256,192,29177,1,4,0:0:0:0:
256,192,29501,1,8,0:0:0:0:
256,192,29826,1,8,0:0:0:0:
256,192,29988,1,0,0:0:0:0:
256,192,30069,1,0,0:0:0:0:
256,192,30150,1,0,0:0:0:0:
256,192,30312,1,8,0:0:0:0:
256,192,30474,1,8,0:0:0:0:
256,192,30799,1,8,0:0:0:0:
256,192,31123,1,8,0:0:0:0:
256,192,31285,1,8,0:0:0:0:
256,192,31447,1,8,0:0:0:0:
256,192,31609,1,8,0:0:0:0:
256,192,31772,1,4,0:0:0:0:
256,192,32096,1,8,0:0:0:0:
256,192,32258,1,0,0:0:0:0:
256,192,32339,1,0,0:0:0:0:
256,192,32420,1,0,0:0:0:0:
256,192,32582,1,0,0:0:0:0:
256,192,32745,1,8,0:0:0:0:
256,192,32907,1,0,0:0:0:0:
256,192,33069,1,8,0:0:0:0:
256,192,33393,1,8,0:0:0:0:
256,192,33555,1,8,0:0:0:0:
256,192,33718,1,0,0:0:0:0:
256,192,34042,1,12,0:0:0:0:
256,192,34366,1,4,0:0:0:0:
256,192,34691,1,8,0:0:0:0:
256,192,34853,1,8,0:0:0:0:
256,192,34934,1,8,0:0:0:0:
256,192,35015,1,8,0:0:0:0:
256,192,35177,1,0,0:0:0:0:
256,192,35339,1,8,0:0:0:0:
256,192,35664,1,8,0:0:0:0:
256,192,35988,1,8,0:0:0:0:
256,192,36150,1,0,0:0:0:0:
256,192,36312,1,0,0:0:0:0:
256,192,36474,1,8,0:0:0:0:
256,192,36636,1,8,0:0:0:0:
256,192,36961,1,4,0:0:0:0:
256,192,37285,1,8,0:0:0:0:
256,192,37447,1,0,0:0:0:0:
256,192,37528,1,0,0:0:0:0:
256,192,37609,1,0,0:0:0:0:
256,192,37771,1,0,0:0:0:0:
256,192,37934,1,8,0:0:0:0:
256,192,38096,1,0,0:0:0:0:
256,192,38258,1,8,0:0:0:0:
256,192,38582,1,8,0:0:0:0:
256,192,38744,1,8,0:0:0:0:
256,192,38907,1,0,0:0:0:0:
256,192,39231,1,12,0:0:0:0:
256,192,39555,1,4,0:0:0:0:
256,192,39880,1,8,0:0:0:0:
256,192,39961,1,8,0:0:0:0:
256,192,40042,1,8,0:0:0:0:
256,192,40204,1,8,0:0:0:0:
256,192,40366,1,0,0:0:0:0:
256,192,40528,1,8,0:0:0:0:
256,192,40691,1,0,0:0:0:0:
256,192,40853,1,8,0:0:0:0:
256,192,41177,1,8,0:0:0:0:
256,192,41501,1,0,0:0:0:0:
256,192,41825,1,0,0:0:0:0:
256,192,42150,1,4,0:0:0:0:
256,192,42636,1,8,0:0:0:0:
256,192,42961,1,8,0:0:0:0:
256,192,43285,1,8,0:0:0:0:
256,192,43934,1,8,0:0:0:0:
256,192,44258,1,8,0:0:0:0:
256,192,44582,1,8,0:0:0:0:
256,192,44745,1,0,0:0:0:0:
256,192,45231,1,8,0:0:0:0:
256,192,45555,1,8,0:0:0:0:
256,192,45880,1,8,0:0:0:0:
256,192,46204,1,8,0:0:0:0:
256,192,46853,1,8,0:0:0:0:
256,192,47015,1,8,0:0:0:0:
256,192,47177,1,0,0:0:0:0:
256,192,47826,1,8,0:0:0:0:
256,192,48150,1,8,0:0:0:0:
256,192,48474,1,8,0:0:0:0:
256,192,49123,1,8,0:0:0:0:
256,192,49447,1,8,0:0:0:0:
256,192,49772,1,8,0:0:0:0:
256,192,49934,1,0,0:0:0:0:
256,192,50420,1,8,0:0:0:0:
256,192,50745,1,8,0:0:0:0:
256,192,50907,2,0,L|348:192,8,70
256,192,52528,1,12,0:0:0:0:
256,192,52853,1,8,0:0:0:0:
256,192,53177,1,0,0:0:0:0:
256,192,53339,1,0,0:0:0:0:
256,192,53501,1,8,0:0:0:0:
256,192,53826,1,0,0:0:0:0:
256,192,54150,1,8,0:0:0:0:
256,192,54312,1,0,0:0:0:0:
256,192,54636,1,0,0:0:0:0:
256,192,54799,1,8,0:0:0:0:
256,192,55123,1,0,0:0:0:0:
256,192,55447,1,8,0:0:0:0:
256,192,55772,1,0,0:0:0:0:
256,192,55934,1,0,0:0:0:0:
256,192,56096,1,8,0:0:0:0:
256,192,56258,1,0,0:0:0:0:
256,192,56582,1,8,0:0:0:0:
256,192,56907,1,8,0:0:0:0:
256,192,57069,1,0,0:0:0:0:
256,192,57231,1,0,0:0:0:0:
256,192,57393,1,8,0:0:0:0:
256,192,57718,1,0,0:0:0:0:
256,192,58042,1,8,0:0:0:0:
256,192,58366,1,0,0:0:0:0:
256,192,58528,1,0,0:0:0:0:
256,192,58690,1,8,0:0:0:0:
256,192,59015,1,0,0:0:0:0:
256,192,59340,1,8,0:0:0:0:
256,192,59664,1,0,0:0:0:0:
256,192,59826,1,0,0:0:0:0:
256,192,59988,1,8,0:0:0:0:
256,192,60312,12,0,61609,0:0:0:0:
256,192,62907,5,4,0:0:0:0:
256,192,63232,1,8,0:0:0:0:
256,192,63394,1,0,0:0:0:0:
256,192,63475,1,0,0:0:0:0:
256,192,63556,1,0,0:0:0:0:
256,192,63718,1,0,0:0:0:0:
256,192,63880,1,8,0:0:0:0:
256,192,64205,1,8,0:0:0:0:
256,192,64529,1,8,0:0:0:0:
256,192,64691,1,0,0:0:0:0:
256,192,64853,1,0,0:0:0:0:
256,192,65178,1,12,0:0:0:0:
256,192,65502,1,4,0:0:0:0:
256,192,65826,1,8,0:0:0:0:
256,192,65988,1,8,0:0:0:0:
256,192,66069,1,8,0:0:0:0:
256,192,66150,1,8,0:0:0:0:
256,192,66313,1,0,0:0:0:0:
256,192,66475,1,8,0:0:0:0:
256,192,66799,1,8,0:0:0:0:
256,192,67123,1,0,0:0:0:0:
256,192,67286,1,8,0:0:0:0:
256,192,67448,1,0,0:0:0:0:
256,192,67529,1,0,0:0:0:0:
256,192,67610,1,0,0:0:0:0:
256,192,67772,1,8,0:0:0:0:
256,192,68096,1,4,0:0:0:0:
256,192,68421,1,8,0:0:0:0:
256,192,68583,1,0,0:0:0:0:
256,192,68664,1,0,0:0:0:0:
256,192,68745,1,0,0:0:0:0:
256,192,68907,1,0,0:0:0:0:
256,192,69069,1,8,0:0:0:0:
256,192,69394,1,8,0:0:0:0:
256,192,69718,1,8,0:0:0:0:
256,192,69880,1,0,0:0:0:0:
256,192,70042,1,0,0:0:0:0:
256,192,70367,1,12,0:0:0:0:
256,192,70691,1,4,0:0:0:0:
256,192,71015,1,8,0:0:0:0:
256,192,71340,1,8,0:0:0:0:
256,192,71502,1,0,0:0:0:0:
256,192,71583,1,0,0:0:0:0:
256,192,71664,1,0,0:0:0:0:
256,192,71826,1,8,0:0:0:0:
256,192,71988,1,8,0:0:0:0:
256,192,72313,1,8,0:0:0:0:
256,192,72637,1,8,0:0:0:0:
256,192,72799,1,8,0:0:0:0:
256,192,72961,1,8,0:0:0:0:
256,192,73123,1,8,0:0:0:0:
256,192,73286,1,4,0:0:0:0:
256,192,73610,1,8,0:0:0:0:
256,192,73772,1,0,0:0:0:0:
256,192,73853,1,0,0:0:0:0:
256,192,73934,1,0,0:0:0:0:
256,192,74096,1,0,0:0:0:0:
256,192,74259,1,8,0:0:0:0:
256,192,74421,1,0,0:0:0:0:
256,192,74583,1,8,0:0:0:0:
256,192,74907,1,8,0:0:0:0:
256,192,75069,1,8,0:0:0:0:
256,192,75232,1,0,0:0:0:0:
256,192,75556,1,12,0:0:0:0:
256,192,75880,1,4,0:0:0:0:
256,192,76205,1,8,0:0:0:0:
256,192,76367,1,8,0:0:0:0:
256,192,76448,1,8,0:0:0:0:
256,192,76529,1,8,0:0:0:0:
256,192,76691,1,0,0:0:0:0:
256,192,76853,1,8,0:0:0:0:
256,192,77178,1,8,0:0:0:0:
256,192,77502,1,8,0:0:0:0:
256,192,77664,1,0,0:0:0:0:
256,192,77826,1,0,0:0:0:0:
256,192,77988,1,8,0:0:0:0:
256,192,78150,1,8,0:0:0:0:
256,192,78475,1,4,0:0:0:0:
256,192,78799,1,8,0:0:0:0:
256,192,78961,1,0,0:0:0:0:
256,192,79042,1,0,0:0:0:0:
256,192,79123,1,0,0:0:0:0:
256,192,79285,1,0,0:0:0:0:
256,192,79448,1,8,0:0:0:0:
256,192,79610,1,0,0:0:0:0:
256,192,79772,1,8,0:0:0:0:
256,192,80096,1,0,0:0:0:0:
256,192,80258,1,8,0:0:0:0:
256,192,80421,1,8,0:0:0:0:
256,192,80745,1,12,0:0:0:0:
256,192,81069,1,4,0:0:0:0:
256,192,81394,1,8,0:0:0:0:
256,192,81475,1,8,0:0:0:0:
256,192,81556,1,8,0:0:0:0:
256,192,81718,1,8,0:0:0:0:
256,192,81880,1,0,0:0:0:0:
256,192,82042,1,8,0:0:0:0:
256,192,82367,1,8,0:0:0:0:
256,192,82691,1,8,0:0:0:0:
256,192,83664,5,4,0:0:0:0:
256,192,83988,1,8,0:0:0:0:
256,192,84150,1,0,0:0:0:0:
256,192,84312,1,0,0:0:0:0:
256,192,84636,1,8,0:0:0:0:
256,192,84961,1,8,0:0:0:0:
256,192,85285,1,8,0:0:0:0:
256,192,85447,1,0,0:0:0:0:
256,192,85528,1,0,0:0:0:0:
256,192,85609,1,0,0:0:0:0:
256,192,85772,1,8,0:0:0:0:
256,192,85934,1,0,0:0:0:0:
256,192,86258,1,0,0:0:0:0:
256,192,86582,1,8,0:0:0:0:
256,192,86745,1,8,0:0:0:0:
256,192,86826,1,8,0:0:0:0:
256,192,86907,1,8,0:0:0:0:
256,192,87069,1,0,0:0:0:0:
256,192,87231,1,8,0:0:0:0:
256,192,87555,1,8,0:0:0:0:
256,192,87880,1,8,0:0:0:0:
256,192,88042,1,0,0:0:0:0:
256,192,88204,1,8,0:0:0:0:
256,192,88366,1,8,0:0:0:0:
256,192,88528,1,0,0:0:0:0:
256,192,88853,1,0,0:0:0:0:
256,192,89177,1,8,0:0:0:0:
256,192,89339,1,0,0:0:0:0:
256,192,89501,1,0,0:0:0:0:
256,192,89826,1,8,0:0:0:0:
256,192,89988,1,0,0:0:0:0:
256,192,90150,1,8,0:0:0:0:
256,192,90231,1,8,0:0:0:0:
256,192,90312,1,8,0:0:0:0:
256,192,90474,1,8,0:0:0:0:
256,192,90636,1,0,0:0:0:0:
256,192,90799,1,8,0:0:0:0:
256,192,90961,1,8,0:0:0:0:
256,192,91447,1,0,0:0:0:0:
256,192,91772,1,8,0:0:0:0:
256,192,92096,1,8,0:0:0:0:
256,192,92177,1,8,0:0:0:0:
256,192,92258,1,8,0:0:0:0:
256,192,92420,1,8,0:0:0:0:
256,192,92582,1,0,0:0:0:0:
256,192,92745,1,8,0:0:0:0:
256,192,93069,1,8,0:0:0:0:
256,192,93231,1,0,0:0:0:0:
256,192,93312,1,0,0:0:0:0:
256,192,93393,1,0,0:0:0:0:
256,192,93555,1,8,0:0:0:0:
256,192,93718,1,0,0:0:0:0:
