osu file format v14

[General]
AudioFilename: audio.mp3
AudioLeadIn: 0
PreviewTime: 21231
Countdown: 0
SampleSet: Normal
StackLeniency: 0.7
Mode: 1
LetterboxInBreaks: 0
WidescreenStoryboard: 0

[Editor]
Bookmarks: 11015
DistanceSpacing: 0.7
BeatDivisor: 2
GridSize: 32
TimelineZoom: 2.7

[Metadata]
Title:TSLove
TitleUnicode:TSLove
Artist:O2i3
ArtistUnicode:O2i3
Creator:JessiChan
Version:Gemu's Futsuu
Source:
Tags:Ulqui game rock zigizigiefe kirara records happy hardcore
BeatmapID:1278124
BeatmapSetID:597779

[Difficulty]
HPDrainRate:7
CircleSize:2
OverallDifficulty:4
ApproachRate:10
SliderMultiplier:1.4
SliderTickRate:1

[Events]
//Background and Video events
0,0,"BGLOVE.jpg",0,50
//Break Periods
//Storyboard Layer 0 (Background)
//Storyboard Layer 1 (Fail)
//Storyboard Layer 2 (Pass)
//Storyboard Layer 3 (Foreground)
//Storyboard Sound Samples

[TimingPoints]
637,324.324324324324,4,1,0,60,1,0
5501,-100,4,1,0,40,0,0
5826,-100,4,1,0,60,0,0
11015,-100,4,1,0,70,0,0
16204,-100,4,1,0,80,0,0
18799,-100,4,1,0,90,0,0
21393,-100,4,1,0,100,0,1
31123,-100,4,1,0,100,0,0
31772,-100,4,1,0,100,0,1
42150,-100,4,1,0,60,0,0
57718,-100,4,1,0,70,0,0
60312,-100,4,1,0,80,0,0
62907,-100,4,1,0,100,0,1
72636,-100,4,1,0,100,0,0
73285,-100,4,1,0,100,0,1
83015,-100,4,1,0,60,0,0
83664,-100,4,1,0,60,0,1
85934,-100,4,1,0,60,0,0
86258,-100,4,1,0,60,0,1
88528,-100,4,1,0,60,0,0
88853,-100,4,1,0,60,0,1
93718,-100,4,1,0,60,0,0

[HitObjects]
256,192,637,5,0,0:0:0:0:
256,192,961,1,8,0:0:0:0:
256,192,1609,1,8,0:0:0:0:
256,192,1934,1,0,0:0:0:0:
256,192,2258,1,8,0:0:0:0:
256,192,2907,1,8,0:0:0:0:
256,192,3231,1,8,0:0:0:0:
256,192,3555,1,8,0:0:0:0:
256,192,4204,1,8,0:0:0:0:
256,192,4528,1,0,0:0:0:0:
256,192,4853,1,8,0:0:0:0:
256,192,5177,1,8,0:0:0:0:
256,192,5501,1,0,0:0:0:0:
256,192,5826,1,0,0:0:0:0:
256,192,6150,1,8,0:0:0:0:
256,192,6799,1,8,0:0:0:0:
256,192,7123,1,0,0:0:0:0:
256,192,7447,1,8,0:0:0:0:
256,192,8096,1,8,0:0:0:0:
256,192,8420,1,8,0:0:0:0:
256,192,8745,1,8,0:0:0:0:
256,192,9393,1,8,0:0:0:0:
256,192,9718,1,8,0:0:0:0:
256,192,10042,1,0,0:0:0:0:
256,192,10366,1,8,0:0:0:0:
256,192,10691,1,8,0:0:0:0:
256,192,11015,1,4,0:0:0:0:
256,192,11664,1,0,0:0:0:0:
256,192,11988,1,0,0:0:0:0:
256,192,12312,1,8,0:0:0:0:
256,192,12961,1,8,0:0:0:0:
256,192,13285,1,8,0:0:0:0:
256,192,13609,1,0,0:0:0:0:
256,192,14258,1,8,0:0:0:0:
256,192,14582,1,0,0:0:0:0:
256,192,14907,1,8,0:0:0:0:
256,192,15231,1,8,0:0:0:0:
256,192,15555,1,0,0:0:0:0:
256,192,16204,1,4,0:0:0:0:
256,192,16528,1,0,0:0:0:0:
256,192,16691,1,0,0:0:0:0:
256,192,16853,1,0,0:0:0:0:
256,192,17501,1,8,0:0:0:0:
256,192,17826,1,8,0:0:0:0:
256,192,17988,1,8,0:0:0:0:
256,192,18150,1,8,0:0:0:0:
256,192,18799,1,4,0:0:0:0:
256,192,19123,1,0,0:0:0:0:
256,192,19285,1,0,0:0:0:0:
256,192,19447,1,12,0:0:0:0:
256,192,19772,1,0,0:0:0:0:
256,192,19934,1,0,0:0:0:0:
256,192,20096,1,4,0:0:0:0:
256,192,21393,1,12,0:0:0:0:
256,192,21718,1,0,0:0:0:0:
256,192,22042,1,8,0:0:0:0:
256,192,22366,1,0,0:0:0:0:
256,192,22528,1,0,0:0:0:0:
256,192,22691,1,8,0:0:0:0:
256,192,23015,1,8,0:0:0:0:
256,192,23339,1,0,0:0:0:0:
256,192,23988,1,0,0:0:0:0:
256,192,24312,1,0,0:0:0:0:
256,192,24636,1,8,0:0:0:0:
256,192,24961,1,8,0:0:0:0:
256,192,25285,1,0,0:0:0:0:
256,192,25447,1,8,0:0:0:0:
256,192,25609,1,0,0:0:0:0:
256,192,25934,1,8,0:0:0:0:
256,192,26582,1,0,0:0:0:0:
256,192,26907,1,8,0:0:0:0:
256,192,27231,1,0,0:0:0:0:
256,192,27555,1,8,0:0:0:0:
256,192,27718,1,0,0:0:0:0:
256,192,27880,1,8,0:0:0:0:
256,192,28204,1,8,0:0:0:0:
256,192,28528,1,0,0:0:0:0:
256,192,29177,1,0,0:0:0:0:
256,192,29501,1,0,0:0:0:0:
256,192,29664,1,0,0:0:0:0:
256,192,29826,1,8,0:0:0:0:
256,192,30150,1,0,0:0:0:0:
256,192,30474,1,8,0:0:0:0:
256,192,30799,1,8,0:0:0:0:
256,192,31772,1,12,0:0:0:0:
256,192,32096,1,0,0:0:0:0:
256,192,32421,1,8,0:0:0:0:
256,192,32745,1,0,0:0:0:0:
256,192,32907,1,0,0:0:0:0:
256,192,33070,1,8,0:0:0:0:
256,192,33394,1,8,0:0:0:0:
256,192,33718,1,0,0:0:0:0:
256,192,34367,1,0,0:0:0:0:
256,192,34691,1,0,0:0:0:0:
256,192,35015,1,8,0:0:0:0:
256,192,35340,1,8,0:0:0:0:
256,192,35664,1,0,0:0:0:0:
256,192,35826,1,8,0:0:0:0:
256,192,35988,1,0,0:0:0:0:
256,192,36313,1,8,0:0:0:0:
256,192,36961,1,0,0:0:0:0:
256,192,37286,1,8,0:0:0:0:
256,192,37610,1,0,0:0:0:0:
256,192,37934,1,8,0:0:0:0:
256,192,38096,1,0,0:0:0:0:
256,192,38259,1,8,0:0:0:0:
256,192,38583,1,8,0:0:0:0:
256,192,38907,1,0,0:0:0:0:
256,192,39556,1,0,0:0:0:0:
256,192,39880,1,8,0:0:0:0:
256,192,40042,1,8,0:0:0:0:
256,192,40205,1,0,0:0:0:0:
256,192,40529,1,0,0:0:0:0:
256,192,40853,1,8,0:0:0:0:
256,192,41501,1,0,0:0:0:0:
256,192,41826,1,0,0:0:0:0:
256,192,42150,1,12,0:0:0:0:
256,192,44096,1,0,0:0:0:0:
256,192,44420,1,0,0:0:0:0:
256,192,44745,1,8,0:0:0:0:
256,192,45231,1,0,0:0:0:0:
256,192,45880,1,8,0:0:0:0:
256,192,46204,1,8,0:0:0:0:
256,192,46853,1,0,0:0:0:0:
256,192,47177,1,0,0:0:0:0:
256,192,48150,1,8,0:0:0:0:
256,192,48474,1,8,0:0:0:0:
256,192,48961,1,0,0:0:0:0:
256,192,49285,1,0,0:0:0:0:
256,192,49609,1,8,0:0:0:0:
256,192,49934,1,8,0:0:0:0:
256,192,50420,1,8,0:0:0:0:
256,192,50907,1,8,0:0:0:0:
256,192,52528,1,4,0:0:0:0:
256,192,53177,1,0,0:0:0:0:
256,192,53501,1,0,0:0:0:0:
256,192,53826,1,8,0:0:0:0:
256,192,54474,1,8,0:0:0:0:
256,192,54799,1,8,0:0:0:0:
256,192,55123,1,0,0:0:0:0:
256,192,55772,1,8,0:0:0:0:
256,192,56420,1,0,0:0:0:0:
256,192,56745,1,0,0:0:0:0:
256,192,57069,1,8,0:0:0:0:
256,192,57393,1,8,0:0:0:0:
256,192,57718,1,4,0:0:0:0:
256,192,58042,1,0,0:0:0:0:
256,192,58204,1,0,0:0:0:0:
256,192,58366,1,0,0:0:0:0:
256,192,59015,1,8,0:0:0:0:
256,192,59339,1,8,0:0:0:0:
256,192,59501,1,8,0:0:0:0:
256,192,59664,1,8,0:0:0:0:
256,192,60312,1,4,0:0:0:0:
256,192,60636,1,0,0:0:0:0:
256,192,60961,1,12,0:0:0:0:
256,192,61285,1,0,0:0:0:0:
256,192,61609,1,4,0:0:0:0:
256,192,62907,1,12,0:0:0:0:
256,192,63231,1,0,0:0:0:0:
256,192,63555,1,8,0:0:0:0:
256,192,63880,1,0,0:0:0:0:
256,192,64204,1,8,0:0:0:0:
256,192,64366,1,8,0:0:0:0:
256,192,64528,1,8,0:0:0:0:
256,192,64853,1,0,0:0:0:0:
256,192,65501,1,0,0:0:0:0:
256,192,65826,1,0,0:0:0:0:
256,192,66150,1,8,0:0:0:0:
256,192,66312,1,0,0:0:0:0:
256,192,66474,1,0,0:0:0:0:
256,192,66799,1,8,0:0:0:0:
256,192,67123,1,0,0:0:0:0:
256,192,67447,1,8,0:0:0:0:
256,192,68096,1,0,0:0:0:0:
256,192,68420,1,0,0:0:0:0:
256,192,68745,1,8,0:0:0:0:
256,192,69069,1,0,0:0:0:0:
256,192,69393,1,8,0:0:0:0:
256,192,69555,1,8,0:0:0:0:
256,192,69718,1,8,0:0:0:0:
256,192,70042,1,0,0:0:0:0:
256,192,70691,1,0,0:0:0:0:
256,192,71015,1,0,0:0:0:0:
256,192,71177,1,0,0:0:0:0:
256,192,71339,1,8,0:0:0:0:
256,192,71664,1,0,0:0:0:0:
256,192,71988,1,8,0:0:0:0:
256,192,72312,1,8,0:0:0:0:
256,192,73285,1,12,0:0:0:0:
256,192,73609,1,0,0:0:0:0:
256,192,73933,1,8,0:0:0:0:
256,192,74258,1,0,0:0:0:0:
256,192,74582,1,8,0:0:0:0:
256,192,74744,1,8,0:0:0:0:
256,192,74906,1,8,0:0:0:0:
256,192,75231,1,0,0:0:0:0:
256,192,75879,1,0,0:0:0:0:
256,192,76204,1,0,0:0:0:0:
256,192,76528,1,8,0:0:0:0:
256,192,76691,1,0,0:0:0:0:
256,192,76852,1,0,0:0:0:0:
256,192,77177,1,8,0:0:0:0:
256,192,77501,1,0,0:0:0:0:
256,192,77825,1,8,0:0:0:0:
256,192,78474,1,0,0:0:0:0:
256,192,78799,1,8,0:0:0:0:
256,192,79123,1,8,0:0:0:0:
256,192,79447,1,0,0:0:0:0:
256,192,79772,1,8,0:0:0:0:
256,192,80096,1,0,0:0:0:0:
256,192,80258,1,0,0:0:0:0:
256,192,80420,1,8,0:0:0:0:
256,192,81069,1,0,0:0:0:0:
256,192,81393,1,8,0:0:0:0:
256,192,81555,1,8,0:0:0:0:
256,192,81718,1,0,0:0:0:0:
256,192,82042,1,0,0:0:0:0:
256,192,82366,1,8,0:0:0:0:
256,192,82691,1,8,0:0:0:0:
256,192,83664,1,0,0:0:0:0:
256,192,83988,1,8,0:0:0:0:
256,192,84312,1,0,0:0:0:0:
256,192,84636,1,8,0:0:0:0:
256,192,84799,1,0,0:0:0:0:
256,192,84961,1,0,0:0:0:0:
256,192,85285,1,8,0:0:0:0:
256,192,85609,1,0,0:0:0:0:
256,192,86258,1,0,0:0:0:0:
256,192,86582,1,8,0:0:0:0:
256,192,86907,1,8,0:0:0:0:
256,192,87231,1,0,0:0:0:0:
256,192,87393,1,0,0:0:0:0:
256,192,87555,1,8,0:0:0:0:
256,192,87880,1,8,0:0:0:0:
256,192,88204,1,8,0:0:0:0:
256,192,88853,1,0,0:0:0:0:
256,192,89177,1,0,0:0:0:0:
256,192,89501,1,8,0:0:0:0:
256,192,89826,1,8,0:0:0:0:
256,192,89988,1,0,0:0:0:0:
256,192,90150,1,0,0:0:0:0:
256,192,90474,1,8,0:0:0:0:
256,192,90799,1,8,0:0:0:0:
256,192,91447,1,0,0:0:0:0:
256,192,91772,1,8,0:0:0:0:
256,192,92096,1,0,0:0:0:0:
256,192,92420,1,8,0:0:0:0:
256,192,92582,1,8,0:0:0:0:
256,192,92745,1,0,0:0:0:0:
256,192,93069,1,8,0:0:0:0:
256,192,93393,1,8,0:0:0:0:
256,192,93718,1,0,0:0:0:0:
