osu file format v14

[General]
AudioFilename: audio.mp3
AudioLeadIn: 0
PreviewTime: -1
Countdown: 1
SampleSet: Normal
StackLeniency: 0.7
Mode: 0
LetterboxInBreaks: 0
WidescreenStoryboard: 0

[Editor]
DistanceSpacing: 1
BeatDivisor: 4
GridSize: 8
TimelineZoom: 1

[Metadata]
Title:TSLove
TitleUnicode:TSLove
Artist:O2i3
ArtistUnicode:O2i3
Creator:JaviWaii
Version:JaviLove
Source:
Tags:
BeatmapID:1426800
BeatmapSetID:674305

[Difficulty]
HPDrainRate:5
CircleSize:4
OverallDifficulty:8
ApproachRate:8
SliderMultiplier:0.8
SliderTickRate:1

[Events]
//Background and Video events
0,0,"d_va___wallpaper_by_dsolitude-dajua1f.png",0,0
//Break Periods
2,42106,46589
//Storyboard Layer 0 (Background)
//Storyboard Layer 1 (Fail)
//Storyboard Layer 2 (Pass)
//Storyboard Layer 3 (Foreground)
//Storyboard Sound Samples

[TimingPoints]
637,324.324324324324,4,1,0,100,1,0

[Colours]
Combo1 : 171,180,12
Combo2 : 128,0,64
Combo3 : 35,179,180
Combo4 : 0,255,0
Combo5 : 128,0,255
Combo6 : 96,167,238
Combo7 : 255,136,79
Combo8 : 172,89,255

[HitObjects]
88,120,718,5,0,0:0:0:0:
88,232,880,1,0,0:0:0:0:
152,176,1042,6,0,L|192:152,1,40
248,304,1366,1,0,0:0:0:0:
320,152,1528,1,0,0:0:0:0:
480,256,1691,1,0,0:0:0:0:
472,96,1853,1,0,0:0:0:0:
336,40,2015,2,0,L|296:40,2,40
432,48,2501,5,0,0:0:0:0:
384,168,2664,2,0,L|384:224,1,40
288,256,2988,2,0,L|232:256,1,40
136,216,3312,2,0,L|136:160,1,40
64,280,3636,1,0,0:0:0:0:
160,320,3799,1,0,0:0:0:0:
272,136,3961,2,0,L|272:176,1,40
96,64,4285,1,0,0:0:0:0:
136,208,4447,1,0,0:0:0:0:
296,72,4609,2,0,P|264:88|248:88,1,40
176,312,4934,6,0,L|120:304,2,40
96,248,5420,5,0,0:0:0:0:
96,160,5582,2,0,L|96:112,1,40
104,80,5907,1,0,0:0:0:0:
248,168,6069,1,0,0:0:0:0:
144,280,6231,2,0,L|112:312,1,40
80,232,6555,2,0,L|48:264,1,40
88,128,6880,1,0,0:0:0:0:
160,168,7042,1,0,0:0:0:0:
168,72,7204,1,0,0:0:0:0:
256,120,7366,1,0,0:0:0:0:
272,32,7528,1,0,0:0:0:0:
360,80,7691,1,0,0:0:0:0:
384,208,7853,1,0,0:0:0:0:
280,144,8015,1,0,0:0:0:0:
256,264,8177,1,0,0:0:0:0:
152,192,8339,1,0,0:0:0:0:
96,48,8501,6,0,P|152:48|152:48,1,40
152,120,8826,2,0,P|208:120|208:120,1,40
208,192,9150,2,0,P|264:192|264:192,1,40
264,264,9474,2,0,P|320:264|320:264,1,40
320,336,9799,2,0,P|376:336|376:336,3,40
184,224,10447,2,0,P|240:224|240:224,3,40
72,104,11096,5,0,0:0:0:0:
136,232,11258,1,0,0:0:0:0:
248,112,11420,1,0,0:0:0:0:
280,208,11664,2,0,L|304:232,1,20
72,128,11907,1,0,0:0:0:0:
176,176,12069,1,0,0:0:0:0:
456,328,12393,1,0,0:0:0:0:
360,240,12555,1,0,0:0:0:0:
248,320,12717,1,0,0:0:0:0:
120,232,12961,2,0,L|144:256,1,20
320,136,13204,1,0,0:0:0:0:
368,200,13366,1,0,0:0:0:0:
72,104,13691,1,0,0:0:0:0:
136,232,13853,1,0,0:0:0:0:
248,112,14015,1,0,0:0:0:0:
280,208,14259,2,0,L|304:232,1,20
320,136,14502,1,0,0:0:0:0:
368,200,14664,1,0,0:0:0:0:
416,64,14988,5,0,0:0:0:0:
256,56,15150,1,0,0:0:0:0:
328,184,15312,1,0,0:0:0:0:
112,264,15556,2,0,L|136:288,1,20
80,136,15799,1,0,0:0:0:0:
200,184,15961,1,0,0:0:0:0:
472,56,16285,1,2,0:0:0:0:
416,208,16609,1,2,0:0:0:0:
312,56,16934,1,2,0:0:0:0:
248,224,17258,1,2,0:0:0:0:
160,56,17582,1,2,0:0:0:0:
80,224,17907,1,2,0:0:0:0:
40,56,18231,1,2,0:0:0:0:
184,176,18555,1,0,0:0:0:0:
256,192,18880,1,0,0:0:0:0:
256,192,20177,12,0,21150,0:0:0:0:
112,160,21474,5,0,0:0:0:0:
80,232,21799,2,0,L|168:264,1,80
216,296,22285,1,0,0:0:0:0:
264,216,22447,1,0,0:0:0:0:
392,272,22609,1,0,0:0:0:0:
440,168,22772,5,0,0:0:0:0:
432,56,22934,1,0,0:0:0:0:
248,64,23096,1,0,0:0:0:0:
216,216,23258,1,0,0:0:0:0:
352,312,23420,1,0,0:0:0:0:
408,224,23745,2,0,B|432:176|400:152|368:160|368:160,1,80
352,88,24393,5,0,0:0:0:0:
112,72,24555,1,0,0:0:0:0:
176,232,24718,1,0,0:0:0:0:
264,48,24880,1,0,0:0:0:0:
352,88,25042,2,0,L|376:128,1,40
480,48,25366,1,0,0:0:0:0:
416,192,25528,1,0,0:0:0:0:
224,168,25691,1,0,0:0:0:0:
232,328,25853,1,0,0:0:0:0:
88,256,26015,1,0,0:0:0:0:
64,112,26177,1,0,0:0:0:0:
128,80,26339,6,0,P|152:104|200:80,1,80
64,216,26988,1,0,0:0:0:0:
160,320,27312,2,0,L|216:320,1,40
232,184,27636,1,0,0:0:0:0:
96,96,27799,1,0,0:0:0:0:
248,56,27961,2,0,P|312:32|336:40,1,80
496,104,28609,1,0,0:0:0:0:
392,232,28934,1,0,0:0:0:0:
224,144,29258,1,0,0:0:0:0:
152,312,29582,2,0,L|104:288,1,40
24,200,29907,1,0,0:0:0:0:
80,64,30069,1,0,0:0:0:0:
256,128,30231,2,0,L|208:104,1,40
168,248,30555,5,0,0:0:0:0:
296,320,30880,1,0,0:0:0:0:
320,176,31204,1,0,0:0:0:0:
144,144,31366,1,0,0:0:0:0:
272,24,31528,1,0,0:0:0:0:
464,80,31691,5,0,0:0:0:0:
208,96,31853,1,0,0:0:0:0:
56,128,32177,1,0,0:0:0:0:
88,264,32501,2,0,P|128:272|128:272,1,40
152,184,32826,2,0,L|160:152,4,20
224,160,33312,2,0,L|240:192,1,20
320,192,33474,2,0,L|344:232,2,40
152,248,34447,5,0,0:0:0:0:
72,152,34772,2,0,L|120:128,1,40
248,88,35096,2,0,L|304:88,1,40
424,200,35420,2,0,L|440:240,1,40
424,32,35745,1,0,0:0:0:0:
272,96,36393,2,0,L|296:136,2,40
128,160,37042,1,0,0:0:0:0:
168,296,37366,1,0,0:0:0:0:
192,144,37691,2,0,L|232:176,1,40
368,176,38015,2,0,L|344:152,4,20
368,256,38664,2,0,L|288:304,1,80
136,208,39312,1,0,0:0:0:0:
104,80,39636,5,0,0:0:0:0:
368,176,39961,2,0,L|344:152,4,20
264,280,40447,1,0,0:0:0:0:
144,160,40609,1,0,0:0:0:0:
80,304,40772,1,0,0:0:0:0:
296,288,40934,1,0,0:0:0:0:
200,120,41258,1,0,0:0:0:0:
432,64,41582,2,0,L|352:64,1,80
256,192,47339,12,0,49772,0:0:0:0:
256,192,50096,12,0,51880,0:0:0:0:
56,320,52528,5,0,0:0:0:0:
32,176,52934,1,0,0:0:0:0:
184,288,53096,1,0,0:0:0:0:
344,192,53258,1,0,0:0:0:0:
400,32,53420,1,0,0:0:0:0:
224,16,53582,1,0,0:0:0:0:
208,96,53907,2,0,L|136:128,1,60
48,112,54393,1,0,0:0:0:0:
280,192,54555,1,0,0:0:0:0:
56,296,54718,1,0,0:0:0:0:
304,360,54880,1,0,0:0:0:0:
416,248,55204,5,0,0:0:0:0:
352,96,55528,1,0,0:0:0:0:
160,64,55691,1,0,0:0:0:0:
216,224,55853,1,0,0:0:0:0:
48,160,56015,1,0,0:0:0:0:
88,296,56177,1,0,0:0:0:0:
288,336,56501,1,0,0:0:0:0:
88,296,56826,1,0,0:0:0:0:
184,224,57150,2,0,L|264:176,1,80
72,120,57799,6,0,L|144:160,1,80
136,256,58447,2,0,L|208:296,1,80
232,96,59096,2,0,L|304:136,1,80
368,216,59745,2,0,L|440:256,1,80
448,40,60393,1,0,0:0:0:0:
256,192,61447,12,0,62582,0:0:0:0:
384,160,62987,5,0,0:0:0:0:
384,320,63312,2,0,L|472:352,1,80
176,304,63798,1,0,0:0:0:0:
32,360,63960,1,0,0:0:0:0:
56,200,64122,1,0,0:0:0:0:
144,48,64285,5,0,0:0:0:0:
320,168,64447,1,0,0:0:0:0:
424,24,64609,1,0,0:0:0:0:
200,24,64771,1,0,0:0:0:0:
232,288,64933,1,0,0:0:0:0:
88,216,65258,2,0,B|112:168|80:144|48:152|48:152,1,80
184,352,65906,5,0,0:0:0:0:
368,320,66068,1,0,0:0:0:0:
232,192,66231,1,0,0:0:0:0:
432,184,66393,1,0,0:0:0:0:
296,64,66555,2,0,L|320:104,1,40
144,32,66879,1,0,0:0:0:0:
32,176,67041,1,0,0:0:0:0:
232,168,67204,1,0,0:0:0:0:
112,336,67366,1,0,0:0:0:0:
320,328,67528,1,0,0:0:0:0:
368,176,67690,1,0,0:0:0:0:
424,32,67852,2,0,P|448:56|496:32,1,80
224,56,68501,5,0,0:0:0:0:
80,168,68825,2,0,L|136:168,1,40
32,72,69149,1,0,0:0:0:0:
32,296,69312,1,0,0:0:0:0:
200,344,69474,2,0,P|264:320|288:328,1,80
424,312,70122,1,0,0:0:0:0:
392,112,70447,1,0,0:0:0:0:
248,208,70771,1,0,0:0:0:0:
160,136,71095,6,0,L|112:112,1,40
144,280,71420,1,0,0:0:0:0:
24,152,71582,1,0,0:0:0:0:
128,64,71744,2,0,L|80:40,1,40
272,112,72068,1,0,0:0:0:0:
160,208,72393,1,0,0:0:0:0:
328,272,72717,1,0,0:0:0:0:
400,128,72879,1,0,0:0:0:0:
272,24,73041,1,0,0:0:0:0:
96,64,73204,5,0,0:0:0:0:
280,184,73366,1,0,0:0:0:0:
136,320,73690,1,0,0:0:0:0:
32,192,74014,2,0,P|72:200|72:200,1,40
104,64,74339,2,0,L|112:32,4,20
184,128,74825,2,0,L|200:160,1,20
400,80,74987,2,0,L|424:120,2,40
368,288,75960,5,0,0:0:0:0:
160,296,76285,2,0,L|208:272,1,40
40,120,76609,2,0,L|96:120,1,40
264,72,76933,2,0,L|280:112,1,40
456,168,77258,1,0,0:0:0:0:
400,312,77906,2,0,L|424:352,2,40
296,144,78555,1,0,0:0:0:0:
168,296,78879,1,0,0:0:0:0:
192,144,79204,2,0,L|232:176,1,40
72,96,79528,2,0,L|48:72,4,20
104,264,80177,2,0,L|24:312,1,80
64,368,80825,1,0,0:0:0:0:
248,344,81149,1,0,0:0:0:0:
440,320,81474,2,0,L|416:296,4,20
400,176,81960,5,0,0:0:0:0:
240,96,82122,1,0,0:0:0:0:
112,232,82285,1,0,0:0:0:0:
296,288,82447,1,0,0:0:0:0:
320,112,82771,1,0,0:0:0:0:
144,56,83095,2,0,L|64:56,1,80
40,168,83745,5,0,0:0:0:0:
104,80,83907,2,0,L|160:64,1,40
144,240,84231,1,0,0:0:0:0:
216,160,84393,2,0,L|272:152,1,40
304,248,84718,1,0,0:0:0:0:
408,216,84880,2,0,L|464:200,1,40
304,80,85204,1,0,0:0:0:0:
408,56,85366,2,0,L|464:40,1,40
408,176,85691,2,0,L|408:216,2,40
368,320,86339,5,0,0:0:0:0:
296,320,86501,2,0,L|240:320,1,40
224,256,86826,1,0,0:0:0:0:
224,176,86988,2,0,L|224:128,1,40
168,56,87312,1,0,0:0:0:0:
72,56,87474,2,0,L|16:56,1,40
48,152,87799,1,0,0:0:0:0:
48,248,87961,2,0,L|48:296,1,40
184,336,88285,2,0,L|232:336,2,40
392,232,88934,5,0,0:0:0:0:
392,320,89096,2,0,L|392:368,1,40
224,352,89421,1,0,0:0:0:0:
224,264,89583,2,0,L|224:216,1,40
144,152,89907,1,0,0:0:0:0:
72,152,90069,2,0,L|16:152,1,40
32,48,90394,1,0,0:0:0:0:
128,48,90556,2,0,L|176:48,1,40
288,56,90880,2,0,L|336:56,2,40
424,208,91528,5,0,0:0:0:0:
320,328,91691,1,0,0:0:0:0:
224,208,91853,1,0,0:0:0:0:
144,328,92015,1,0,0:0:0:0:
56,208,92177,1,0,0:0:0:0:
152,80,92339,1,0,0:0:0:0:
240,80,92501,2,0,L|272:80,2,20
152,184,92826,2,0,L|152:232,1,40
160,320,93150,2,0,L|200:320,2,40
256,192,93799,1,4,0:0:0:0:
