osu file format v14

[General]
AudioFilename: syu.mp3
AudioLeadIn: 0
PreviewTime: 62907
Countdown: 0
SampleSet: Soft
StackLeniency: 0.7
Mode: 3
LetterboxInBreaks: 0
SpecialStyle: 0
WidescreenStoryboard: 0

[Editor]
DistanceSpacing: 0.7
BeatDivisor: 4
GridSize: 4
TimelineZoom: 1.199999

[Metadata]
Title:TSLove
TitleUnicode:TSLove
Artist:O2i3
ArtistUnicode:O2i3
Creator:Ilham
Version:MXLove
Source:
Tags:Syadow- Kirara Records
BeatmapID:1152537
BeatmapSetID:543830

[Difficulty]
HPDrainRate:8
CircleSize:4
OverallDifficulty:8
ApproachRate:5
SliderMultiplier:1.4
SliderTickRate:1

[Events]
//Background and Video events
0,0,"BG.jpg",0,0
//Break Periods
//Storyboard Layer 0 (Background)
//Storyboard Layer 1 (Fail)
//Storyboard Layer 2 (Pass)
//Storyboard Layer 3 (Foreground)
//Storyboard Sound Samples

[TimingPoints]
637,324.324324324324,4,2,1,20,1,0
20096,-200,4,2,1,35,0,0
20258,-250,4,2,1,35,0,0
20420,-333.333333333333,4,2,1,35,0,0
20582,-333.333333333336,4,2,1,35,0,0
20745,-500.000000000005,4,2,1,35,0,0
20907,-1000.00000000002,4,2,1,35,0,0
20988,-133.333333333333,4,2,1,35,0,0
21069,-100,4,2,1,35,0,0
21150,-133.333333333333,4,2,1,35,0,0
21231,-100,4,2,1,35,0,0
21312,-133.333333333333,4,2,1,35,0,0
21393,-100,4,2,1,70,0,1
23664,-66.6666666666667,4,2,1,70,0,1
23745,-200,4,2,1,70,0,1
23826,-100,4,2,1,70,0,1
26258,-66.6666666666667,4,2,1,70,0,1
26339,-200,4,2,1,70,0,1
26420,-100,4,2,1,70,0,1
28853,-66.6666666666667,4,2,1,70,0,1
28934,-200,4,2,1,70,0,1
29015,-100,4,2,1,70,0,1
31123,-66.6666666666667,4,2,1,70,0,1
31205,-200,4,2,1,70,0,1
31285,-66.6666666666667,4,2,1,70,0,1
31367,-200,4,2,1,70,0,1
31447,-66.6666666666667,4,2,1,70,0,1
31529,-200,4,2,1,70,0,1
31609,-66.6666666666667,4,2,1,70,0,1
31691,-200,4,2,1,70,0,1
31772,-100,4,2,1,70,0,1
34042,-66.6666666666667,4,2,1,70,0,1
34123,-200,4,2,1,70,0,1
34204,-100,4,2,1,70,0,1
36636,-66.6666666666667,4,2,1,70,0,1
36717,-200,4,2,1,70,0,1
36799,-100,4,2,1,70,0,1
39231,-66.6666666666667,4,2,1,70,0,1
39312,-200,4,2,1,70,0,1
39393,-100,4,2,1,70,0,1
41501,-76.9230769230769,4,2,1,70,0,1
41664,-142.857142857143,4,2,1,70,0,1
41826,-76.9230769230769,4,2,1,70,0,1
41988,-142.857142857143,4,2,1,70,0,1
42150,-100,4,2,1,35,0,0
62258,-71.4285714285714,4,2,1,35,0,0
62339,-166.666666666667,4,2,1,35,0,0
62420,-71.4285714285714,4,2,1,35,0,0
62501,-166.666666666667,4,2,1,35,0,0
62582,-62.5,4,2,1,35,0,0
62664,-250,4,2,1,35,0,0
62745,-83.3333333333333,4,2,1,35,0,0
62785,-86.9565217391304,4,2,1,35,0,0
62826,-90.9090909090909,4,2,1,35,0,0
62866,-95.2380952380952,4,2,1,35,0,0
62907,-100,4,2,1,70,0,1
65177,-66.6666666666667,4,2,1,70,0,1
65258,-200,4,2,1,70,0,1
65339,-100,4,2,1,70,0,1
67772,-66.6666666666667,4,2,1,70,0,1
67853,-200,4,2,1,70,0,1
67934,-100,4,2,1,70,0,1
70366,-66.6666666666667,4,2,1,70,0,1
70447,-200,4,2,1,70,0,1
70528,-100,4,2,1,70,0,1
72636,-66.6666666666667,4,2,1,70,0,1
72718,-200,4,2,1,70,0,1
72799,-66.6666666666667,4,2,1,70,0,1
72880,-200,4,2,1,70,0,1
72961,-66.6666666666667,4,2,1,70,0,1
73042,-200,4,2,1,70,0,1
73123,-66.6666666666667,4,2,1,70,0,1
73204,-200,4,2,1,70,0,1
73285,-100,4,2,1,70,0,1
75555,-66.6666666666667,4,2,1,70,0,1
75636,-200,4,2,1,70,0,1
75718,-100,4,2,1,70,0,1
78150,-66.6666666666667,4,2,1,70,0,1
78231,-200,4,2,1,70,0,1
78312,-100,4,2,1,70,0,1
80745,-66.6666666666667,4,2,1,70,0,1
80907,-200,4,2,1,70,0,1
81069,-100,4,2,1,70,0,1
83664,-100,4,2,1,35,0,0
85934,-200,4,2,1,35,0,0
86096,-133.333333333333,4,2,1,35,0,0
86177,-57.1428571428571,4,2,1,35,0,0
86258,-100,4,2,1,35,0,0
88528,-71.4285714285714,4,2,1,35,0,0
88609,-166.666666666667,4,2,1,35,0,0
88691,-71.4285714285714,4,2,1,35,0,0
88772,-166.666666666667,4,2,1,35,0,0
88853,-100,4,2,1,35,0,0
91123,-200,4,2,1,35,0,0
91285,-57.1428571428571,4,2,1,35,0,0
91326,-200,4,2,1,35,0,0
91366,-57.1428571428571,4,2,1,35,0,0
91407,-200,4,2,1,35,0,0
91447,-100,4,2,1,35,0,0

[HitObjects]
64,192,637,5,0,0:0:0:20:LR_Clap kick.wav
448,192,637,1,0,0:0:0:0:
192,192,799,1,0,0:0:0:0:
448,192,961,1,0,0:0:0:20:LR_Clap kick.wav
320,192,961,1,0,0:0:0:0:
64,192,1123,1,0,0:0:0:0:
320,192,1204,1,0,0:0:0:0:
192,192,1285,1,0,0:0:0:20:soft-hitwhistle.wav
448,192,1447,1,0,0:0:0:0:
64,192,1609,1,0,0:0:0:20:LR_Clap kick.wav
192,192,1609,1,0,0:0:0:0:
320,192,1772,1,0,0:0:0:0:
448,192,1934,1,0,0:0:0:20:soft-hitwhistle.wav
64,192,1934,1,0,0:0:0:0:
192,192,2096,1,0,0:0:0:0:
64,192,2258,1,0,0:0:0:20:LR_Clap kick.wav
320,192,2258,1,0,0:0:0:0:
448,192,2420,1,0,0:0:0:0:
192,192,2501,1,0,0:0:0:0:
320,192,2582,1,0,0:0:0:20:soft-hitwhistle.wav
64,192,2745,1,0,0:0:0:0:
192,192,2907,1,0,0:0:0:20:LR_Clap kick.wav
320,192,2907,1,0,0:0:0:0:
448,192,3069,1,0,0:0:0:0:
192,192,3231,1,0,0:0:0:20:soft-hitwhistle.wav
64,192,3231,1,0,0:0:0:0:
320,192,3393,1,0,0:0:0:0:
192,192,3555,1,0,0:0:0:20:LR_Clap kick.wav
448,192,3555,1,0,0:0:0:0:
64,192,3718,1,0,0:0:0:0:
320,192,3799,1,0,0:0:0:0:
192,192,3880,1,0,0:0:0:20:soft-hitwhistle.wav
448,192,4042,1,0,0:0:0:0:
320,192,4204,1,0,0:0:0:20:LR_Clap kick.wav
64,192,4204,1,0,0:0:0:0:
192,192,4366,1,0,0:0:0:0:
64,192,4528,1,0,0:0:0:20:soft-hitwhistle.wav
448,192,4528,1,0,0:0:0:0:
320,192,4691,1,0,0:0:0:0:
192,192,4853,1,0,0:0:0:20:LR_Clap kick.wav
448,192,4853,1,0,0:0:0:0:
64,192,5015,1,0,0:0:0:0:
448,192,5096,1,0,0:0:0:0:
192,192,5177,1,0,0:0:0:20:soft-hitwhistle.wav
320,192,5339,1,0,0:0:0:0:
64,192,5501,1,0,0:0:0:20:LR_Clap kick.wav
448,192,5501,1,0,0:0:0:0:
192,192,5582,1,0,0:0:0:0:
448,192,5664,1,0,0:0:0:0:
320,192,5664,1,0,0:0:0:0:
192,192,5745,1,0,0:0:0:0:
64,192,5826,1,0,0:0:0:20:soft-hitwhistle.wav
320,192,5826,1,0,0:0:0:0:
448,192,5988,1,0,0:0:0:0:
64,192,6150,1,0,0:0:0:20:LR_Clap kick.wav
192,192,6150,1,0,0:0:0:0:
448,192,6312,1,0,0:0:0:0:
64,192,6393,1,0,0:0:0:0:
320,192,6474,1,0,0:0:0:20:soft-hitwhistle.wav
192,192,6636,1,0,0:0:0:0:
448,192,6799,1,0,0:0:0:20:LR_Clap kick.wav
320,192,6799,1,0,0:0:0:0:
192,192,6961,1,0,0:0:0:0:
448,192,7123,1,0,0:0:0:20:soft-hitwhistle.wav
64,192,7123,1,0,0:0:0:0:
320,192,7285,1,0,0:0:0:0:
192,192,7447,1,0,0:0:0:20:LR_Clap kick.wav
64,192,7447,1,0,0:0:0:0:
448,192,7609,1,0,0:0:0:0:
64,192,7691,1,0,0:0:0:0:
320,192,7772,1,0,0:0:0:20:soft-hitwhistle.wav
192,192,7934,1,0,0:0:0:0:
320,192,8096,1,0,0:0:0:20:LR_Clap kick.wav
64,192,8096,1,0,0:0:0:0:
448,192,8258,1,0,0:0:0:0:
64,192,8420,1,0,0:0:0:20:soft-hitwhistle.wav
192,192,8420,1,0,0:0:0:0:
320,192,8582,1,0,0:0:0:0:
448,192,8745,1,0,0:0:0:20:LR_Clap kick.wav
192,192,8745,1,0,0:0:0:0:
64,192,8907,1,0,0:0:0:0:
320,192,8988,1,0,0:0:0:0:
192,192,9069,1,0,0:0:0:20:soft-hitwhistle.wav
448,192,9231,1,0,0:0:0:0:
192,192,9393,1,0,0:0:0:20:LR_Clap kick.wav
64,192,9393,1,0,0:0:0:0:
320,192,9555,1,0,0:0:0:0:
448,192,9718,1,0,0:0:0:20:soft-hitwhistle.wav
64,192,9718,1,0,0:0:0:0:
192,192,9880,1,0,0:0:0:0:
64,192,10042,1,0,0:0:0:20:LR_Clap kick.wav
448,192,10042,1,0,0:0:0:0:
320,192,10204,1,0,0:0:0:0:
192,192,10285,1,0,0:0:0:0:
64,192,10366,1,0,0:0:0:0:
448,192,10528,1,0,0:0:0:0:
320,192,10609,1,0,0:0:0:0:
192,192,10691,1,0,0:0:0:0:
448,192,10691,1,0,0:0:0:0:
64,192,10853,1,0,0:0:0:0:
192,192,10934,1,0,0:0:0:0:
448,192,11015,1,0,0:0:0:70:soft-hitwhistle.wav
64,192,11015,1,0,0:0:0:70:cymbal clap.wav
320,192,11015,1,0,0:0:0:0:
192,192,11177,1,0,0:0:0:30:LR3_HiHat Normal.wav
448,192,11339,1,0,0:0:0:30:LR_Clap kick.wav
64,192,11339,1,0,0:0:0:0:
320,192,11339,1,0,0:0:0:0:
192,192,11501,1,0,0:0:0:30:LR3_HiHat Normal.wav
320,192,11582,1,0,0:0:0:0:
448,192,11664,1,0,0:0:0:30:soft-hitwhistle.wav
64,192,11664,1,0,0:0:0:0:
192,192,11826,1,0,0:0:0:30:LR3_HiHat Normal.wav
448,192,11988,1,0,0:0:0:30:LR_Clap kick.wav
64,192,11988,1,0,0:0:0:0:
320,192,11988,1,0,0:0:0:0:
192,192,12150,1,0,0:0:0:30:LR3_HiHat Normal.wav
448,192,12312,1,0,0:0:0:30:soft-hitwhistle.wav
64,192,12312,1,0,0:0:0:0:
320,192,12474,1,0,0:0:0:30:LR3_HiHat Normal.wav
448,192,12636,1,0,0:0:0:30:LR_Clap kick.wav
192,192,12636,1,0,0:0:0:0:
64,192,12636,1,0,0:0:0:0:
320,192,12799,1,0,0:0:0:30:LR3_HiHat Normal.wav
192,192,12880,1,0,0:0:0:0:
64,192,12961,1,0,0:0:0:30:soft-hitwhistle.wav
448,192,12961,1,0,0:0:0:0:
320,192,13123,1,0,0:0:0:30:LR3_HiHat Normal.wav
64,192,13285,1,0,0:0:0:30:LR_Clap kick.wav
192,192,13285,1,0,0:0:0:0:
448,192,13285,1,0,0:0:0:0:
320,192,13447,1,0,0:0:0:30:LR3_HiHat Normal.wav
448,192,13609,1,0,0:0:0:30:soft-hitwhistle.wav
192,192,13609,1,0,0:0:0:0:
64,192,13772,1,0,0:0:0:0:
448,192,13934,1,0,0:0:0:30:LR_Clap kick.wav
192,192,13934,1,0,0:0:0:0:
320,192,13934,1,0,0:0:0:0:
64,192,14096,1,0,0:0:0:0:
192,192,14177,1,0,0:0:0:0:
320,192,14258,1,0,0:0:0:30:soft-hitwhistle.wav
448,192,14258,1,0,0:0:0:0:
192,192,14420,1,0,0:0:0:0:
64,192,14582,1,0,0:0:0:30:LR_Clap kick.wav
320,192,14582,1,0,0:0:0:0:
448,192,14582,1,0,0:0:0:0:
192,192,14745,1,0,0:0:0:0:
448,192,14907,1,0,0:0:0:30:soft-hitwhistle.wav
64,192,14907,1,0,0:0:0:0:
320,192,15069,1,0,0:0:0:0:
448,192,15231,1,0,0:0:0:35:SNARE2.wav
192,192,15231,1,0,0:0:0:30:soft-hitwhistle.wav
64,192,15231,1,0,0:0:0:0:
320,192,15393,1,0,0:0:0:0:
192,192,15474,1,0,0:0:0:0:
64,192,15555,1,0,0:0:0:30:soft-hitwhistle.wav
448,192,15555,1,0,0:0:0:0:
192,192,15718,1,0,0:0:0:0:
64,192,15880,1,0,0:0:0:35:SNARE2.wav
448,192,15880,1,0,0:0:0:30:soft-hitwhistle.wav
320,192,15880,1,0,0:0:0:0:
192,192,16042,1,0,0:0:0:0:
320,192,16204,1,0,0:0:0:50:soft-hitwhistle.wav
448,192,16204,1,0,0:0:0:70:cymbal clap.wav
64,192,16204,1,0,0:0:0:0:
320,192,16366,1,0,0:0:0:50:soft-hitwhistle.wav
192,192,16366,1,0,0:0:0:0:
64,192,16528,1,0,0:0:0:50:soft-hitwhistle.wav
192,192,16528,1,0,0:0:0:0:
448,192,16528,1,0,0:0:0:0:
448,192,16691,1,0,0:0:0:50:soft-hitwhistle.wav
320,192,16691,1,0,0:0:0:0:
64,192,16853,1,0,0:0:0:50:soft-hitwhistle.wav
192,192,16853,1,0,0:0:0:0:
448,192,17015,1,0,0:0:0:50:soft-hitwhistle.wav
64,192,17015,1,0,0:0:0:0:
320,192,17177,1,0,0:0:0:50:soft-hitwhistle.wav
448,192,17177,1,0,0:0:0:0:
192,192,17177,1,0,0:0:0:0:
64,192,17339,1,0,0:0:0:50:soft-hitwhistle.wav
320,192,17339,1,0,0:0:0:0:
448,192,17501,1,0,0:0:0:50:soft-hitwhistle.wav
192,192,17501,1,0,0:0:0:0:
64,192,17664,1,0,0:0:0:50:soft-hitwhistle.wav
448,192,17664,1,0,0:0:0:0:
320,192,17826,1,0,0:0:0:50:soft-hitwhistle.wav
64,192,17826,1,0,0:0:0:0:
192,192,17826,1,0,0:0:0:0:
192,192,17988,1,0,0:0:0:50:soft-hitwhistle.wav
448,192,17988,1,0,0:0:0:0:
320,192,18150,1,0,0:0:0:50:soft-hitwhistle.wav
64,192,18150,1,0,0:0:0:0:
448,192,18312,1,0,0:0:0:50:soft-hitwhistle.wav
64,192,18312,1,0,0:0:0:0:
320,192,18474,1,0,0:0:0:50:soft-hitwhistle.wav
192,192,18474,1,0,0:0:0:0:
448,192,18474,1,0,0:0:0:0:
64,192,18636,1,0,0:0:0:50:soft-hitwhistle.wav
192,192,18636,1,0,0:0:0:0:
448,192,18799,1,0,0:0:0:70:soft-hitwhistle.wav
320,192,18799,1,0,0:0:0:0:
64,192,18880,1,0,0:0:0:70:soft-hitwhistle.wav
192,192,18880,1,0,0:0:0:0:
320,192,18961,1,0,0:0:0:70:soft-hitwhistle.wav
448,192,18961,1,0,0:0:0:0:
192,192,19042,1,0,0:0:0:70:soft-hitwhistle.wav
64,192,19042,1,0,0:0:0:0:
448,192,19123,1,0,0:0:0:70:soft-hitwhistle.wav
320,192,19123,1,0,0:0:0:0:
192,192,19204,1,0,0:0:0:70:soft-hitwhistle.wav
64,192,19204,1,0,0:0:0:0:
320,192,19285,1,0,0:0:0:70:soft-hitwhistle.wav
448,192,19285,1,0,0:0:0:0:
192,192,19366,1,0,0:0:0:70:soft-hitwhistle.wav
64,192,19366,1,0,0:0:0:0:
448,192,19447,1,0,0:0:0:70:soft-hitwhistle.wav
320,192,19488,1,0,0:0:0:70:soft-hitwhistle.wav
192,192,19528,1,0,0:0:0:70:soft-hitwhistle.wav
64,192,19569,1,0,0:0:0:70:soft-hitwhistle.wav
320,192,19609,1,0,0:0:0:70:soft-hitwhistle.wav
448,192,19609,1,0,0:0:0:0:
192,192,19691,1,0,0:0:0:70:soft-hitwhistle.wav
64,192,19691,1,0,0:0:0:0:
320,192,19772,1,0,0:0:0:70:soft-hitwhistle.wav
448,192,19772,1,0,0:0:0:0:
64,192,19853,1,0,0:0:0:70:soft-hitwhistle.wav
192,192,19853,1,0,0:0:0:0:
448,192,19934,1,0,0:0:0:70:soft-hitwhistle.wav
320,192,19934,1,0,0:0:0:0:
64,192,20015,1,0,0:0:0:70:soft-hitwhistle.wav
192,192,20015,1,0,0:0:0:0:
448,192,20096,1,0,0:0:0:70:soft-hitwhistle.wav
320,192,20096,128,0,21393:0:0:0:0:
64,192,21393,1,0,0:0:0:100:LR4_KickTBCRs.wav
448,192,21393,1,0,0:0:0:70:cymbal clap.wav
192,192,21393,1,0,0:0:0:0:
448,192,21555,1,0,0:0:0:70:LR3_HiHat Normal.wav
64,192,21718,1,0,0:0:0:70:soft-hitwhistle.wav
192,192,21718,1,0,0:0:0:0:
320,192,21718,1,0,0:0:0:0:
448,192,21880,1,0,0:0:0:70:LR3_HiHat Normal.wav
320,192,21961,1,0,0:0:0:0:
64,192,22042,1,0,0:0:0:70:soft-hitwhistle.wav
192,192,22042,1,0,0:0:0:0:
320,192,22204,1,0,0:0:0:70:LR3_HiHat Normal.wav
192,192,22285,1,0,0:0:0:0:
448,192,22366,1,0,0:0:0:70:soft-hitwhistle.wav
320,192,22366,1,0,0:0:0:0:
64,192,22366,1,0,0:0:0:0:
192,192,22447,1,0,0:0:0:0:
64,192,22528,1,0,0:0:0:70:LR3_HiHat Normal.wav
320,192,22609,1,0,0:0:0:0:
448,192,22691,1,0,0:0:0:70:soft-hitwhistle.wav
192,192,22691,1,0,0:0:0:0:
64,192,22853,1,0,0:0:0:70:LR3_HiHat Normal.wav
192,192,22934,1,0,0:0:0:0:
64,192,23015,1,0,0:0:0:70:soft-hitwhistle.wav
448,192,23015,1,0,0:0:0:0:
320,192,23015,1,0,0:0:0:0:
192,192,23177,1,0,0:0:0:70:LR3_HiHat Normal.wav
448,192,23339,1,0,0:0:0:70:soft-hitwhistle.wav
64,192,23339,128,0,23664:0:0:0:0:
320,192,23501,1,0,0:0:0:70:LR3_HiHat Normal.wav
192,192,23664,1,0,0:0:0:70:soft-hitfinish.wav
448,192,23664,1,0,0:0:0:0:
448,192,23988,1,0,0:0:0:100:LR4_KickTBCRs.wav
64,192,23988,1,0,0:0:0:0:
320,192,23988,1,0,0:0:0:0:
192,192,24150,1,0,0:0:0:70:LR3_HiHat Normal.wav
320,192,24312,1,0,0:0:0:70:soft-hitwhistle.wav
448,192,24312,1,0,0:0:0:0:
64,192,24312,1,0,0:0:0:0:
192,192,24393,1,0,0:0:0:0:
320,192,24474,1,0,0:0:0:70:LR3_HiHat Normal.wav
448,192,24555,1,0,0:0:0:0:
64,192,24636,1,0,0:0:0:70:soft-hitwhistle.wav
192,192,24636,1,0,0:0:0:0:
320,192,24799,1,0,0:0:0:70:LR3_HiHat Normal.wav
192,192,24880,1,0,0:0:0:0:
320,192,24961,1,0,0:0:0:70:soft-hitwhistle.wav
64,192,24961,1,0,0:0:0:0:
448,192,24961,1,0,0:0:0:0:
192,192,25042,1,0,0:0:0:0:
64,192,25123,1,0,0:0:0:70:LR3_HiHat Normal.wav
320,192,25285,1,0,0:0:0:70:soft-hitwhistle.wav
448,192,25285,1,0,0:0:0:0:
192,192,25447,1,0,0:0:0:70:LR3_HiHat Normal.wav
192,192,25528,1,0,0:0:0:0:
64,192,25609,1,0,0:0:0:70:soft-hitwhistle.wav
448,192,25609,1,0,0:0:0:0:
320,192,25609,1,0,0:0:0:0:
192,192,25772,1,0,0:0:0:70:LR3_HiHat Normal.wav
448,192,25934,1,0,0:0:0:70:soft-hitwhistle.wav
64,192,25934,1,0,0:0:0:0:
192,192,26015,1,0,0:0:0:0:
320,192,26096,1,0,0:0:0:70:LR3_HiHat Normal.wav
448,192,26096,1,0,0:0:0:0:
192,192,26258,1,0,0:0:0:70:soft-hitfinish.wav
64,192,26258,1,0,0:0:0:0:
320,192,26582,1,0,0:0:0:100:LR4_KickTBCRs.wav
448,192,26582,1,0,0:0:0:0:
64,192,26582,1,0,0:0:0:0:
64,192,26745,1,0,0:0:0:70:LR3_HiHat Normal.wav
192,192,26907,1,0,0:0:0:70:soft-hitwhistle.wav
320,192,26907,1,0,0:0:0:0:
448,192,26907,1,0,0:0:0:0:
64,192,27069,1,0,0:0:0:70:LR3_HiHat Normal.wav
192,192,27150,1,0,0:0:0:0:
320,192,27231,1,0,0:0:0:70:soft-hitwhistle.wav
448,192,27231,1,0,0:0:0:0:
192,192,27393,1,0,0:0:0:70:LR3_HiHat Normal.wav
320,192,27474,1,0,0:0:0:0:
448,192,27555,1,0,0:0:0:70:soft-hitwhistle.wav
64,192,27555,1,0,0:0:0:0:
192,192,27555,1,0,0:0:0:0:
320,192,27636,1,0,0:0:0:0:
448,192,27718,1,0,0:0:0:70:LR3_HiHat Normal.wav
64,192,27799,1,0,0:0:0:0:
320,192,27880,1,0,0:0:0:70:soft-hitwhistle.wav
192,192,27880,1,0,0:0:0:0:
448,192,28042,1,0,0:0:0:70:LR3_HiHat Normal.wav
320,192,28123,1,0,0:0:0:0:
64,192,28204,1,0,0:0:0:70:soft-hitwhistle.wav
192,192,28204,1,0,0:0:0:0:
448,192,28204,1,0,0:0:0:0:
320,192,28366,1,0,0:0:0:70:LR3_HiHat Normal.wav
64,192,28528,1,0,0:0:0:70:soft-hitwhistle.wav
448,192,28528,128,0,28853:0:0:0:0:
192,192,28691,1,0,0:0:0:70:LR3_HiHat Normal.wav
64,192,28853,1,0,0:0:0:70:soft-hitfinish.wav
320,192,28853,1,0,0:0:0:0:
64,192,29177,1,0,0:0:0:100:LR4_KickTBCRs.wav
448,192,29177,1,0,0:0:0:0:
192,192,29177,1,0,0:0:0:0:
320,192,29339,1,0,0:0:0:70:LR3_HiHat Normal.wav
192,192,29501,1,0,0:0:0:70:soft-hitwhistle.wav
448,192,29501,1,0,0:0:0:0:
64,192,29501,1,0,0:0:0:0:
320,192,29582,1,0,0:0:0:0:
192,192,29664,1,0,0:0:0:70:LR3_HiHat Normal.wav
64,192,29745,1,0,0:0:0:0:
448,192,29826,1,0,0:0:0:70:soft-hitwhistle.wav
320,192,29826,1,0,0:0:0:0:
192,192,29988,1,0,0:0:0:70:LR3_HiHat Normal.wav
320,192,30069,1,0,0:0:0:0:
64,192,30150,1,0,0:0:0:70:soft-hitwhistle.wav
192,192,30150,1,0,0:0:0:0:
448,192,30150,1,0,0:0:0:0:
320,192,30231,1,0,0:0:0:0:
448,192,30312,1,0,0:0:0:70:LR3_HiHat Normal.wav
320,192,30474,1,0,0:0:0:70:soft-hitfinish.wav
64,192,30474,1,0,0:0:0:0:
192,192,30636,1,0,0:0:0:0:
320,192,30799,128,0,31123:0:0:0:70:soft-hitfinish.wav
448,192,30799,1,0,0:0:0:0:
192,192,30961,1,0,0:0:0:0:
64,192,31123,1,0,0:0:0:70:soft-hitfinish.wav
448,192,31123,1,0,0:0:0:0:
320,192,31285,1,0,0:0:0:70:soft-hitfinish.wav
448,192,31285,1,0,0:0:0:0:
320,192,31447,1,0,0:0:0:70:soft-hitfinish.wav
192,192,31447,1,0,0:0:0:0:
64,192,31609,1,0,0:0:0:70:soft-hitfinish.wav
192,192,31609,1,0,0:0:0:0:
320,192,31772,1,0,0:0:0:100:LR4_KickTBCRs.wav
448,192,31772,1,0,0:0:0:70:cymbal clap.wav
64,192,31772,1,0,0:0:0:0:
320,192,31934,1,0,0:0:0:70:LR3_HiHat Normal.wav
448,192,32096,1,0,0:0:0:70:soft-hitwhistle.wav
64,192,32096,1,0,0:0:0:0:
192,192,32096,1,0,0:0:0:0:
320,192,32258,1,0,0:0:0:70:LR3_HiHat Normal.wav
448,192,32339,1,0,0:0:0:0:
64,192,32420,1,0,0:0:0:70:soft-hitwhistle.wav
192,192,32420,1,0,0:0:0:0:
448,192,32582,1,0,0:0:0:70:LR3_HiHat Normal.wav
320,192,32664,1,0,0:0:0:0:
448,192,32745,1,0,0:0:0:70:soft-hitwhistle.wav
192,192,32745,1,0,0:0:0:0:
64,192,32745,1,0,0:0:0:0:
320,192,32826,1,0,0:0:0:0:
192,192,32907,1,0,0:0:0:70:LR3_HiHat Normal.wav
64,192,32988,1,0,0:0:0:0:
320,192,33069,1,0,0:0:0:70:soft-hitwhistle.wav
448,192,33069,1,0,0:0:0:0:
192,192,33231,1,0,0:0:0:70:LR3_HiHat Normal.wav
320,192,33312,1,0,0:0:0:0:
448,192,33393,1,0,0:0:0:70:soft-hitwhistle.wav
192,192,33393,1,0,0:0:0:0:
64,192,33393,1,0,0:0:0:0:
320,192,33555,1,0,0:0:0:70:LR3_HiHat Normal.wav
64,192,33718,1,0,0:0:0:70:soft-hitwhistle.wav
448,192,33718,128,0,34042:0:0:0:0:
192,192,33880,1,0,0:0:0:70:LR3_HiHat Normal.wav
64,192,34042,1,0,0:0:0:70:soft-hitfinish.wav
320,192,34042,1,0,0:0:0:0:
64,192,34366,1,0,0:0:0:100:LR4_KickTBCRs.wav
448,192,34366,1,0,0:0:0:0:
192,192,34366,1,0,0:0:0:0:
320,192,34528,1,0,0:0:0:70:LR3_HiHat Normal.wav
64,192,34691,1,0,0:0:0:70:soft-hitwhistle.wav
192,192,34691,1,0,0:0:0:0:
448,192,34691,1,0,0:0:0:0:
320,192,34772,1,0,0:0:0:0:
64,192,34853,1,0,0:0:0:70:LR3_HiHat Normal.wav
192,192,34934,1,0,0:0:0:0:
320,192,35015,1,0,0:0:0:70:soft-hitwhistle.wav
448,192,35015,1,0,0:0:0:0:
64,192,35177,1,0,0:0:0:70:LR3_HiHat Normal.wav
192,192,35258,1,0,0:0:0:0:
448,192,35339,1,0,0:0:0:70:soft-hitwhistle.wav
64,192,35339,1,0,0:0:0:0:
320,192,35339,1,0,0:0:0:0:
192,192,35420,1,0,0:0:0:0:
320,192,35501,1,0,0:0:0:70:LR3_HiHat Normal.wav
64,192,35664,1,0,0:0:0:70:soft-hitwhistle.wav
192,192,35664,1,0,0:0:0:0:
320,192,35826,1,0,0:0:0:70:LR3_HiHat Normal.wav
320,192,35907,1,0,0:0:0:0:
448,192,35988,1,0,0:0:0:70:soft-hitwhistle.wav
64,192,35988,1,0,0:0:0:0:
192,192,35988,1,0,0:0:0:0:
320,192,36150,1,0,0:0:0:70:LR3_HiHat Normal.wav
64,192,36312,1,0,0:0:0:70:soft-hitwhistle.wav
448,192,36312,1,0,0:0:0:0:
320,192,36393,1,0,0:0:0:0:
192,192,36474,1,0,0:0:0:70:LR3_HiHat Normal.wav
64,192,36474,1,0,0:0:0:0:
448,192,36636,1,0,0:0:0:70:soft-hitfinish.wav
320,192,36636,1,0,0:0:0:0:
448,192,36961,1,0,0:0:0:100:LR4_KickTBCRs.wav
64,192,36961,1,0,0:0:0:0:
192,192,36961,1,0,0:0:0:0:
448,192,37123,1,0,0:0:0:70:LR3_HiHat Normal.wav
320,192,37285,1,0,0:0:0:70:soft-hitwhistle.wav
192,192,37285,1,0,0:0:0:0:
64,192,37285,1,0,0:0:0:0:
448,192,37447,1,0,0:0:0:70:LR3_HiHat Normal.wav
320,192,37528,1,0,0:0:0:0:
192,192,37609,1,0,0:0:0:70:soft-hitwhistle.wav
64,192,37609,1,0,0:0:0:0:
448,192,37772,1,0,0:0:0:70:LR3_HiHat Normal.wav
320,192,37853,1,0,0:0:0:0:
64,192,37934,1,0,0:0:0:70:soft-hitwhistle.wav
448,192,37934,1,0,0:0:0:0:
192,192,37934,1,0,0:0:0:0:
320,192,38015,1,0,0:0:0:0:
64,192,38096,1,0,0:0:0:70:LR3_HiHat Normal.wav
192,192,38177,1,0,0:0:0:0:
448,192,38258,1,0,0:0:0:70:soft-hitwhistle.wav
320,192,38258,1,0,0:0:0:0:
64,192,38420,1,0,0:0:0:70:LR3_HiHat Normal.wav
192,192,38501,1,0,0:0:0:0:
448,192,38582,1,0,0:0:0:70:soft-hitwhistle.wav
320,192,38582,1,0,0:0:0:0:
64,192,38582,1,0,0:0:0:0:
192,192,38745,1,0,0:0:0:70:LR3_HiHat Normal.wav
448,192,38907,1,0,0:0:0:70:soft-hitwhistle.wav
64,192,38907,128,0,39231:0:0:0:0:
320,192,39069,1,0,0:0:0:70:LR3_HiHat Normal.wav
448,192,39231,1,0,0:0:0:70:soft-hitfinish.wav
192,192,39231,1,0,0:0:0:0:
320,192,39555,1,0,0:0:0:100:LR4_KickTBCRs.wav
64,192,39555,1,0,0:0:0:0:
448,192,39555,1,0,0:0:0:0:
192,192,39718,1,0,0:0:0:70:LR3_HiHat Normal.wav
64,192,39880,1,0,0:0:0:70:soft-hitwhistle.wav
320,192,39880,1,0,0:0:0:0:
448,192,39880,1,0,0:0:0:0:
192,192,39961,1,0,0:0:0:0:
448,192,40042,1,0,0:0:0:70:LR3_HiHat Normal.wav
64,192,40042,1,0,0:0:0:0:
320,192,40123,1,0,0:0:0:0:
192,192,40204,1,0,0:0:0:70:soft-hitwhistle.wav
64,192,40204,1,0,0:0:0:0:
448,192,40366,1,0,0:0:0:70:LR3_HiHat Normal.wav
320,192,40366,1,0,0:0:0:0:
320,192,40528,1,0,0:0:0:70:soft-hitwhistle.wav
64,192,40528,1,0,0:0:0:0:
448,192,40528,1,0,0:0:0:0:
448,192,40691,1,0,0:0:0:70:LR3_HiHat Normal.wav
192,192,40691,1,0,0:0:0:0:
320,192,40772,1,0,0:0:0:0:
64,192,40853,1,0,0:0:0:70:soft-hitfinish.wav
192,192,40853,1,0,0:0:0:0:
448,192,41015,1,0,0:0:0:0:
320,192,41015,1,0,0:0:0:0:
192,192,41177,1,0,0:0:0:70:soft-hitfinish.wav
64,192,41177,1,0,0:0:0:0:
448,192,41339,1,0,0:0:0:0:
64,192,41501,128,0,41826:0:0:0:70:soft-hitwhistle.wav
320,192,41501,1,0,0:0:0:0:
192,192,41826,1,0,0:0:0:100:LR4_KickTBCRs.wav
448,192,41826,128,0,42150:0:0:0:0:
320,192,42150,1,0,0:0:0:100:LR4_KickTBCRs.wav
192,192,42150,128,0,44745:0:0:0:0:
64,192,42312,1,0,0:0:0:100:hat light.wav
448,192,42312,1,0,0:0:0:0:
320,192,42474,1,0,0:0:0:0:
64,192,42636,1,0,0:0:0:100:hat light.wav
448,192,42636,1,0,0:0:0:0:
320,192,42799,1,0,0:0:0:0:
64,192,42961,1,0,0:0:0:100:hat light.wav
448,192,42961,1,0,0:0:0:0:
320,192,43123,1,0,0:0:0:0:
64,192,43285,1,0,0:0:0:100:hat light.wav
448,192,43285,1,0,0:0:0:0:
64,192,43447,1,0,0:0:0:0:
320,192,43609,1,0,0:0:0:100:hat light.wav
448,192,43609,1,0,0:0:0:0:
64,192,43772,1,0,0:0:0:0:
448,192,43934,1,0,0:0:0:100:hat light.wav
320,192,43934,1,0,0:0:0:0:
64,192,44096,128,0,44258:0:0:0:0:
320,192,44258,1,0,0:0:0:100:hat light.wav
448,192,44258,128,0,44420:0:0:0:0:
64,192,44420,128,0,44582:0:0:0:0:
320,192,44582,1,0,0:0:0:100:hat light.wav
448,192,44582,128,0,44745:0:0:0:0:
64,192,44745,128,0,44907:0:0:0:0:
448,192,44907,128,0,45069:0:0:0:100:hat light.wav
320,192,44907,1,0,0:0:0:0:
192,192,45069,1,0,0:0:0:0:
320,192,45123,1,0,0:0:0:0:
64,192,45231,128,0,45393:0:0:0:100:hat light.wav
192,192,45231,1,0,0:0:0:0:
448,192,45393,1,0,0:0:0:0:
320,192,45555,128,0,45718:0:0:0:100:hat light.wav
192,192,45555,1,0,0:0:0:0:
64,192,45718,1,0,0:0:0:0:
192,192,45880,128,0,46204:0:0:0:100:hat light.wav
448,192,45880,1,0,0:0:0:0:
320,192,46042,1,0,0:0:0:0:
448,192,46204,128,0,46853:0:0:0:100:hat light.wav
64,192,46204,1,0,0:0:0:0:
320,192,46366,1,0,0:0:0:0:
192,192,46528,1,0,0:0:0:100:hat light.wav
64,192,46528,1,0,0:0:0:0:
64,192,46691,1,0,0:0:0:0:
192,192,46853,1,0,0:0:0:100:hat light.wav
320,192,46853,1,0,0:0:0:0:
448,192,47015,1,0,0:0:0:0:
64,192,47015,1,0,0:0:0:0:
320,192,47177,1,0,0:0:0:100:hat light.wav
192,192,47177,1,0,0:0:0:0:
448,192,47339,1,0,0:0:0:0:
320,192,47501,1,0,0:0:0:100:hat light.wav
64,192,47501,1,0,0:0:0:0:
192,192,47664,1,0,0:0:0:0:
320,192,47826,1,0,0:0:0:100:hat light.wav
448,192,47826,1,0,0:0:0:0:
64,192,47988,1,0,0:0:0:0:
448,192,48150,128,0,48312:0:0:0:100:hat light.wav
192,192,48150,1,0,0:0:0:0:
320,192,48312,1,0,0:0:0:0:
448,192,48474,128,0,48961:0:0:0:100:hat light.wav
64,192,48474,1,0,0:0:0:0:
192,192,48636,1,0,0:0:0:0:
320,192,48799,1,0,0:0:0:100:hat light.wav
64,192,48799,1,0,0:0:0:0:
192,192,48961,128,0,49123:0:0:0:0:
320,192,49123,128,0,49285:0:0:0:100:hat light.wav
448,192,49123,1,0,0:0:0:0:
64,192,49285,128,0,49447:0:0:0:0:
448,192,49447,128,0,49609:0:0:0:100:hat light.wav
192,192,49447,1,0,0:0:0:0:
64,192,49609,128,0,49772:0:0:0:0:
448,192,49772,128,0,49934:0:0:0:100:hat light.wav
320,192,49772,1,0,0:0:0:0:
192,192,49934,128,0,50258:0:0:0:0:
64,192,50096,1,0,0:0:0:100:hat light.wav
320,192,50096,1,0,0:0:0:0:
448,192,50258,1,0,0:0:0:0:
320,192,50339,1,0,0:0:0:0:
64,192,50420,128,0,50745:0:0:0:100:hat light.wav
448,192,50420,1,0,0:0:0:0:
192,192,50582,1,0,0:0:0:0:
320,192,50745,1,0,0:0:0:100:hat light.wav
448,192,50745,1,0,0:0:0:0:
192,192,50826,1,0,0:0:0:0:
64,192,50907,128,0,52528:0:0:0:0:
320,192,51069,1,0,0:0:0:100:hat light.wav
448,192,51069,1,0,0:0:0:0:
192,192,51231,1,0,0:0:0:0:
448,192,51393,1,0,0:0:0:100:hat light.wav
320,192,51393,1,0,0:0:0:0:
192,192,51555,1,0,0:0:0:0:
448,192,51718,1,0,0:0:0:100:hat light.wav
320,192,51718,1,0,0:0:0:0:
320,192,51880,1,0,0:0:0:0:
192,192,52042,1,0,0:0:0:100:hat light.wav
448,192,52042,1,0,0:0:0:0:
448,192,52204,1,0,0:0:0:0:
192,192,52366,1,0,0:0:0:100:hat light.wav
320,192,52366,1,0,0:0:0:0:
192,192,52528,1,0,0:0:0:30:LR_Clap DS.wav
448,192,52528,1,0,0:0:0:70:cymbal clap.wav
320,192,52691,128,0,52853:0:0:0:70:LR_Hat Synth.wav
64,192,52853,1,0,0:0:0:30:LR_Clap DS.wav
192,192,52853,128,0,53015:0:0:0:0:
448,192,53015,128,0,53096:0:0:0:70:LR_Hat Synth.wav
64,192,53096,128,0,53177:0:0:0:0:
320,192,53177,1,0,0:0:0:30:LR_Clap DS.wav
192,192,53177,1,0,0:0:0:0:
448,192,53339,128,0,53501:0:0:0:70:LR_Hat Synth.wav
64,192,53501,1,0,0:0:0:30:LR_Clap DS.wav
192,192,53501,1,0,0:0:0:0:
320,192,53664,128,0,53826:0:0:0:70:LR_Hat Synth.wav
448,192,53826,1,0,0:0:0:30:LR_Clap DS.wav
64,192,53826,1,0,0:0:0:0:
64,192,53988,128,0,54150:0:0:0:70:LR_Hat Synth.wav
448,192,54150,1,0,0:0:0:30:LR_Clap DS.wav
192,192,54150,1,0,0:0:0:0:
320,192,54312,128,0,54474:0:0:0:70:LR_Hat Synth.wav
448,192,54474,1,0,0:0:0:30:LR_Clap DS.wav
64,192,54474,1,0,0:0:0:0:
192,192,54636,128,0,54799:0:0:0:70:LR_Hat Synth.wav
64,192,54799,1,0,0:0:0:30:LR_Clap DS.wav
320,192,54799,128,0,54961:0:0:0:0:
448,192,54961,128,0,55123:0:0:0:70:LR_Hat Synth.wav
192,192,55123,1,0,0:0:0:30:LR_Clap DS.wav
64,192,55123,1,0,0:0:0:0:
320,192,55285,128,0,55447:0:0:0:70:LR_Hat Synth.wav
64,192,55447,1,0,0:0:0:30:LR_Clap DS.wav
192,192,55447,1,0,0:0:0:0:
64,192,55609,128,0,55772:0:0:0:70:LR_Hat Synth.wav
320,192,55772,1,0,0:0:0:30:LR_Clap DS.wav
448,192,55772,1,0,0:0:0:0:
192,192,55853,128,0,55934:0:0:0:0:
448,192,55934,1,0,0:0:0:70:LR_Hat Synth.wav
320,192,56015,128,0,56096:0:0:0:0:
192,192,56096,1,0,0:0:0:30:soft-hitwhistle.wav
64,192,56096,1,0,0:0:0:0:
64,192,56258,128,0,56420:0:0:0:70:LR_Hat Synth.wav
320,192,56420,1,0,0:0:0:30:soft-hitwhistle.wav
448,192,56420,1,0,0:0:0:0:
448,192,56582,128,0,56745:0:0:0:70:LR_Hat Synth.wav
64,192,56745,1,0,0:0:0:30:soft-hitwhistle.wav
192,192,56745,1,0,0:0:0:0:
64,192,56907,128,0,57069:0:0:0:70:LR_Hat Synth.wav
320,192,57069,1,0,0:0:0:30:soft-hitwhistle.wav
448,192,57069,1,0,0:0:0:0:
192,192,57231,128,0,57393:0:0:0:70:LR_Hat Synth.wav
448,192,57393,1,0,0:0:0:30:soft-hitwhistle.wav
320,192,57393,128,0,57718:0:0:0:0:
64,192,57555,1,0,0:0:0:70:LR_Hat Synth.wav
448,192,57718,1,0,0:0:0:50:soft-hitwhistle.wav
192,192,57718,1,0,0:0:0:70:cymbal clap.wav
64,192,57718,1,0,0:0:0:0:
448,192,57880,1,0,0:0:0:50:soft-hitwhistle.wav
320,192,57880,1,0,0:0:0:0:
192,192,58042,1,0,0:0:0:50:soft-hitwhistle.wav
320,192,58042,1,0,0:0:0:0:
64,192,58204,1,0,0:0:0:50:soft-hitwhistle.wav
192,192,58204,1,0,0:0:0:0:
320,192,58366,1,0,0:0:0:50:soft-hitwhistle.wav
448,192,58366,1,0,0:0:0:0:
64,192,58528,1,0,0:0:0:50:soft-hitwhistle.wav
448,192,58528,1,0,0:0:0:0:
320,192,58691,1,0,0:0:0:50:soft-hitwhistle.wav
192,192,58691,1,0,0:0:0:0:
64,192,58853,1,0,0:0:0:50:soft-hitwhistle.wav
448,192,58853,1,0,0:0:0:0:
448,192,59015,1,0,0:0:0:50:soft-hitwhistle.wav
320,192,59015,1,0,0:0:0:0:
192,192,59177,1,0,0:0:0:50:soft-hitwhistle.wav
64,192,59177,1,0,0:0:0:0:
192,192,59339,1,0,0:0:0:50:soft-hitwhistle.wav
320,192,59339,1,0,0:0:0:0:
448,192,59501,1,0,0:0:0:50:soft-hitwhistle.wav
320,192,59501,1,0,0:0:0:0:
64,192,59664,1,0,0:0:0:50:soft-hitwhistle.wav
448,192,59664,1,0,0:0:0:0:
192,192,59826,1,0,0:0:0:50:soft-hitwhistle.wav
64,192,59826,1,0,0:0:0:0:
320,192,59988,1,0,0:0:0:50:soft-hitwhistle.wav
192,192,59988,1,0,0:0:0:0:
320,192,60150,1,0,0:0:0:50:soft-hitwhistle.wav
448,192,60150,1,0,0:0:0:0:
64,192,60312,1,0,0:0:0:70:soft-hitwhistle.wav
192,192,60312,1,0,0:0:0:0:
320,192,60393,1,0,0:0:0:70:soft-hitwhistle.wav
448,192,60393,1,0,0:0:0:0:
192,192,60474,1,0,0:0:0:70:soft-hitwhistle.wav
64,192,60474,1,0,0:0:0:0:
320,192,60555,1,0,0:0:0:70:soft-hitwhistle.wav
448,192,60555,1,0,0:0:0:0:
192,192,60636,1,0,0:0:0:70:soft-hitwhistle.wav
64,192,60636,1,0,0:0:0:0:
320,192,60718,1,0,0:0:0:70:soft-hitwhistle.wav
448,192,60718,1,0,0:0:0:0:
192,192,60799,1,0,0:0:0:70:soft-hitwhistle.wav
64,192,60799,1,0,0:0:0:0:
320,192,60880,1,0,0:0:0:70:soft-hitwhistle.wav
448,192,60880,1,0,0:0:0:0:
64,192,60961,1,0,0:0:0:70:soft-hitwhistle.wav
192,192,61001,1,0,0:0:0:70:soft-hitwhistle.wav
320,192,61042,1,0,0:0:0:70:soft-hitwhistle.wav
448,192,61082,1,0,0:0:0:70:soft-hitwhistle.wav
192,192,61123,1,0,0:0:0:70:soft-hitwhistle.wav
64,192,61123,1,0,0:0:0:0:
320,192,61204,1,0,0:0:0:70:soft-hitwhistle.wav
448,192,61204,1,0,0:0:0:0:
192,192,61285,1,0,0:0:0:70:soft-hitwhistle.wav
64,192,61285,1,0,0:0:0:0:
320,192,61366,1,0,0:0:0:70:soft-hitwhistle.wav
448,192,61366,1,0,0:0:0:0:
192,192,61447,1,0,0:0:0:70:soft-hitwhistle.wav
64,192,61447,1,0,0:0:0:0:
320,192,61528,1,0,0:0:0:70:soft-hitwhistle.wav
448,192,61528,1,0,0:0:0:0:
64,192,61609,128,0,61772:0:0:0:70:soft-hitwhistle.wav
448,192,61772,128,0,61934:0:0:0:0:
192,192,61934,128,0,62015:0:0:0:0:
320,192,62015,128,0,62096:0:0:0:0:
64,192,62096,128,0,62177:0:0:0:0:
192,192,62177,128,0,62258:0:0:0:0:
448,192,62258,1,0,0:0:0:0:
320,192,62258,1,0,0:0:0:0:
192,192,62420,1,0,0:0:0:0:
64,192,62420,1,0,0:0:0:0:
320,192,62582,1,0,0:0:0:0:
448,192,62582,1,0,0:0:0:0:
64,192,62907,1,0,0:0:0:100:LR4_KickTBCRs.wav
448,192,62907,1,0,0:0:0:70:cymbal clap.wav
192,192,62907,128,0,63231:0:0:0:0:
64,192,63069,1,0,0:0:0:70:LR3_HiHat Normal.wav
320,192,63231,1,0,0:0:0:70:soft-hitwhistle.wav
448,192,63231,1,0,0:0:0:0:
320,192,63393,1,0,0:0:0:70:LR3_HiHat Normal.wav
192,192,63474,1,0,0:0:0:0:
448,192,63555,1,0,0:0:0:70:soft-hitwhistle.wav
64,192,63555,1,0,0:0:0:0:
320,192,63718,1,0,0:0:0:70:LR3_HiHat Normal.wav
448,192,63799,1,0,0:0:0:0:
64,192,63880,1,0,0:0:0:70:soft-hitwhistle.wav
192,192,63880,1,0,0:0:0:0:
320,192,63880,1,0,0:0:0:0:
448,192,63961,1,0,0:0:0:0:
192,192,64042,1,0,0:0:0:70:LR3_HiHat Normal.wav
64,192,64123,1,0,0:0:0:0:
320,192,64204,1,0,0:0:0:70:soft-hitwhistle.wav
448,192,64204,1,0,0:0:0:0:
192,192,64366,1,0,0:0:0:70:LR3_HiHat Normal.wav
320,192,64447,1,0,0:0:0:0:
64,192,64528,1,0,0:0:0:70:soft-hitwhistle.wav
192,192,64528,1,0,0:0:0:0:
448,192,64528,128,0,64691:0:0:0:0:
320,192,64691,128,0,64853:0:0:0:70:LR3_HiHat Normal.wav
192,192,64853,1,0,0:0:0:70:soft-hitwhistle.wav
64,192,64853,128,0,65177:0:0:0:0:
448,192,65015,1,0,0:0:0:70:LR3_HiHat Normal.wav
320,192,65177,1,0,0:0:0:70:soft-hitfinish.wav
192,192,65177,1,0,0:0:0:0:
448,192,65501,1,0,0:0:0:100:LR4_KickTBCRs.wav
64,192,65501,1,0,0:0:0:0:
320,192,65501,128,0,65826:0:0:0:0:
192,192,65664,1,0,0:0:0:70:LR3_HiHat Normal.wav
448,192,65826,1,0,0:0:0:70:soft-hitwhistle.wav
64,192,65826,1,0,0:0:0:0:
192,192,65907,1,0,0:0:0:0:
320,192,65988,1,0,0:0:0:70:LR3_HiHat Normal.wav
448,192,66069,1,0,0:0:0:0:
64,192,66150,1,0,0:0:0:70:soft-hitwhistle.wav
192,192,66150,1,0,0:0:0:0:
320,192,66312,1,0,0:0:0:70:LR3_HiHat Normal.wav
192,192,66393,1,0,0:0:0:0:
448,192,66474,1,0,0:0:0:70:soft-hitwhistle.wav
320,192,66474,1,0,0:0:0:0:
64,192,66474,1,0,0:0:0:0:
192,192,66555,1,0,0:0:0:0:
64,192,66636,1,0,0:0:0:70:LR3_HiHat Normal.wav
320,192,66799,1,0,0:0:0:70:soft-hitwhistle.wav
448,192,66799,1,0,0:0:0:0:
192,192,66961,1,0,0:0:0:70:LR3_HiHat Normal.wav
192,192,67042,1,0,0:0:0:0:
64,192,67123,1,0,0:0:0:70:soft-hitwhistle.wav
448,192,67123,1,0,0:0:0:0:
320,192,67123,1,0,0:0:0:0:
192,192,67285,1,0,0:0:0:70:LR3_HiHat Normal.wav
448,192,67447,1,0,0:0:0:70:soft-hitwhistle.wav
64,192,67447,1,0,0:0:0:0:
320,192,67528,1,0,0:0:0:0:
448,192,67609,1,0,0:0:0:70:LR3_HiHat Normal.wav
192,192,67609,1,0,0:0:0:0:
64,192,67772,1,0,0:0:0:70:soft-hitfinish.wav
320,192,67772,1,0,0:0:0:0:
64,192,68096,1,0,0:0:0:100:LR4_KickTBCRs.wav
448,192,68096,1,0,0:0:0:0:
192,192,68096,128,0,68420:0:0:0:0:
448,192,68258,1,0,0:0:0:70:LR3_HiHat Normal.wav
320,192,68420,1,0,0:0:0:70:soft-hitwhistle.wav
64,192,68420,1,0,0:0:0:0:
64,192,68582,1,0,0:0:0:70:LR3_HiHat Normal.wav
192,192,68664,1,0,0:0:0:0:
320,192,68745,1,0,0:0:0:70:soft-hitwhistle.wav
448,192,68745,1,0,0:0:0:0:
192,192,68907,1,0,0:0:0:70:LR3_HiHat Normal.wav
64,192,68988,1,0,0:0:0:0:
448,192,69069,1,0,0:0:0:70:soft-hitwhistle.wav
320,192,69069,1,0,0:0:0:0:
192,192,69069,1,0,0:0:0:0:
64,192,69150,1,0,0:0:0:0:
320,192,69231,1,0,0:0:0:70:LR3_HiHat Normal.wav
448,192,69312,1,0,0:0:0:0:
192,192,69393,1,0,0:0:0:70:soft-hitwhistle.wav
64,192,69393,1,0,0:0:0:0:
320,192,69555,1,0,0:0:0:70:LR3_HiHat Normal.wav
192,192,69636,1,0,0:0:0:0:
448,192,69718,1,0,0:0:0:70:soft-hitwhistle.wav
64,192,69718,1,0,0:0:0:0:
320,192,69718,128,0,69880:0:0:0:0:
192,192,69880,128,0,70042:0:0:0:70:LR3_HiHat Normal.wav
448,192,70042,1,0,0:0:0:70:soft-hitwhistle.wav
64,192,70042,128,0,70366:0:0:0:0:
320,192,70204,1,0,0:0:0:70:LR3_HiHat Normal.wav
192,192,70366,1,0,0:0:0:70:soft-hitfinish.wav
448,192,70366,1,0,0:0:0:0:
64,192,70691,1,0,0:0:0:100:LR4_KickTBCRs.wav
448,192,70691,1,0,0:0:0:0:
320,192,70691,128,0,71015:0:0:0:0:
192,192,70853,1,0,0:0:0:70:LR3_HiHat Normal.wav
448,192,71015,1,0,0:0:0:70:soft-hitwhistle.wav
64,192,71015,1,0,0:0:0:0:
192,192,71096,1,0,0:0:0:0:
320,192,71177,1,0,0:0:0:70:LR3_HiHat Normal.wav
448,192,71258,1,0,0:0:0:0:
192,192,71339,1,0,0:0:0:70:soft-hitwhistle.wav
64,192,71339,1,0,0:0:0:0:
320,192,71501,1,0,0:0:0:70:LR3_HiHat Normal.wav
192,192,71582,1,0,0:0:0:0:
320,192,71664,1,0,0:0:0:70:soft-hitwhistle.wav
448,192,71664,1,0,0:0:0:0:
64,192,71664,1,0,0:0:0:0:
192,192,71745,1,0,0:0:0:0:
64,192,71826,1,0,0:0:0:70:LR3_HiHat Normal.wav
448,192,71988,1,0,0:0:0:70:soft-hitfinish.wav
320,192,71988,128,0,72150:0:0:0:0:
64,192,72150,128,0,72312:0:0:0:0:
192,192,72312,128,0,72636:0:0:0:70:soft-hitfinish.wav
448,192,72312,1,0,0:0:0:0:
320,192,72474,1,0,0:0:0:0:
64,192,72636,1,0,0:0:0:70:soft-hitfinish.wav
448,192,72636,1,0,0:0:0:0:
64,192,72799,1,0,0:0:0:70:soft-hitfinish.wav
192,192,72799,1,0,0:0:0:0:
320,192,72961,1,0,0:0:0:70:soft-hitfinish.wav
192,192,72961,1,0,0:0:0:0:
448,192,73123,1,0,0:0:0:70:soft-hitfinish.wav
320,192,73123,1,0,0:0:0:0:
448,192,73285,1,0,0:0:0:100:LR4_KickTBCRs.wav
64,192,73285,1,0,0:0:0:70:cymbal clap.wav
192,192,73285,128,0,73609:0:0:0:0:
64,192,73447,1,0,0:0:0:70:LR3_HiHat Normal.wav
320,192,73609,1,0,0:0:0:70:soft-hitwhistle.wav
448,192,73609,1,0,0:0:0:0:
448,192,73772,1,0,0:0:0:70:LR3_HiHat Normal.wav
320,192,73853,1,0,0:0:0:0:
192,192,73934,1,0,0:0:0:70:soft-hitwhistle.wav
64,192,73934,1,0,0:0:0:0:
320,192,74096,1,0,0:0:0:70:LR3_HiHat Normal.wav
192,192,74177,1,0,0:0:0:0:
448,192,74258,1,0,0:0:0:70:soft-hitwhistle.wav
320,192,74258,1,0,0:0:0:0:
64,192,74258,1,0,0:0:0:0:
192,192,74339,1,0,0:0:0:0:
448,192,74420,1,0,0:0:0:70:LR3_HiHat Normal.wav
320,192,74501,1,0,0:0:0:0:
192,192,74582,1,0,0:0:0:70:soft-hitwhistle.wav
64,192,74582,1,0,0:0:0:0:
448,192,74745,1,0,0:0:0:70:LR3_HiHat Normal.wav
320,192,74826,1,0,0:0:0:0:
448,192,74907,1,0,0:0:0:70:soft-hitwhistle.wav
64,192,74907,1,0,0:0:0:0:
192,192,74907,128,0,75069:0:0:0:0:
320,192,75069,128,0,75231:0:0:0:70:LR3_HiHat Normal.wav
64,192,75231,1,0,0:0:0:70:soft-hitwhistle.wav
448,192,75231,128,0,75555:0:0:0:0:
192,192,75393,1,0,0:0:0:70:LR3_HiHat Normal.wav
64,192,75555,1,0,0:0:0:70:soft-hitfinish.wav
320,192,75555,1,0,0:0:0:0:
64,192,75880,1,0,0:0:0:100:LR4_KickTBCRs.wav
448,192,75880,1,0,0:0:0:0:
192,192,75880,128,0,76204:0:0:0:0:
320,192,76042,1,0,0:0:0:70:LR3_HiHat Normal.wav
448,192,76204,1,0,0:0:0:70:soft-hitwhistle.wav
64,192,76204,1,0,0:0:0:0:
320,192,76285,1,0,0:0:0:0:
192,192,76366,1,0,0:0:0:70:LR3_HiHat Normal.wav
64,192,76447,1,0,0:0:0:0:
448,192,76528,1,0,0:0:0:70:soft-hitwhistle.wav
320,192,76528,1,0,0:0:0:0:
192,192,76691,1,0,0:0:0:70:LR3_HiHat Normal.wav
320,192,76772,1,0,0:0:0:0:
64,192,76853,1,0,0:0:0:70:soft-hitwhistle.wav
448,192,76853,1,0,0:0:0:0:
192,192,76853,1,0,0:0:0:0:
320,192,76934,1,0,0:0:0:0:
448,192,77015,1,0,0:0:0:70:LR3_HiHat Normal.wav
64,192,77177,1,0,0:0:0:70:soft-hitwhistle.wav
192,192,77177,1,0,0:0:0:0:
320,192,77339,1,0,0:0:0:70:LR3_HiHat Normal.wav
320,192,77420,1,0,0:0:0:0:
448,192,77501,1,0,0:0:0:70:soft-hitwhistle.wav
64,192,77501,1,0,0:0:0:0:
192,192,77501,1,0,0:0:0:0:
320,192,77664,1,0,0:0:0:70:LR3_HiHat Normal.wav
64,192,77826,1,0,0:0:0:70:soft-hitwhistle.wav
448,192,77826,1,0,0:0:0:0:
192,192,77907,1,0,0:0:0:0:
64,192,77988,1,0,0:0:0:70:LR3_HiHat Normal.wav
320,192,77988,1,0,0:0:0:0:
448,192,78150,1,0,0:0:0:70:soft-hitfinish.wav
192,192,78150,1,0,0:0:0:0:
64,192,78474,1,0,0:0:0:100:LR4_KickTBCRs.wav
448,192,78474,1,0,0:0:0:0:
320,192,78474,128,0,78799:0:0:0:0:
64,192,78636,1,0,0:0:0:70:LR3_HiHat Normal.wav
448,192,78799,1,0,0:0:0:70:soft-hitwhistle.wav
192,192,78799,1,0,0:0:0:0:
448,192,78961,1,0,0:0:0:70:LR3_HiHat Normal.wav
320,192,79042,1,0,0:0:0:0:
64,192,79123,1,0,0:0:0:70:soft-hitwhistle.wav
192,192,79123,1,0,0:0:0:0:
448,192,79285,1,0,0:0:0:70:LR3_HiHat Normal.wav
320,192,79366,1,0,0:0:0:0:
64,192,79447,1,0,0:0:0:70:soft-hitwhistle.wav
448,192,79447,1,0,0:0:0:0:
192,192,79447,1,0,0:0:0:0:
320,192,79528,1,0,0:0:0:0:
64,192,79609,1,0,0:0:0:70:LR3_HiHat Normal.wav
192,192,79691,1,0,0:0:0:0:
448,192,79772,1,0,0:0:0:70:soft-hitwhistle.wav
320,192,79772,1,0,0:0:0:0:
192,192,79934,1,0,0:0:0:70:LR3_HiHat Normal.wav
320,192,80015,1,0,0:0:0:0:
64,192,80096,1,0,0:0:0:70:soft-hitwhistle.wav
192,192,80096,1,0,0:0:0:0:
448,192,80096,128,0,80258:0:0:0:0:
64,192,80258,128,0,80420:0:0:0:70:LR3_HiHat Normal.wav
448,192,80420,128,0,80745:0:0:0:70:soft-hitwhistle.wav
320,192,80420,1,0,0:0:0:0:
64,192,80582,1,0,0:0:0:70:LR3_HiHat Normal.wav
192,192,80745,128,0,81069:0:0:0:70:soft-hitfinish.wav
320,192,80745,1,0,0:0:0:0:
320,192,81069,1,0,0:0:0:100:LR4_KickTBCRs.wav
64,192,81069,1,0,0:0:0:0:
448,192,81069,1,0,0:0:0:0:
192,192,81231,1,0,0:0:0:70:LR3_HiHat Normal.wav
64,192,81393,1,0,0:0:0:70:soft-hitwhistle.wav
320,192,81393,1,0,0:0:0:0:
448,192,81393,1,0,0:0:0:0:
192,192,81474,1,0,0:0:0:0:
448,192,81555,1,0,0:0:0:70:LR3_HiHat Normal.wav
320,192,81555,1,0,0:0:0:0:
192,192,81636,1,0,0:0:0:0:
64,192,81718,1,0,0:0:0:70:soft-hitwhistle.wav
448,192,81718,1,0,0:0:0:0:
192,192,81880,1,0,0:0:0:70:LR3_HiHat Normal.wav
320,192,81880,1,0,0:0:0:0:
192,192,82042,1,0,0:0:0:70:soft-hitwhistle.wav
64,192,82042,1,0,0:0:0:0:
320,192,82042,1,0,0:0:0:0:
448,192,82204,1,0,0:0:0:70:LR3_HiHat Normal.wav
64,192,82204,1,0,0:0:0:0:
320,192,82285,1,0,0:0:0:0:
192,192,82366,1,0,0:0:0:70:soft-hitfinish.wav
64,192,82366,1,0,0:0:0:0:
448,192,82528,1,0,0:0:0:0:
320,192,82528,1,0,0:0:0:0:
64,192,82691,128,0,83015:0:0:0:70:soft-hitfinish.wav
192,192,82691,1,0,0:0:0:0:
448,192,82853,1,0,0:0:0:0:
192,192,83015,1,0,0:0:0:0:
448,192,83177,128,0,83258:0:0:0:0:
64,192,83258,128,0,83339:0:0:0:0:
192,192,83339,128,0,83420:0:0:0:0:
320,192,83501,1,0,0:0:0:0:
192,192,83664,1,0,0:0:0:100:LR4_KickTBCRs.wav
64,192,83664,1,0,0:0:0:70:cymbal clap.wav
448,192,83664,1,0,0:0:0:0:
320,192,83745,1,0,0:0:0:0:
64,192,83826,1,0,0:0:0:70:LR_Hat Normal.wav
192,192,83907,1,0,0:0:0:0:
64,192,83988,1,0,0:0:0:70:SNARE2.wav
320,192,83988,1,0,0:0:0:0:
448,192,83988,1,0,0:0:0:0:
192,192,84150,1,0,0:0:0:70:LR_Hat Normal.wav
320,192,84231,1,0,0:0:0:0:
448,192,84312,1,0,0:0:0:70:soft-hitwhistle.wav
64,192,84312,1,0,0:0:0:0:
192,192,84393,1,0,0:0:0:0:
320,192,84474,1,0,0:0:0:70:LR_Hat Normal.wav
192,192,84555,1,0,0:0:0:0:
448,192,84636,1,0,0:0:0:70:SNARE2.wav
64,192,84636,1,0,0:0:0:0:
320,192,84636,1,0,0:0:0:0:
192,192,84718,1,0,0:0:0:0:
448,192,84799,1,0,0:0:0:70:LR_Hat Normal.wav
320,192,84880,1,0,0:0:0:0:
192,192,84961,1,0,0:0:0:70:soft-hitwhistle.wav
64,192,84961,1,0,0:0:0:0:
448,192,85123,1,0,0:0:0:70:LR_Hat Normal.wav
320,192,85204,1,0,0:0:0:0:
448,192,85285,1,0,0:0:0:70:SNARE2.wav
64,192,85285,1,0,0:0:0:0:
192,192,85339,1,0,0:0:0:0:
320,192,85393,1,0,0:0:0:0:
64,192,85447,1,0,0:0:0:70:LR_Hat Normal.wav
192,192,85528,1,0,0:0:0:0:
320,192,85609,1,0,0:0:0:70:soft-hitwhistle.wav
448,192,85609,1,0,0:0:0:0:
64,192,85664,1,0,0:0:0:0:
448,192,85772,1,0,0:0:0:70:LR_Hat Normal.wav
320,192,85853,1,0,0:0:0:0:
192,192,85934,1,0,0:0:0:70:LR4_KickTBCRs.wav
64,192,85934,1,0,0:0:0:0:
448,192,85934,1,0,0:0:0:0:
320,192,86258,1,0,0:0:0:100:LR4_KickTBCRs.wav
64,192,86258,1,0,0:0:0:0:
448,192,86258,1,0,0:0:0:0:
192,192,86420,1,0,0:0:0:70:LR_Hat Normal.wav
320,192,86501,1,0,0:0:0:0:
64,192,86582,1,0,0:0:0:70:SNARE2.wav
448,192,86582,1,0,0:0:0:0:
192,192,86582,1,0,0:0:0:0:
320,192,86745,1,0,0:0:0:70:LR_Hat Normal.wav
448,192,86907,1,0,0:0:0:70:soft-hitwhistle.wav
192,192,86907,1,0,0:0:0:0:
64,192,86947,1,0,0:0:0:0:
320,192,87069,1,0,0:0:0:70:LR_Hat Normal.wav
192,192,87150,1,0,0:0:0:0:
320,192,87231,1,0,0:0:0:70:SNARE2.wav
64,192,87231,1,0,0:0:0:0:
448,192,87231,1,0,0:0:0:0:
192,192,87312,1,0,0:0:0:0:
64,192,87393,1,0,0:0:0:70:LR_Hat Normal.wav
448,192,87474,1,0,0:0:0:0:
192,192,87555,1,0,0:0:0:70:soft-hitwhistle.wav
320,192,87555,1,0,0:0:0:0:
64,192,87609,1,0,0:0:0:0:
448,192,87718,1,0,0:0:0:70:LR_Hat Normal.wav
320,192,87772,1,0,0:0:0:0:
192,192,87826,1,0,0:0:0:0:
448,192,87880,1,0,0:0:0:70:SNARE2.wav
64,192,87880,1,0,0:0:0:0:
320,192,87961,1,0,0:0:0:0:
64,192,88042,1,0,0:0:0:70:LR_Hat Normal.wav
192,192,88123,1,0,0:0:0:0:
448,192,88204,1,0,0:0:0:70:soft-hitwhistle.wav
320,192,88204,1,0,0:0:0:0:
64,192,88366,1,0,0:0:0:70:LR_Hat Normal.wav
192,192,88366,1,0,0:0:0:0:
320,192,88528,128,0,88691:0:0:0:70:LR4_KickTBCRs.wav
448,192,88528,1,0,0:0:0:0:
192,192,88691,128,0,88853:0:0:0:0:
64,192,88853,1,0,0:0:0:100:LR4_KickTBCRs.wav
448,192,88853,1,0,0:0:0:0:
320,192,89015,1,0,0:0:0:70:LR_Hat Normal.wav
64,192,89177,1,0,0:0:0:70:SNARE2.wav
448,192,89177,1,0,0:0:0:0:
192,192,89177,1,0,0:0:0:0:
320,192,89339,1,0,0:0:0:70:LR_Hat Normal.wav
192,192,89420,1,0,0:0:0:0:
448,192,89501,1,0,0:0:0:70:soft-hitwhistle.wav
64,192,89501,1,0,0:0:0:0:
192,192,89664,1,0,0:0:0:70:LR_Hat Normal.wav
320,192,89745,1,0,0:0:0:0:
448,192,89826,1,0,0:0:0:70:SNARE2.wav
64,192,89826,1,0,0:0:0:0:
192,192,89826,1,0,0:0:0:0:
320,192,89907,1,0,0:0:0:0:
448,192,89988,1,0,0:0:0:70:LR_Hat Normal.wav
320,192,90150,1,0,0:0:0:70:soft-hitwhistle.wav
448,192,90150,1,0,0:0:0:0:
192,192,90231,1,0,0:0:0:0:
64,192,90312,1,0,0:0:0:70:LR_Hat Normal.wav
320,192,90393,1,0,0:0:0:0:
448,192,90474,1,0,0:0:0:70:SNARE2.wav
192,192,90474,1,0,0:0:0:0:
64,192,90474,1,0,0:0:0:0:
320,192,90555,1,0,0:0:0:0:
64,192,90636,1,0,0:0:0:70:LR_Hat Normal.wav
192,192,90691,1,0,0:0:0:0:
448,192,90799,1,0,0:0:0:70:soft-hitwhistle.wav
320,192,90799,1,0,0:0:0:0:
192,192,90961,1,0,0:0:0:70:LR_Hat Normal.wav
448,192,91123,1,0,0:0:0:70:LR4_KickTBCRs.wav
320,192,91123,1,0,0:0:0:0:
64,192,91123,1,0,0:0:0:0:
448,192,91447,1,0,0:0:0:100:LR4_KickTBCRs.wav
192,192,91447,1,0,0:0:0:0:
64,192,91447,1,0,0:0:0:0:
320,192,91609,1,0,0:0:0:70:LR_Hat Normal.wav
448,192,91691,1,0,0:0:0:0:
320,192,91772,1,0,0:0:0:70:SNARE2.wav
64,192,91772,1,0,0:0:0:0:
192,192,91772,1,0,0:0:0:0:
448,192,91853,1,0,0:0:0:0:
192,192,91934,1,0,0:0:0:70:LR_Hat Normal.wav
320,192,92015,1,0,0:0:0:0:
192,192,92096,1,0,0:0:0:70:soft-hitwhistle.wav
64,192,92096,1,0,0:0:0:0:
448,192,92258,1,0,0:0:0:70:LR_Hat Normal.wav
320,192,92339,1,0,0:0:0:0:
192,192,92420,1,0,0:0:0:70:SNARE2.wav
64,192,92420,1,0,0:0:0:0:
320,192,92474,1,0,0:0:0:0:
448,192,92528,1,0,0:0:0:0:
64,192,92582,1,0,0:0:0:70:LR_Hat Normal.wav
192,192,92664,1,0,0:0:0:0:
448,192,92745,1,0,0:0:0:70:soft-hitwhistle.wav
320,192,92745,1,0,0:0:0:0:
64,192,92826,1,0,0:0:0:0:
192,192,92907,1,0,0:0:0:70:LR_Hat Normal.wav
320,192,92988,1,0,0:0:0:0:
64,192,93069,1,0,0:0:0:70:LR4_KickTBCRs.wav
192,192,93069,1,0,0:0:0:0:
448,192,93123,1,0,0:0:0:0:
320,192,93177,1,0,0:0:0:0:
192,192,93231,1,0,0:0:0:70:LR_Hat Normal.wav
64,192,93312,1,0,0:0:0:0:
448,192,93393,1,0,0:0:0:35:soft-hitwhistle.wav
320,192,93393,1,0,0:0:0:35:LR_Hat Normal.wav
192,192,93474,1,0,0:0:0:35:LR_Hat Normal.wav
64,192,93474,1,0,0:0:0:35:soft-hitwhistle.wav
448,192,93555,1,0,0:0:0:35:LR_Hat Normal.wav
320,192,93555,1,0,0:0:0:35:soft-hitwhistle.wav
192,192,93636,1,0,0:0:0:35:LR_Hat Normal.wav
64,192,93636,1,0,0:0:0:35:soft-hitwhistle.wav
64,192,93718,128,0,95339:0:0:0:70:LR4_KickTBCRs.wav
448,192,93718,128,0,95339:0:0:0:0:
320,192,93718,128,0,95339:0:0:0:0:
