osu file format v14

[General]
AudioFilename: audio.mp3
AudioLeadIn: 0
PreviewTime: 62907
Countdown: 0
SampleSet: Soft
StackLeniency: 0.5
Mode: 0
LetterboxInBreaks: 0
WidescreenStoryboard: 0

[Editor]
Bookmarks: 20096,52528,57718,93718
DistanceSpacing: 1.2
BeatDivisor: 4
GridSize: 4
TimelineZoom: 1.700001

[Metadata]
Title:TSLove
TitleUnicode:TSLove
Artist:O2i3
ArtistUnicode:O2i3
Creator:Fanteer
Version:Namki's Advanced
Source:
Tags:records happy hardcore kirara Namki DefendeRDjulus marvollo m_a_r_v_o_l_l_o shmiklak
BeatmapID:1315311
BeatmapSetID:620910

[Difficulty]
HPDrainRate:3.4
CircleSize:3.5
OverallDifficulty:3.6
ApproachRate:6
SliderMultiplier:1.25
SliderTickRate:1

[Events]
//Background and Video events
0,0,"bg.png",0,0
//Break Periods
2,42350,46139
//Storyboard Layer 0 (Background)
//Storyboard Layer 1 (Fail)
//Storyboard Layer 2 (Pass)
//Storyboard Layer 3 (Foreground)
//Storyboard Sound Samples

[TimingPoints]
637,324.324324324324,4,2,1,70,1,0
16204,-100,4,2,1,80,0,0
19447,-100,4,2,1,50,0,0
19609,-100,4,2,1,50,0,0
21393,-90.9090909090909,4,2,1,90,0,1
31123,-100,4,2,1,90,0,0
31772,-90.9090909090909,4,2,1,90,0,1
41501,-100,4,2,1,90,0,0
42150,-100,4,2,1,70,0,0
52528,-100,4,2,1,70,0,0
57718,-100,4,2,1,80,0,0
60961,-100,4,2,1,50,0,0
61123,-100,4,2,1,50,0,0
62907,-90.9090909090909,4,2,1,90,0,1
72636,-100,4,2,1,90,0,0
73285,-90.9090909090909,4,2,1,90,0,1
80745,-90.9090909090909,4,2,1,90,0,1
81069,-90.9090909090909,4,2,1,90,0,1
83015,-100,4,2,1,90,0,0
83664,-100,4,2,1,80,0,0
91123,-100,4,2,1,80,0,0
91447,-100,4,2,1,80,0,0
93069,-100,4,2,1,80,0,0
93231,-100,4,2,1,80,0,0
93718,-100,4,2,1,80,0,0

[Colours]
Combo1 : 73,148,148
Combo2 : 174,0,0
Combo3 : 210,216,5
Combo4 : 221,111,0
Combo5 : 60,60,255
Combo6 : 0,217,217
Combo7 : 170,0,170
Combo8 : 146,146,201

[HitObjects]
186,165,637,6,0,P|120:154|55:142,2,125,2|0|2,0:0|0:0|0:0,0:0:0:0:
302,118,1609,1,0,0:0:0:0:
380,216,1934,2,0,P|441:227|503:237,2,125,2|0|2,0:0|0:0|0:0,0:0:0:0:
307,321,2907,1,0,0:0:0:0:
184,292,3231,6,0,P|136:278|55:314,1,125,2|0,0:0|0:0,0:0:0:0:
56,176,3880,2,0,P|112:199|172:186,1,125,2|0,0:0|0:0,0:0:0:0:
280,124,4528,2,0,L|266:-5,1,125,2|0,0:0|0:0,0:0:0:0:
372,68,5177,2,0,L|358:192,1,125,2|0,0:0|0:0,0:0:0:0:
416,240,5664,6,0,P|456:231|489:231,1,62.5,2|2,3:0|0:0,0:0:0:0:
424,344,6150,1,0,0:0:0:0:
424,344,6474,2,0,L|274:339,1,125,2|0,0:0|0:0,0:0:0:0:
176,356,7123,2,0,P|123:330|126:253,1,125,2|0,0:0|0:0,0:0:0:0:
167,158,7772,1,2,0:0:0:0:
286,194,8096,1,0,0:0:0:0:
407,163,8420,6,0,L|394:28,2,125,2|0|2,0:0|0:0|0:0,0:0:0:0:
491,255,9393,1,0,0:0:0:0:
386,323,9718,2,0,P|340:329|275:284,1,125,2|0,0:0|0:0,0:0:0:0:
154,262,10366,2,0,P|108:256|51:314,1,125,2|2,0:0|3:0,0:0:0:0:
124,330,10853,2,0,L|192:330,1,62.5,0|2,0:0|3:0,0:0:0:0:
311,328,11339,5,2,0:0:0:0:
311,328,11664,1,2,3:3:0:0:
435,335,11988,1,2,0:0:0:0:
435,335,12312,2,0,L|420:200,1,125,2|2,3:0|0:0,0:0:0:0:
440,87,12961,2,0,P|397:131|315:122,1,125,2|2,3:0|0:0,0:0:0:0:
235,60,13609,6,0,L|89:52,1,125,2|2,3:0|0:0,0:0:0:0:
25,145,14258,1,2,3:0:0:0:
25,145,14582,1,2,0:0:0:0:
109,237,14907,6,0,P|154:222|183:142,2,125,8|8|8,0:0|0:3|0:3,0:0:0:0:
36,338,15880,1,8,0:3:0:0:
155,374,16204,6,0,L|147:303,2,62.5,8|8|8,0:0|0:3|0:0,0:0:0:0:
274,335,16853,2,0,L|282:264,2,62.5,8|8|8,0:0|0:3|0:0,0:0:0:0:
385,278,17501,2,0,L|376:199,1,62.5,8|8,0:0|0:3,0:0:0:0:
372,140,17826,1,8,0:0:0:0:
281,54,18150,2,0,L|273:116,1,62.5,8|8,0:0|0:3,0:0:0:0:
256,188,18474,1,8,0:0:0:0:
286,309,18799,6,0,B|217:319|217:319|165:303|165:303|81:318,1,187.5,8|8,0:0|0:3,0:0:0:0:
45,362,19447,2,0,P|67:307|20:254,2,125,0|8|2,0:0|0:0|0:1,0:0:0:0:
111,235,21393,6,0,P|180:233|270:232,1,137.500004196167,4|8,0:0|0:0,0:0:0:0:
327,207,21880,1,2,0:0:0:0:
309,287,22042,2,0,P|279:305|221:307,2,68.7500020980836,8|2|8,3:3|0:0|0:0,0:0:0:0:
429,219,22691,6,0,L|421:142,1,68.7500020980836,4|2,0:0|0:0,0:0:0:0:
339,147,23015,2,0,L|331:70,1,68.7500020980836,8|2,0:0|0:0,0:0:0:0:
270,23,23339,2,0,P|213:17|164:93,1,137.500004196167,8|4,0:3|0:3,0:0:0:0:
190,209,23988,6,0,L|114:200,1,68.7500020980836,4|0,0:0|0:0,0:0:0:0:
49,161,24312,1,8,0:0:0:0:
44,243,24474,1,2,0:0:0:0:
38,325,24636,2,0,P|80:342|111:346,1,68.7500020980836,8|2,3:0|0:0,0:0:0:0:
179,313,24961,2,0,P|210:298|243:292,1,68.7500020980836,8|2,0:0|0:0,0:0:0:0:
321,318,25285,6,0,L|313:389,2,68.7500020980836,4|2|8,0:0|0:0|0:0,0:0:0:0:
457,300,25934,1,8,3:0:0:0:
503,231,26096,2,0,P|493:199|492:159,1,68.7500020980836,2|4,0:0|0:3,0:0:0:0:
503,27,26582,6,0,P|469:66|367:75,1,137.500004196167,4|8,0:0|0:0,0:0:0:0:
322,30,27069,1,2,0:0:0:0:
310,111,27231,2,0,P|308:146|303:193,2,68.7500020980836,8|2|8,3:0|0:0|0:0,0:0:0:0:
189,178,27880,6,0,L|110:174,1,68.7500020980836,4|2,0:0|0:0,0:0:0:0:
103,255,28204,2,0,L|182:251,1,68.7500020980836,8|2,0:0|0:0,0:0:0:0:
240,297,28528,2,0,L|394:286,1,137.500004196167,8|4,0:3|0:3,0:0:0:0:
498,353,29177,6,0,P|485:302|482:278,1,68.7500020980836,4|0,0:0|0:0,0:0:0:0:
494,204,29501,2,0,P|503:170|509:137,1,68.7500020980836,8|2,0:0|0:0,0:0:0:0:
496,55,29826,1,8,3:0:0:0:
418,82,29988,1,2,0:0:0:0:
343,47,30150,1,8,0:0:0:0:
230,125,30474,6,0,L|246:263,1,137.500004196167,4|4,0:3|0:3,0:0:0:0:
138,326,31123,2,0,P|146:298|190:272,2,62.5,4|4|4,0:3|0:3|0:3,0:0:0:0:
211,340,31609,1,4,0:3:0:0:
289,367,31772,6,0,L|436:359,1,137.500004196167,4|8,0:0|0:0,0:0:0:0:
490,307,32258,1,2,0:0:0:0:
440,240,32420,2,0,P|401:232|362:227,1,68.7500020980836,8|2,3:3|0:0,0:0:0:0:
316,166,32745,2,0,P|281:170|248:177,1,68.7500020980836,8|2,0:0|0:0,0:0:0:0:
190,237,33069,6,0,P|133:235|95:143,1,137.500004196167,4|8,0:0|0:0,0:0:0:0:
123,97,33555,1,2,0:0:0:0:
123,97,33718,2,0,L|267:105,1,137.500004196167,8|4,0:3|0:3,0:0:0:0:
392,68,34366,6,0,L|387:144,1,68.7500020980836,4|0,0:0|0:0,0:0:0:0:
458,179,34691,1,8,0:0:0:0:
469,260,34853,1,2,0:0:0:0:
484,340,35015,2,0,P|449:355|406:354,1,68.7500020980836,8|2,3:0|0:0,0:0:0:0:
354,305,35339,2,0,P|322:290|288:288,1,68.7500020980836,8|2,0:0|0:0,0:0:0:0:
208,306,35664,6,0,L|218:381,2,68.7500020980836,4|2|8,0:0|0:0|0:0,0:0:0:0:
79,257,36312,1,8,3:0:0:0:
23,196,36474,2,0,P|24:163|31:122,1,68.7500020980836,2|4,0:0|0:3,0:0:0:0:
106,13,36961,6,0,P|168:12|218:81,1,137.500004196167,4|8,0:0|0:0,0:0:0:0:
193,144,37447,1,2,0:0:0:0:
273,120,37609,2,0,P|308:117|361:120,1,68.7500020980836,8|2,3:0|0:0,0:0:0:0:
405,170,37934,2,0,P|408:205|405:258,1,68.7500020980836,8|2,0:0|0:0,0:0:0:0:
332,273,38258,6,0,L|336:348,1,68.7500020980836,4|2,0:0|0:0,0:0:0:0:
252,340,38582,2,0,L|256:268,1,68.7500020980836,8|2,0:0|0:0,0:0:0:0:
188,224,38907,2,0,L|202:72,1,137.500004196167,8|4,0:3|0:3,0:0:0:0:
76,28,39555,6,0,P|49:71|19:93,1,68.7500020980836,4|0,0:0|0:0,0:0:0:0:
37,165,39880,2,0,P|53:195|77:219,1,68.7500020980836,8|2,0:0|0:0,0:0:0:0:
94,300,40204,1,8,3:0:0:0:
175,289,40366,1,2,0:0:0:0:
256,276,40528,1,8,0:0:0:0:
371,351,40853,6,0,L|378:187,1,137.500004196167,4|4,0:3|0:3,0:0:0:0:
292,124,41501,1,8,0:0:0:0:
376,32,41826,1,8,0:0:0:0:
468,116,42150,5,2,0:0:0:0:
256,192,47339,12,2,51231,0:0:0:0:
196,208,52528,6,0,L|192:144,2,62.5,2|0|2,3:0|0:0|0:0,0:0:0:0:
311,255,53177,2,0,L|327:131,1,125,2|2,3:0|0:0,0:0:0:0:
416,219,53826,2,0,P|431:271|390:333,1,125,2|2,3:0|0:0,0:0:0:0:
273,351,54474,2,0,L|204:338,1,62.5,2|0,3:0|0:0,0:0:0:0:
136,350,54799,1,2,0:0:0:0:
34,276,55123,6,0,P|6:227|34:156,1,125,2|2,3:0|0:0,0:0:0:0:
117,80,55772,2,0,L|193:87,2,62.5,2|0|2,3:0|0:0|0:0,0:0:0:0:
213,159,56420,2,0,L|150:164,2,62.5,8|0|8,0:0|0:0|0:0,0:0:0:0:
319,224,57069,2,0,L|449:212,1,125,8|8,0:0|0:0,0:0:0:0:
398,328,57718,6,0,P|365:326|338:301,2,62.5,8|8|8,0:0|0:3|0:0,0:0:0:0:
274,346,58366,2,0,P|249:364|218:365,2,62.5,8|8|8,0:0|0:3|0:0,0:0:0:0:
178,265,59015,2,0,L|180:186,1,62.5,8|8,0:0|0:3,0:0:0:0:
184,127,59339,1,8,0:0:0:0:
39,170,59664,2,0,L|37:91,1,62.5,8|8,0:0|0:0,0:0:0:0:
33,32,59988,1,8,0:0:0:0:
147,81,60312,6,0,P|122:136|226:191,1,187.5,8|8,0:0|0:3,0:0:0:0:
254,136,60961,2,0,B|310:134|310:134|328:141|328:141|391:138,2,125,8|8|2,0:0|0:0|0:0,0:0:0:0:
470,287,62907,6,0,L|332:294,1,137.500004196167,4|8,0:0|0:0,0:0:0:0:
259,332,63393,1,2,0:0:0:0:
210,265,63555,2,0,L|216:182,1,68.7500020980836,8|2,3:3|0:0,0:0:0:0:
293,171,63880,2,0,L|287:88,1,68.7500020980836,8|2,0:0|0:0,0:0:0:0:
242,34,64204,6,0,P|151:18|109:70,1,137.500004196167,4|8,0:0|0:0,0:0:0:0:
70,108,64691,1,2,0:0:0:0:
70,108,64853,2,0,L|76:252,1,137.500004196167,8|4,0:3|0:3,0:0:0:0:
16,369,65501,6,0,P|65:350|97:351,1,68.7500020980836,4|0,0:0|0:0,0:0:0:0:
161,367,65826,1,8,0:0:0:0:
157,284,65988,1,2,0:0:0:0:
149,201,66150,2,0,L|219:204,1,68.7500020980836,8|2,3:0|0:0,0:0:0:0:
274,144,66474,2,0,L|344:147,1,68.7500020980836,8|2,0:0|0:0,0:0:0:0:
420,176,66799,6,0,P|458:159|474:124,2,68.7500020980836,4|2|8,0:0|0:0|0:0,0:0:0:0:
335,284,67447,1,8,3:0:0:0:
259,251,67609,2,0,L|178:253,1,68.7500020980836,2|4,0:0|0:3,0:0:0:0:
80,336,68096,6,0,L|60:196,1,137.500004196167,4|8,0:0|0:0,0:0:0:0:
23,126,68582,1,2,0:0:0:0:
105,133,68745,2,0,P|165:144|198:147,1,68.7500020980836,8|2,3:0|0:0,0:0:0:0:
240,97,69069,2,0,P|273:89|307:85,1,68.7500020980836,8|2,0:0|0:0,0:0:0:0:
379,125,69393,6,0,L|373:214,1,68.7500020980836,4|2,0:0|0:0,0:0:0:0:
321,257,69718,2,0,L|325:325,1,68.7500020980836,8|2,0:0|0:0,0:0:0:0:
254,366,70042,2,0,P|196:364|149:288,1,137.500004196167,8|4,0:3|0:3,0:0:0:0:
55,204,70691,6,0,P|68:172|70:127,1,68.7500020980836,4|0,0:0|0:0,0:0:0:0:
133,84,71015,2,0,P|120:52|116:18,1,68.7500020980836,8|2,0:0|0:0,0:0:0:0:
198,30,71339,1,8,3:0:0:0:
280,26,71501,1,2,0:0:0:0:
362,20,71664,1,8,0:0:0:0:
467,107,71988,6,0,L|307:97,1,137.500004196167,4|4,0:3|0:3,0:0:0:0:
261,203,72636,2,0,P|315:182|331:159,2,62.5,4|4|4,0:3|0:3|0:3,0:0:0:0:
261,127,73123,1,4,0:3:0:0:
238,47,73285,6,0,L|100:43,1,137.500004196167,4|8,0:0|0:0,0:0:0:0:
18,29,73772,1,2,0:0:0:0:
44,106,73934,2,0,P|74:123|125:120,2,68.7500020980836,8|2|8,3:3|0:0|0:0,0:0:0:0:
150,192,74582,6,0,L|155:277,1,68.7500020980836,4|2,0:0|0:0,0:0:0:0:
225,302,74907,2,0,L|229:233,1,68.7500020980836,8|2,0:0|0:0,0:0:0:0:
273,164,75231,2,0,P|320:152|382:224,1,137.500004196167,8|4,0:3|0:3,0:0:0:0:
465,316,75880,6,0,L|463:239,1,68.7500020980836,4|0,0:0|0:0,0:0:0:0:
503,175,76204,1,8,0:0:0:0:
510,92,76366,1,2,0:0:0:0:
506,9,76528,2,0,P|458:17|434:21,1,68.7500020980836,8|2,3:0|0:0,0:0:0:0:
371,69,76853,2,0,P|351:65|303:57,1,68.7500020980836,8|2,0:0|0:0,0:0:0:0:
220,55,77177,6,0,P|189:75|167:118,2,68.7500020980836,4|2|8,0:0|0:0|0:0,0:0:0:0:
212,192,77826,1,8,3:0:0:0:
151,248,77988,2,0,L|54:242,1,68.7500020980836,2|4,0:0|0:3,0:0:0:0:
176,344,78474,6,0,L|316:338,1,137.500004196167,4|8,0:0|0:0,0:0:0:0:
393,360,78961,1,2,0:0:0:0:
459,311,79123,2,0,L|448:233,2,68.7500020980836,8|2|8,3:0|0:0|0:0,0:0:0:0:
379,198,79772,6,0,L|310:194,1,68.7500020980836,4|2,0:0|0:0,0:0:0:0:
292,114,80096,2,0,L|223:110,1,68.7500020980836,8|2,0:0|0:0,0:0:0:0:
157,160,80420,2,0,L|19:169,1,137.500004196167,8|4,0:3|0:3,0:0:0:0:
10,306,81069,6,0,P|71:292|89:277,1,68.7500020980836,4|0,0:0|0:0,0:0:0:0:
156,274,81393,2,0,P|190:276|221:290,1,68.7500020980836,8|2,0:0|0:0,0:0:0:0:
283,345,81718,1,8,3:0:0:0:
365,340,81880,1,2,0:0:0:0:
447,334,82042,1,8,0:0:0:0:
510,220,82366,6,0,L|354:201,1,137.500004196167,4|4,0:3|0:3,0:0:0:0:
284,115,83015,2,0,P|272:68|268:35,2,62.5,0|0|0,0:0|0:0|0:0,0:0:0:0:
273,189,83501,1,0,0:0:0:0:
246,259,83664,6,0,L|119:253,1,125,4|8,0:0|0:0,0:0:0:0:
29,167,84312,2,0,L|156:161,1,125,8|8,0:3|0:0,0:0:0:0:
244,74,84961,2,0,P|314:70|359:121,1,125,4|8,0:0|0:0,0:0:0:0:
325,226,85609,2,0,P|321:268|322:299,2,62.5,8|2|8,0:3|0:0|0:0,0:0:0:0:
430,158,86258,6,0,P|426:200|427:231,2,62.5,4|2|8,0:0|0:0|0:0,0:0:0:0:
499,262,86907,2,0,L|505:391,1,125,8|8,0:3|0:0,0:0:0:0:
381,368,87555,2,0,P|383:320|385:297,1,62.5,4|2,0:0|0:0,0:0:0:0:
318,269,87880,2,0,P|316:221|314:198,1,62.5,8|2,0:0|0:0,0:0:0:0:
272,145,88204,2,0,P|222:151|167:98,1,125,8|8,0:3|0:0,0:0:0:0:
52,149,88853,6,0,L|44:288,1,125,4|8,0:0|0:0,0:0:0:0:
142,346,89501,2,0,L|134:221,1,125,8|8,0:3|0:0,0:0:0:0:
248,273,90150,2,0,P|297:303|382:278,1,125,4|8,0:0|0:0,0:0:0:0:
418,182,90799,2,0,L|403:109,2,62.5,8|2|8,0:3|0:0|0:0,0:0:0:0:
303,132,91447,6,0,L|318:59,2,62.5,4|2|8,0:0|0:0|0:0,0:0:0:0:
196,197,92096,2,0,L|189:69,1,125,8|8,0:3|0:0,0:0:0:0:
76,18,92745,6,0,P|57:61|52:86,1,62.5,4|2,0:0|0:0,0:0:0:0:
67,149,93069,2,0,P|80:176|89:206,1,62.5,8|2,0:0|0:0,0:0:0:0:
41,264,93393,2,0,P|94:244|174:265,1,125,2|4,3:0|0:0,0:0:0:0:
