osu file format v14

[General]
AudioFilename: audio.mp3
AudioLeadIn: 0
PreviewTime: 62907
Countdown: 0
SampleSet: Soft
StackLeniency: 0.5
Mode: 0
LetterboxInBreaks: 0
WidescreenStoryboard: 1

[Editor]
Bookmarks: 20096,57718,93718
DistanceSpacing: 1.3
BeatDivisor: 2
GridSize: 4
TimelineZoom: 0.5999995

[Metadata]
Title:TSLove
TitleUnicode:TSLove
Artist:O2i3
ArtistUnicode:O2i3
Creator:Fanteer
Version:M a r v o l l o's Simple
Source:
Tags:records happy hardcore kirara Namki DefendeRDjulus marvollo m_a_r_v_o_l_l_o shmiklak
BeatmapID:1362413
BeatmapSetID:620910

[Difficulty]
HPDrainRate:2
CircleSize:2.5
OverallDifficulty:2
ApproachRate:2
SliderMultiplier:0.6
SliderTickRate:1

[Events]
//Background and Video events
0,0,"bg.png",0,0
//Break Periods
2,42350,50968
//Storyboard Layer 0 (Background)
//Storyboard Layer 1 (Fail)
//Storyboard Layer 2 (Pass)
//Storyboard Layer 3 (Foreground)
//Storyboard Sound Samples

[TimingPoints]
637,324.324324324324,4,2,1,50,1,0
637,-90.9090909090908,4,2,1,50,0,0
19447,-55.5555555555556,4,2,1,50,0,0
19609,-111.111111111111,4,2,1,50,0,0
21393,-83.3333333333333,4,2,1,50,0,1
31772,-83.3333333333333,4,2,1,50,0,1
41501,-83.3333333333333,4,2,1,50,0,0
42231,-111.111111111111,4,2,1,50,0,0
52528,-90.9090909090909,4,2,1,50,0,0
62907,-83.3333333333333,4,2,1,50,0,1
73285,-83.3333333333333,4,2,1,50,0,1
80745,-166.666666666667,4,2,1,50,0,1
81069,-83.3333333333333,4,2,1,50,0,1
83015,-83.3333333333333,4,2,1,50,0,0
83664,-90.9090909090909,4,2,1,50,0,0
93718,-90.9090909090909,4,2,1,50,0,0

[Colours]
Combo1 : 73,148,148
Combo2 : 174,0,0
Combo3 : 210,216,5
Combo4 : 221,111,0
Combo5 : 60,60,255
Combo6 : 0,217,217
Combo7 : 170,0,170
Combo8 : 146,146,201

[HitObjects]
44,52,637,6,0,P|108:42|184:36,1,132.00000402832,2|2,0:0|0:0,0:0:0:0:
212,164,1934,2,0,P|148:154|72:148,1,132.00000402832,2|2,0:0|0:0,0:0:0:0:
16,264,3231,2,0,P|147:267|284:244,1,264.000008056641,2|2,0:0|0:0,0:0:0:0:
372,156,5177,1,2,0:0:0:0:
278,62,5826,6,0,P|212:55|142:58,1,132.00000402832,2|2,0:0|0:0,0:0:0:0:
60,156,7123,2,0,P|125:149|196:152,1,132.00000402832,2|2,0:0|0:0,0:0:0:0:
277,245,8420,2,0,P|150:242|13:237,1,264.000008056641,2|2,0:0|0:0,0:0:0:0:
108,328,10366,1,2,0:0:0:0:
240,348,11015,6,0,P|370:342|512:332,1,264.000008056641,2|2,3:0|3:0,0:0:0:0:
316,146,13609,2,0,P|186:140|44:130,1,264.000008056641,2|8,3:0|0:0,0:0:0:0:
256,192,16204,12,2,20096,0:1:0:0:
396,60,21393,6,0,P|392:133|384:204,1,143.999995605469,4|8,0:0|3:3,0:0:0:0:
300,320,22691,2,0,B|194:345|194:345|82:305,1,215.999993408203,4|4,0:0|0:3,0:0:0:0:
28,252,23988,2,0,P|37:177|30:107,1,143.999995605469,4|8,0:0|3:0,0:0:0:0:
148,28,25285,2,0,P|139:103|228:216,1,215.999993408203,4|4,0:0|0:3,0:0:0:0:
304,212,26582,6,0,P|377:203|448:196,1,143.999995605469,4|8,0:0|3:0,0:0:0:0:
360,312,27880,2,0,P|250:311|140:312,1,215.999993408203,4|4,0:0|0:3,0:0:0:0:
60,340,29177,2,0,P|96:284|108:200,1,143.999995605469,4|8,0:0|3:0,0:0:0:0:
80,68,30474,1,4,0:3:0:0:
80,68,31772,6,0,P|148:66|232:60,1,143.999995605469,4|8,0:0|3:3,0:0:0:0:
304,180,33069,2,0,P|235:178|83:166,1,215.999993408203,4|4,0:0|0:3,0:0:0:0:
20,220,34366,2,0,P|25:261|49:361,1,143.999995605469,4|8,0:0|3:0,0:0:0:0:
184,312,35664,2,0,P|284:292|408:324,1,215.999993408203,4|4,0:0|0:3,0:0:0:0:
460,376,36961,6,0,B|428:316|428:316|448:236,1,143.999995605469,4|8,0:0|3:0,0:0:0:0:
332,152,38258,2,0,P|235:147|112:136,1,215.999993408203,4|4,0:0|0:3,0:0:0:0:
96,52,39555,2,0,P|158:49|240:40,1,143.999995605469,4|8,0:0|3:0,0:0:0:0:
332,152,40853,2,0,P|329:214|320:296,1,143.999995605469,4|8,0:3|0:0,0:0:0:0:
196,364,42150,5,2,0:0:0:0:
392,44,52528,6,0,P|388:176|416:312,1,264.000008056641,2|2,3:0|3:0,0:0:0:0:
156,360,55123,2,0,P|160:228|132:92,1,264.000008056641,2|8,3:0|0:0,0:0:0:0:
256,192,57718,12,2,61609,0:0:0:0:
400,352,62907,6,0,P|396:280|388:208,1,143.999995605469,4|8,0:0|3:3,0:0:0:0:
304,92,64205,2,0,B|198:67|198:67|97:103,1,215.999993408203,4|4,0:0|0:3,0:0:0:0:
32,160,65502,2,0,P|40:231|34:302,1,143.999995605469,4|8,0:0|3:0,0:0:0:0:
164,240,66799,2,0,P|163:135|234:57,1,215.999993408203,4|4,0:0|0:3,0:0:0:0:
316,32,68096,6,0,P|387:40|459:47,1,143.999995605469,4|8,0:0|3:0,0:0:0:0:
380,168,69394,2,0,P|272:168|164:168,1,215.999993408203,4|4,0:0|0:3,0:0:0:0:
160,256,70691,2,0,P|230:253|297:279,1,143.999995605469,4|8,0:0|3:0,0:0:0:0:
412,372,71988,1,4,0:3:0:0:
412,372,73286,6,0,P|414:300|419:228,1,143.999995605469,4|8,0:0|3:3,0:0:0:0:
340,108,74583,2,0,P|232:112|124:121,1,215.999993408203,4|4,0:0|0:3,0:0:0:0:
64,180,75880,2,0,P|45:249|35:320,1,143.999995605469,4|8,0:0|3:0,0:0:0:0:
176,356,77178,2,0,P|195:251|171:147,1,215.999993408203,4|4,0:0|0:3,0:0:0:0:
116,80,78475,6,0,B|176:112|176:112|249:94,1,143.999995605469,4|8,0:0|3:0,0:0:0:0:
356,192,79772,2,0,P|248:197|140:207,1,215.999993408203,4|4,0:0|0:3,0:0:0:0:
124,292,81069,2,0,P|195:295|267:303,1,143.999995605469,4|8,0:0|3:0,0:0:0:0:
356,192,82367,2,0,P|352:120|344:48,1,143.999995605469,4|0,0:3|0:0,0:0:0:0:
224,108,83664,6,0,P|162:116|92:120,1,132.00000402832,4|8,0:0|0:3,0:0:0:0:
32,236,84961,2,0,P|94:244|244:236,1,198.000006042481,4|8,0:0|0:0,0:0:0:0:
312,216,86258,2,0,P|376:204|446:228,1,132.00000402832,4|8,0:0|0:3,0:0:0:0:
368,336,87555,2,0,P|302:351|172:328,1,198.000006042481,4|8,0:0|0:0,0:0:0:0:
116,268,88853,6,0,P|123:199|132:126,1,132.00000402832,4|8,0:0|0:3,0:0:0:0:
244,68,90150,2,0,P|239:185|256:278,1,198.000006042481,4|8,0:0|0:0,0:0:0:0:
313,325,91447,2,0,L|464:308,1,132.00000402832,4|8,0:0|0:3,0:0:0:0:
350,216,92745,2,0,P|250:203|208:208,1,132.00000402832,4|2,0:0|0:0,0:0:0:0:
148,252,93718,1,4,0:0:0:0:
