osu file format v14

[General]
AudioFilename: audio.mp3
AudioLeadIn: 0
PreviewTime: 62907
Countdown: 0
SampleSet: Soft
StackLeniency: 0.5
Mode: 0
LetterboxInBreaks: 0
WidescreenStoryboard: 0

[Editor]
Bookmarks: 11015,20096,57718,93718
DistanceSpacing: 0.6
BeatDivisor: 6
GridSize: 4
TimelineZoom: 3.899998

[Metadata]
Title:TSLove
TitleUnicode:TSLove
Artist:O2i3
ArtistUnicode:O2i3
Creator:Fanteer
Version:Extra
Source:
Tags:records happy hardcore kirara Namki DefendeRDjulus marvollo m_a_r_v_o_l_l_o shmiklak
BeatmapID:1309290
BeatmapSetID:620910

[Difficulty]
HPDrainRate:5.5
CircleSize:4.2
OverallDifficulty:9
ApproachRate:9.5
SliderMultiplier:1.8
SliderTickRate:2

[Events]
//Background and Video events
0,0,"bg.png",0,0
//Break Periods
//Storyboard Layer 0 (Background)
//Storyboard Layer 1 (Fail)
//Storyboard Layer 2 (Pass)
//Storyboard Layer 3 (Foreground)
//Storyboard Sound Samples

[TimingPoints]
637,324.324324324324,4,2,1,50,1,0
637,-111.111111111111,4,2,1,50,0,0
16204,-111.111111111111,4,2,1,80,0,0
19447,-55.5555555555556,4,2,1,50,0,0
19609,-111.111111111111,4,2,1,50,0,0
21393,-83.3333333333333,4,2,1,90,0,1
31123,-83.3333333333333,4,2,1,90,0,0
31772,-83.3333333333333,4,2,1,90,0,1
41501,-83.3333333333333,4,2,1,90,0,0
42150,-111.111111111111,4,2,1,70,0,0
52528,-99.9999999999999,4,2,1,70,0,0
57718,-99.9999999999999,4,2,1,80,0,0
60961,-55.5555555555556,4,2,1,50,0,0
61123,-111.111111111111,4,2,1,50,0,0
62907,-83.3333333333333,4,2,1,90,0,1
72636,-83.3333333333333,4,2,1,90,0,0
73285,-83.3333333333333,4,2,1,90,0,1
80745,-166.666666666667,4,2,1,90,0,1
81069,-83.3333333333333,4,2,1,90,0,1
83015,-83.3333333333333,4,2,1,90,0,0
83664,-100,4,2,1,80,0,0
88528,-125,4,2,1,80,0,0
88853,-100,4,2,1,80,0,0
91123,-166.666666666667,4,2,1,80,0,0
91447,-100,4,2,1,80,0,0
92420,-100,4,2,1,80,0,0
92582,-100,4,2,1,80,0,0
93069,-100,4,2,1,80,0,0
93231,-100,4,2,1,80,0,0
93718,-200,4,2,1,80,0,0

[Colours]
Combo1 : 73,148,148
Combo2 : 174,0,0
Combo3 : 210,216,5
Combo4 : 221,111,0
Combo5 : 60,60,255
Combo6 : 0,217,217
Combo7 : 170,0,170
Combo8 : 146,146,201

[HitObjects]
415,284,637,6,0,L|318:274,1,80.9999975280763,2|0,0:0|0:0,0:0:0:0:
241,179,961,1,0,0:0:0:0:
349,99,1123,1,0,0:0:0:0:
369,101,1204,1,0,0:0:0:0:
389,103,1285,1,2,0:0:0:0:
297,5,1447,1,0,0:0:0:0:
360,180,1609,1,0,0:0:0:0:
456,51,1772,1,0,0:0:0:0:
288,105,1934,6,0,P|265:144|256:189,1,80.9999975280763,2|0,0:0|0:0,0:0:0:0:
303,327,2258,1,0,0:0:0:0:
363,221,2420,1,0,0:0:0:0:
361,200,2501,1,0,0:0:0:0:
360,180,2582,1,2,0:0:0:0:
441,291,2745,1,0,0:0:0:0:
260,254,2907,1,0,0:0:0:0:
375,371,3069,1,0,0:0:0:0:
469,201,3231,6,0,L|460:110,1,80.9999975280763,2|0,0:0|0:0,0:0:0:0:
355,26,3555,1,0,0:0:0:0:
278,154,3718,1,0,0:0:0:0:
280,174,3799,1,0,0:0:0:0:
282,194,3880,1,2,0:0:0:0:
214,14,4042,1,0,0:0:0:0:
371,112,4204,1,0,0:0:0:0:
186,173,4366,1,0,0:0:0:0:
355,275,4528,6,0,P|392:264|447:259,1,80.9999975280763,2|0,0:0|0:0,0:0:0:0:
258,346,4853,1,0,0:0:0:0:
183,214,5015,1,0,0:0:0:0:
184,193,5096,1,0,0:0:0:0:
186,172,5177,1,2,0:0:0:0:
334,184,5339,1,0,0:0:0:0:
228,336,5501,6,0,L|176:340,1,40.4999987640381,0|2,0:0|0:0,0:0:0:0:
84,260,5664,2,0,L|136:264,1,40.4999987640381,2|2,3:0|0:0,0:0:0:0:
8,196,5826,6,0,P|11:156|20:112,1,80.9999975280763,2|0,0:0|0:0,0:0:0:0:
193,68,6150,1,0,0:0:0:0:
74,13,6312,1,0,0:0:0:0:
54,15,6393,1,0,0:0:0:0:
33,17,6474,1,2,0:0:0:0:
111,178,6636,1,0,0:0:0:0:
182,60,6799,1,0,0:0:0:0:
12,124,6961,1,0,0:0:0:0:
172,252,7123,6,0,L|263:246,1,80.9999975280763,2|0,0:0|0:0,0:0:0:0:
133,339,7447,1,0,0:0:0:0:
204,167,7609,1,0,0:0:0:0:
201,146,7690,1,0,0:0:0:0:
199,126,7771,1,2,0:0:0:0:
294,331,7934,1,0,0:0:0:0:
373,164,8096,1,0,0:0:0:0:
455,331,8258,1,0,0:0:0:0:
213,346,8420,6,0,L|123:338,1,80.9999975280763,2|0,0:0|0:0,0:0:0:0:
262,207,8745,1,0,0:0:0:0:
374,325,8907,1,0,0:0:0:0:
373,345,8988,1,0,0:0:0:0:
372,365,9069,1,2,0:0:0:0:
205,270,9231,1,0,0:0:0:0:
386,189,9393,1,0,0:0:0:0:
290,363,9555,1,0,0:0:0:0:
334,101,9718,5,2,0:0:0:0:
415,285,9880,1,0,0:0:0:0:
450,65,10042,1,0,0:0:0:0:
293,207,10204,1,0,0:0:0:0:
294,227,10285,1,0,0:0:0:0:
296,247,10366,1,2,0:0:0:0:
477,171,10528,1,0,0:0:0:0:
251,69,10691,1,2,3:0:0:0:
415,285,10853,1,0,0:0:0:0:
212,341,11015,6,0,L|127:330,1,80.9999975280763,2|0,3:0|0:0,0:0:0:0:
293,207,11339,1,2,0:0:0:0:
320,354,11501,1,0,0:0:0:0:
320,354,11582,1,0,0:0:0:0:
320,354,11664,1,2,3:3:0:0:
268,201,11826,1,0,0:0:0:0:
441,258,11988,1,2,0:0:0:0:
244,215,12150,1,0,0:0:0:0:
392,115,12312,6,0,L|395:22,1,80.9999975280763,2|0,3:0|0:0,0:0:0:0:
232,121,12636,1,2,0:0:0:0:
341,264,12799,1,0,0:0:0:0:
341,264,12880,1,0,0:0:0:0:
341,264,12961,1,2,3:0:0:0:
224,107,13123,1,0,0:0:0:0:
392,115,13285,1,2,0:0:0:0:
214,92,13447,1,0,0:0:0:0:
165,255,13609,6,0,L|168:341,1,80.9999975280763,2|0,3:0|0:0,0:0:0:0:
282,187,13934,1,2,0:0:0:0:
116,136,14096,1,0,0:0:0:0:
116,136,14177,1,0,0:0:0:0:
116,136,14258,1,2,3:0:0:0:
299,173,14420,1,0,0:0:0:0:
131,252,14582,1,2,0:0:0:0:
310,151,14745,1,0,0:0:0:0:
248,341,14907,6,0,L|166:335,1,80.9999975280763,8|0,0:0|0:0,0:0:0:0:
378,283,15231,1,8,0:3:0:0:
241,192,15393,1,0,0:0:0:0:
241,192,15474,1,0,0:0:0:0:
241,192,15555,1,8,0:3:0:0:
369,306,15718,1,0,0:0:0:0:
413,137,15880,1,8,0:3:0:0:
353,321,16042,1,0,0:0:0:0:
284,118,16204,5,8,0:0:0:0:
467,232,16366,1,8,0:3:0:0:
266,297,16528,1,8,0:0:0:0:
413,137,16691,1,8,0:3:0:0:
449,361,16853,1,8,0:0:0:0:
321,210,17015,1,8,0:3:0:0:
506,310,17177,1,8,0:0:0:0:
316,356,17339,1,8,0:3:0:0:
335,136,17501,5,8,0:0:0:0:
386,320,17664,1,8,0:3:0:0:
228,175,17826,1,8,0:0:0:0:
467,106,17988,1,8,0:3:0:0:
321,278,18150,1,8,0:0:0:0:
389,38,18312,1,8,0:3:0:0:
467,232,18474,1,8,0:0:0:0:
505,10,18636,1,8,0:3:0:0:
374,152,18799,5,8,0:0:0:0:
339,185,18880,1,0,0:0:0:0:
293,200,18961,1,8,0:3:0:0:
246,192,19042,1,0,0:0:0:0:
207,164,19123,1,8,0:0:0:0:
168,136,19204,1,0,0:0:0:0:
121,128,19285,1,8,0:3:0:0:
75,143,19366,1,0,0:0:0:0:
40,176,19447,6,0,L|35:221,2,40.4999987640381,0|0|0,0:0|0:0|0:0,0:0:0:0:
95,308,19609,5,8,0:0:0:0:
133,319,19690,1,8,0:3:0:0:
173,313,19771,1,8,0:0:0:0:
206,291,19852,1,8,0:3:0:0:
227,257,19933,1,8,0:0:0:0:
231,217,20014,1,8,0:3:0:0:
192,160,20095,5,2,0:1:0:0:
256,192,20177,12,0,21231,0:0:0:0:
50,156,21393,6,0,L|216:136,1,161.999995056153,4|0,0:0|0:0,0:0:0:0:
321,202,21718,2,0,P|329:228|334:259,1,53.9999983520508,8|0,0:0|0:0,0:0:0:0:
190,52,21880,2,0,P|194:25|202:-1,1,53.9999983520508,2|0,0:0|0:0,0:0:0:0:
251,241,22042,6,0,L|197:239,1,53.9999983520508,8|0,3:3|0:0,0:0:0:0:
274,44,22204,2,0,L|328:42,1,53.9999983520508,2|0,0:0|0:0,0:0:0:0:
453,152,22366,1,8,0:0:0:0:
457,178,22447,1,0,0:0:0:0:
462,205,22528,1,2,0:0:0:0:
467,231,22609,1,0,0:0:0:0:
472,258,22691,6,0,P|442:252|413:252,1,53.9999983520508,4|0,0:0|0:0,0:0:0:0:
257,375,22853,2,0,P|230:374|203:369,1,53.9999983520508,2|0,0:0|0:0,0:0:0:0:
437,331,23015,6,0,L|445:391,1,53.9999983520508,8|0,0:0|0:0,0:0:0:0:
251,241,23177,2,0,L|243:294,1,53.9999983520508,2|0,0:0|0:0,0:0:0:0:
444,168,23339,2,0,P|438:111|365:34,1,161.999995056153,8|0,0:3|0:0,0:0:0:0:
280,68,23664,1,4,0:3:0:0:
280,68,23988,6,0,L|112:56,1,161.999995056153,4|0,0:0|0:0,0:0:0:0:
272,152,24312,2,0,P|300:149|332:140,1,53.9999983520508,8|0,0:0|0:0,0:0:0:0:
120,208,24474,2,0,P|93:201|67:198,1,53.9999983520508,2|0,0:0|0:0,0:0:0:0:
280,68,24636,6,0,L|272:14,1,53.9999983520508,8|0,3:0|0:0,0:0:0:0:
392,228,24799,2,0,L|384:281,1,53.9999983520508,2|0,0:0|0:0,0:0:0:0:
192,140,24961,1,8,0:0:0:0:
376,64,25123,1,2,0:0:0:0:
248,244,25285,6,0,L|252:300,1,53.9999983520508,4|0,0:0|0:0,0:0:0:0:
136,64,25447,1,2,0:0:0:0:
136,64,25528,1,0,0:0:0:0:
136,64,25609,2,0,L|139:10,1,53.9999983520508,8|0,0:0|0:0,0:0:0:0:
220,272,25772,2,0,L|223:325,1,53.9999983520508,0|0,0:0|0:0,0:0:0:0:
0,232,25934,5,8,3:0:0:0:
37,162,26015,1,0,0:0:0:0:
114,141,26096,1,2,0:0:0:0:
72,352,26258,1,4,0:3:0:0:
72,352,26582,6,0,L|238:332,1,161.999995056153,4|0,0:0|0:0,0:0:0:0:
40,144,26907,2,0,L|48:197,1,53.9999983520508,8|0,0:0|0:0,0:0:0:0:
304,256,27069,2,0,L|295:202,1,53.9999983520508,2|0,0:0|0:0,0:0:0:0:
80,298,27231,6,0,L|71:351,1,53.9999983520508,8|0,3:0|0:0,0:0:0:0:
236,136,27393,2,0,L|244:82,1,53.9999983520508,2|0,0:0|0:0,0:0:0:0:
400,276,27555,1,8,0:0:0:0:
390,300,27636,1,0,0:0:0:0:
374,322,27717,1,2,0:0:0:0:
353,339,27798,1,0,0:0:0:0:
328,350,27880,6,0,L|269:344,1,53.9999983520508,4|0,0:0|0:0,0:0:0:0:
448,192,28042,2,0,L|507:186,1,53.9999983520508,2|0,0:0|0:0,0:0:0:0:
236,136,28204,6,0,L|244:196,1,53.9999983520508,8|0,0:0|0:0,0:0:0:0:
472,328,28366,2,0,L|480:275,1,53.9999983520508,2|0,0:0|0:0,0:0:0:0:
397,118,28528,2,0,L|232:136,1,161.999995056153,8|0,0:3|0:0,0:0:0:0:
146,170,28853,1,4,0:3:0:0:
146,170,29177,6,0,L|158:338,1,161.999995056153,4|0,0:0|0:0,0:0:0:0:
235,135,29501,2,0,L|230:75,1,53.9999983520508,8|0,0:0|0:0,0:0:0:0:
58,176,29664,2,0,L|62:229,1,53.9999983520508,2|0,0:0|0:0,0:0:0:0:
190,15,29825,6,0,P|219:7|252:4,1,53.9999983520508,8|0,3:0|0:0,0:0:0:0:
347,217,29988,2,0,P|320:213|294:206,1,53.9999983520508,2|0,0:0|0:0,0:0:0:0:
424,85,30150,1,8,0:0:0:0:
506,280,30312,1,2,0:0:0:0:
289,313,30474,6,0,L|294:189,1,107.999996704102,4|0,0:3|0:0,0:0:0:0:
424,85,30799,2,0,L|428:192,1,107.999996704102,4|0,0:3|0:0,0:0:0:0:
193,31,31123,5,4,0:3:0:0:
319,4,31285,1,4,0:3:0:0:
346,130,31447,1,4,0:3:0:0:
219,157,31609,1,4,0:3:0:0:
347,364,31772,6,0,L|507:344,1,161.999995056153,4|0,0:0|0:0,0:0:0:0:
264,314,32097,2,0,P|256:340|251:371,1,53.9999983520508,8|0,0:0|0:0,0:0:0:0:
430,233,32259,2,0,P|426:206|418:180,1,53.9999983520508,2|0,0:0|0:0,0:0:0:0:
165,232,32421,6,0,L|220:238,1,53.9999983520508,8|0,3:3|0:0,0:0:0:0:
348,112,32582,2,0,L|293:118,1,53.9999983520508,2|0,0:0|0:0,0:0:0:0:
362,281,32745,1,8,0:0:0:0:
391,304,32826,1,0,0:0:0:0:
427,313,32907,1,2,0:0:0:0:
464,306,32988,1,0,0:0:0:0:
494,284,33069,6,0,P|493:257|487:226,1,53.9999983520508,4|0,0:0|0:0,0:0:0:0:
348,112,33231,2,0,P|343:138|341:165,1,53.9999983520508,2|0,0:0|0:0,0:0:0:0:
507,23,33394,6,0,L|453:15,1,53.9999983520508,8|0,0:0|0:0,0:0:0:0:
209,72,33556,2,0,L|262:64,1,53.9999983520508,2|0,0:0|0:0,0:0:0:0:
429,182,33718,2,0,P|403:232|299:248,1,161.999995056153,8|0,0:3|0:0,0:0:0:0:
258,167,34043,1,4,0:3:0:0:
258,167,34367,6,0,L|270:335,1,161.999995056153,4|0,0:0|0:0,0:0:0:0:
69,168,34691,2,0,L|74:107,1,53.9999983520508,8|0,0:0|0:0,0:0:0:0:
191,271,34853,2,0,L|194:325,1,53.9999983520508,2|0,0:0|0:0,0:0:0:0:
151,76,35015,6,0,L|205:68,1,53.9999983520508,8|0,3:0|0:0,0:0:0:0:
86,277,35178,2,0,L|33:269,1,53.9999983520508,2|0,0:0|0:0,0:0:0:0:
258,167,35340,1,8,0:0:0:0:
193,324,35502,1,2,0:0:0:0:
69,168,35664,6,0,L|74:107,1,53.9999983520508,4|0,0:0|0:0,0:0:0:0:
273,269,35826,1,2,0:0:0:0:
273,269,35907,1,0,0:0:0:0:
273,269,35988,2,0,L|277:322,1,53.9999983520508,8|0,0:0|0:0,0:0:0:0:
151,76,36150,2,0,L|156:15,1,53.9999983520508,0|0,0:0|0:0,0:0:0:0:
178,248,36312,5,8,3:0:0:0:
117,297,36393,1,0,0:0:0:0:
40,281,36474,1,2,0:0:0:0:
258,167,36637,1,4,0:3:0:0:
258,167,36961,6,0,L|424:147,1,161.999995056153,4|0,0:0|0:0,0:0:0:0:
262,258,37286,2,0,L|270:311,1,53.9999983520508,8|0,0:0|0:0,0:0:0:0:
224,85,37448,2,0,L|215:31,1,53.9999983520508,2|0,0:0|0:0,0:0:0:0:
106,232,37610,6,0,L|53:223,1,53.9999983520508,8|0,3:0|0:0,0:0:0:0:
258,167,37772,2,0,L|312:159,1,53.9999983520508,2|0,0:0|0:0,0:0:0:0:
197,352,37934,1,8,0:0:0:0:
170,348,38015,1,0,0:0:0:0:
143,344,38096,1,2,0:0:0:0:
116,340,38177,1,0,0:0:0:0:
90,336,38258,6,0,P|59:337|37:343,1,53.9999983520508,4|0,0:0|0:0,0:0:0:0:
262,258,38420,2,0,P|288:263|315:264,1,53.9999983520508,2|0,0:0|0:0,0:0:0:0:
45,169,38583,6,0,L|53:229,1,53.9999983520508,8|0,0:0|0:0,0:0:0:0:
311,159,38745,2,0,L|319:106,1,53.9999983520508,2|0,0:0|0:0,0:0:0:0:
106,56,38907,2,0,L|128:220,1,161.999995056153,8|0,0:3|0:0,0:0:0:0:
205,161,39232,1,4,0:3:0:0:
205,161,39555,6,0,L|227:325,1,161.999995056153,4|0,0:0|0:0,0:0:0:0:
398,88,39880,2,0,L|335:81,1,53.9999983520508,8|0,0:0|0:0,0:0:0:0:
358,291,40042,2,0,L|421:284,1,53.9999983520508,2|0,0:0|0:0,0:0:0:0:
261,88,40204,6,0,P|264:61|271:35,1,53.9999983520508,8|0,3:0|0:0,0:0:0:0:
481,241,40366,2,0,P|488:266|491:293,1,53.9999983520508,2|0,0:0|0:0,0:0:0:0:
311,159,40529,1,8,0:0:0:0:
485,106,40691,1,2,0:0:0:0:
358,291,40853,6,0,L|234:286,1,107.999996704102,4|0,0:3|0:0,0:0:0:0:
153,92,41178,2,0,L|260:88,1,107.999996704102,4|0,0:3|0:0,0:0:0:0:
76,275,41501,5,8,0:0:0:0:
33,23,41826,1,8,0:0:0:0:
33,23,42150,5,2,0:0:0:0:
12,99,42312,1,0,0:0:0:0:
54,165,42474,1,0,0:0:0:0:
132,179,42636,1,0,0:0:0:0:
195,132,42798,1,2,0:0:0:0:
264,95,42961,1,0,0:0:0:0:
338,123,43123,1,0,0:0:0:0:
369,195,43285,1,0,0:0:0:0:
335,268,43447,5,2,0:0:0:0:
264,296,43609,1,0,0:0:0:0:
352,280,43772,1,0,0:0:0:0:
248,280,43934,1,0,0:0:0:0:
450,146,44096,5,2,0:0:0:0:
496,260,44258,1,0,0:0:0:0:
460,136,44420,1,0,0:0:0:0:
432,320,44582,1,0,0:0:0:0:
450,146,44745,5,2,0:0:0:0:
439,24,44907,1,0,0:0:0:0:
318,35,45069,1,0,0:0:0:0:
333,236,45231,2,0,L|328:156,1,80.9999975280763,0|2,0:0|0:0,0:0:0:0:
440,267,45555,2,0,L|435:348,1,80.9999975280763
328,156,45880,6,0,L|247:150,1,80.9999975280763,0|2,0:0|0:0,0:0:0:0:
384,32,46204,2,0,B|440:36|484:20|484:20|444:72|444:72|460:84|480:108|480:156,1,242.999992584229,0|2,0:0|0:0,0:0:0:0:
403,331,46853,5,0,0:0:0:0:
400,234,47015,1,0,0:0:0:0:
397,137,47177,1,0,0:0:0:0:
232,233,47339,5,2,0:0:0:0:
181,182,47501,1,0,0:0:0:0:
110,177,47663,1,0,0:0:0:0:
53,221,47825,1,0,0:0:0:0:
39,291,47987,1,2,0:0:0:0:
75,352,48150,6,0,L|156:348,1,80.9999975280763,0|0,0:0|0:0,0:0:0:0:
306,267,48474,2,0,P|366:269|427:348,1,161.999995056153,0|0,0:0|0:0,0:0:0:0:
250,143,48961,1,0,0:0:0:0:
240,222,49123,1,0,0:0:0:0:
334,355,49285,5,2,0:0:0:0:
254,334,49447,1,0,0:0:0:0:
174,365,49609,1,0,0:0:0:0:
94,344,49771,1,0,0:0:0:0:
30,226,49934,6,0,L|40:110,1,80.9999975280763,2|0,0:0|0:0,0:0:0:0:
95,78,50258,1,0,0:0:0:0:
146,277,50420,2,0,P|99:296|30:222,1,161.999995056153,0|0,0:0|0:0,0:0:0:0:
172,152,50907,2,0,P|214:155|258:161,1,80.9999975280763,0|0,0:0|0:0,0:0:0:0:
345,282,51231,5,2,0:0:0:0:
329,199,51393,1,0,0:0:0:0:
362,298,51555,5,0,0:0:0:0:
360,196,51717,1,0,0:0:0:0:
382,316,51880,5,2,0:0:0:0:
400,195,52042,1,0,0:0:0:0:
395,339,52204,5,0,0:0:0:0:
441,199,52366,1,0,0:0:0:0:
255,290,52528,5,2,3:0:0:0:
234,127,52691,1,0,0:0:0:0:
334,255,52853,1,2,0:0:0:0:
174,340,53015,1,0,0:0:0:0:
174,340,53096,1,0,0:0:0:0:
174,340,53177,1,2,3:0:0:0:
92,193,53339,2,0,L|98:92,1,90,0|2,0:0|0:0,0:0:0:0:
0,251,53664,1,0,0:0:0:0:
103,361,53826,5,2,3:0:0:0:
255,270,53988,2,0,P|298:260|353:255,1,90,0|2,0:0|0:0,0:0:0:0:
177,161,54312,2,0,L|163:249,1,90,0|2,0:0|3:0,0:0:0:0:
184,381,54636,1,0,0:0:0:0:
92,193,54799,1,2,0:0:0:0:
255,270,54961,2,0,L|268:361,1,90,0|2,0:0|3:0,0:0:0:0:
263,138,55285,6,0,P|223:143|174:162,1,90,0|2,0:0|0:0,0:0:0:0:
336,214,55609,1,0,0:0:0:0:
388,104,55772,2,0,L|382:59,1,45,2|0,3:0|0:0,0:0:0:0:
347,229,55934,2,0,L|341:273,1,45,0|0,0:0|0:0,0:0:0:0:
263,138,56096,1,2,0:0:0:0:
432,244,56258,2,0,P|442:284|448:333,1,90,0|8,0:0|0:0,0:0:0:0:
283,373,56582,6,0,L|194:356,1,90,0|8,0:0|0:0,0:0:0:0:
263,138,56907,1,0,0:0:0:0:
346,319,57069,1,8,0:0:0:0:
159,268,57231,1,0,0:0:0:0:
343,232,57393,2,0,P|393:236|432:244,1,90,8|0,0:0|0:0,0:0:0:0:
186,291,57718,5,8,0:0:0:0:
173,182,57880,1,8,0:3:0:0:
68,283,58042,5,8,0:0:0:0:
105,122,58204,1,8,0:3:0:0:
280,242,58366,5,8,0:0:0:0:
243,81,58528,1,8,0:3:0:0:
68,283,58691,5,8,0:0:0:0:
98,37,58853,1,8,0:3:0:0:
280,148,59015,5,8,0:0:0:0:
34,178,59177,1,8,0:3:0:0:
314,313,59339,5,8,0:0:0:0:
68,283,59501,1,8,0:3:0:0:
228,83,59664,5,8,0:0:0:0:
198,329,59826,1,8,0:0:0:0:
373,13,59988,5,8,0:0:0:0:
403,259,60150,1,8,0:0:0:0:
153,172,60312,5,8,0:0:0:0:
188,205,60393,1,0,0:0:0:0:
234,220,60474,1,8,0:3:0:0:
281,212,60555,1,0,0:0:0:0:
320,184,60636,1,8,0:0:0:0:
359,156,60717,1,0,0:0:0:0:
406,148,60798,1,8,0:3:0:0:
452,163,60879,1,0,0:0:0:0:
487,192,60961,6,0,L|491:233,2,40.4999987640381,8|0|0,0:0|0:0|0:0,0:0:0:0:
424,316,61123,5,8,0:0:0:0:
387,340,61204,1,8,0:0:0:0:
343,346,61285,1,8,0:0:0:0:
301,332,61366,1,8,0:0:0:0:
269,302,61447,1,8,0:0:0:0:
253,261,61528,1,8,0:0:0:0:
283,197,61609,5,2,0:0:0:0:
352,352,62907,6,0,L|332:186,1,161.999995056153,4|0,0:0|0:0,0:0:0:0:
111,215,63232,2,0,P|103:241|98:272,1,53.9999983520508,8|0,0:0|0:0,0:0:0:0:
244,73,63394,2,0,P|240:46|232:20,1,53.9999983520508,2|0,0:0|0:0,0:0:0:0:
241,263,63556,6,0,L|187:261,1,53.9999983520508,8|0,3:3|0:0,0:0:0:0:
101,64,63718,2,0,L|155:62,1,53.9999983520508,2|0,0:0|0:0,0:0:0:0:
295,178,63880,1,8,0:0:0:0:
320,205,63961,1,0,0:0:0:0:
335,239,64042,1,2,0:0:0:0:
337,277,64123,1,0,0:0:0:0:
327,313,64204,6,0,L|268:307,1,53.9999983520508,4|0,0:0|0:0,0:0:0:0:
412,172,64366,2,0,L|471:166,1,53.9999983520508,2|0,0:0|0:0,0:0:0:0:
204,128,64529,6,0,L|212:188,1,53.9999983520508,8|0,0:0|0:0,0:0:0:0:
433,316,64691,2,0,L|441:263,1,53.9999983520508,2|0,0:0|0:0,0:0:0:0:
269,59,64853,2,0,L|296:232,1,161.999995056153,8|0,0:3|0:0,0:0:0:0:
327,313,65177,1,4,0:3:0:0:
327,313,65502,6,0,L|159:301,1,161.999995056153,4|0,0:0|0:0,0:0:0:0:
406,275,65826,2,0,P|412:301|415:327,1,53.9999983520508,8|0,0:0|0:0,0:0:0:0:
245,144,65988,2,0,P|248:117|254:91,1,53.9999983520508,2|0,0:0|0:0,0:0:0:0:
274,310,66150,6,0,L|266:364,1,53.9999983520508,8|0,3:0|0:0,0:0:0:0:
455,189,66313,2,0,L|447:136,1,53.9999983520508,2|0,0:0|0:0,0:0:0:0:
324,233,66475,1,8,0:0:0:0:
491,312,66637,1,2,0:0:0:0:
231,235,66799,6,0,L|177:238,1,53.9999983520508,4|0,0:0|0:0,0:0:0:0:
393,132,66961,1,2,0:0:0:0:
393,132,67042,1,0,0:0:0:0:
393,132,67123,2,0,L|447:135,1,53.9999983520508,8|0,0:0|0:0,0:0:0:0:
356,312,67286,2,0,L|359:365,1,53.9999983520508,0|0,0:0|0:0,0:0:0:0:
292,168,67447,5,8,3:0:0:0:
297,87,67528,1,0,0:0:0:0:
302,6,67609,1,2,0:0:0:0:
231,235,67772,1,4,0:3:0:0:
231,235,68096,6,0,L|70:215,1,161.999995056153,4|0,0:0|0:0,0:0:0:0:
209,331,68421,2,0,L|201:384,1,53.9999983520508,8|0,0:0|0:0,0:0:0:0:
243,142,68583,2,0,L|252:88,1,53.9999983520508,2|0,0:0|0:0,0:0:0:0:
303,335,68745,6,0,P|331:327|367:321,1,53.9999983520508,8|0,3:0|0:0,0:0:0:0:
144,132,68907,2,0,P|117:125|91:119,1,53.9999983520508,2|0,0:0|0:0,0:0:0:0:
311,203,69069,1,8,0:0:0:0:
345,187,69150,1,0,0:0:0:0:
381,178,69231,1,2,0:0:0:0:
419,176,69312,1,0,0:0:0:0:
456,183,69393,6,0,L|450:124,1,53.9999983520508,4|0,0:0|0:0,0:0:0:0:
246,35,69556,2,0,L|252:94,1,53.9999983520508,2|0,0:0|0:0,0:0:0:0:
368,294,69718,6,0,L|428:286,1,53.9999983520508,8|0,0:0|0:0,0:0:0:0:
207,208,69880,2,0,L|154:200,1,53.9999983520508,2|0,0:0|0:0,0:0:0:0:
350,132,70042,2,0,L|368:297,1,161.999995056153,8|0,0:3|0:0,0:0:0:0:
304,362,70367,1,4,0:3:0:0:
304,362,70691,6,0,L|142:350,1,161.999995056153,4|0,0:0|0:0,0:0:0:0:
243,184,71015,2,0,L|238:237,1,53.9999983520508,8|0,0:0|0:0,0:0:0:0:
59,189,71178,2,0,L|55:136,1,53.9999983520508,2|0,0:0|0:0,0:0:0:0:
151,23,71339,6,0,P|180:15|213:12,1,53.9999983520508,8|0,3:0|0:0,0:0:0:0:
295,194,71502,2,0,P|268:190|242:183,1,53.9999983520508,2|0,0:0|0:0,0:0:0:0:
398,83,71664,1,8,0:0:0:0:
379,294,71826,1,2,0:0:0:0:
284,108,71988,6,0,L|299:-9,1,107.999996704102,4|0,0:3|0:0,0:0:0:0:
478,156,72312,2,0,L|491:263,1,107.999996704102,4|0,0:3|0:0,0:0:0:0:
182,296,72636,5,4,0:3:0:0:
379,294,72799,1,4,0:3:0:0:
159,325,72961,1,4,0:3:0:0:
396,264,73123,1,4,0:3:0:0:
173,195,73286,6,0,L|13:215,1,161.999995056153,4|0,0:0|0:0,0:0:0:0:
326,277,73609,2,0,P|334:303|339:334,1,53.9999983520508,8|0,0:0|0:0,0:0:0:0:
236,120,73773,2,0,P|240:93|248:67,1,53.9999983520508,2|0,0:0|0:0,0:0:0:0:
193,313,73935,6,0,L|248:319,1,53.9999983520508,8|0,3:3|0:0,0:0:0:0:
379,100,74096,2,0,L|324:106,1,53.9999983520508,2|0,0:0|0:0,0:0:0:0:
338,329,74258,1,8,0:0:0:0:
373,316,74339,1,0,0:0:0:0:
411,314,74420,1,2,0:0:0:0:
447,323,74501,1,0,0:0:0:0:
480,341,74582,6,0,L|476:284,1,53.9999983520508,4|0,0:0|0:0,0:0:0:0:
310,189,74745,2,0,L|305:242,1,53.9999983520508,2|0,0:0|0:0,0:0:0:0:
487,84,74908,6,0,L|433:76,1,53.9999983520508,8|0,0:0|0:0,0:0:0:0:
230,35,75070,2,0,L|283:27,1,53.9999983520508,2|0,0:0|0:0,0:0:0:0:
310,189,75232,2,0,L|150:163,1,161.999995056153,8|0,0:3|0:0,0:0:0:0:
62,192,75555,1,4,0:3:0:0:
62,192,75881,6,0,L|74:360,1,161.999995056153,4|0,0:0|0:0,0:0:0:0:
154,217,76205,2,0,L|149:156,1,53.9999983520508,8|0,0:0|0:0,0:0:0:0:
240,314,76367,2,0,L|237:368,1,53.9999983520508,2|0,0:0|0:0,0:0:0:0:
327,148,76529,6,0,L|273:140,1,53.9999983520508,8|0,3:0|0:0,0:0:0:0:
378,317,76692,2,0,L|431:309,1,53.9999983520508,2|0,0:0|0:0,0:0:0:0:
456,144,76854,1,8,0:0:0:0:
311,249,77016,1,2,0:0:0:0:
252,56,77178,6,0,L|257:-5,1,53.9999983520508,4|0,0:0|0:0,0:0:0:0:
440,172,77340,1,2,0:0:0:0:
440,172,77421,1,0,0:0:0:0:
440,172,77502,2,0,L|444:225,1,53.9999983520508,8|0,0:0|0:0,0:0:0:0:
306,302,77664,2,0,L|311:241,1,53.9999983520508,0|0,0:0|0:0,0:0:0:0:
348,16,77826,5,8,3:0:0:0:
425,32,77907,1,0,0:0:0:0:
471,96,77988,1,2,0:0:0:0:
231,200,78151,1,4,0:3:0:0:
231,200,78475,6,0,L|65:180,1,161.999995056153,4|0,0:0|0:0,0:0:0:0:
302,278,78800,2,0,L|310:331,1,53.9999983520508,8|0,0:0|0:0,0:0:0:0:
338,127,78962,2,0,L|329:73,1,53.9999983520508,2|0,0:0|0:0,0:0:0:0:
420,328,79124,6,0,L|473:319,1,53.9999983520508,8|0,3:0|0:0,0:0:0:0:
482,98,79286,2,0,L|428:90,1,53.9999983520508,2|0,0:0|0:0,0:0:0:0:
206,189,79447,1,8,0:0:0:0:
204,226,79528,1,0,0:0:0:0:
222,259,79609,1,2,0:0:0:0:
253,279,79690,1,0,0:0:0:0:
291,280,79772,6,0,L|344:272,1,53.9999983520508,4|0,0:0|0:0,0:0:0:0:
120,353,79934,2,0,L|66:345,1,53.9999983520508,2|0,0:0|0:0,0:0:0:0:
198,135,80097,6,0,L|206:195,1,53.9999983520508,8|0,0:0|0:0,0:0:0:0:
15,251,80259,2,0,L|23:198,1,53.9999983520508,2|0,0:0|0:0,0:0:0:0:
262,21,80421,2,0,L|284:185,1,161.999995056153,8|0,0:3|0:0,0:0:0:0:
219,355,80745,6,0,P|223:315|234:269,1,80.9999975280763,4|0,0:3|0:0,0:0:0:0:
255,264,81069,6,0,L|415:285,1,161.999995056153,4|0,0:0|0:0,0:0:0:0:
494,170,81394,2,0,L|488:116,1,53.9999983520508,8|0,0:0|0:0,0:0:0:0:
313,55,81556,2,0,L|318:108,1,53.9999983520508,2|0,0:0|0:0,0:0:0:0:
415,285,81718,6,0,P|441:278|467:275,1,53.9999983520508,8|0,3:0|0:0,0:0:0:0:
237,173,81880,2,0,P|210:170|184:162,1,53.9999983520508,2|0,0:0|0:0,0:0:0:0:
306,349,82043,1,8,0:0:0:0:
381,186,82205,1,2,0:0:0:0:
194,286,82367,6,0,L|70:281,1,107.999996704102,4|0,0:3|0:0,0:0:0:0:
306,349,82692,2,0,L|413:345,1,107.999996704102,4|0,0:3|0:0,0:0:0:0:
381,186,83015,5,0,0:0:0:0:
381,186,83664,5,4,0:0:0:0:
328,164,83745,1,0,0:0:0:0:
275,186,83826,1,2,0:0:0:0:
252,238,83907,1,0,0:0:0:0:
273,291,83988,2,0,L|366:285,1,90,8|2,0:0|0:0,0:0:0:0:
477,177,84312,6,0,L|472:230,1,45,8|0,0:3|0:0,0:0:0:0:
386,124,84474,1,0,0:0:0:0:
418,87,84555,1,0,0:0:0:0:
465,70,84636,1,8,0:0:0:0:
307,195,84799,1,2,0:0:0:0:
257,190,84880,1,0,0:0:0:0:
208,186,84961,6,0,L|148:181,1,45,4|0,0:0|0:0,0:0:0:0:
249,64,85123,2,0,L|309:59,1,45,2|0,0:0|0:0,0:0:0:0:
96,111,85285,1,8,0:0:0:0:
69,152,85366,1,0,0:0:0:0:
66,201,85447,1,2,0:0:0:0:
88,244,85528,1,0,0:0:0:0:
128,272,85609,6,0,L|184:278,1,45,8|0,0:3|0:0,0:0:0:0:
83,99,85772,2,0,L|27:105,1,45,2|0,0:0|0:0,0:0:0:0:
268,168,85934,1,8,0:0:0:0:
284,153,86258,5,4,0:0:0:0:
434,231,86420,1,2,0:0:0:0:
440,275,86501,1,0,0:0:0:0:
446,320,86582,2,0,L|452:368,1,45,8|0,0:0|0:0,0:0:0:0:
225,272,86745,2,0,L|230:227,1,45,2|0,0:0|0:0,0:0:0:0:
378,154,86907,5,8,0:3:0:0:
249,370,87069,1,2,0:0:0:0:
213,370,87150,1,0,0:0:0:0:
179,358,87231,1,8,0:0:0:0:
151,335,87312,1,0,0:0:0:0:
134,304,87393,1,2,0:0:0:0:
128,269,87474,1,0,0:0:0:0:
134,234,87555,6,0,L|139:189,1,45,4|0,0:0|0:0,0:0:0:0:
285,99,87718,2,0,L|290:144,1,45,2|0,0:0|0:0,0:0:0:0:
138,20,87880,2,0,L|183:15,1,45,8|0,0:0|0:0,0:0:0:0:
44,141,88042,2,0,L|-1:136,1,45,2|0,0:0|0:0,0:0:0:0:
155,252,88204,1,8,0:3:0:0:
208,108,88366,1,2,0:0:0:0:
104,320,88528,6,0,L|106:364,1,36,8|0,0:0|0:0,0:0:0:0:
12,224,88691,2,0,L|9:259,1,36,2|0,0:1|0:0,0:0:0:0:
209,279,88853,6,0,L|302:270,1,90,4|2,0:0|0:0,0:0:0:0:
417,189,89177,1,8,0:0:0:0:
407,364,89339,1,2,0:0:0:0:
318,176,89501,1,8,0:3:0:0:
334,134,89582,1,0,0:0:0:0:
366,103,89663,1,2,0:0:0:0:
409,89,89744,1,0,0:0:0:0:
453,95,89826,2,0,L|462:147,1,45,8|0,0:0|0:0,0:0:0:0:
266,59,89988,2,0,L|273:14,1,45,2|0,0:0|0:0,0:0:0:0:
349,208,90150,5,4,0:0:0:0:
311,183,90231,1,0,0:0:0:0:
267,172,90312,1,2,0:0:0:0:
222,176,90393,1,0,0:0:0:0:
182,194,90474,1,8,0:0:0:0:
142,212,90555,1,0,0:0:0:0:
97,216,90636,1,2,0:0:0:0:
53,205,90718,1,0,0:0:0:0:
16,181,90799,2,0,L|22:131,1,45,8|0,0:3|0:0,0:0:0:0:
257,288,90961,2,0,L|262:332,1,45,2|0,0:0|0:0,0:0:0:0:
109,102,91123,6,0,P|111:58|121:19,1,80.9999975280763,8|0,0:0|0:0,0:0:0:0:
137,9,91447,6,0,L|226:19,1,90,4|2,0:0|0:0,0:0:0:0:
370,120,91772,1,8,0:0:0:0:
374,164,91853,1,0,0:0:0:0:
379,209,91934,1,2,0:0:0:0:
384,254,92015,1,0,0:0:0:0:
389,298,92096,2,0,L|328:293,1,45,8|0,0:3|0:0,0:0:0:0:
454,146,92258,2,0,L|515:141,1,45,2|0,3:0|0:0,0:0:0:0:
280,48,92420,6,0,L|285:11,2,30,8|0|0,0:0|0:0|0:0,0:0:0:0:
349,122,92582,6,0,L|353:166,1,45,2|0,0:0|0:0,0:0:0:0:
181,57,92745,5,4,0:0:0:0:
137,62,92826,1,0,0:0:0:0:
99,86,92907,1,2,0:0:0:0:
76,124,92988,1,0,0:0:0:0:
62,161,93069,6,0,L|67:209,2,30,8|0|0,0:0|0:0|0:0,0:0:0:0:
8,79,93231,6,0,L|12:33,1,45,2|0,0:0|0:0,0:0:0:0:
163,151,93393,5,2,0:0:0:0:
213,177,93474,1,2,0:0:0:0:
269,164,93555,1,2,0:0:0:0:
302,117,93636,1,2,0:0:0:0:
280,48,93717,5,4,0:0:0:0:
