osu file format v14

[General]
AudioFilename: audio.mp3
AudioLeadIn: 0
PreviewTime: 62907
Countdown: 0
SampleSet: Soft
StackLeniency: 0.5
Mode: 0
LetterboxInBreaks: 0
WidescreenStoryboard: 0

[Editor]
Bookmarks: 20096,57718,93718
DistanceSpacing: 0.6
BeatDivisor: 6
GridSize: 4
TimelineZoom: 4.599998

[Metadata]
Title:TSLove
TitleUnicode:TSLove
Artist:O2i3
ArtistUnicode:O2i3
Creator:Fanteer
Version:Another
Source:
Tags:records happy hardcore kirara Namki DefendeRDjulus marvollo m_a_r_v_o_l_l_o shmiklak
BeatmapID:1309215
BeatmapSetID:620910

[Difficulty]
HPDrainRate:6
CircleSize:4
OverallDifficulty:8
ApproachRate:9
SliderMultiplier:1.6
SliderTickRate:2

[Events]
//Background and Video events
0,0,"bg.png",0,0
//Break Periods
//Storyboard Layer 0 (Background)
//Storyboard Layer 1 (Fail)
//Storyboard Layer 2 (Pass)
//Storyboard Layer 3 (Foreground)
//Storyboard Sound Samples

[TimingPoints]
637,324.324324324324,4,2,1,50,1,0
637,-111.111111111111,4,2,1,50,0,0
16204,-111.111111111111,4,2,1,80,0,0
19447,-100,4,2,1,50,0,0
19609,-111.111111111111,4,2,1,50,0,0
21393,-83.3333333333333,4,2,1,90,0,1
31123,-83.3333333333333,4,2,1,90,0,0
31772,-83.3333333333333,4,2,1,90,0,1
41501,-83.3333333333333,4,2,1,90,0,0
42150,-111.111111111111,4,2,1,70,0,0
52528,-99.9999999999999,4,2,1,70,0,0
57718,-100,4,2,1,80,0,0
60961,-100,4,2,1,50,0,0
61123,-100,4,2,1,50,0,0
62907,-83.3333333333333,4,2,1,90,0,1
72636,-83.3333333333333,4,2,1,90,0,0
73285,-83.3333333333333,4,2,1,90,0,1
80745,-166.666666666667,4,2,1,90,0,1
81069,-83.3333333333333,4,2,1,90,0,1
83015,-83.3333333333333,4,2,1,90,0,0
83664,-100,4,2,1,80,0,0
91123,-166.666666666667,4,2,1,80,0,0
91447,-100,4,2,1,80,0,0
92420,-71.4285714285714,4,2,1,80,0,0
92582,-100,4,2,1,80,0,0
93069,-71.4285714285714,4,2,1,80,0,0
93231,-100,4,2,1,80,0,0
93718,-200,4,2,1,80,0,0

[Colours]
Combo1 : 73,148,148
Combo2 : 174,0,0
Combo3 : 210,216,5
Combo4 : 221,111,0
Combo5 : 60,60,255
Combo6 : 0,217,217
Combo7 : 170,0,170
Combo8 : 146,146,201

[HitObjects]
470,261,637,6,0,L|478:337,1,71.9999978027344,2|0,0:0|0:0,0:0:0:0:
392,221,961,1,0,0:0:0:0:
507,179,1123,1,0,0:0:0:0:
507,179,1204,1,0,0:0:0:0:
507,179,1285,1,2,0:0:0:0:
385,243,1447,1,0,0:0:0:0:
331,124,1609,2,0,L|338:52,1,71.9999978027344,0|0,0:0|0:0,0:0:0:0:
191,179,1934,6,0,L|198:250,1,71.9999978027344,2|0,0:0|0:0,0:0:0:0:
310,329,2258,1,0,0:0:0:0:
178,384,2420,1,0,0:0:0:0:
178,384,2501,1,0,0:0:0:0:
178,384,2582,1,2,0:0:0:0:
302,309,2745,1,0,0:0:0:0:
198,250,2907,2,0,P|160:243|126:240,1,71.9999978027344,0|0,0:0|0:0,0:0:0:0:
331,124,3231,6,0,L|344:211,1,71.9999978027344,2|0,0:0|0:0,0:0:0:0:
215,121,3555,1,0,0:0:0:0:
332,42,3718,2,0,P|349:44|366:51,2,35.9999989013672,0|0|2,0:0|0:0|0:0,0:0:0:0:
227,134,4042,1,0,0:0:0:0:
142,20,4204,1,0,0:0:0:0:
247,53,4366,1,0,0:0:0:0:
122,145,4528,6,0,P|110:180|103:218,1,71.9999978027344,2|0,0:0|0:0,0:0:0:0:
216,326,4853,1,0,0:0:0:0:
203,207,5015,1,0,0:0:0:0:
203,207,5096,1,0,0:0:0:0:
203,207,5177,1,2,0:0:0:0:
138,359,5339,1,0,0:0:0:0:
304,316,5501,1,0,0:0:0:0:
328,312,5582,1,2,0:0:0:0:
353,317,5663,1,2,3:0:0:0:
374,331,5744,1,0,0:0:0:0:
391,351,5826,6,0,L|386:272,1,71.9999978027344,2|0,0:0|0:0,0:0:0:0:
296,173,6150,2,0,L|300:101,1,71.9999978027344,0|0,0:0|0:0,0:0:0:0:
321,86,6393,1,0,0:0:0:0:
341,70,6474,1,2,0:0:0:0:
199,116,6636,1,0,0:0:0:0:
306,189,6799,1,0,0:0:0:0:
190,129,6961,1,0,0:0:0:0:
106,236,7123,6,0,P|96:270|91:313,1,71.9999978027344,2|0,0:0|0:0,0:0:0:0:
237,359,7447,1,0,0:0:0:0:
228,240,7609,1,0,0:0:0:0:
228,240,7691,1,0,0:0:0:0:
228,240,7772,1,2,0:0:0:0:
153,371,7934,1,0,0:0:0:0:
311,302,8096,2,0,P|347:305|383:314,1,71.9999978027344,0|0,0:0|0:0,0:0:0:0:
219,168,8420,6,0,L|228:247,1,71.9999978027344,2|0,0:0|0:0,0:0:0:0:
311,103,8745,1,0,0:0:0:0:
217,24,8907,1,0,0:0:0:0:
217,24,8988,1,0,0:0:0:0:
217,24,9069,1,2,0:0:0:0:
294,110,9231,1,0,0:0:0:0:
143,146,9393,2,0,P|106:140|61:138,1,71.9999978027344,0|0,0:0|0:0,0:0:0:0:
227,239,9718,6,0,P|263:233|309:231,1,71.9999978027344,2|0,0:0|0:0,0:0:0:0:
199,369,10042,1,0,0:0:0:0:
142,252,10204,2,0,P|143:230|150:199,2,35.9999989013672,0|0|2,0:0|0:0|0:0,0:0:0:0:
209,351,10528,1,0,0:0:0:0:
227,239,10691,1,2,3:0:0:0:
117,337,10853,1,0,0:0:0:0:
44,204,11015,6,0,L|52:121,1,71.9999978027344,2|0,3:0|0:0,0:0:0:0:
142,39,11339,1,2,0:0:0:0:
208,159,11501,1,0,0:0:0:0:
208,159,11582,1,0,0:0:0:0:
208,159,11664,1,2,3:3:0:0:
145,18,11826,1,0,0:0:0:0:
50,132,11988,1,2,0:0:0:0:
228,67,12150,1,0,0:0:0:0:
124,218,12312,6,0,P|111:253|102:290,1,71.9999978027344,2|0,3:0|0:0,0:0:0:0:
200,380,12636,1,2,0:0:0:0:
281,265,12799,1,0,0:0:0:0:
281,265,12880,1,0,0:0:0:0:
281,265,12961,1,2,3:0:0:0:
102,286,13123,1,0,0:0:0:0:
200,380,13285,1,2,0:0:0:0:
224,184,13447,1,0,0:0:0:0:
89,299,13609,6,0,L|16:291,1,71.9999978027344,2|0,3:0|0:0,0:0:0:0:
200,380,13934,1,2,0:0:0:0:
162,236,14096,1,0,0:0:0:0:
162,236,14177,1,0,0:0:0:0:
162,236,14258,1,2,3:0:0:0:
93,378,14420,1,0,0:0:0:0:
242,290,14582,1,2,0:0:0:0:
88,187,14745,1,0,0:0:0:0:
247,128,14907,6,0,L|318:135,1,71.9999978027344,8|0,0:0|0:0,0:0:0:0:
315,21,15231,1,8,0:3:0:0:
370,202,15393,1,0,0:0:0:0:
370,202,15474,1,0,0:0:0:0:
370,202,15555,1,8,0:3:0:0:
403,54,15718,1,0,0:0:0:0:
459,184,15880,1,8,0:3:0:0:
308,238,16042,1,0,0:0:0:0:
425,332,16204,6,0,L|501:325,1,71.9999978027344,8|8,0:0|0:3,0:0:0:0:
308,238,16528,2,0,L|232:231,1,71.9999978027344,8|8,0:0|0:3,0:0:0:0:
453,113,16853,2,0,L|460:189,1,71.9999978027344,8|8,0:0|0:3,0:0:0:0:
284,79,17177,2,0,L|290:7,1,71.9999978027344,8|8,0:0|0:3,0:0:0:0:
193,119,17501,5,8,0:0:0:0:
334,162,17664,1,8,0:3:0:0:
173,93,17826,1,8,0:0:0:0:
236,231,17988,1,8,0:3:0:0:
284,79,18150,1,8,0:0:0:0:
157,194,18312,1,8,0:3:0:0:
320,272,18474,1,8,0:0:0:0:
173,369,18636,1,8,0:3:0:0:
74,243,18799,6,0,L|80:192,3,35.9999989013672,8|0|8|0,0:0|0:0|0:3|0:0,0:0:0:0:
157,194,19123,2,0,L|151:143,3,35.9999989013672,8|0|8|0,0:0|0:0|0:3|0:0,0:0:0:0:
232,144,19447,6,0,L|237:107,2,20
288,200,19609,5,8,0:0:0:0:
313,212,19690,1,8,0:3:0:0:
341,218,19771,1,8,0:0:0:0:
370,217,19852,1,8,0:3:0:0:
398,208,19933,1,8,0:0:0:0:
422,193,20014,1,8,0:3:0:0:
441,163,20095,5,2,0:1:0:0:
256,192,20177,12,0,21231,0:0:0:0:
343,265,21393,6,0,L|442:257,1,95.9999970703126,4|0,0:0|0:0,0:0:0:0:
427,105,21718,1,8,0:0:0:0:
271,180,21880,1,2,0:0:0:0:
271,180,21961,1,0,0:0:0:0:
271,180,22042,2,0,P|247:219|235:282,1,95.9999970703126,8|2,3:3|0:0,0:0:0:0:
334,101,22366,2,0,L|331:53,1,47.9999985351563,8|0,0:0|0:0,0:0:0:0:
427,105,22528,2,0,L|424:152,1,47.9999985351563,2|0,0:0|0:0,0:0:0:0:
243,34,22691,6,0,L|145:29,1,95.9999970703126,4|2,0:0|0:0,0:0:0:0:
120,39,22934,1,0,0:0:0:0:
97,56,23015,2,0,P|71:98|59:152,1,95.9999970703126,8|2,0:0|0:0,0:0:0:0:
175,253,23339,2,0,L|273:248,1,95.9999970703126,8|0,0:3|0:0,0:0:0:0:
334,101,23664,1,4,0:3:0:0:
334,101,23988,6,0,L|429:105,1,95.9999970703126,4|0,0:0|0:0,0:0:0:0:
277,200,24312,2,0,L|269:254,1,47.9999985351563,8|0,0:0|0:0,0:0:0:0:
323,92,24474,2,0,L|315:44,1,47.9999985351563,2|0,0:0|0:0,0:0:0:0:
201,185,24636,2,0,L|184:280,1,95.9999970703126,8|2,3:0|0:0,0:0:0:0:
354,238,24961,1,8,0:0:0:0:
228,98,25123,1,2,0:0:0:0:
251,326,25285,5,4,0:0:0:0:
387,163,25447,1,2,0:0:0:0:
387,163,25528,1,0,0:0:0:0:
387,163,25609,2,0,P|380:111|368:62,1,95.9999970703126,8|0,0:0|0:0,0:0:0:0:
201,185,25934,1,8,3:0:0:0:
197,203,26015,1,0,0:0:0:0:
194,222,26096,1,2,0:0:0:0:
121,55,26258,1,4,0:3:0:0:
121,55,26582,6,0,L|216:47,1,95.9999970703126,4|0,0:0|0:0,0:0:0:0:
305,186,26907,1,8,0:0:0:0:
135,271,27069,1,2,0:0:0:0:
135,271,27150,1,0,0:0:0:0:
135,271,27231,2,0,L|39:263,1,95.9999970703126,8|2,3:0|0:0,0:0:0:0:
305,186,27555,2,0,L|308:234,1,47.9999985351563,8|0,0:0|0:0,0:0:0:0:
213,95,27717,2,0,L|216:48,1,47.9999985351563,2|0,0:0|0:0,0:0:0:0:
389,181,27880,6,0,L|397:278,1,95.9999970703126,4|2,0:0|0:0,0:0:0:0:
384,303,28123,1,0,0:0:0:0:
364,324,28204,2,0,P|314:314|268:311,1,95.9999970703126,8|2,0:0|0:0,0:0:0:0:
104,254,28528,2,0,L|108:349,1,95.9999970703126,8|0,0:3|0:0,0:0:0:0:
245,172,28853,1,4,0:3:0:0:
245,172,29177,6,0,L|240:76,1,95.9999970703126,4|0,0:0|0:0,0:0:0:0:
95,229,29501,2,0,L|91:276,1,47.9999985351563,8|0,0:0|0:0,0:0:0:0:
166,129,29664,2,0,L|163:81,1,47.9999985351563,2|0,0:0|0:0,0:0:0:0:
14,218,29826,2,0,L|9:313,1,95.9999970703126,8|2,3:0|0:0,0:0:0:0:
180,219,30150,1,8,0:0:0:0:
64,142,30312,1,2,0:0:0:0:
173,318,30474,6,0,L|276:313,1,95.9999970703126,4|0,0:3|0:0,0:0:0:0:
340,176,30799,2,0,L|237:171,1,95.9999970703126,4|0,0:3|0:0,0:0:0:0:
402,348,31123,5,4,0:3:0:0:
422,243,31285,1,4,0:3:0:0:
340,176,31447,1,4,0:3:0:0:
320,71,31609,1,4,0:3:0:0:
177,222,31772,6,0,L|185:321,1,95.9999970703126,4|0,0:0|0:0,0:0:0:0:
340,176,32097,1,8,0:0:0:0:
181,113,32258,1,2,0:0:0:0:
181,113,32339,1,0,0:0:0:0:
181,113,32420,2,0,P|134:127|94:151,1,95.9999970703126,8|2,3:3|0:0,0:0:0:0:
263,268,32745,2,0,L|260:220,1,47.9999985351563,8|0,0:0|0:0,0:0:0:0:
184,317,32907,2,0,L|181:364,1,47.9999985351563,2|0,0:0|0:0,0:0:0:0:
353,300,33070,6,0,L|451:295,1,95.9999970703126,4|2,0:0|0:0,0:0:0:0:
470,277,33313,1,0,0:0:0:0:
491,255,33394,2,0,P|479:208|453:168,1,95.9999970703126,8|2,0:0|0:0,0:0:0:0:
288,92,33718,2,0,L|283:190,1,95.9999970703126,8|0,0:3|0:0,0:0:0:0:
450,32,34043,1,4,0:3:0:0:
450,32,34366,6,0,L|355:36,1,95.9999970703126,4|0,0:0|0:0,0:0:0:0:
174,39,34691,2,0,L|221:41,1,47.9999985351563,8|0,0:0|0:0,0:0:0:0:
319,115,34853,2,0,L|271:117,1,47.9999985351563,2|0,0:0|0:0,0:0:0:0:
154,184,35015,2,0,L|59:180,1,95.9999970703126,8|2,3:0|0:0,0:0:0:0:
221,41,35340,1,8,0:0:0:0:
243,212,35502,1,2,0:0:0:0:
128,79,35664,5,4,0:0:0:0:
333,129,35826,1,2,0:0:0:0:
333,129,35907,1,0,0:0:0:0:
333,129,35988,2,0,P|351:176|361:226,1,95.9999970703126,8|0,0:0|0:0,0:0:0:0:
214,78,36313,1,8,3:0:0:0:
217,59,36394,1,0,0:0:0:0:
221,41,36475,1,2,0:0:0:0:
243,212,36637,1,4,0:3:0:0:
243,212,36961,6,0,L|235:307,1,95.9999970703126,4|0,0:0|0:0,0:0:0:0:
333,129,37286,1,8,0:0:0:0:
147,188,37448,1,2,0:0:0:0:
147,188,37529,1,0,0:0:0:0:
147,188,37610,2,0,L|51:180,1,95.9999970703126,8|2,3:0|0:0,0:0:0:0:
245,79,37934,2,0,L|248:127,1,47.9999985351563,8|0,0:0|0:0,0:0:0:0:
160,65,38096,2,0,L|163:18,1,47.9999985351563,2|0,0:0|0:0,0:0:0:0:
333,129,38259,6,0,L|341:226,1,95.9999970703126,4|2,0:0|0:0,0:0:0:0:
353,249,38502,1,0,0:0:0:0:
377,266,38583,2,0,P|423:256|471:253,1,95.9999970703126,8|2,0:0|0:0,0:0:0:0:
212,209,38907,2,0,L|116:204,1,95.9999970703126,8|0,0:3|0:0,0:0:0:0:
333,129,39232,1,4,0:3:0:0:
333,129,39556,6,0,L|328:33,1,95.9999970703126,4|0,0:0|0:0,0:0:0:0:
212,209,39880,2,0,L|208:256,1,47.9999985351563,8|0,0:0|0:0,0:0:0:0:
414,129,40043,2,0,L|411:81,1,47.9999985351563,2|0,0:0|0:0,0:0:0:0:
291,214,40205,2,0,L|286:309,1,95.9999970703126,8|2,3:0|0:0,0:0:0:0:
458,219,40529,1,8,0:0:0:0:
333,129,40691,1,2,0:0:0:0:
401,336,40853,6,0,L|496:331,1,95.9999970703126,4|0,0:3|0:0,0:0:0:0:
291,214,41178,2,0,L|188:209,1,95.9999970703126,4|0,0:3|0:0,0:0:0:0:
411,81,41501,5,8,0:0:0:0:
411,81,41826,1,8,0:0:0:0:
411,81,42150,5,2,0:0:0:0:
324,88,42312,1,0,0:0:0:0:
332,174,42474,1,0,0:0:0:0:
418,167,42636,1,0,0:0:0:0:
333,186,42799,5,2,0:0:0:0:
247,193,42961,1,0,0:0:0:0:
254,279,43123,1,0,0:0:0:0:
341,272,43285,1,0,0:0:0:0:
220,173,43447,6,0,L|148:166,1,71.9999978027344,2|0,0:0|0:0,0:0:0:0:
333,186,43772,2,0,L|405:179,1,71.9999978027344,0|0,0:0|0:0,0:0:0:0:
333,14,44096,1,2,0:0:0:0:
346,100,44258,1,0,0:0:0:0:
476,129,44420,1,0,0:0:0:0:
489,43,44582,1,0,0:0:0:0:
404,179,44745,5,2,0:0:0:0:
321,158,44907,1,0,0:0:0:0:
248,204,45069,1,0,0:0:0:0:
165,225,45231,2,0,P|128:222|92:214,1,71.9999978027344,0|2,0:0|0:0,0:0:0:0:
228,288,45555,2,0,P|238:328|245:371,1,71.9999978027344,0|0,0:0|0:0,0:0:0:0:
248,204,45880,2,0,P|251:165|259:132,1,71.9999978027344,0|2,0:0|0:0,0:0:0:0:
147,340,46204,2,0,P|109:333|68:328,1,71.9999978027344,0|0,0:0|0:0,0:0:0:0:
244,358,46528,2,0,P|282:351|323:346,1,71.9999978027344,0|2,0:0|0:0,0:0:0:0:
416,369,46853,5,0,0:0:0:0:
392,274,47015,1,0,0:0:0:0:
427,172,47177,1,0,0:0:0:0:
265,204,47339,6,0,L|184:197,1,71.9999978027344,2|0,0:0|0:0,0:0:0:0:
427,172,47664,2,0,L|508:165,1,71.9999978027344,0|0,0:0|0:0,0:0:0:0:
334,149,47988,1,2,0:0:0:0:
337,262,48150,2,0,L|344:343,1,71.9999978027344,0|0,0:0|0:0,0:0:0:0:
427,172,48474,6,0,P|415:98|357:58,1,143.999995605469,0|0,0:0|0:0,0:0:0:0:
250,110,48961,1,0,0:0:0:0:
265,204,49123,1,0,0:0:0:0:
186,50,49285,5,2,0:0:0:0:
171,144,49447,1,0,0:0:0:0:
265,204,49609,1,0,0:0:0:0:
280,298,49771,1,0,0:0:0:0:
135,274,49934,6,0,P|98:266|62:263,1,71.9999978027344,2|0,0:0|0:0,0:0:0:0:
195,372,50258,1,0,0:0:0:0:
280,298,50420,2,0,P|269:226|256:153,1,143.999995605469,0|0,0:0|0:0,0:0:0:0:
183,110,50907,2,0,P|220:140|321:107,1,143.999995605469,0|2,0:0|0:0,0:0:0:0:
395,115,51393,5,0,0:0:0:0:
415,199,51555,1,0,0:0:0:0:
328,38,51718,1,0,0:0:0:0:
308,122,51880,1,2,0:0:0:0:
415,199,52042,1,0,0:0:0:0:
499,179,52204,1,0,0:0:0:0:
374,280,52366,1,0,0:0:0:0:
308,122,52528,5,2,3:0:0:0:
415,199,52691,1,0,0:0:0:0:
272,275,52853,1,2,0:0:0:0:
229,132,53015,2,0,P|229:115|233:93,2,40,0|0|2,0:0|0:0|3:0,0:0:0:0:
374,280,53339,2,0,L|372:375,1,80,0|2,0:0|0:0,0:0:0:0:
307,203,53664,1,0,0:0:0:0:
468,286,53826,5,2,3:0:0:0:
273,366,53988,2,0,P|230:356|177:349,1,80,0|2,0:0|0:0,0:0:0:0:
208,170,54312,2,0,L|220:253,1,80,0|2,0:0|3:0,0:0:0:0:
304,140,54636,1,0,0:0:0:0:
148,68,54799,1,2,0:0:0:0:
288,20,54961,2,0,L|367:31,1,80,0|2,0:0|3:0,0:0:0:0:
208,170,55285,6,0,P|167:160|124:154,1,80,0|2,0:0|0:0,0:0:0:0:
8,100,55609,1,0,0:0:0:0:
68,252,55772,2,0,P|72:272|76:296,1,40,2|0,3:0|0:0,0:0:0:0:
129,154,55934,2,0,P|132:134|136:114,1,40,0|0,0:0|0:0,0:0:0:0:
0,201,56096,1,2,0:0:0:0:
175,299,56258,2,0,P|215:289|259:282,1,80,0|8,0:0|0:0,0:0:0:0:
372,147,56582,6,0,L|293:133,1,80,0|8,0:0|0:0,0:0:0:0:
161,65,56907,1,0,0:0:0:0:
224,189,57069,1,8,0:0:0:0:
291,28,57231,1,0,0:0:0:0:
143,75,57393,2,0,P|102:66|64:61,1,80,8|0,0:0|0:0,0:0:0:0:
160,276,57718,5,8,0:0:0:0:
224,189,57880,1,8,0:3:0:0:
40,265,58042,1,8,0:0:0:0:
99,158,58204,1,8,0:3:0:0:
214,340,58366,1,8,0:0:0:0:
224,189,58528,1,8,0:3:0:0:
365,256,58691,1,8,0:0:0:0:
295,77,58853,1,8,0:3:0:0:
482,190,59015,6,0,L|496:276,1,80,8|8,0:0|0:3,0:0:0:0:
352,334,59339,2,0,L|364:255,1,80,8|8,0:0|0:3,0:0:0:0:
329,83,59664,1,8,0:0:0:0:
482,190,59826,1,8,0:0:0:0:
266,152,59988,1,8,0:0:0:0:
434,52,60150,1,8,0:0:0:0:
241,170,60312,6,0,L|201:165,3,40,8|0|8|0,0:0|0:0|0:3|0:0,0:0:0:0:
192,245,60636,2,0,L|139:252,3,40,8|0|8|0,0:0|0:0|0:3|0:0,0:0:0:0:
152,336,60960,6,0,L|116:332,2,20,8|0|0,0:0|0:0|0:0,0:0:0:0:
236,368,61123,5,8,0:0:0:0:
245,337,61204,1,8,0:0:0:0:
264,311,61285,1,8,0:0:0:0:
290,294,61366,1,8,0:0:0:0:
321,287,61447,1,8,0:0:0:0:
353,290,61528,1,8,0:0:0:0:
384,316,61609,5,2,0:0:0:0:
107,189,62907,6,0,L|99:90,1,95.9999970703126,4|0,0:0|0:0,0:0:0:0:
238,202,63232,1,8,0:0:0:0:
149,304,63393,1,2,0:0:0:0:
149,304,63474,1,0,0:0:0:0:
149,304,63555,2,0,L|53:296,1,95.9999970703126,8|2,3:3|0:0,0:0:0:0:
238,202,63880,2,0,L|241:250,1,47.9999985351563,8|0,0:0|0:0,0:0:0:0:
107,189,64042,2,0,L|110:142,1,47.9999985351563,2|0,0:0|0:0,0:0:0:0:
269,87,64205,6,0,L|367:82,1,95.9999970703126,4|2,0:0|0:0,0:0:0:0:
391,94,64448,1,0,0:0:0:0:
414,111,64529,2,0,P|440:153|452:207,1,95.9999970703126,8|2,0:0|0:0,0:0:0:0:
316,329,64853,2,0,L|320:233,1,95.9999970703126,8|0,0:3|0:0,0:0:0:0:
269,87,65178,1,4,0:3:0:0:
269,87,65502,6,0,L|174:91,1,95.9999970703126,4|0,0:0|0:0,0:0:0:0:
58,225,65826,2,0,L|66:279,1,47.9999985351563,8|0,0:0|0:0,0:0:0:0:
34,123,65988,2,0,L|26:75,1,47.9999985351563,2|0,0:0|0:0,0:0:0:0:
146,207,66150,2,0,L|163:302,1,95.9999970703126,8|2,3:0|0:0,0:0:0:0:
173,91,66475,1,8,0:0:0:0:
38,214,66637,1,2,0:0:0:0:
239,227,66799,5,4,0:0:0:0:
102,362,66961,1,2,0:0:0:0:
102,362,67042,1,0,0:0:0:0:
102,362,67123,2,0,P|49:352|4:348,1,95.9999970703126,8|0,0:0|0:0,0:0:0:0:
239,227,67448,1,8,3:0:0:0:
243,245,67529,1,0,0:0:0:0:
246,264,67610,1,2,0:0:0:0:
87,147,67772,1,4,0:3:0:0:
87,147,68096,6,0,L|95:52,1,95.9999970703126,4|0,0:0|0:0,0:0:0:0:
120,272,68421,1,8,0:0:0:0:
276,189,68583,1,2,0:0:0:0:
276,189,68664,1,0,0:0:0:0:
276,189,68745,2,0,L|179:182,1,95.9999970703126,8|2,3:0|0:0,0:0:0:0:
325,297,69069,2,0,L|328:345,1,47.9999985351563,8|0,0:0|0:0,0:0:0:0:
411,228,69231,2,0,L|414:181,1,47.9999985351563,2|0,0:0|0:0,0:0:0:0:
229,336,69394,6,0,L|133:328,1,95.9999970703126,4|2,0:0|0:0,0:0:0:0:
107,315,69637,1,0,0:0:0:0:
86,294,69718,2,0,P|90:247|99:198,1,95.9999970703126,8|2,0:0|0:0,0:0:0:0:
221,114,70042,2,0,L|316:110,1,95.9999970703126,8|0,0:3|0:0,0:0:0:0:
432,215,70367,1,4,0:3:0:0:
432,215,70691,6,0,L|427:311,1,95.9999970703126,4|0,0:0|0:0,0:0:0:0:
476,93,71015,2,0,L|472:46,1,47.9999985351563,8|0,0:0|0:0,0:0:0:0:
348,212,71178,2,0,L|345:260,1,47.9999985351563,2|0,0:0|0:0,0:0:0:0:
393,101,71340,2,0,L|385:4,1,95.9999970703126,8|2,3:0|0:0,0:0:0:0:
256,159,71664,1,8,0:0:0:0:
432,215,71826,1,2,0:0:0:0:
272,307,71988,6,0,L|169:302,1,95.9999970703126,4|0,0:3|0:0,0:0:0:0:
336,219,72313,2,0,L|439:214,1,95.9999970703126,4|0,0:3|0:0,0:0:0:0:
249,99,72636,5,4,0:3:0:0:
232,203,72799,1,4,0:3:0:0:
336,219,72961,1,4,0:3:0:0:
353,115,73123,1,4,0:3:0:0:
140,152,73286,6,0,L|148:251,1,95.9999970703126,4|0,0:0|0:0,0:0:0:0:
92,48,73609,1,8,0:0:0:0:
239,107,73772,1,2,0:0:0:0:
239,107,73853,1,0,0:0:0:0:
239,107,73934,2,0,L|231:206,1,95.9999970703126,8|2,3:3|0:0,0:0:0:0:
120,344,74259,2,0,L|117:296,1,47.9999985351563,8|0,0:0|0:0,0:0:0:0:
36,217,74421,2,0,L|33:264,1,47.9999985351563,2|0,0:0|0:0,0:0:0:0:
214,355,74582,6,0,L|309:347,1,95.9999970703126,4|2,0:0|0:0,0:0:0:0:
334,329,74827,1,0,0:0:0:0:
355,307,74908,2,0,P|352:256|341:211,1,95.9999970703126,8|2,0:0|0:0,0:0:0:0:
475,121,75232,2,0,L|470:219,1,95.9999970703126,8|0,0:3|0:0,0:0:0:0:
286,60,75555,1,4,0:3:0:0:
286,60,75880,6,0,L|191:64,1,95.9999970703126,4|0,0:0|0:0,0:0:0:0:
341,212,76205,2,0,L|339:259,1,47.9999985351563,8|0,0:0|0:0,0:0:0:0:
401,128,76367,2,0,L|399:80,1,47.9999985351563,2|0,0:0|0:0,0:0:0:0:
465,222,76529,2,0,L|461:317,1,95.9999970703126,8|2,3:0|0:0,0:0:0:0:
309,130,76854,1,8,0:0:0:0:
493,96,77016,1,2,0:0:0:0:
337,258,77178,5,4,0:0:0:0:
223,131,77339,1,2,0:0:0:0:
223,131,77420,1,0,0:0:0:0:
223,131,77501,2,0,P|224:79|234:27,1,95.9999970703126,8|0,0:0|0:0,0:0:0:0:
337,258,77827,1,8,3:0:0:0:
341,276,77908,1,0,0:0:0:0:
344,295,77989,1,2,0:0:0:0:
126,206,78151,1,4,0:3:0:0:
126,206,78475,6,0,L|134:301,1,95.9999970703126,4|0,0:0|0:0,0:0:0:0:
256,377,78800,1,8,0:0:0:0:
346,266,78962,1,2,0:0:0:0:
346,266,79043,1,0,0:0:0:0:
346,266,79124,2,0,L|338:170,1,95.9999970703126,8|2,3:0|0:0,0:0:0:0:
258,329,79448,2,0,L|255:377,1,47.9999985351563,8|0,0:0|0:0,0:0:0:0:
134,301,79610,2,0,L|137:254,1,47.9999985351563,2|0,0:0|0:0,0:0:0:0:
317,160,79773,6,0,L|412:167,1,95.9999970703126,4|2,0:0|0:0,0:0:0:0:
438,153,80016,1,0,0:0:0:0:
454,128,80097,2,0,P|449:82|434:31,1,95.9999970703126,8|2,0:0|0:0,0:0:0:0:
317,160,80421,2,0,L|322:256,1,95.9999970703126,8|0,0:3|0:0,0:0:0:0:
160,80,80745,6,0,P|192:67|230:61,1,71.9999978027344,4|0,0:3|0:0,0:0:0:0:
256,72,81070,6,0,P|302:78|351:73,1,95.9999970703126,4|0,0:0|0:0,0:0:0:0:
499,218,81394,2,0,L|503:265,1,47.9999985351563,8|0,0:0|0:0,0:0:0:0:
433,138,81555,2,0,L|436:90,1,47.9999985351563,2|0,0:0|0:0,0:0:0:0:
320,247,81719,2,0,L|325:342,1,95.9999970703126,8|2,3:0|0:0,0:0:0:0:
263,154,82043,1,8,0:0:0:0:
414,223,82205,1,2,0:0:0:0:
214,315,82367,6,0,P|165:306|119:302,1,95.9999970703126,4|0,0:3|0:0,0:0:0:0:
325,342,82691,2,0,P|372:337|419:329,1,95.9999970703126,4|0,0:3|0:0,0:0:0:0:
263,154,83015,5,0,0:0:0:0:
263,154,83664,5,4,0:0:0:0:
273,171,83745,1,0,0:0:0:0:
280,189,83826,1,2,0:0:0:0:
283,209,83907,1,0,0:0:0:0:
282,229,83988,2,0,L|193:225,1,80,8|2,0:0|0:0,0:0:0:0:
101,168,84312,1,8,0:3:0:0:
22,283,84474,1,0,0:0:0:0:
23,302,84555,1,0,0:0:0:0:
24,322,84636,1,8,0:0:0:0:
98,207,84799,1,2,0:0:0:0:
99,187,84880,1,0,0:0:0:0:
101,168,84961,6,0,L|103:86,1,80,4|2,0:0|0:0,0:0:0:0:
204,23,85285,1,8,0:0:0:0:
231,21,85366,1,0,0:0:0:0:
258,30,85447,1,2,0:0:0:0:
280,47,85528,1,0,0:0:0:0:
294,71,85609,2,0,L|302:131,1,40,8|0,0:3|0:0,0:0:0:0:
206,156,85772,2,0,L|212:117,1,40,2|0,0:0|0:0,0:0:0:0:
288,214,85934,5,8,0:0:0:0:
288,214,86258,5,4,0:0:0:0:
183,281,86420,1,2,0:0:0:0:
181,301,86501,1,0,0:0:0:0:
180,321,86582,2,0,P|143:312|94:308,1,80,8|2,0:0|0:0,0:0:0:0:
41,208,86907,1,8,0:3:0:0:
132,137,87069,1,2,0:0:0:0:
163,143,87150,1,0,0:0:0:0:
193,135,87231,1,8,0:0:0:0:
217,114,87312,1,0,0:0:0:0:
230,85,87393,1,2,0:0:0:0:
228,53,87474,1,0,0:0:0:0:
213,25,87555,6,0,L|131:30,1,80,4|2,0:0|0:0,0:0:0:0:
115,46,87799,1,0,0:0:0:0:
98,64,87880,2,0,P|91:90|89:108,1,40,8|0,0:0|0:0,0:0:0:0:
201,173,88042,2,0,P|197:153|192:134,1,40,2|0,0:0|0:0,0:0:0:0:
75,220,88204,1,8,0:3:0:0:
168,291,88366,1,2,0:0:0:0:
39,364,88528,5,8,0:0:0:0:
39,364,88691,1,2,0:1:0:0:
250,244,88853,6,0,L|335:251,1,80,4|2,0:0|0:0,0:0:0:0:
201,173,89177,1,8,0:0:0:0:
246,332,89339,1,2,0:0:0:0:
340,242,89501,1,8,0:3:0:0:
255,103,89664,1,2,0:0:0:0:
235,97,89745,1,0,0:0:0:0:
215,93,89826,2,0,L|125:97,1,80,8|2,0:0|0:0,0:0:0:0:
300,23,90150,5,4,0:0:0:0:
320,41,90231,1,0,0:0:0:0:
335,65,90312,1,2,0:0:0:0:
342,92,90393,1,0,0:0:0:0:
342,120,90474,1,8,0:0:0:0:
360,99,90555,1,0,0:0:0:0:
384,84,90636,1,2,0:0:0:0:
411,77,90717,1,0,0:0:0:0:
439,77,90799,2,0,P|463:80|481:84,1,40,8|0,0:3|0:0,0:0:0:0:
413,182,90961,2,0,P|389:185|371:189,1,40,2|0,0:0|0:0,0:0:0:0:
490,259,91123,6,0,P|501:295|508:346,1,71.9999978027344,8|0,0:0|0:0,0:0:0:0:
489,345,91447,6,0,L|410:335,1,80,4|2,0:0|0:0,0:0:0:0:
291,282,91772,1,8,0:3:0:0:
265,306,91853,1,0,0:0:0:0:
232,319,91934,1,2,0:0:0:0:
196,321,92015,1,0,0:0:0:0:
161,310,92096,1,8,0:0:0:0:
213,194,92258,1,2,3:0:0:0:
67,144,92420,6,0,L|24:148,3,37.3333321940105,8|0|0|2,0:0|0:0|0:0|0:0,0:0:0:0:
202,101,92745,1,4,0:0:0:0:
241,109,92826,1,0,0:0:0:0:
274,131,92907,1,2,0:0:0:0:
295,165,92988,1,0,0:0:0:0:
307,200,93069,6,0,L|304:255,3,37.3333321940105,8|0|0|2,0:0|0:0|0:0|0:0,0:0:0:0:
213,342,93393,5,2,0:3:0:0:
168,371,93474,1,2,0:3:0:0:
116,354,93555,1,2,0:3:0:0:
98,303,93636,1,2,0:3:0:0:
144,244,93717,5,4,0:0:0:0:
