osu file format v14

[General]
AudioFilename: audio.mp3
AudioLeadIn: 0
PreviewTime: 21410
Countdown: 0
SampleSet: Soft
StackLeniency: 0.7
Mode: 3
LetterboxInBreaks: 0
SpecialStyle: 0
WidescreenStoryboard: 1

[Editor]
DistanceSpacing: 0.7
BeatDivisor: 4
GridSize: 4
TimelineZoom: 2.1

[Metadata]
Title:TSLove
TitleUnicode:TSLove
Artist:O2i3
ArtistUnicode:O2i3
Creator:CloudHolic
Version:Normal
Source:
Tags:
BeatmapID:1228752
BeatmapSetID:579919

[Difficulty]
HPDrainRate:6
CircleSize:7
OverallDifficulty:6
ApproachRate:5
SliderMultiplier:1.4
SliderTickRate:1

[Events]
//Background and Video events
0,0,"bg.jpg",0,0
//Break Periods
//Storyboard Layer 0 (Background)
//Storyboard Layer 1 (Fail)
//Storyboard Layer 2 (Pass)
//Storyboard Layer 3 (Foreground)
//Storyboard Sound Samples

[TimingPoints]
167,324.324324324324,4,2,0,10,1,0
654,324.324324324324,4,2,0,10,1,0
21410,-100,4,2,0,10,0,1
41843,-100,4,2,0,10,0,0
62924,-100,4,2,0,10,0,1
82870,-100,4,2,0,10,0,0

[HitObjects]
36,192,653,5,0,0:0:0:0:
182,192,978,1,0,0:0:0:0:
256,192,978,1,0,0:0:0:0:
402,192,1302,1,0,0:0:0:0:
36,192,1626,1,0,0:0:0:0:
109,192,1626,1,0,0:0:0:0:
256,192,1951,1,0,0:0:0:0:
402,192,2275,1,0,0:0:0:0:
475,192,2275,1,0,0:0:0:0:
36,192,2599,1,0,0:0:0:0:
182,192,2924,1,0,0:0:0:0:
256,192,2924,1,0,0:0:0:0:
475,192,3248,1,0,0:0:0:0:
256,192,3572,1,0,0:0:0:0:
329,192,3572,1,0,0:0:0:0:
109,192,3897,1,0,0:0:0:0:
329,192,4221,1,0,0:0:0:0:
402,192,4221,1,0,0:0:0:0:
256,192,4545,1,0,0:0:0:0:
109,192,4870,1,0,0:0:0:0:
182,192,4870,1,0,0:0:0:0:
475,192,5194,1,0,0:0:0:0:
182,192,5518,1,0,0:0:0:0:
256,192,5518,1,0,0:0:0:0:
329,192,5843,1,0,0:0:0:0:
36,192,6167,1,0,0:0:0:0:
109,192,6167,1,0,0:0:0:0:
256,192,6491,1,0,0:0:0:0:
402,192,6816,1,0,0:0:0:0:
475,192,6816,1,0,0:0:0:0:
182,192,7140,1,0,0:0:0:0:
329,192,7464,1,0,0:0:0:0:
402,192,7464,1,0,0:0:0:0:
256,192,7789,1,0,0:0:0:0:
402,192,8113,1,0,0:0:0:0:
475,192,8113,1,0,0:0:0:0:
36,192,8437,1,0,0:0:0:0:
329,192,8762,1,0,0:0:0:0:
256,192,8762,1,0,0:0:0:0:
109,192,9086,1,0,0:0:0:0:
182,192,9410,1,0,0:0:0:0:
256,192,9410,1,0,0:0:0:0:
475,192,9735,1,0,0:0:0:0:
36,192,10059,1,0,0:0:0:0:
109,192,10059,1,0,0:0:0:0:
329,192,10383,1,0,0:0:0:0:
109,192,10708,1,0,0:0:0:0:
182,192,10708,1,0,0:0:0:0:
329,192,11032,1,0,0:0:0:0:
475,192,11032,1,0,0:0:0:0:
36,192,11356,1,0,0:0:0:0:
109,192,11356,1,0,0:0:0:0:
182,192,11681,1,0,0:0:0:0:
402,192,11681,1,0,0:0:0:0:
256,192,12005,1,0,0:0:0:0:
329,192,12005,1,0,0:0:0:0:
36,192,12329,1,0,0:0:0:0:
182,192,12329,1,0,0:0:0:0:
402,192,12653,1,0,0:0:0:0:
475,192,12653,1,0,0:0:0:0:
329,192,12978,1,0,0:0:0:0:
182,192,12978,1,0,0:0:0:0:
182,192,13302,1,0,0:0:0:0:
256,192,13302,1,0,0:0:0:0:
402,192,13626,1,0,0:0:0:0:
109,192,13626,1,0,0:0:0:0:
256,192,13951,1,0,0:0:0:0:
329,192,13951,1,0,0:0:0:0:
36,192,14275,1,0,0:0:0:0:
182,192,14275,1,0,0:0:0:0:
475,192,14599,1,0,0:0:0:0:
402,192,14599,1,0,0:0:0:0:
109,192,14924,1,0,0:0:0:0:
182,192,14924,1,0,0:0:0:0:
329,192,15248,1,0,0:0:0:0:
402,192,15248,1,0,0:0:0:0:
109,192,15572,1,0,0:0:0:0:
36,192,15572,1,0,0:0:0:0:
256,192,15897,1,0,0:0:0:0:
329,192,15897,1,0,0:0:0:0:
256,192,16221,1,0,0:0:0:0:
329,192,16221,1,0,0:0:0:0:
109,192,16383,1,0,0:0:0:0:
402,192,16545,1,0,0:0:0:0:
475,192,16545,1,0,0:0:0:0:
36,192,16708,1,0,0:0:0:0:
256,192,16870,1,0,0:0:0:0:
329,192,16870,1,0,0:0:0:0:
109,192,17032,1,0,0:0:0:0:
402,192,17194,1,0,0:0:0:0:
475,192,17194,1,0,0:0:0:0:
256,192,17356,1,0,0:0:0:0:
36,192,17518,1,0,0:0:0:0:
109,192,17518,1,0,0:0:0:0:
402,192,17681,1,0,0:0:0:0:
182,192,17843,1,0,0:0:0:0:
256,192,17843,1,0,0:0:0:0:
475,192,18005,1,0,0:0:0:0:
36,192,18167,1,0,0:0:0:0:
109,192,18167,1,0,0:0:0:0:
402,192,18329,1,0,0:0:0:0:
182,192,18491,1,0,0:0:0:0:
256,192,18491,1,0,0:0:0:0:
475,192,18653,1,0,0:0:0:0:
36,192,18816,128,0,19140:0:0:0:0:
475,192,19140,128,0,19464:0:0:0:0:
36,192,19464,128,0,19789:0:0:0:0:
475,192,19789,128,0,20113:0:0:0:0:
256,192,20113,128,0,21410:0:0:0:0:
109,192,21410,1,0,0:0:0:0:
475,192,21410,1,0,0:0:0:0:
402,192,21410,1,0,0:0:0:0:
36,192,21735,1,0,0:0:0:0:
182,192,21735,1,0,0:0:0:0:
256,192,22059,1,0,0:0:0:0:
475,192,22059,1,0,0:0:0:0:
329,192,22383,1,0,0:0:0:0:
402,192,22383,1,0,0:0:0:0:
36,192,22708,1,0,0:0:0:0:
109,192,22708,1,0,0:0:0:0:
475,192,23032,1,0,0:0:0:0:
329,192,23032,1,0,0:0:0:0:
256,192,23356,1,0,0:0:0:0:
109,192,23356,1,0,0:0:0:0:
402,192,23681,1,0,0:0:0:0:
475,192,23681,1,0,0:0:0:0:
182,192,23681,1,0,0:0:0:0:
36,192,24005,1,0,0:0:0:0:
182,192,24005,1,0,0:0:0:0:
329,192,24329,1,0,0:0:0:0:
402,192,24329,1,0,0:0:0:0:
109,192,24653,1,0,0:0:0:0:
256,192,24653,1,0,0:0:0:0:
402,192,24978,1,0,0:0:0:0:
475,192,24978,1,0,0:0:0:0:
36,192,25302,1,0,0:0:0:0:
109,192,25302,1,0,0:0:0:0:
329,192,25626,1,0,0:0:0:0:
475,192,25626,1,0,0:0:0:0:
109,192,25951,1,0,0:0:0:0:
256,192,25951,1,0,0:0:0:0:
402,192,26113,1,0,0:0:0:0:
402,192,26275,1,0,0:0:0:0:
109,192,26275,1,0,0:0:0:0:
36,192,26599,1,0,0:0:0:0:
256,192,26599,1,0,0:0:0:0:
475,192,26924,1,0,0:0:0:0:
329,192,26924,1,0,0:0:0:0:
109,192,27248,1,0,0:0:0:0:
182,192,27248,1,0,0:0:0:0:
256,192,27572,1,0,0:0:0:0:
402,192,27572,1,0,0:0:0:0:
36,192,27897,1,0,0:0:0:0:
109,192,27897,1,0,0:0:0:0:
329,192,28221,1,0,0:0:0:0:
475,192,28221,1,0,0:0:0:0:
182,192,28545,1,0,0:0:0:0:
36,192,28545,1,0,0:0:0:0:
329,192,28870,1,0,0:0:0:0:
402,192,28870,1,0,0:0:0:0:
109,192,28870,1,0,0:0:0:0:
109,192,29194,1,0,0:0:0:0:
256,192,29194,1,0,0:0:0:0:
475,192,29518,1,0,0:0:0:0:
402,192,29518,1,0,0:0:0:0:
36,192,29843,1,0,0:0:0:0:
256,192,29843,1,0,0:0:0:0:
182,192,30167,1,0,0:0:0:0:
475,192,30167,1,0,0:0:0:0:
36,192,30491,1,0,0:0:0:0:
329,192,30491,1,0,0:0:0:0:
36,192,30816,1,0,0:0:0:0:
256,192,30816,1,0,0:0:0:0:
36,192,31140,1,0,0:0:0:0:
182,192,31302,1,0,0:0:0:0:
329,192,31464,1,0,0:0:0:0:
475,192,31626,1,0,0:0:0:0:
109,192,31789,1,0,0:0:0:0:
256,192,31789,1,0,0:0:0:0:
329,192,32113,1,0,0:0:0:0:
402,192,32113,1,0,0:0:0:0:
36,192,32437,1,0,0:0:0:0:
256,192,32437,1,0,0:0:0:0:
109,192,32762,1,0,0:0:0:0:
475,192,32762,1,0,0:0:0:0:
402,192,33086,1,0,0:0:0:0:
182,192,33086,1,0,0:0:0:0:
256,192,33410,1,0,0:0:0:0:
36,192,33410,1,0,0:0:0:0:
109,192,33735,1,0,0:0:0:0:
182,192,33735,1,0,0:0:0:0:
475,192,34059,1,0,0:0:0:0:
402,192,34059,1,0,0:0:0:0:
182,192,34059,1,0,0:0:0:0:
256,192,34383,1,0,0:0:0:0:
109,192,34383,1,0,0:0:0:0:
329,192,34708,1,0,0:0:0:0:
475,192,34708,1,0,0:0:0:0:
36,192,35032,1,0,0:0:0:0:
182,192,35032,1,0,0:0:0:0:
256,192,35356,1,0,0:0:0:0:
329,192,35356,1,0,0:0:0:0:
475,192,35681,1,0,0:0:0:0:
182,192,35681,1,0,0:0:0:0:
36,192,36005,1,0,0:0:0:0:
256,192,36005,1,0,0:0:0:0:
402,192,36329,1,0,0:0:0:0:
329,192,36329,1,0,0:0:0:0:
109,192,36491,1,0,0:0:0:0:
475,192,36653,1,0,0:0:0:0:
109,192,36653,1,0,0:0:0:0:
182,192,36978,1,0,0:0:0:0:
256,192,36978,1,0,0:0:0:0:
402,192,37302,1,0,0:0:0:0:
475,192,37302,1,0,0:0:0:0:
36,192,37626,1,0,0:0:0:0:
109,192,37626,1,0,0:0:0:0:
182,192,37951,1,0,0:0:0:0:
256,192,37951,1,0,0:0:0:0:
475,192,38275,1,0,0:0:0:0:
329,192,38275,1,0,0:0:0:0:
36,192,38599,1,0,0:0:0:0:
109,192,38599,1,0,0:0:0:0:
182,192,38924,1,0,0:0:0:0:
402,192,38924,1,0,0:0:0:0:
256,192,39248,1,0,0:0:0:0:
329,192,39248,1,0,0:0:0:0:
475,192,39248,1,0,0:0:0:0:
36,192,39572,1,0,0:0:0:0:
402,192,39572,1,0,0:0:0:0:
109,192,39897,1,0,0:0:0:0:
475,192,39897,1,0,0:0:0:0:
475,192,40221,1,0,0:0:0:0:
256,192,40221,1,0,0:0:0:0:
402,192,40545,1,0,0:0:0:0:
329,192,40545,1,0,0:0:0:0:
182,192,40870,1,0,0:0:0:0:
475,192,40870,1,0,0:0:0:0:
182,192,41194,1,0,0:0:0:0:
36,192,41194,1,0,0:0:0:0:
256,192,41518,1,0,0:0:0:0:
256,192,41843,1,0,0:0:0:0:
475,192,42167,128,0,44113:0:0:0:0:
329,192,44113,1,0,0:0:0:0:
256,192,44275,1,0,0:0:0:0:
36,192,44437,1,0,0:0:0:0:
182,192,44599,1,0,0:0:0:0:
475,192,44762,1,0,0:0:0:0:
256,192,44924,1,0,0:0:0:0:
402,192,45086,1,0,0:0:0:0:
329,192,45248,1,0,0:0:0:0:
329,192,45572,1,0,0:0:0:0:
109,192,45897,1,0,0:0:0:0:
182,192,46221,128,0,46870:0:0:0:0:
256,192,46870,1,0,0:0:0:0:
329,192,47032,1,0,0:0:0:0:
475,192,47194,1,0,0:0:0:0:
329,192,48167,1,0,0:0:0:0:
329,192,48491,128,0,48978:0:0:0:0:
36,192,48978,1,0,0:0:0:0:
256,192,49140,1,0,0:0:0:0:
109,192,49302,1,0,0:0:0:0:
182,192,49464,1,0,0:0:0:0:
329,192,49626,1,0,0:0:0:0:
109,192,49789,1,0,0:0:0:0:
182,192,49951,1,0,0:0:0:0:
256,192,50275,128,0,50437:0:0:0:0:
402,192,50437,1,0,0:0:0:0:
329,192,50762,128,0,50924:0:0:0:0:
182,192,50924,128,0,52545:0:0:0:0:
402,192,52545,1,0,0:0:0:0:
256,192,52870,1,0,0:0:0:0:
36,192,53194,1,0,0:0:0:0:
182,192,53518,1,0,0:0:0:0:
256,192,53843,1,0,0:0:0:0:
475,192,54167,1,0,0:0:0:0:
109,192,54491,1,0,0:0:0:0:
402,192,54816,1,0,0:0:0:0:
256,192,55140,1,0,0:0:0:0:
329,192,55140,1,0,0:0:0:0:
36,192,55464,1,0,0:0:0:0:
109,192,55464,1,0,0:0:0:0:
402,192,55789,1,0,0:0:0:0:
475,192,55789,1,0,0:0:0:0:
182,192,56113,1,0,0:0:0:0:
256,192,56113,1,0,0:0:0:0:
475,192,56437,1,0,0:0:0:0:
329,192,56437,1,0,0:0:0:0:
36,192,56762,1,0,0:0:0:0:
256,192,56762,1,0,0:0:0:0:
182,192,57086,1,0,0:0:0:0:
402,192,57086,1,0,0:0:0:0:
256,192,57410,1,0,0:0:0:0:
475,192,57410,1,0,0:0:0:0:
36,192,57735,1,0,0:0:0:0:
182,192,57735,1,0,0:0:0:0:
475,192,57897,1,0,0:0:0:0:
36,192,58059,1,0,0:0:0:0:
182,192,58059,1,0,0:0:0:0:
475,192,58221,1,0,0:0:0:0:
109,192,58383,1,0,0:0:0:0:
256,192,58383,1,0,0:0:0:0:
402,192,58545,1,0,0:0:0:0:
109,192,58708,1,0,0:0:0:0:
256,192,58708,1,0,0:0:0:0:
402,192,58870,1,0,0:0:0:0:
475,192,59032,1,0,0:0:0:0:
329,192,59032,1,0,0:0:0:0:
36,192,59194,1,0,0:0:0:0:
329,192,59356,1,0,0:0:0:0:
475,192,59356,1,0,0:0:0:0:
36,192,59518,1,0,0:0:0:0:
256,192,59681,1,0,0:0:0:0:
402,192,59681,1,0,0:0:0:0:
109,192,59843,1,0,0:0:0:0:
256,192,60005,1,0,0:0:0:0:
402,192,60005,1,0,0:0:0:0:
109,192,60167,1,0,0:0:0:0:
402,192,60329,128,0,60653:0:0:0:0:
109,192,60653,128,0,60978:0:0:0:0:
402,192,60978,128,0,61302:0:0:0:0:
109,192,61302,128,0,61626:0:0:0:0:
256,192,62924,1,0,0:0:0:0:
475,192,62924,1,0,0:0:0:0:
36,192,63248,1,0,0:0:0:0:
182,192,63248,1,0,0:0:0:0:
109,192,63572,1,0,0:0:0:0:
402,192,63572,1,0,0:0:0:0:
475,192,63897,1,0,0:0:0:0:
256,192,63897,1,0,0:0:0:0:
36,192,64221,1,0,0:0:0:0:
109,192,64221,1,0,0:0:0:0:
256,192,64545,1,0,0:0:0:0:
402,192,64545,1,0,0:0:0:0:
109,192,64870,1,0,0:0:0:0:
182,192,64870,1,0,0:0:0:0:
256,192,65194,1,0,0:0:0:0:
475,192,65194,1,0,0:0:0:0:
109,192,65194,1,0,0:0:0:0:
36,192,65518,1,0,0:0:0:0:
402,192,65518,1,0,0:0:0:0:
109,192,65843,1,0,0:0:0:0:
256,192,65843,1,0,0:0:0:0:
182,192,66167,1,0,0:0:0:0:
329,192,66167,1,0,0:0:0:0:
256,192,66491,1,0,0:0:0:0:
475,192,66491,1,0,0:0:0:0:
109,192,66816,1,0,0:0:0:0:
182,192,66816,1,0,0:0:0:0:
109,192,67140,1,0,0:0:0:0:
402,192,67140,1,0,0:0:0:0:
329,192,67464,1,0,0:0:0:0:
36,192,67464,1,0,0:0:0:0:
182,192,67626,1,0,0:0:0:0:
329,192,67789,1,0,0:0:0:0:
182,192,67789,1,0,0:0:0:0:
256,192,68113,1,0,0:0:0:0:
475,192,68113,1,0,0:0:0:0:
36,192,68437,1,0,0:0:0:0:
109,192,68437,1,0,0:0:0:0:
182,192,68762,1,0,0:0:0:0:
402,192,68762,1,0,0:0:0:0:
256,192,69086,1,0,0:0:0:0:
36,192,69086,1,0,0:0:0:0:
402,192,69410,1,0,0:0:0:0:
475,192,69410,1,0,0:0:0:0:
109,192,69735,1,0,0:0:0:0:
182,192,69735,1,0,0:0:0:0:
256,192,70059,1,0,0:0:0:0:
402,192,70059,1,0,0:0:0:0:
329,192,70383,1,0,0:0:0:0:
36,192,70383,1,0,0:0:0:0:
475,192,70383,1,0,0:0:0:0:
256,192,70708,1,0,0:0:0:0:
475,192,70708,1,0,0:0:0:0:
182,192,71032,1,0,0:0:0:0:
36,192,71032,1,0,0:0:0:0:
109,192,71356,1,0,0:0:0:0:
329,192,71356,1,0,0:0:0:0:
256,192,71681,1,0,0:0:0:0:
36,192,71681,1,0,0:0:0:0:
475,192,72005,1,0,0:0:0:0:
475,192,72329,1,0,0:0:0:0:
109,192,72653,1,0,0:0:0:0:
182,192,72816,1,0,0:0:0:0:
256,192,72978,1,0,0:0:0:0:
329,192,73140,1,0,0:0:0:0:
36,192,73302,1,0,0:0:0:0:
109,192,73302,1,0,0:0:0:0:
256,192,73626,1,0,0:0:0:0:
402,192,73626,1,0,0:0:0:0:
475,192,73951,1,0,0:0:0:0:
109,192,73951,1,0,0:0:0:0:
182,192,74275,1,0,0:0:0:0:
402,192,74275,1,0,0:0:0:0:
36,192,74599,1,0,0:0:0:0:
109,192,74599,1,0,0:0:0:0:
329,192,74924,1,0,0:0:0:0:
402,192,74924,1,0,0:0:0:0:
182,192,75248,1,0,0:0:0:0:
256,192,75248,1,0,0:0:0:0:
329,192,75572,1,0,0:0:0:0:
475,192,75572,1,0,0:0:0:0:
256,192,75572,1,0,0:0:0:0:
36,192,75897,1,0,0:0:0:0:
109,192,75897,1,0,0:0:0:0:
182,192,76221,1,0,0:0:0:0:
402,192,76221,1,0,0:0:0:0:
256,192,76545,1,0,0:0:0:0:
329,192,76545,1,0,0:0:0:0:
475,192,76870,1,0,0:0:0:0:
182,192,76870,1,0,0:0:0:0:
36,192,77194,1,0,0:0:0:0:
109,192,77194,1,0,0:0:0:0:
182,192,77518,1,0,0:0:0:0:
402,192,77518,1,0,0:0:0:0:
475,192,77843,1,0,0:0:0:0:
256,192,77843,1,0,0:0:0:0:
36,192,78005,1,0,0:0:0:0:
475,192,78167,1,0,0:0:0:0:
36,192,78167,1,0,0:0:0:0:
109,192,78491,1,0,0:0:0:0:
402,192,78491,1,0,0:0:0:0:
182,192,78816,1,0,0:0:0:0:
256,192,78816,1,0,0:0:0:0:
402,192,79140,1,0,0:0:0:0:
475,192,79140,1,0,0:0:0:0:
36,192,79464,1,0,0:0:0:0:
256,192,79464,1,0,0:0:0:0:
329,192,79789,1,0,0:0:0:0:
109,192,79789,1,0,0:0:0:0:
475,192,80113,1,0,0:0:0:0:
182,192,80113,1,0,0:0:0:0:
256,192,80437,1,0,0:0:0:0:
475,192,80437,1,0,0:0:0:0:
36,192,80762,1,0,0:0:0:0:
109,192,80762,1,0,0:0:0:0:
256,192,80762,1,0,0:0:0:0:
329,192,81086,1,0,0:0:0:0:
402,192,81086,1,0,0:0:0:0:
109,192,81410,1,0,0:0:0:0:
256,192,81410,1,0,0:0:0:0:
475,192,81735,1,0,0:0:0:0:
329,192,81735,1,0,0:0:0:0:
36,192,82059,1,0,0:0:0:0:
109,192,82059,1,0,0:0:0:0:
182,192,82383,1,0,0:0:0:0:
402,192,82383,1,0,0:0:0:0:
182,192,82708,1,0,0:0:0:0:
402,192,82708,1,0,0:0:0:0:
182,192,83681,1,0,0:0:0:0:
256,192,83843,1,0,0:0:0:0:
329,192,84005,1,0,0:0:0:0:
109,192,84167,1,0,0:0:0:0:
256,192,84329,1,0,0:0:0:0:
36,192,84491,1,0,0:0:0:0:
182,192,84653,1,0,0:0:0:0:
402,192,84816,1,0,0:0:0:0:
475,192,84978,1,0,0:0:0:0:
256,192,85221,128,0,85545:0:0:0:0:
402,192,85626,1,0,0:0:0:0:
475,192,85789,1,0,0:0:0:0:
109,192,85951,1,0,0:0:0:0:
36,192,86437,1,0,0:0:0:0:
329,192,86599,1,0,0:0:0:0:
475,192,86762,1,0,0:0:0:0:
256,192,86924,1,0,0:0:0:0:
36,192,87086,1,0,0:0:0:0:
329,192,87248,1,0,0:0:0:0:
182,192,87410,1,0,0:0:0:0:
475,192,87572,1,0,0:0:0:0:
109,192,87735,1,0,0:0:0:0:
329,192,87897,1,0,0:0:0:0:
256,192,88059,1,0,0:0:0:0:
402,192,88221,1,0,0:0:0:0:
182,192,88383,1,0,0:0:0:0:
256,192,89032,1,0,0:0:0:0:
36,192,89194,1,0,0:0:0:0:
182,192,89356,1,0,0:0:0:0:
329,192,89518,1,0,0:0:0:0:
36,192,89681,1,0,0:0:0:0:
256,192,89843,1,0,0:0:0:0:
475,192,90005,1,0,0:0:0:0:
109,192,90167,1,0,0:0:0:0:
256,192,90329,1,0,0:0:0:0:
329,192,90491,1,0,0:0:0:0:
475,192,90653,1,0,0:0:0:0:
36,192,90816,1,0,0:0:0:0:
182,192,90978,1,0,0:0:0:0:
256,192,91464,1,0,0:0:0:0:
475,192,91626,1,0,0:0:0:0:
182,192,91789,1,0,0:0:0:0:
329,192,91951,1,0,0:0:0:0:
36,192,92113,1,0,0:0:0:0:
256,192,92275,1,0,0:0:0:0:
109,192,92437,1,0,0:0:0:0:
329,192,92599,1,0,0:0:0:0:
475,192,92762,1,0,0:0:0:0:
36,192,92762,1,0,0:0:0:0:
256,192,92924,1,0,0:0:0:0:
109,192,93086,1,0,0:0:0:0:
329,192,93248,1,0,0:0:0:0:
256,192,93410,128,0,93735:0:0:0:0:
475,192,93735,128,0,95356:0:0:0:0:
