osu file format v14

[General]
AudioFilename: audio.mp3
AudioLeadIn: 0
PreviewTime: 21410
Countdown: 0
SampleSet: Soft
StackLeniency: 0.7
Mode: 3
LetterboxInBreaks: 0
SpecialStyle: 0
WidescreenStoryboard: 1

[Editor]
DistanceSpacing: 0.7
BeatDivisor: 4
GridSize: 4
TimelineZoom: 2.1

[Metadata]
Title:TSLove
TitleUnicode:TSLove
Artist:O2i3
ArtistUnicode:O2i3
Creator:CloudHolic
Version:Hyper
Source:
Tags:
BeatmapID:1228754
BeatmapSetID:579919

[Difficulty]
HPDrainRate:8
CircleSize:7
OverallDifficulty:8
ApproachRate:5
SliderMultiplier:1.4
SliderTickRate:1

[Events]
//Background and Video events
0,0,"bg.jpg",0,0
//Break Periods
//Storyboard Layer 0 (Background)
//Storyboard Layer 1 (Fail)
//Storyboard Layer 2 (Pass)
//Storyboard Layer 3 (Foreground)
//Storyboard Sound Samples

[TimingPoints]
167,324.324324324324,4,2,0,10,1,0
654,324.324324324324,4,2,0,10,1,0
21410,-100,4,2,0,10,0,1
41843,-100,4,2,0,10,0,0
62924,-100,4,2,0,10,0,1
82870,-100,4,2,0,10,0,0

[HitObjects]
256,192,167,128,0,653:0:0:0:0:
36,192,653,1,0,0:0:0:0:
109,192,654,1,0,0:0:0:0:
402,192,816,1,0,0:0:0:0:
329,192,816,1,0,0:0:0:0:
109,192,978,1,0,0:0:0:0:
182,192,978,1,0,0:0:0:0:
402,192,1140,1,0,0:0:0:0:
475,192,1140,1,0,0:0:0:0:
109,192,1302,1,0,0:0:0:0:
36,192,1302,1,0,0:0:0:0:
402,192,1464,1,0,0:0:0:0:
329,192,1464,1,0,0:0:0:0:
109,192,1626,1,0,0:0:0:0:
182,192,1626,1,0,0:0:0:0:
256,192,1789,1,0,0:0:0:0:
329,192,1789,1,0,0:0:0:0:
36,192,1951,1,0,0:0:0:0:
109,192,1951,1,0,0:0:0:0:
182,192,2113,1,0,0:0:0:0:
256,192,2113,1,0,0:0:0:0:
475,192,2275,1,0,0:0:0:0:
402,192,2275,1,0,0:0:0:0:
109,192,2437,1,0,0:0:0:0:
182,192,2437,1,0,0:0:0:0:
329,192,2599,1,0,0:0:0:0:
402,192,2599,1,0,0:0:0:0:
36,192,2762,1,0,0:0:0:0:
109,192,2762,1,0,0:0:0:0:
256,192,2924,1,0,0:0:0:0:
329,192,2924,1,0,0:0:0:0:
182,192,3086,1,0,0:0:0:0:
109,192,3086,1,0,0:0:0:0:
475,192,3248,1,0,0:0:0:0:
402,192,3248,1,0,0:0:0:0:
36,192,3410,1,0,0:0:0:0:
109,192,3410,1,0,0:0:0:0:
256,192,3572,1,0,0:0:0:0:
329,192,3572,1,0,0:0:0:0:
109,192,3735,1,0,0:0:0:0:
182,192,3735,1,0,0:0:0:0:
402,192,3897,1,0,0:0:0:0:
475,192,3897,1,0,0:0:0:0:
256,192,4059,1,0,0:0:0:0:
182,192,4059,1,0,0:0:0:0:
329,192,4221,1,0,0:0:0:0:
402,192,4221,1,0,0:0:0:0:
36,192,4383,1,0,0:0:0:0:
109,192,4383,1,0,0:0:0:0:
256,192,4545,1,0,0:0:0:0:
329,192,4545,1,0,0:0:0:0:
475,192,4708,1,0,0:0:0:0:
402,192,4708,1,0,0:0:0:0:
109,192,4870,1,0,0:0:0:0:
182,192,4870,1,0,0:0:0:0:
329,192,5032,1,0,0:0:0:0:
402,192,5032,1,0,0:0:0:0:
36,192,5194,1,0,0:0:0:0:
109,192,5194,1,0,0:0:0:0:
182,192,5356,1,0,0:0:0:0:
256,192,5356,1,0,0:0:0:0:
475,192,5518,1,0,0:0:0:0:
402,192,5518,1,0,0:0:0:0:
256,192,5599,1,0,0:0:0:0:
109,192,5681,1,0,0:0:0:0:
36,192,5681,1,0,0:0:0:0:
182,192,5762,1,0,0:0:0:0:
256,192,5843,1,0,0:0:0:0:
329,192,5843,1,0,0:0:0:0:
475,192,6005,1,0,0:0:0:0:
402,192,6005,1,0,0:0:0:0:
109,192,6167,1,0,0:0:0:0:
182,192,6167,1,0,0:0:0:0:
329,192,6329,1,0,0:0:0:0:
402,192,6329,1,0,0:0:0:0:
36,192,6491,1,0,0:0:0:0:
109,192,6491,1,0,0:0:0:0:
475,192,6653,1,0,0:0:0:0:
402,192,6653,1,0,0:0:0:0:
182,192,6816,1,0,0:0:0:0:
256,192,6816,1,0,0:0:0:0:
329,192,6978,1,0,0:0:0:0:
402,192,6978,1,0,0:0:0:0:
109,192,7140,1,0,0:0:0:0:
182,192,7140,1,0,0:0:0:0:
256,192,7302,1,0,0:0:0:0:
329,192,7302,1,0,0:0:0:0:
36,192,7464,1,0,0:0:0:0:
109,192,7464,1,0,0:0:0:0:
182,192,7626,1,0,0:0:0:0:
256,192,7626,1,0,0:0:0:0:
402,192,7789,1,0,0:0:0:0:
475,192,7789,1,0,0:0:0:0:
109,192,7951,1,0,0:0:0:0:
182,192,7951,1,0,0:0:0:0:
402,192,8113,1,0,0:0:0:0:
329,192,8113,1,0,0:0:0:0:
182,192,8275,1,0,0:0:0:0:
256,192,8275,1,0,0:0:0:0:
402,192,8437,1,0,0:0:0:0:
475,192,8437,1,0,0:0:0:0:
36,192,8599,1,0,0:0:0:0:
109,192,8599,1,0,0:0:0:0:
475,192,8762,1,0,0:0:0:0:
402,192,8762,1,0,0:0:0:0:
256,192,8924,1,0,0:0:0:0:
329,192,8924,1,0,0:0:0:0:
36,192,9086,1,0,0:0:0:0:
109,192,9086,1,0,0:0:0:0:
329,192,9248,1,0,0:0:0:0:
402,192,9248,1,0,0:0:0:0:
109,192,9410,1,0,0:0:0:0:
182,192,9410,1,0,0:0:0:0:
256,192,9572,1,0,0:0:0:0:
329,192,9572,1,0,0:0:0:0:
36,192,9735,1,0,0:0:0:0:
109,192,9735,1,0,0:0:0:0:
475,192,9897,1,0,0:0:0:0:
402,192,9897,1,0,0:0:0:0:
109,192,10059,1,0,0:0:0:0:
182,192,10059,1,0,0:0:0:0:
329,192,10221,1,0,0:0:0:0:
402,192,10221,1,0,0:0:0:0:
182,192,10383,1,0,0:0:0:0:
256,192,10383,1,0,0:0:0:0:
329,192,10545,1,0,0:0:0:0:
402,192,10545,1,0,0:0:0:0:
109,192,10708,1,0,0:0:0:0:
182,192,10708,1,0,0:0:0:0:
329,192,10870,1,0,0:0:0:0:
256,192,10870,1,0,0:0:0:0:
475,192,11032,1,0,0:0:0:0:
402,192,11032,1,0,0:0:0:0:
36,192,11032,1,0,0:0:0:0:
256,192,11194,1,0,0:0:0:0:
182,192,11356,1,0,0:0:0:0:
329,192,11356,1,0,0:0:0:0:
402,192,11356,1,0,0:0:0:0:
36,192,11518,1,0,0:0:0:0:
109,192,11681,1,0,0:0:0:0:
182,192,11681,1,0,0:0:0:0:
256,192,11843,1,0,0:0:0:0:
402,192,12005,1,0,0:0:0:0:
329,192,12005,1,0,0:0:0:0:
36,192,12005,1,0,0:0:0:0:
182,192,12167,1,0,0:0:0:0:
256,192,12329,1,0,0:0:0:0:
402,192,12329,1,0,0:0:0:0:
109,192,12491,1,0,0:0:0:0:
36,192,12653,1,0,0:0:0:0:
329,192,12653,1,0,0:0:0:0:
182,192,12653,1,0,0:0:0:0:
402,192,12816,1,0,0:0:0:0:
182,192,12978,1,0,0:0:0:0:
109,192,12978,1,0,0:0:0:0:
329,192,13140,1,0,0:0:0:0:
475,192,13302,1,0,0:0:0:0:
402,192,13302,1,0,0:0:0:0:
256,192,13302,1,0,0:0:0:0:
182,192,13464,1,0,0:0:0:0:
36,192,13626,1,0,0:0:0:0:
109,192,13626,1,0,0:0:0:0:
256,192,13789,1,0,0:0:0:0:
402,192,13951,1,0,0:0:0:0:
329,192,13951,1,0,0:0:0:0:
36,192,13951,1,0,0:0:0:0:
109,192,14113,1,0,0:0:0:0:
182,192,14275,1,0,0:0:0:0:
475,192,14275,1,0,0:0:0:0:
329,192,14437,1,0,0:0:0:0:
36,192,14599,1,0,0:0:0:0:
109,192,14599,1,0,0:0:0:0:
256,192,14599,1,0,0:0:0:0:
182,192,14762,1,0,0:0:0:0:
475,192,14924,1,0,0:0:0:0:
402,192,14924,1,0,0:0:0:0:
36,192,14924,1,0,0:0:0:0:
256,192,15086,1,0,0:0:0:0:
109,192,15248,1,0,0:0:0:0:
182,192,15248,1,0,0:0:0:0:
402,192,15248,1,0,0:0:0:0:
329,192,15410,1,0,0:0:0:0:
475,192,15572,1,0,0:0:0:0:
36,192,15572,1,0,0:0:0:0:
109,192,15572,1,0,0:0:0:0:
256,192,15735,1,0,0:0:0:0:
329,192,15897,1,0,0:0:0:0:
402,192,15897,1,0,0:0:0:0:
182,192,15897,1,0,0:0:0:0:
36,192,16059,1,0,0:0:0:0:
256,192,16221,1,0,0:0:0:0:
475,192,16221,1,0,0:0:0:0:
329,192,16221,1,0,0:0:0:0:
109,192,16383,1,0,0:0:0:0:
182,192,16383,1,0,0:0:0:0:
329,192,16545,1,0,0:0:0:0:
402,192,16545,1,0,0:0:0:0:
256,192,16545,1,0,0:0:0:0:
36,192,16708,1,0,0:0:0:0:
109,192,16708,1,0,0:0:0:0:
182,192,16870,1,0,0:0:0:0:
256,192,16870,1,0,0:0:0:0:
475,192,16870,1,0,0:0:0:0:
402,192,17032,1,0,0:0:0:0:
329,192,17032,1,0,0:0:0:0:
36,192,17194,1,0,0:0:0:0:
109,192,17194,1,0,0:0:0:0:
182,192,17194,1,0,0:0:0:0:
329,192,17356,1,0,0:0:0:0:
256,192,17356,1,0,0:0:0:0:
475,192,17518,1,0,0:0:0:0:
329,192,17518,1,0,0:0:0:0:
109,192,17518,1,0,0:0:0:0:
182,192,17681,1,0,0:0:0:0:
36,192,17681,1,0,0:0:0:0:
402,192,17843,1,0,0:0:0:0:
256,192,17843,1,0,0:0:0:0:
475,192,17843,1,0,0:0:0:0:
109,192,18005,1,0,0:0:0:0:
329,192,18005,1,0,0:0:0:0:
182,192,18167,1,0,0:0:0:0:
475,192,18167,1,0,0:0:0:0:
256,192,18167,1,0,0:0:0:0:
402,192,18329,1,0,0:0:0:0:
109,192,18329,1,0,0:0:0:0:
36,192,18491,1,0,0:0:0:0:
329,192,18491,1,0,0:0:0:0:
256,192,18491,1,0,0:0:0:0:
109,192,18653,1,0,0:0:0:0:
182,192,18653,1,0,0:0:0:0:
475,192,18816,1,0,0:0:0:0:
329,192,18816,1,0,0:0:0:0:
256,192,18816,1,0,0:0:0:0:
36,192,18897,1,0,0:0:0:0:
109,192,18978,1,0,0:0:0:0:
256,192,19059,1,0,0:0:0:0:
402,192,19140,1,0,0:0:0:0:
182,192,19140,1,0,0:0:0:0:
329,192,19140,1,0,0:0:0:0:
109,192,19221,1,0,0:0:0:0:
256,192,19302,1,0,0:0:0:0:
329,192,19383,1,0,0:0:0:0:
475,192,19464,1,0,0:0:0:0:
36,192,19464,1,0,0:0:0:0:
402,192,19464,1,0,0:0:0:0:
109,192,19505,1,0,0:0:0:0:
182,192,19545,1,0,0:0:0:0:
256,192,19586,1,0,0:0:0:0:
475,192,19626,1,0,0:0:0:0:
402,192,19708,1,0,0:0:0:0:
36,192,19789,1,0,0:0:0:0:
109,192,19789,1,0,0:0:0:0:
329,192,19789,1,0,0:0:0:0:
182,192,19870,1,0,0:0:0:0:
329,192,19951,1,0,0:0:0:0:
402,192,20032,1,0,0:0:0:0:
256,192,20113,128,0,21410:0:0:0:0:
109,192,21410,1,0,0:0:0:0:
402,192,21410,1,0,0:0:0:0:
475,192,21410,128,0,21735:0:0:0:0:
36,192,21735,1,0,0:0:0:0:
329,192,21735,1,0,0:0:0:0:
402,192,21897,1,0,0:0:0:0:
182,192,21897,1,0,0:0:0:0:
329,192,21978,1,0,0:0:0:0:
109,192,21978,1,0,0:0:0:0:
256,192,22059,1,0,0:0:0:0:
36,192,22059,1,0,0:0:0:0:
182,192,22221,1,0,0:0:0:0:
402,192,22221,1,0,0:0:0:0:
36,192,22383,1,0,0:0:0:0:
109,192,22383,1,0,0:0:0:0:
402,192,22464,1,0,0:0:0:0:
329,192,22464,1,0,0:0:0:0:
182,192,22545,1,0,0:0:0:0:
109,192,22545,1,0,0:0:0:0:
475,192,22626,1,0,0:0:0:0:
402,192,22626,1,0,0:0:0:0:
256,192,22708,1,0,0:0:0:0:
36,192,22708,1,0,0:0:0:0:
182,192,22870,1,0,0:0:0:0:
402,192,22870,1,0,0:0:0:0:
109,192,22951,1,0,0:0:0:0:
329,192,22951,1,0,0:0:0:0:
36,192,23032,1,0,0:0:0:0:
256,192,23032,1,0,0:0:0:0:
109,192,23194,1,0,0:0:0:0:
182,192,23194,1,0,0:0:0:0:
402,192,23356,1,0,0:0:0:0:
475,192,23356,1,0,0:0:0:0:
329,192,23356,128,0,23681:0:0:0:0:
36,192,23681,1,0,0:0:0:0:
182,192,23681,1,0,0:0:0:0:
109,192,24005,128,0,24329:0:0:0:0:
256,192,24005,1,0,0:0:0:0:
402,192,24005,1,0,0:0:0:0:
475,192,24329,1,0,0:0:0:0:
182,192,24329,1,0,0:0:0:0:
329,192,24410,1,0,0:0:0:0:
36,192,24410,1,0,0:0:0:0:
402,192,24491,1,0,0:0:0:0:
109,192,24491,1,0,0:0:0:0:
475,192,24572,1,0,0:0:0:0:
182,192,24572,1,0,0:0:0:0:
256,192,24653,1,0,0:0:0:0:
329,192,24653,1,0,0:0:0:0:
402,192,24816,1,0,0:0:0:0:
475,192,24816,1,0,0:0:0:0:
36,192,24978,1,0,0:0:0:0:
182,192,24978,1,0,0:0:0:0:
256,192,25140,1,0,0:0:0:0:
402,192,25140,1,0,0:0:0:0:
329,192,25302,1,0,0:0:0:0:
475,192,25302,1,0,0:0:0:0:
109,192,25464,1,0,0:0:0:0:
182,192,25464,1,0,0:0:0:0:
329,192,25545,1,0,0:0:0:0:
402,192,25545,1,0,0:0:0:0:
36,192,25626,1,0,0:0:0:0:
109,192,25626,1,0,0:0:0:0:
182,192,25789,1,0,0:0:0:0:
402,192,25789,1,0,0:0:0:0:
36,192,25951,1,0,0:0:0:0:
256,192,25951,1,0,0:0:0:0:
109,192,26032,1,0,0:0:0:0:
329,192,26032,1,0,0:0:0:0:
475,192,26113,1,0,0:0:0:0:
182,192,26113,1,0,0:0:0:0:
402,192,26113,1,0,0:0:0:0:
475,192,26275,1,0,0:0:0:0:
402,192,26275,1,0,0:0:0:0:
256,192,26275,1,0,0:0:0:0:
402,192,26599,128,0,26924:0:0:0:0:
329,192,26599,1,0,0:0:0:0:
36,192,26599,1,0,0:0:0:0:
109,192,26924,1,0,0:0:0:0:
256,192,26924,1,0,0:0:0:0:
475,192,27086,1,0,0:0:0:0:
182,192,27086,1,0,0:0:0:0:
402,192,27167,1,0,0:0:0:0:
109,192,27167,1,0,0:0:0:0:
256,192,27248,1,0,0:0:0:0:
36,192,27248,1,0,0:0:0:0:
182,192,27410,1,0,0:0:0:0:
329,192,27410,1,0,0:0:0:0:
36,192,27572,1,0,0:0:0:0:
109,192,27572,1,0,0:0:0:0:
402,192,27653,1,0,0:0:0:0:
475,192,27653,1,0,0:0:0:0:
109,192,27735,1,0,0:0:0:0:
182,192,27735,1,0,0:0:0:0:
329,192,27816,1,0,0:0:0:0:
402,192,27816,1,0,0:0:0:0:
256,192,27897,1,0,0:0:0:0:
182,192,27897,1,0,0:0:0:0:
36,192,28059,1,0,0:0:0:0:
329,192,28059,1,0,0:0:0:0:
109,192,28140,1,0,0:0:0:0:
256,192,28140,1,0,0:0:0:0:
475,192,28221,1,0,0:0:0:0:
402,192,28221,1,0,0:0:0:0:
36,192,28383,1,0,0:0:0:0:
182,192,28383,1,0,0:0:0:0:
402,192,28545,1,0,0:0:0:0:
329,192,28545,128,0,28870:0:0:0:0:
256,192,28870,1,0,0:0:0:0:
109,192,28870,1,0,0:0:0:0:
182,192,29194,1,0,0:0:0:0:
402,192,29194,1,0,0:0:0:0:
475,192,29194,128,0,29518:0:0:0:0:
36,192,29518,1,0,0:0:0:0:
256,192,29518,1,0,0:0:0:0:
109,192,29599,1,0,0:0:0:0:
329,192,29599,1,0,0:0:0:0:
182,192,29681,1,0,0:0:0:0:
402,192,29681,1,0,0:0:0:0:
256,192,29762,1,0,0:0:0:0:
475,192,29762,1,0,0:0:0:0:
36,192,29843,1,0,0:0:0:0:
109,192,29843,1,0,0:0:0:0:
329,192,30005,1,0,0:0:0:0:
475,192,30005,1,0,0:0:0:0:
109,192,30167,1,0,0:0:0:0:
182,192,30167,1,0,0:0:0:0:
256,192,30329,1,0,0:0:0:0:
402,192,30329,1,0,0:0:0:0:
36,192,30491,1,0,0:0:0:0:
475,192,30491,1,0,0:0:0:0:
329,192,30491,1,0,0:0:0:0:
256,192,30572,1,0,0:0:0:0:
182,192,30653,1,0,0:0:0:0:
36,192,30816,1,0,0:0:0:0:
475,192,30816,1,0,0:0:0:0:
402,192,30816,1,0,0:0:0:0:
36,192,31140,1,0,0:0:0:0:
182,192,31140,1,0,0:0:0:0:
256,192,31140,1,0,0:0:0:0:
36,192,31302,1,0,0:0:0:0:
182,192,31302,1,0,0:0:0:0:
329,192,31302,1,0,0:0:0:0:
182,192,31464,1,0,0:0:0:0:
36,192,31464,1,0,0:0:0:0:
402,192,31464,1,0,0:0:0:0:
182,192,31626,1,0,0:0:0:0:
36,192,31626,1,0,0:0:0:0:
475,192,31626,1,0,0:0:0:0:
402,192,31789,1,0,0:0:0:0:
329,192,31789,128,0,32113:0:0:0:0:
109,192,31789,1,0,0:0:0:0:
36,192,32113,1,0,0:0:0:0:
182,192,32113,1,0,0:0:0:0:
475,192,32275,1,0,0:0:0:0:
256,192,32275,1,0,0:0:0:0:
402,192,32356,1,0,0:0:0:0:
182,192,32356,1,0,0:0:0:0:
36,192,32437,1,0,0:0:0:0:
109,192,32437,1,0,0:0:0:0:
256,192,32599,1,0,0:0:0:0:
475,192,32599,1,0,0:0:0:0:
109,192,32762,1,0,0:0:0:0:
182,192,32762,1,0,0:0:0:0:
329,192,32843,1,0,0:0:0:0:
402,192,32843,1,0,0:0:0:0:
36,192,32924,1,0,0:0:0:0:
109,192,32924,1,0,0:0:0:0:
256,192,33005,1,0,0:0:0:0:
182,192,33005,1,0,0:0:0:0:
475,192,33086,1,0,0:0:0:0:
402,192,33086,1,0,0:0:0:0:
36,192,33248,1,0,0:0:0:0:
329,192,33248,1,0,0:0:0:0:
475,192,33329,1,0,0:0:0:0:
109,192,33329,1,0,0:0:0:0:
182,192,33410,1,0,0:0:0:0:
256,192,33410,1,0,0:0:0:0:
402,192,33572,1,0,0:0:0:0:
329,192,33572,1,0,0:0:0:0:
109,192,33735,128,0,34059:0:0:0:0:
36,192,33735,1,0,0:0:0:0:
256,192,33735,1,0,0:0:0:0:
475,192,34059,1,0,0:0:0:0:
182,192,34059,1,0,0:0:0:0:
402,192,34383,128,0,34708:0:0:0:0:
329,192,34383,1,0,0:0:0:0:
256,192,34383,1,0,0:0:0:0:
36,192,34708,1,0,0:0:0:0:
329,192,34708,1,0,0:0:0:0:
182,192,34789,1,0,0:0:0:0:
475,192,34789,1,0,0:0:0:0:
402,192,34870,1,0,0:0:0:0:
109,192,34870,1,0,0:0:0:0:
329,192,34951,1,0,0:0:0:0:
36,192,34951,1,0,0:0:0:0:
256,192,35032,1,0,0:0:0:0:
182,192,35032,1,0,0:0:0:0:
475,192,35194,1,0,0:0:0:0:
402,192,35194,1,0,0:0:0:0:
329,192,35356,1,0,0:0:0:0:
256,192,35356,1,0,0:0:0:0:
109,192,35356,1,0,0:0:0:0:
182,192,35518,1,0,0:0:0:0:
475,192,35518,1,0,0:0:0:0:
402,192,35681,1,0,0:0:0:0:
36,192,35681,1,0,0:0:0:0:
109,192,35843,1,0,0:0:0:0:
329,192,35843,1,0,0:0:0:0:
182,192,35924,1,0,0:0:0:0:
475,192,35924,1,0,0:0:0:0:
256,192,36005,1,0,0:0:0:0:
36,192,36005,1,0,0:0:0:0:
402,192,36167,1,0,0:0:0:0:
109,192,36167,1,0,0:0:0:0:
475,192,36329,1,0,0:0:0:0:
256,192,36329,1,0,0:0:0:0:
402,192,36410,1,0,0:0:0:0:
182,192,36410,1,0,0:0:0:0:
329,192,36491,1,0,0:0:0:0:
109,192,36491,1,0,0:0:0:0:
36,192,36491,1,0,0:0:0:0:
36,192,36653,1,0,0:0:0:0:
109,192,36653,1,0,0:0:0:0:
256,192,36653,1,0,0:0:0:0:
402,192,36978,128,0,37302:0:0:0:0:
182,192,36978,1,0,0:0:0:0:
475,192,36978,1,0,0:0:0:0:
36,192,37302,1,0,0:0:0:0:
256,192,37302,1,0,0:0:0:0:
475,192,37464,1,0,0:0:0:0:
182,192,37464,1,0,0:0:0:0:
109,192,37545,1,0,0:0:0:0:
402,192,37545,1,0,0:0:0:0:
36,192,37626,1,0,0:0:0:0:
256,192,37626,1,0,0:0:0:0:
329,192,37789,1,0,0:0:0:0:
182,192,37789,1,0,0:0:0:0:
475,192,37951,1,0,0:0:0:0:
256,192,37951,1,0,0:0:0:0:
109,192,38032,1,0,0:0:0:0:
182,192,38032,1,0,0:0:0:0:
329,192,38113,1,0,0:0:0:0:
402,192,38113,1,0,0:0:0:0:
256,192,38194,1,0,0:0:0:0:
109,192,38194,1,0,0:0:0:0:
475,192,38275,1,0,0:0:0:0:
36,192,38275,1,0,0:0:0:0:
182,192,38437,1,0,0:0:0:0:
402,192,38437,1,0,0:0:0:0:
256,192,38518,1,0,0:0:0:0:
475,192,38518,1,0,0:0:0:0:
36,192,38599,1,0,0:0:0:0:
109,192,38599,1,0,0:0:0:0:
182,192,38762,1,0,0:0:0:0:
402,192,38762,1,0,0:0:0:0:
475,192,38924,128,0,39248:0:0:0:0:
329,192,38924,1,0,0:0:0:0:
109,192,38924,1,0,0:0:0:0:
256,192,39248,1,0,0:0:0:0:
36,192,39248,1,0,0:0:0:0:
182,192,39572,128,0,39897:0:0:0:0:
329,192,39572,1,0,0:0:0:0:
475,192,39572,1,0,0:0:0:0:
36,192,39897,1,0,0:0:0:0:
109,192,39897,1,0,0:0:0:0:
402,192,39978,1,0,0:0:0:0:
329,192,39978,1,0,0:0:0:0:
182,192,40059,1,0,0:0:0:0:
256,192,40059,1,0,0:0:0:0:
402,192,40140,1,0,0:0:0:0:
475,192,40140,1,0,0:0:0:0:
329,192,40221,1,0,0:0:0:0:
109,192,40221,1,0,0:0:0:0:
182,192,40383,1,0,0:0:0:0:
475,192,40383,1,0,0:0:0:0:
402,192,40545,1,0,0:0:0:0:
36,192,40545,1,0,0:0:0:0:
109,192,40708,1,0,0:0:0:0:
256,192,40708,1,0,0:0:0:0:
475,192,40870,1,0,0:0:0:0:
36,192,40870,1,0,0:0:0:0:
182,192,40870,1,0,0:0:0:0:
256,192,40951,1,0,0:0:0:0:
329,192,41032,1,0,0:0:0:0:
475,192,41194,1,0,0:0:0:0:
36,192,41194,1,0,0:0:0:0:
109,192,41194,1,0,0:0:0:0:
109,192,41518,1,0,0:0:0:0:
256,192,41518,1,0,0:0:0:0:
402,192,41843,1,0,0:0:0:0:
256,192,41843,1,0,0:0:0:0:
36,192,42167,128,0,44113:0:0:0:0:
109,192,42167,1,0,0:0:0:0:
329,192,42167,1,0,0:0:0:0:
182,192,42167,1,0,0:0:0:0:
475,192,42329,1,0,0:0:0:0:
256,192,42491,1,0,0:0:0:0:
182,192,42653,1,0,0:0:0:0:
475,192,42816,1,0,0:0:0:0:
256,192,42978,1,0,0:0:0:0:
402,192,43140,1,0,0:0:0:0:
329,192,43302,1,0,0:0:0:0:
109,192,43464,1,0,0:0:0:0:
402,192,43626,1,0,0:0:0:0:
182,192,43789,1,0,0:0:0:0:
475,192,43951,1,0,0:0:0:0:
329,192,44113,128,0,44275:0:0:0:0:
402,192,44113,1,0,0:0:0:0:
256,192,44275,128,0,44437:0:0:0:0:
182,192,44275,1,0,0:0:0:0:
109,192,44437,128,0,44599:0:0:0:0:
475,192,44437,1,0,0:0:0:0:
182,192,44599,128,0,44762:0:0:0:0:
36,192,44599,1,0,0:0:0:0:
475,192,44762,128,0,44924:0:0:0:0:
256,192,44762,1,0,0:0:0:0:
329,192,44924,128,0,45086:0:0:0:0:
36,192,44924,1,0,0:0:0:0:
475,192,45086,128,0,45248:0:0:0:0:
256,192,45086,1,0,0:0:0:0:
402,192,45248,128,0,45410:0:0:0:0:
109,192,45248,1,0,0:0:0:0:
182,192,45410,1,0,0:0:0:0:
402,192,45572,128,0,45816:0:0:0:0:
36,192,45572,1,0,0:0:0:0:
182,192,45735,1,0,0:0:0:0:
329,192,45897,128,0,46221:0:0:0:0:
475,192,45897,1,0,0:0:0:0:
109,192,46059,1,0,0:0:0:0:
182,192,46221,128,0,46870:0:0:0:0:
402,192,46221,1,0,0:0:0:0:
36,192,46383,1,0,0:0:0:0:
475,192,46545,1,0,0:0:0:0:
109,192,46708,1,0,0:0:0:0:
256,192,46870,128,0,47032:0:0:0:0:
36,192,46870,1,0,0:0:0:0:
329,192,47032,128,0,47194:0:0:0:0:
109,192,47032,1,0,0:0:0:0:
475,192,47194,128,0,47275:0:0:0:0:
182,192,47194,1,0,0:0:0:0:
36,192,47356,1,0,0:0:0:0:
402,192,47518,1,0,0:0:0:0:
109,192,47681,1,0,0:0:0:0:
256,192,47843,1,0,0:0:0:0:
475,192,48005,1,0,0:0:0:0:
329,192,48167,128,0,48248:0:0:0:0:
109,192,48167,1,0,0:0:0:0:
182,192,48329,1,0,0:0:0:0:
329,192,48491,128,0,48978:0:0:0:0:
475,192,48653,1,0,0:0:0:0:
109,192,48816,1,0,0:0:0:0:
36,192,48978,128,0,49140:0:0:0:0:
402,192,48978,1,0,0:0:0:0:
182,192,49140,128,0,49302:0:0:0:0:
256,192,49140,1,0,0:0:0:0:
36,192,49302,128,0,49464:0:0:0:0:
475,192,49302,1,0,0:0:0:0:
109,192,49464,128,0,49626:0:0:0:0:
329,192,49464,1,0,0:0:0:0:
256,192,49626,128,0,49789:0:0:0:0:
402,192,49626,1,0,0:0:0:0:
109,192,49789,128,0,49951:0:0:0:0:
329,192,49789,1,0,0:0:0:0:
182,192,49951,128,0,50275:0:0:0:0:
475,192,49951,1,0,0:0:0:0:
36,192,50113,1,0,0:0:0:0:
256,192,50275,1,0,0:0:0:0:
109,192,50275,1,0,0:0:0:0:
329,192,50356,1,0,0:0:0:0:
109,192,50437,1,0,0:0:0:0:
402,192,50437,128,0,50762:0:0:0:0:
256,192,50599,1,0,0:0:0:0:
36,192,50762,1,0,0:0:0:0:
329,192,50762,1,0,0:0:0:0:
256,192,50843,1,0,0:0:0:0:
182,192,50924,128,0,52545:0:0:0:0:
109,192,50924,1,0,0:0:0:0:
475,192,51086,1,0,0:0:0:0:
402,192,51248,1,0,0:0:0:0:
36,192,51410,1,0,0:0:0:0:
329,192,51572,1,0,0:0:0:0:
109,192,51735,1,0,0:0:0:0:
475,192,51897,1,0,0:0:0:0:
256,192,52059,1,0,0:0:0:0:
402,192,52221,1,0,0:0:0:0:
329,192,52383,1,0,0:0:0:0:
36,192,52545,1,0,0:0:0:0:
256,192,52545,1,0,0:0:0:0:
475,192,52708,1,0,0:0:0:0:
109,192,52708,1,0,0:0:0:0:
329,192,52870,1,0,0:0:0:0:
402,192,52870,1,0,0:0:0:0:
109,192,53032,1,0,0:0:0:0:
182,192,53032,1,0,0:0:0:0:
256,192,53113,1,0,0:0:0:0:
329,192,53194,1,0,0:0:0:0:
475,192,53194,1,0,0:0:0:0:
36,192,53356,1,0,0:0:0:0:
182,192,53356,1,0,0:0:0:0:
329,192,53518,1,0,0:0:0:0:
256,192,53518,1,0,0:0:0:0:
475,192,53681,1,0,0:0:0:0:
109,192,53681,1,0,0:0:0:0:
182,192,53843,1,0,0:0:0:0:
256,192,53843,1,0,0:0:0:0:
402,192,54005,1,0,0:0:0:0:
475,192,54005,1,0,0:0:0:0:
329,192,54167,1,0,0:0:0:0:
36,192,54167,1,0,0:0:0:0:
109,192,54329,1,0,0:0:0:0:
182,192,54329,1,0,0:0:0:0:
475,192,54491,1,0,0:0:0:0:
256,192,54491,1,0,0:0:0:0:
182,192,54653,1,0,0:0:0:0:
36,192,54653,1,0,0:0:0:0:
109,192,54816,1,0,0:0:0:0:
402,192,54816,1,0,0:0:0:0:
256,192,54978,1,0,0:0:0:0:
36,192,54978,1,0,0:0:0:0:
329,192,55059,1,0,0:0:0:0:
402,192,55140,1,0,0:0:0:0:
475,192,55140,1,0,0:0:0:0:
182,192,55140,1,0,0:0:0:0:
36,192,55302,1,0,0:0:0:0:
256,192,55302,1,0,0:0:0:0:
475,192,55464,1,0,0:0:0:0:
329,192,55464,1,0,0:0:0:0:
109,192,55464,1,0,0:0:0:0:
256,192,55626,1,0,0:0:0:0:
182,192,55626,1,0,0:0:0:0:
109,192,55789,1,0,0:0:0:0:
402,192,55789,1,0,0:0:0:0:
475,192,55789,1,0,0:0:0:0:
182,192,55870,1,0,0:0:0:0:
256,192,55951,1,0,0:0:0:0:
329,192,55951,1,0,0:0:0:0:
182,192,56032,1,0,0:0:0:0:
36,192,56113,1,0,0:0:0:0:
402,192,56113,1,0,0:0:0:0:
109,192,56113,1,0,0:0:0:0:
256,192,56275,1,0,0:0:0:0:
475,192,56275,1,0,0:0:0:0:
36,192,56437,1,0,0:0:0:0:
329,192,56437,1,0,0:0:0:0:
402,192,56437,1,0,0:0:0:0:
182,192,56599,1,0,0:0:0:0:
475,192,56599,1,0,0:0:0:0:
256,192,56762,1,0,0:0:0:0:
329,192,56762,1,0,0:0:0:0:
109,192,56762,1,0,0:0:0:0:
402,192,56924,1,0,0:0:0:0:
182,192,56924,1,0,0:0:0:0:
36,192,57086,1,0,0:0:0:0:
109,192,57086,1,0,0:0:0:0:
475,192,57086,1,0,0:0:0:0:
256,192,57248,1,0,0:0:0:0:
402,192,57248,1,0,0:0:0:0:
109,192,57410,1,0,0:0:0:0:
182,192,57410,1,0,0:0:0:0:
329,192,57410,1,0,0:0:0:0:
475,192,57572,1,0,0:0:0:0:
402,192,57572,1,0,0:0:0:0:
36,192,57735,1,0,0:0:0:0:
182,192,57735,1,0,0:0:0:0:
329,192,57735,1,0,0:0:0:0:
36,192,57897,1,0,0:0:0:0:
182,192,57897,1,0,0:0:0:0:
475,192,57897,1,0,0:0:0:0:
36,192,58059,1,0,0:0:0:0:
182,192,58059,1,0,0:0:0:0:
402,192,58059,1,0,0:0:0:0:
36,192,58221,1,0,0:0:0:0:
182,192,58221,1,0,0:0:0:0:
329,192,58221,1,0,0:0:0:0:
256,192,58383,1,0,0:0:0:0:
475,192,58383,1,0,0:0:0:0:
109,192,58383,1,0,0:0:0:0:
256,192,58545,1,0,0:0:0:0:
109,192,58545,1,0,0:0:0:0:
402,192,58545,1,0,0:0:0:0:
256,192,58708,1,0,0:0:0:0:
109,192,58708,1,0,0:0:0:0:
329,192,58708,1,0,0:0:0:0:
256,192,58870,1,0,0:0:0:0:
109,192,58870,1,0,0:0:0:0:
402,192,58870,1,0,0:0:0:0:
475,192,59032,1,0,0:0:0:0:
36,192,59032,1,0,0:0:0:0:
329,192,59032,1,0,0:0:0:0:
475,192,59194,5,0,0:0:0:0:
329,192,59194,1,0,0:0:0:0:
182,192,59194,1,0,0:0:0:0:
475,192,59356,1,0,0:0:0:0:
329,192,59356,1,0,0:0:0:0:
256,192,59356,1,0,0:0:0:0:
475,192,59518,1,0,0:0:0:0:
329,192,59518,1,0,0:0:0:0:
109,192,59518,1,0,0:0:0:0:
256,192,59681,1,0,0:0:0:0:
402,192,59681,1,0,0:0:0:0:
36,192,59681,1,0,0:0:0:0:
256,192,59843,1,0,0:0:0:0:
402,192,59843,1,0,0:0:0:0:
182,192,59843,1,0,0:0:0:0:
256,192,60005,1,0,0:0:0:0:
402,192,60005,1,0,0:0:0:0:
36,192,60005,1,0,0:0:0:0:
256,192,60167,1,0,0:0:0:0:
402,192,60167,1,0,0:0:0:0:
109,192,60167,1,0,0:0:0:0:
182,192,60329,1,0,0:0:0:0:
36,192,60329,1,0,0:0:0:0:
329,192,60329,1,0,0:0:0:0:
475,192,60410,1,0,0:0:0:0:
402,192,60491,1,0,0:0:0:0:
182,192,60572,1,0,0:0:0:0:
329,192,60653,1,0,0:0:0:0:
475,192,60653,1,0,0:0:0:0:
36,192,60653,1,0,0:0:0:0:
109,192,60735,1,0,0:0:0:0:
256,192,60816,1,0,0:0:0:0:
182,192,60897,1,0,0:0:0:0:
109,192,60978,1,0,0:0:0:0:
475,192,60978,1,0,0:0:0:0:
36,192,60978,1,0,0:0:0:0:
402,192,61018,1,0,0:0:0:0:
329,192,61059,1,0,0:0:0:0:
256,192,61099,1,0,0:0:0:0:
36,192,61140,1,0,0:0:0:0:
109,192,61221,1,0,0:0:0:0:
182,192,61302,1,0,0:0:0:0:
402,192,61302,1,0,0:0:0:0:
475,192,61302,1,0,0:0:0:0:
329,192,61383,1,0,0:0:0:0:
182,192,61464,1,0,0:0:0:0:
36,192,61545,1,0,0:0:0:0:
256,192,61626,1,0,0:0:0:0:
256,192,61789,1,0,0:0:0:0:
109,192,61951,1,0,0:0:0:0:
182,192,62032,1,0,0:0:0:0:
402,192,62113,1,0,0:0:0:0:
329,192,62194,1,0,0:0:0:0:
256,192,62275,1,0,0:0:0:0:
256,192,62437,1,0,0:0:0:0:
256,192,62599,128,0,62843:0:0:0:0:
36,192,62924,128,0,63248:0:0:0:0:
182,192,62924,1,0,0:0:0:0:
475,192,62924,1,0,0:0:0:0:
329,192,63248,1,0,0:0:0:0:
109,192,63248,1,0,0:0:0:0:
182,192,63410,1,0,0:0:0:0:
402,192,63410,1,0,0:0:0:0:
475,192,63491,1,0,0:0:0:0:
256,192,63491,1,0,0:0:0:0:
36,192,63572,1,0,0:0:0:0:
109,192,63572,1,0,0:0:0:0:
329,192,63735,1,0,0:0:0:0:
402,192,63735,1,0,0:0:0:0:
36,192,63897,1,0,0:0:0:0:
109,192,63897,1,0,0:0:0:0:
329,192,63978,1,0,0:0:0:0:
475,192,63978,1,0,0:0:0:0:
36,192,64059,1,0,0:0:0:0:
182,192,64059,1,0,0:0:0:0:
256,192,64140,1,0,0:0:0:0:
402,192,64140,1,0,0:0:0:0:
182,192,64221,1,0,0:0:0:0:
109,192,64221,1,0,0:0:0:0:
475,192,64383,1,0,0:0:0:0:
36,192,64383,1,0,0:0:0:0:
402,192,64464,1,0,0:0:0:0:
109,192,64464,1,0,0:0:0:0:
329,192,64545,1,0,0:0:0:0:
256,192,64545,1,0,0:0:0:0:
475,192,64708,1,0,0:0:0:0:
182,192,64708,1,0,0:0:0:0:
256,192,64870,128,0,65194:0:0:0:0:
36,192,64870,1,0,0:0:0:0:
329,192,64870,1,0,0:0:0:0:
475,192,65194,1,0,0:0:0:0:
182,192,65194,1,0,0:0:0:0:
109,192,65518,128,0,65843:0:0:0:0:
329,192,65518,1,0,0:0:0:0:
402,192,65518,1,0,0:0:0:0:
256,192,65843,1,0,0:0:0:0:
36,192,65843,1,0,0:0:0:0:
475,192,65924,1,0,0:0:0:0:
329,192,65924,1,0,0:0:0:0:
182,192,66005,1,0,0:0:0:0:
36,192,66005,1,0,0:0:0:0:
402,192,66086,1,0,0:0:0:0:
475,192,66086,1,0,0:0:0:0:
109,192,66167,1,0,0:0:0:0:
256,192,66167,1,0,0:0:0:0:
475,192,66329,1,0,0:0:0:0:
182,192,66329,1,0,0:0:0:0:
329,192,66491,1,0,0:0:0:0:
402,192,66491,1,0,0:0:0:0:
36,192,66653,1,0,0:0:0:0:
256,192,66653,1,0,0:0:0:0:
475,192,66816,1,0,0:0:0:0:
109,192,66816,1,0,0:0:0:0:
182,192,66978,1,0,0:0:0:0:
402,192,66978,1,0,0:0:0:0:
256,192,67059,1,0,0:0:0:0:
475,192,67059,1,0,0:0:0:0:
36,192,67140,1,0,0:0:0:0:
109,192,67140,1,0,0:0:0:0:
402,192,67302,1,0,0:0:0:0:
182,192,67302,1,0,0:0:0:0:
36,192,67464,1,0,0:0:0:0:
256,192,67464,1,0,0:0:0:0:
109,192,67545,1,0,0:0:0:0:
329,192,67545,1,0,0:0:0:0:
475,192,67626,1,0,0:0:0:0:
402,192,67626,1,0,0:0:0:0:
182,192,67626,1,0,0:0:0:0:
475,192,67789,1,0,0:0:0:0:
402,192,67789,1,0,0:0:0:0:
256,192,67789,1,0,0:0:0:0:
256,192,68113,128,0,68437:0:0:0:0:
36,192,68113,1,0,0:0:0:0:
329,192,68113,1,0,0:0:0:0:
475,192,68437,1,0,0:0:0:0:
109,192,68437,1,0,0:0:0:0:
402,192,68599,1,0,0:0:0:0:
36,192,68599,1,0,0:0:0:0:
329,192,68681,1,0,0:0:0:0:
109,192,68681,1,0,0:0:0:0:
182,192,68762,1,0,0:0:0:0:
475,192,68762,1,0,0:0:0:0:
256,192,68924,1,0,0:0:0:0:
402,192,68924,1,0,0:0:0:0:
36,192,69086,1,0,0:0:0:0:
109,192,69086,1,0,0:0:0:0:
256,192,69167,1,0,0:0:0:0:
329,192,69167,1,0,0:0:0:0:
402,192,69248,1,0,0:0:0:0:
475,192,69248,1,0,0:0:0:0:
182,192,69329,1,0,0:0:0:0:
36,192,69329,1,0,0:0:0:0:
329,192,69410,1,0,0:0:0:0:
256,192,69410,1,0,0:0:0:0:
475,192,69572,1,0,0:0:0:0:
182,192,69572,1,0,0:0:0:0:
402,192,69653,1,0,0:0:0:0:
36,192,69653,1,0,0:0:0:0:
329,192,69735,1,0,0:0:0:0:
256,192,69735,1,0,0:0:0:0:
109,192,69897,1,0,0:0:0:0:
475,192,69897,1,0,0:0:0:0:
182,192,70059,128,0,70383:0:0:0:0:
402,192,70059,1,0,0:0:0:0:
256,192,70059,1,0,0:0:0:0:
329,192,70383,1,0,0:0:0:0:
36,192,70383,1,0,0:0:0:0:
109,192,70708,128,0,71032:0:0:0:0:
256,192,70708,1,0,0:0:0:0:
475,192,70708,1,0,0:0:0:0:
182,192,71032,1,0,0:0:0:0:
36,192,71032,1,0,0:0:0:0:
329,192,71113,1,0,0:0:0:0:
402,192,71113,1,0,0:0:0:0:
256,192,71194,1,0,0:0:0:0:
109,192,71194,1,0,0:0:0:0:
475,192,71275,1,0,0:0:0:0:
402,192,71275,1,0,0:0:0:0:
329,192,71356,1,0,0:0:0:0:
182,192,71356,1,0,0:0:0:0:
182,192,71518,1,0,0:0:0:0:
329,192,71518,1,0,0:0:0:0:
475,192,71681,1,0,0:0:0:0:
256,192,71681,1,0,0:0:0:0:
475,192,71843,1,0,0:0:0:0:
256,192,71843,1,0,0:0:0:0:
402,192,72005,1,0,0:0:0:0:
36,192,72005,1,0,0:0:0:0:
109,192,72005,1,0,0:0:0:0:
182,192,72086,1,0,0:0:0:0:
256,192,72167,1,0,0:0:0:0:
402,192,72329,1,0,0:0:0:0:
36,192,72329,1,0,0:0:0:0:
182,192,72329,1,0,0:0:0:0:
402,192,72653,1,0,0:0:0:0:
475,192,72653,1,0,0:0:0:0:
36,192,72653,1,0,0:0:0:0:
402,192,72816,1,0,0:0:0:0:
475,192,72816,1,0,0:0:0:0:
109,192,72816,1,0,0:0:0:0:
402,192,72978,1,0,0:0:0:0:
475,192,72978,1,0,0:0:0:0:
182,192,72978,1,0,0:0:0:0:
402,192,73140,1,0,0:0:0:0:
475,192,73140,1,0,0:0:0:0:
256,192,73140,1,0,0:0:0:0:
36,192,73302,128,0,73626:0:0:0:0:
109,192,73302,1,0,0:0:0:0:
329,192,73302,1,0,0:0:0:0:
182,192,73626,1,0,0:0:0:0:
402,192,73626,1,0,0:0:0:0:
256,192,73789,1,0,0:0:0:0:
475,192,73789,1,0,0:0:0:0:
182,192,73870,1,0,0:0:0:0:
402,192,73870,1,0,0:0:0:0:
36,192,73951,1,0,0:0:0:0:
109,192,73951,1,0,0:0:0:0:
182,192,74113,1,0,0:0:0:0:
475,192,74113,1,0,0:0:0:0:
36,192,74275,1,0,0:0:0:0:
256,192,74275,1,0,0:0:0:0:
329,192,74356,1,0,0:0:0:0:
475,192,74356,1,0,0:0:0:0:
182,192,74437,1,0,0:0:0:0:
109,192,74437,1,0,0:0:0:0:
402,192,74518,1,0,0:0:0:0:
256,192,74518,1,0,0:0:0:0:
36,192,74599,1,0,0:0:0:0:
475,192,74599,1,0,0:0:0:0:
109,192,74762,1,0,0:0:0:0:
329,192,74762,1,0,0:0:0:0:
182,192,74843,1,0,0:0:0:0:
475,192,74843,1,0,0:0:0:0:
402,192,74924,1,0,0:0:0:0:
256,192,74924,1,0,0:0:0:0:
329,192,75086,1,0,0:0:0:0:
36,192,75086,1,0,0:0:0:0:
182,192,75248,128,0,75572:0:0:0:0:
475,192,75248,1,0,0:0:0:0:
109,192,75248,1,0,0:0:0:0:
256,192,75572,1,0,0:0:0:0:
329,192,75572,1,0,0:0:0:0:
402,192,75897,128,0,76221:0:0:0:0:
36,192,75897,1,0,0:0:0:0:
475,192,75897,1,0,0:0:0:0:
36,192,76221,1,0,0:0:0:0:
109,192,76221,1,0,0:0:0:0:
256,192,76302,1,0,0:0:0:0:
329,192,76302,1,0,0:0:0:0:
36,192,76383,1,0,0:0:0:0:
182,192,76383,1,0,0:0:0:0:
402,192,76464,1,0,0:0:0:0:
475,192,76464,1,0,0:0:0:0:
109,192,76545,1,0,0:0:0:0:
329,192,76545,1,0,0:0:0:0:
182,192,76708,1,0,0:0:0:0:
402,192,76708,1,0,0:0:0:0:
256,192,76870,1,0,0:0:0:0:
329,192,76870,1,0,0:0:0:0:
36,192,77032,1,0,0:0:0:0:
182,192,77032,1,0,0:0:0:0:
475,192,77194,1,0,0:0:0:0:
109,192,77194,1,0,0:0:0:0:
402,192,77356,1,0,0:0:0:0:
182,192,77356,1,0,0:0:0:0:
329,192,77437,1,0,0:0:0:0:
109,192,77437,1,0,0:0:0:0:
256,192,77518,1,0,0:0:0:0:
36,192,77518,1,0,0:0:0:0:
182,192,77681,1,0,0:0:0:0:
329,192,77681,1,0,0:0:0:0:
36,192,77843,1,0,0:0:0:0:
475,192,77843,1,0,0:0:0:0:
109,192,77924,1,0,0:0:0:0:
402,192,77924,1,0,0:0:0:0:
182,192,78005,1,0,0:0:0:0:
329,192,78005,1,0,0:0:0:0:
329,192,78167,1,0,0:0:0:0:
182,192,78167,1,0,0:0:0:0:
256,192,78491,128,0,78816:0:0:0:0:
475,192,78491,1,0,0:0:0:0:
402,192,78491,1,0,0:0:0:0:
36,192,78816,1,0,0:0:0:0:
182,192,78816,1,0,0:0:0:0:
329,192,78978,1,0,0:0:0:0:
109,192,78978,1,0,0:0:0:0:
402,192,79059,1,0,0:0:0:0:
182,192,79059,1,0,0:0:0:0:
475,192,79140,1,0,0:0:0:0:
256,192,79140,1,0,0:0:0:0:
329,192,79302,1,0,0:0:0:0:
36,192,79302,1,0,0:0:0:0:
109,192,79464,1,0,0:0:0:0:
182,192,79464,1,0,0:0:0:0:
475,192,79545,1,0,0:0:0:0:
402,192,79545,1,0,0:0:0:0:
36,192,79626,1,0,0:0:0:0:
109,192,79626,1,0,0:0:0:0:
329,192,79708,1,0,0:0:0:0:
256,192,79708,1,0,0:0:0:0:
402,192,79789,1,0,0:0:0:0:
475,192,79789,1,0,0:0:0:0:
36,192,79951,1,0,0:0:0:0:
329,192,79951,1,0,0:0:0:0:
109,192,80032,1,0,0:0:0:0:
402,192,80032,1,0,0:0:0:0:
182,192,80113,1,0,0:0:0:0:
256,192,80113,1,0,0:0:0:0:
329,192,80275,1,0,0:0:0:0:
402,192,80275,1,0,0:0:0:0:
475,192,80437,128,0,80762:0:0:0:0:
36,192,80437,1,0,0:0:0:0:
182,192,80437,1,0,0:0:0:0:
256,192,80762,1,0,0:0:0:0:
402,192,80762,1,0,0:0:0:0:
36,192,80762,128,0,81086:0:0:0:0:
256,192,81086,128,0,81410:0:0:0:0:
475,192,81086,1,0,0:0:0:0:
109,192,81086,1,0,0:0:0:0:
329,192,81410,1,0,0:0:0:0:
402,192,81410,1,0,0:0:0:0:
36,192,81491,1,0,0:0:0:0:
182,192,81491,1,0,0:0:0:0:
329,192,81572,1,0,0:0:0:0:
475,192,81572,1,0,0:0:0:0:
109,192,81653,1,0,0:0:0:0:
256,192,81653,1,0,0:0:0:0:
402,192,81735,1,0,0:0:0:0:
475,192,81735,1,0,0:0:0:0:
329,192,81897,1,0,0:0:0:0:
36,192,81897,1,0,0:0:0:0:
109,192,82059,1,0,0:0:0:0:
182,192,82059,1,0,0:0:0:0:
329,192,82221,1,0,0:0:0:0:
256,192,82221,1,0,0:0:0:0:
475,192,82383,1,0,0:0:0:0:
402,192,82383,1,0,0:0:0:0:
36,192,82383,1,0,0:0:0:0:
329,192,82464,1,0,0:0:0:0:
256,192,82545,1,0,0:0:0:0:
36,192,82708,1,0,0:0:0:0:
402,192,82708,1,0,0:0:0:0:
475,192,82708,1,0,0:0:0:0:
329,192,83032,1,0,0:0:0:0:
182,192,83194,1,0,0:0:0:0:
256,192,83275,1,0,0:0:0:0:
182,192,83356,1,0,0:0:0:0:
329,192,83518,1,0,0:0:0:0:
256,192,83599,1,0,0:0:0:0:
475,192,83681,1,0,0:0:0:0:
36,192,83681,1,0,0:0:0:0:
109,192,83762,1,0,0:0:0:0:
329,192,83843,1,0,0:0:0:0:
182,192,83924,1,0,0:0:0:0:
402,192,84005,1,0,0:0:0:0:
475,192,84005,1,0,0:0:0:0:
36,192,84167,1,0,0:0:0:0:
182,192,84248,1,0,0:0:0:0:
475,192,84329,1,0,0:0:0:0:
329,192,84329,1,0,0:0:0:0:
109,192,84491,1,0,0:0:0:0:
256,192,84572,1,0,0:0:0:0:
402,192,84653,1,0,0:0:0:0:
475,192,84653,1,0,0:0:0:0:
329,192,84735,1,0,0:0:0:0:
109,192,84816,1,0,0:0:0:0:
182,192,84897,1,0,0:0:0:0:
475,192,84978,1,0,0:0:0:0:
256,192,84978,1,0,0:0:0:0:
475,192,85221,1,0,0:0:0:0:
36,192,85302,1,0,0:0:0:0:
329,192,85356,1,0,0:0:0:0:
256,192,85410,1,0,0:0:0:0:
182,192,85464,1,0,0:0:0:0:
109,192,85545,1,0,0:0:0:0:
256,192,85626,1,0,0:0:0:0:
36,192,85626,1,0,0:0:0:0:
329,192,85708,1,0,0:0:0:0:
402,192,85789,1,0,0:0:0:0:
109,192,85951,128,0,86275:0:0:0:0:
182,192,85951,1,0,0:0:0:0:
475,192,86275,1,0,0:0:0:0:
36,192,86437,1,0,0:0:0:0:
256,192,86518,1,0,0:0:0:0:
475,192,86599,1,0,0:0:0:0:
402,192,86599,1,0,0:0:0:0:
475,192,86762,1,0,0:0:0:0:
402,192,86924,1,0,0:0:0:0:
182,192,86924,1,0,0:0:0:0:
109,192,86964,1,0,0:0:0:0:
36,192,87086,1,0,0:0:0:0:
182,192,87167,1,0,0:0:0:0:
329,192,87248,1,0,0:0:0:0:
256,192,87329,1,0,0:0:0:0:
182,192,87410,1,0,0:0:0:0:
109,192,87491,1,0,0:0:0:0:
329,192,87572,1,0,0:0:0:0:
256,192,87572,1,0,0:0:0:0:
402,192,87613,1,0,0:0:0:0:
475,192,87653,1,0,0:0:0:0:
182,192,87735,1,0,0:0:0:0:
256,192,87789,1,0,0:0:0:0:
329,192,87843,1,0,0:0:0:0:
36,192,87897,1,0,0:0:0:0:
475,192,87978,1,0,0:0:0:0:
109,192,88059,1,0,0:0:0:0:
329,192,88140,1,0,0:0:0:0:
36,192,88221,1,0,0:0:0:0:
182,192,88302,1,0,0:0:0:0:
256,192,88383,1,0,0:0:0:0:
109,192,88545,128,0,88626:0:0:0:0:
329,192,88708,128,0,88789:0:0:0:0:
475,192,88870,1,0,0:0:0:0:
256,192,89032,1,0,0:0:0:0:
36,192,89194,1,0,0:0:0:0:
182,192,89356,1,0,0:0:0:0:
329,192,89518,1,0,0:0:0:0:
475,192,89518,1,0,0:0:0:0:
36,192,89681,1,0,0:0:0:0:
109,192,89762,1,0,0:0:0:0:
256,192,89843,1,0,0:0:0:0:
182,192,89843,1,0,0:0:0:0:
329,192,89924,1,0,0:0:0:0:
402,192,90005,1,0,0:0:0:0:
256,192,90167,1,0,0:0:0:0:
475,192,90167,1,0,0:0:0:0:
109,192,90248,1,0,0:0:0:0:
36,192,90329,1,0,0:0:0:0:
182,192,90410,1,0,0:0:0:0:
109,192,90491,1,0,0:0:0:0:
475,192,90491,1,0,0:0:0:0:
256,192,90572,1,0,0:0:0:0:
182,192,90653,1,0,0:0:0:0:
329,192,90735,1,0,0:0:0:0:
256,192,90816,1,0,0:0:0:0:
36,192,90816,1,0,0:0:0:0:
109,192,90978,1,0,0:0:0:0:
402,192,91140,1,0,0:0:0:0:
182,192,91302,128,0,91464:0:0:0:0:
256,192,91464,1,0,0:0:0:0:
475,192,91626,1,0,0:0:0:0:
329,192,91789,1,0,0:0:0:0:
182,192,91870,1,0,0:0:0:0:
329,192,91951,1,0,0:0:0:0:
182,192,92032,1,0,0:0:0:0:
36,192,92113,1,0,0:0:0:0:
109,192,92113,1,0,0:0:0:0:
256,192,92275,1,0,0:0:0:0:
109,192,92437,1,0,0:0:0:0:
475,192,92437,1,0,0:0:0:0:
182,192,92491,1,0,0:0:0:0:
256,192,92545,1,0,0:0:0:0:
329,192,92599,1,0,0:0:0:0:
402,192,92681,1,0,0:0:0:0:
475,192,92762,1,0,0:0:0:0:
36,192,92762,1,0,0:0:0:0:
109,192,92843,1,0,0:0:0:0:
182,192,92924,1,0,0:0:0:0:
402,192,93005,1,0,0:0:0:0:
36,192,93086,1,0,0:0:0:0:
109,192,93086,1,0,0:0:0:0:
182,192,93140,1,0,0:0:0:0:
256,192,93194,1,0,0:0:0:0:
329,192,93329,1,0,0:0:0:0:
36,192,93410,1,0,0:0:0:0:
182,192,93410,1,0,0:0:0:0:
329,192,93491,1,0,0:0:0:0:
475,192,93491,1,0,0:0:0:0:
36,192,93572,1,0,0:0:0:0:
182,192,93572,1,0,0:0:0:0:
329,192,93653,1,0,0:0:0:0:
475,192,93653,1,0,0:0:0:0:
109,192,93735,128,0,95356:0:0:0:0:
402,192,93735,128,0,95356:0:0:0:0:
