osu file format v14

[General]
AudioFilename: audio.mp3
AudioLeadIn: 0
PreviewTime: 62828
Countdown: 0
SampleSet: Normal
StackLeniency: 0.7
Mode: 3
LetterboxInBreaks: 0
SpecialStyle: 0
WidescreenStoryboard: 0

[Editor]
DistanceSpacing: 0.7
BeatDivisor: 4
GridSize: 4
TimelineZoom: 2.979999

[Metadata]
Title:TSLove
TitleUnicode:TSLove
Artist:O2i3
ArtistUnicode:O2i3
Creator:AscensionDTWhen
Version:<3
Source:
Tags:Kirara Records Murumoo Kim_GodSSI Fresh Chicken
BeatmapID:1730458
BeatmapSetID:825631

[Difficulty]
HPDrainRate:9
CircleSize:7
OverallDifficulty:8.5
ApproachRate:5
SliderMultiplier:1.4
SliderTickRate:1

[Events]
//Background and Video events
0,0,"BG.png",0,0
//Break Periods
//Storyboard Layer 0 (Background)
//Storyboard Layer 1 (Fail)
//Storyboard Layer 2 (Pass)
//Storyboard Layer 3 (Foreground)
//Storyboard Sound Samples

[TimingPoints]
639.478260869565,324.324324324324,4,1,0,0,1,0
20098,-10,4,1,0,0,0,0
20180,-1000,4,1,0,0,0,0
20423,-666.666666666667,4,1,0,0,0,0
20585,-500,4,1,0,0,0,0
20747,-333.333333333333,4,1,0,0,0,0
20855,-250,4,1,0,0,0,0
20963,-200,4,1,0,0,0,0
21071,-142.857142857143,4,1,0,0,0,0
21152,-111.111111111111,4,1,0,0,0,0
21234,-90.9090909090909,4,1,0,0,0,0
21288,-76.9230769230769,4,1,0,0,0,0
21342,-66.6666666666667,4,1,0,0,0,0
21396,-100,4,1,0,0,0,1
23666,-50,4,1,0,0,0,1
23707,-100,4,1,0,0,0,1
23747,-333.333333333333,4,1,0,0,0,1
23909,-100,4,1,0,0,0,1
23950,-50,4,1,0,0,0,1
23990,-100,4,1,0,0,0,1
26098,-50,4,1,0,0,0,1
26139,-142.857142857143,4,1,0,0,0,1
26180,-333.333333333333,4,1,0,0,0,1
26220,-100,4,1,0,0,0,1
26261,-50,4,1,0,0,0,1
26302,-100,4,1,0,0,0,1
26342,-333.333333333333,4,1,0,0,0,1
26504,-100,4,1,0,0,0,1
26545,-50,4,1,0,0,0,1
26585,-100,4,1,0,0,0,1
28855,-50,4,1,0,0,0,1
28896,-100,4,1,0,0,0,1
28936,-333.333333333333,4,1,0,0,0,1
29098,-100,4,1,0,0,0,1
29139,-50,4,1,0,0,0,1
29179,-100,4,1,0,0,0,1
30477,-50,4,1,0,0,0,1
30518,-142.857142857143,4,1,0,0,0,1
30559,-333.333333333333,4,1,0,0,0,1
30599,-100,4,1,0,0,0,1
30801,-50,4,1,0,0,0,1
30842,-142.857142857143,4,1,0,0,0,1
30883,-333.333333333333,4,1,0,0,0,1
30923,-100,4,1,0,0,0,1
31125,-50,4,1,0,0,0,0
31166,-142.857142857143,4,1,0,0,0,0
31207,-333.333333333333,4,1,0,0,0,0
31247,-100,4,1,0,0,0,0
31288,-50,4,1,0,0,0,0
31329,-142.857142857143,4,1,0,0,0,0
31370,-333.333333333333,4,1,0,0,0,0
31410,-100,4,1,0,0,0,0
31450,-50,4,1,0,0,0,0
31491,-142.857142857143,4,1,0,0,0,0
31532,-333.333333333333,4,1,0,0,0,0
31572,-100,4,1,0,0,0,0
31612,-50,4,1,0,0,0,0
31653,-142.857142857143,4,1,0,0,0,0
31694,-333.333333333333,4,1,0,0,0,0
31734,-100,4,1,0,0,0,0
31774,-100,4,1,0,0,0,1
34044,-50,4,1,0,0,0,1
34085,-100,4,1,0,0,0,1
34125,-333.333333333333,4,1,0,0,0,1
34287,-100,4,1,0,0,0,1
34328,-50,4,1,0,0,0,1
34368,-100,4,1,0,0,0,1
36476,-50,4,1,0,0,0,1
36517,-142.857142857143,4,1,0,0,0,1
36558,-333.333333333333,4,1,0,0,0,1
36598,-100,4,1,0,0,0,1
36639,-50,4,1,0,0,0,1
36680,-100,4,1,0,0,0,1
36720,-333.333333333333,4,1,0,0,0,1
36882,-100,4,1,0,0,0,1
36923,-50,4,1,0,0,0,1
36963,-100,4,1,0,0,0,1
39233,-50,4,1,0,0,0,1
39274,-100,4,1,0,0,0,1
39314,-333.333333333333,4,1,0,0,0,1
39476,-100,4,1,0,0,0,1
39517,-50,4,1,0,0,0,1
39557,-100,4,1,0,0,0,1
40855,-50,4,1,0,0,0,1
40896,-142.857142857143,4,1,0,0,0,1
40937,-333.333333333333,4,1,0,0,0,1
40977,-100,4,1,0,0,0,1
41179,-50,4,1,0,0,0,1
41220,-142.857142857143,4,1,0,0,0,1
41261,-333.333333333333,4,1,0,0,0,1
41301,-100,4,1,0,0,0,1
41504,-50,4,1,0,0,0,0
41545,-142.857142857143,4,1,0,0,0,0
41586,-333.333333333333,4,1,0,0,0,0
41626,-100,4,1,0,0,0,0
41828,-50,4,1,0,0,0,0
41869,-142.857142857143,4,1,0,0,0,0
41910,-333.333333333333,4,1,0,0,0,0
41950,-100,4,1,0,0,0,0
42152,-100,4,1,0,0,0,0
61612,-200,4,1,0,0,0,0
61673,-40,4,1,0,0,0,0
61693,-100,4,1,0,0,0,0
61774,-200,4,1,0,0,0,0
61835,-40,4,1,0,0,0,0
61855,-100,4,1,0,0,0,0
61936,-200,4,1,0,0,0,0
61997,-40,4,1,0,0,0,0
62017,-200,4,1,0,0,0,0
62078,-40,4,1,0,0,0,0
62098,-200,4,1,0,0,0,0
62159,-40,4,1,0,0,0,0
62180,-200,4,1,0,0,0,0
62241,-40,4,1,0,0,0,0
62261,-200,4,1,0,0,0,0
62322,-40,4,1,0,0,0,0
62342,-100,4,1,0,0,0,0
62423,-200,4,1,0,0,0,0
62484,-40,4,1,0,0,0,0
62504,-100,4,1,0,0,0,0
62585,-200,4,1,0,0,0,0
62727,-22.2222222222222,4,1,0,0,0,0
62747,-200,4,1,0,0,0,0
62889,-22.2222222222222,4,1,0,0,0,0
62909,-100,4,1,0,0,0,1
65179,-50,4,1,0,0,0,1
65220,-100,4,1,0,0,0,1
65260,-333.333333333333,4,1,0,0,0,1
65422,-100,4,1,0,0,0,1
65463,-50,4,1,0,0,0,1
65503,-100,4,1,0,0,0,1
67611,-50,4,1,0,0,0,1
67652,-142.857142857143,4,1,0,0,0,1
67693,-333.333333333333,4,1,0,0,0,1
67733,-100,4,1,0,0,0,1
67774,-50,4,1,0,0,0,1
67815,-100,4,1,0,0,0,1
67855,-333.333333333333,4,1,0,0,0,1
68017,-100,4,1,0,0,0,1
68058,-50,4,1,0,0,0,1
68098,-100,4,1,0,0,0,1
70368,-50,4,1,0,0,0,1
70409,-100,4,1,0,0,0,1
70449,-333.333333333333,4,1,0,0,0,1
70611,-100,4,1,0,0,0,1
70652,-50,4,1,0,0,0,1
70692,-100,4,1,0,0,0,1
71990,-50,4,1,0,0,0,1
72031,-142.857142857143,4,1,0,0,0,1
72072,-333.333333333333,4,1,0,0,0,1
72112,-100,4,1,0,0,0,1
72314,-50,4,1,0,0,0,1
72355,-142.857142857143,4,1,0,0,0,1
72396,-333.333333333333,4,1,0,0,0,1
72436,-100,4,1,0,0,0,1
72639,-50,4,1,0,0,0,0
72680,-142.857142857143,4,1,0,0,0,0
72721,-333.333333333333,4,1,0,0,0,0
72761,-100,4,1,0,0,0,0
72802,-50,4,1,0,0,0,0
72843,-142.857142857143,4,1,0,0,0,0
72884,-333.333333333333,4,1,0,0,0,0
72924,-100,4,1,0,0,0,0
72964,-50,4,1,0,0,0,0
73005,-142.857142857143,4,1,0,0,0,0
73046,-333.333333333333,4,1,0,0,0,0
73086,-100,4,1,0,0,0,0
73126,-50,4,1,0,0,0,0
73167,-142.857142857143,4,1,0,0,0,0
73208,-333.333333333333,4,1,0,0,0,0
73248,-100,4,1,0,0,0,0
73288,-100,4,1,0,0,0,1
75557,-50,4,1,0,0,0,1
75598,-100,4,1,0,0,0,1
75638,-333.333333333333,4,1,0,0,0,1
75800,-100,4,1,0,0,0,1
75841,-50,4,1,0,0,0,1
75881,-100,4,1,0,0,0,1
77989,-50,4,1,0,0,0,1
78030,-142.857142857143,4,1,0,0,0,1
78071,-333.333333333333,4,1,0,0,0,1
78111,-100,4,1,0,0,0,1
78152,-50,4,1,0,0,0,1
78193,-100,4,1,0,0,0,1
78233,-333.333333333333,4,1,0,0,0,1
78395,-100,4,1,0,0,0,1
78436,-50,4,1,0,0,0,1
78476,-100,4,1,0,0,0,1
80747,-50,4,1,0,0,0,1
80788,-111.111111111111,4,1,0,0,0,1
80828,-125,4,1,0,0,0,1
80869,-142.857142857143,4,1,0,0,0,1
80909,-166.666666666667,4,1,0,0,0,1
80950,-200,4,1,0,0,0,1
80990,-66.6666666666667,4,1,0,0,0,1
81071,-100,4,1,0,0,0,1
82368,-50,4,1,0,0,0,1
82409,-142.857142857143,4,1,0,0,0,1
82450,-333.333333333333,4,1,0,0,0,1
82490,-100,4,1,0,0,0,1
82692,-50,4,1,0,0,0,1
82733,-142.857142857143,4,1,0,0,0,1
82774,-333.333333333333,4,1,0,0,0,1
82814,-100,4,1,0,0,0,1
83017,-52.6315789473684,4,1,0,0,0,0
83058,-1000,4,1,0,0,0,0
83099,-66.6666666666667,4,1,0,0,0,0
83139,-200,4,1,0,0,0,0
83180,-52.6315789473684,4,1,0,0,0,0
83221,-1000,4,1,0,0,0,0
83262,-66.6666666666667,4,1,0,0,0,0
83302,-200,4,1,0,0,0,0
83342,-52.6315789473684,4,1,0,0,0,0
83383,-1000,4,1,0,0,0,0
83424,-66.6666666666667,4,1,0,0,0,0
83464,-200,4,1,0,0,0,0
83504,-52.6315789473684,4,1,0,0,0,0
83545,-1000,4,1,0,0,0,0
83586,-66.6666666666667,4,1,0,0,0,0
83626,-200,4,1,0,0,0,0
83666,-100,4,1,0,0,0,0
85936,-50,4,1,0,0,0,0
85977,-100,4,1,0,0,0,0
86017,-333.333333333333,4,1,0,0,0,0
86179,-100,4,1,0,0,0,0
86220,-50,4,1,0,0,0,0
86260,-100,4,1,0,0,0,0
88531,-50,4,1,0,0,0,0
88572,-142.857142857143,4,1,0,0,0,0
88613,-333.333333333333,4,1,0,0,0,0
88653,-100,4,1,0,0,0,0
88694,-50,4,1,0,0,0,0
88735,-142.857142857143,4,1,0,0,0,0
88776,-333.333333333333,4,1,0,0,0,0
88816,-100,4,1,0,0,0,0
91125,-500,4,1,0,0,0,0
91146,-1000,4,1,0,0,0,0
91166,-200,4,1,0,0,0,0
91186,-1000,4,1,0,0,0,0
91207,-125,4,1,0,0,0,0
91227,-1000,4,1,0,0,0,0
91247,-83.3333333333333,4,1,0,0,0,0
91267,-1000,4,1,0,0,0,0
91288,-62.5,4,1,0,0,0,0
91308,-1000,4,1,0,0,0,0
91328,-47.6190476190476,4,1,0,0,0,0
91348,-1000,4,1,0,0,0,0
91369,-38.4615384615385,4,1,0,0,0,0
91389,-1000,4,1,0,0,0,0
91409,-31.25,4,1,0,0,0,0
91430,-1000,4,1,0,0,0,0
91450,-100,4,1,0,0,0,0

[HitObjects]
256,192,152,128,0,639:0:0:0:0:
182,192,639,1,0,0:0:0:0:
36,192,639,1,0,0:0:0:0:
329,192,639,1,0,0:0:0:0:
475,192,639,1,0,0:0:0:0:
329,192,801,1,0,0:0:0:0:
109,192,801,1,0,0:0:0:0:
329,192,963,1,0,0:0:0:0:
182,192,963,1,0,0:0:0:0:
256,192,963,1,0,0:0:0:0:
329,192,1125,1,0,0:0:0:0:
109,192,1125,1,0,0:0:0:0:
182,192,1207,1,0,0:0:0:0:
329,192,1288,1,0,0:0:0:0:
36,192,1288,1,0,0:0:0:0:
329,192,1450,1,0,0:0:0:0:
109,192,1450,1,0,0:0:0:0:
329,192,1612,1,0,0:0:0:0:
256,192,1612,1,0,0:0:0:0:
182,192,1612,1,0,0:0:0:0:
402,192,1774,1,0,0:0:0:0:
109,192,1774,1,0,0:0:0:0:
182,192,1855,1,0,0:0:0:0:
402,192,1936,1,0,0:0:0:0:
36,192,1936,1,0,0:0:0:0:
402,192,2098,1,0,0:0:0:0:
109,192,2098,1,0,0:0:0:0:
402,192,2261,1,0,0:0:0:0:
256,192,2261,1,0,0:0:0:0:
182,192,2261,1,0,0:0:0:0:
402,192,2423,1,0,0:0:0:0:
109,192,2423,1,0,0:0:0:0:
182,192,2504,1,0,0:0:0:0:
402,192,2585,1,0,0:0:0:0:
36,192,2585,1,0,0:0:0:0:
402,192,2747,1,0,0:0:0:0:
109,192,2747,1,0,0:0:0:0:
402,192,2909,1,0,0:0:0:0:
256,192,2909,1,0,0:0:0:0:
182,192,2909,1,0,0:0:0:0:
402,192,3071,1,0,0:0:0:0:
109,192,3071,1,0,0:0:0:0:
182,192,3152,1,0,0:0:0:0:
36,192,3234,1,0,0:0:0:0:
475,192,3234,1,0,0:0:0:0:
36,192,3396,1,0,0:0:0:0:
402,192,3396,1,0,0:0:0:0:
36,192,3558,1,0,0:0:0:0:
329,192,3558,1,0,0:0:0:0:
256,192,3558,1,0,0:0:0:0:
36,192,3720,1,0,0:0:0:0:
402,192,3720,1,0,0:0:0:0:
329,192,3801,1,0,0:0:0:0:
36,192,3882,1,0,0:0:0:0:
475,192,3882,1,0,0:0:0:0:
36,192,4044,1,0,0:0:0:0:
402,192,4044,1,0,0:0:0:0:
36,192,4207,1,0,0:0:0:0:
256,192,4207,1,0,0:0:0:0:
329,192,4207,1,0,0:0:0:0:
109,192,4369,1,0,0:0:0:0:
402,192,4369,1,0,0:0:0:0:
329,192,4450,1,0,0:0:0:0:
109,192,4531,1,0,0:0:0:0:
475,192,4531,1,0,0:0:0:0:
109,192,4693,1,0,0:0:0:0:
402,192,4693,1,0,0:0:0:0:
109,192,4855,1,0,0:0:0:0:
256,192,4855,1,0,0:0:0:0:
329,192,4855,1,0,0:0:0:0:
109,192,5017,1,0,0:0:0:0:
402,192,5017,1,0,0:0:0:0:
329,192,5098,1,0,0:0:0:0:
182,192,5180,1,0,0:0:0:0:
475,192,5180,1,0,0:0:0:0:
182,192,5342,1,0,0:0:0:0:
402,192,5342,1,0,0:0:0:0:
182,192,5504,1,0,0:0:0:0:
36,192,5504,1,0,0:0:0:0:
475,192,5504,1,0,0:0:0:0:
256,192,5504,1,0,0:0:0:0:
329,192,5585,1,0,0:0:0:0:
182,192,5666,1,0,0:0:0:0:
402,192,5666,1,0,0:0:0:0:
109,192,5666,1,0,0:0:0:0:
329,192,5747,1,0,0:0:0:0:
182,192,5828,1,0,0:0:0:0:
256,192,5828,128,0,11017:0:0:0:0:
475,192,5828,1,0,0:0:0:0:
475,192,5990,1,0,0:0:0:0:
109,192,5990,1,0,0:0:0:0:
475,192,6152,1,0,0:0:0:0:
36,192,6152,1,0,0:0:0:0:
402,192,6152,1,0,0:0:0:0:
475,192,6315,1,0,0:0:0:0:
109,192,6315,1,0,0:0:0:0:
182,192,6396,1,0,0:0:0:0:
475,192,6477,1,0,0:0:0:0:
36,192,6477,1,0,0:0:0:0:
475,192,6639,1,0,0:0:0:0:
109,192,6639,1,0,0:0:0:0:
475,192,6801,1,0,0:0:0:0:
402,192,6801,1,0,0:0:0:0:
182,192,6801,1,0,0:0:0:0:
329,192,6963,1,0,0:0:0:0:
109,192,6963,1,0,0:0:0:0:
36,192,7044,1,0,0:0:0:0:
329,192,7125,1,0,0:0:0:0:
182,192,7125,1,0,0:0:0:0:
329,192,7288,1,0,0:0:0:0:
109,192,7288,1,0,0:0:0:0:
329,192,7450,1,0,0:0:0:0:
402,192,7450,1,0,0:0:0:0:
36,192,7450,1,0,0:0:0:0:
329,192,7612,1,0,0:0:0:0:
109,192,7612,1,0,0:0:0:0:
182,192,7693,1,0,0:0:0:0:
329,192,7774,1,0,0:0:0:0:
36,192,7774,1,0,0:0:0:0:
329,192,7936,1,0,0:0:0:0:
109,192,7936,1,0,0:0:0:0:
329,192,8098,1,0,0:0:0:0:
402,192,8098,1,0,0:0:0:0:
182,192,8098,1,0,0:0:0:0:
329,192,8261,1,0,0:0:0:0:
109,192,8261,1,0,0:0:0:0:
36,192,8342,1,0,0:0:0:0:
182,192,8423,1,0,0:0:0:0:
475,192,8423,1,0,0:0:0:0:
182,192,8585,1,0,0:0:0:0:
402,192,8585,1,0,0:0:0:0:
182,192,8747,1,0,0:0:0:0:
109,192,8747,1,0,0:0:0:0:
329,192,8747,1,0,0:0:0:0:
182,192,8909,1,0,0:0:0:0:
402,192,8909,1,0,0:0:0:0:
475,192,8990,1,0,0:0:0:0:
182,192,9071,1,0,0:0:0:0:
329,192,9071,1,0,0:0:0:0:
182,192,9234,1,0,0:0:0:0:
402,192,9234,1,0,0:0:0:0:
182,192,9396,1,0,0:0:0:0:
109,192,9396,1,0,0:0:0:0:
475,192,9396,1,0,0:0:0:0:
36,192,9558,1,0,0:0:0:0:
402,192,9558,1,0,0:0:0:0:
329,192,9639,1,0,0:0:0:0:
36,192,9720,1,0,0:0:0:0:
475,192,9720,1,0,0:0:0:0:
36,192,9882,1,0,0:0:0:0:
402,192,9882,1,0,0:0:0:0:
36,192,10044,1,0,0:0:0:0:
109,192,10044,1,0,0:0:0:0:
329,192,10044,1,0,0:0:0:0:
36,192,10207,1,0,0:0:0:0:
402,192,10207,1,0,0:0:0:0:
475,192,10288,1,0,0:0:0:0:
109,192,10369,1,0,0:0:0:0:
329,192,10369,1,0,0:0:0:0:
109,192,10531,1,0,0:0:0:0:
402,192,10531,1,0,0:0:0:0:
329,192,10612,1,0,0:0:0:0:
182,192,10612,1,0,0:0:0:0:
109,192,10693,1,0,0:0:0:0:
475,192,10693,1,0,0:0:0:0:
109,192,10855,1,0,0:0:0:0:
402,192,10855,1,0,0:0:0:0:
329,192,10936,1,0,0:0:0:0:
182,192,10936,1,0,0:0:0:0:
475,192,11017,1,0,0:0:0:0:
109,192,11017,1,0,0:0:0:0:
36,192,11017,1,0,0:0:0:0:
402,192,11017,1,0,0:0:0:0:
182,192,11180,128,0,11342:0:0:0:0:
329,192,11180,1,0,0:0:0:0:
475,192,11342,1,0,0:0:0:0:
109,192,11342,1,0,0:0:0:0:
256,192,11342,1,0,0:0:0:0:
182,192,11504,128,0,11666:0:0:0:0:
329,192,11504,1,0,0:0:0:0:
402,192,11585,1,0,0:0:0:0:
475,192,11666,1,0,0:0:0:0:
36,192,11666,1,0,0:0:0:0:
182,192,11828,128,0,11990:0:0:0:0:
329,192,11828,1,0,0:0:0:0:
475,192,11990,1,0,0:0:0:0:
109,192,11990,1,0,0:0:0:0:
256,192,11990,1,0,0:0:0:0:
36,192,12152,128,0,12315:0:0:0:0:
402,192,12152,1,0,0:0:0:0:
182,192,12315,1,0,0:0:0:0:
329,192,12315,1,0,0:0:0:0:
36,192,12477,128,0,12639:0:0:0:0:
475,192,12477,1,0,0:0:0:0:
109,192,12639,1,0,0:0:0:0:
329,192,12639,1,0,0:0:0:0:
256,192,12639,1,0,0:0:0:0:
36,192,12801,128,0,12963:0:0:0:0:
475,192,12801,1,0,0:0:0:0:
402,192,12882,1,0,0:0:0:0:
182,192,12963,1,0,0:0:0:0:
329,192,12963,1,0,0:0:0:0:
36,192,13125,128,0,13288:0:0:0:0:
475,192,13125,1,0,0:0:0:0:
109,192,13288,1,0,0:0:0:0:
329,192,13288,1,0,0:0:0:0:
256,192,13288,1,0,0:0:0:0:
36,192,13450,128,0,13612:0:0:0:0:
475,192,13450,1,0,0:0:0:0:
182,192,13612,1,0,0:0:0:0:
329,192,13612,1,0,0:0:0:0:
402,192,13774,128,0,13936:0:0:0:0:
36,192,13774,1,0,0:0:0:0:
182,192,13936,1,0,0:0:0:0:
475,192,13936,1,0,0:0:0:0:
256,192,13936,1,0,0:0:0:0:
402,192,14098,128,0,14261:0:0:0:0:
36,192,14098,1,0,0:0:0:0:
109,192,14180,1,0,0:0:0:0:
182,192,14261,1,0,0:0:0:0:
329,192,14261,1,0,0:0:0:0:
402,192,14423,128,0,14585:0:0:0:0:
36,192,14423,1,0,0:0:0:0:
182,192,14585,1,0,0:0:0:0:
475,192,14585,1,0,0:0:0:0:
256,192,14585,1,0,0:0:0:0:
329,192,14747,128,0,14909:0:0:0:0:
109,192,14747,1,0,0:0:0:0:
36,192,14909,1,0,0:0:0:0:
402,192,14909,1,0,0:0:0:0:
256,192,14909,1,0,0:0:0:0:
329,192,15071,128,0,15234:0:0:0:0:
182,192,15071,1,0,0:0:0:0:
36,192,15234,1,0,0:0:0:0:
475,192,15234,1,0,0:0:0:0:
256,192,15234,1,0,0:0:0:0:
402,192,15234,1,0,0:0:0:0:
329,192,15396,128,0,15558:0:0:0:0:
182,192,15396,1,0,0:0:0:0:
109,192,15477,1,0,0:0:0:0:
36,192,15558,1,0,0:0:0:0:
402,192,15558,1,0,0:0:0:0:
256,192,15558,1,0,0:0:0:0:
475,192,15720,128,0,15882:0:0:0:0:
182,192,15720,1,0,0:0:0:0:
256,192,15882,1,0,0:0:0:0:
36,192,15882,1,0,0:0:0:0:
329,192,15882,1,0,0:0:0:0:
109,192,15882,1,0,0:0:0:0:
475,192,16044,128,0,16207:0:0:0:0:
182,192,16044,1,0,0:0:0:0:
109,192,16207,1,0,0:0:0:0:
36,192,16207,1,0,0:0:0:0:
256,192,16207,1,0,0:0:0:0:
329,192,16207,1,0,0:0:0:0:
402,192,16207,1,0,0:0:0:0:
329,192,16369,1,0,0:0:0:0:
256,192,16369,1,0,0:0:0:0:
182,192,16369,1,0,0:0:0:0:
475,192,16369,1,0,0:0:0:0:
36,192,16531,1,0,0:0:0:0:
475,192,16531,1,0,0:0:0:0:
182,192,16531,1,0,0:0:0:0:
402,192,16531,1,0,0:0:0:0:
109,192,16531,1,0,0:0:0:0:
256,192,16693,1,0,0:0:0:0:
329,192,16693,1,0,0:0:0:0:
109,192,16693,1,0,0:0:0:0:
36,192,16693,1,0,0:0:0:0:
182,192,16855,1,0,0:0:0:0:
256,192,16855,1,0,0:0:0:0:
475,192,16855,1,0,0:0:0:0:
402,192,16855,1,0,0:0:0:0:
402,192,17017,1,0,0:0:0:0:
329,192,17017,1,0,0:0:0:0:
109,192,17017,1,0,0:0:0:0:
182,192,17017,1,0,0:0:0:0:
109,192,17180,1,0,0:0:0:0:
36,192,17180,1,0,0:0:0:0:
329,192,17180,1,0,0:0:0:0:
475,192,17180,1,0,0:0:0:0:
256,192,17180,1,0,0:0:0:0:
402,192,17342,1,0,0:0:0:0:
256,192,17342,1,0,0:0:0:0:
182,192,17342,1,0,0:0:0:0:
475,192,17342,1,0,0:0:0:0:
109,192,17504,1,0,0:0:0:0:
329,192,17504,1,0,0:0:0:0:
402,192,17504,1,0,0:0:0:0:
36,192,17504,1,0,0:0:0:0:
182,192,17666,1,0,0:0:0:0:
475,192,17666,1,0,0:0:0:0:
402,192,17666,1,0,0:0:0:0:
256,192,17666,1,0,0:0:0:0:
256,192,17828,1,0,0:0:0:0:
36,192,17828,1,0,0:0:0:0:
109,192,17828,1,0,0:0:0:0:
329,192,17828,1,0,0:0:0:0:
475,192,17828,1,0,0:0:0:0:
182,192,17990,1,0,0:0:0:0:
402,192,17990,1,0,0:0:0:0:
329,192,17990,1,0,0:0:0:0:
109,192,17990,1,0,0:0:0:0:
475,192,18152,1,0,0:0:0:0:
182,192,18152,1,0,0:0:0:0:
402,192,18152,1,0,0:0:0:0:
256,192,18152,1,0,0:0:0:0:
329,192,18315,1,0,0:0:0:0:
256,192,18315,1,0,0:0:0:0:
36,192,18315,1,0,0:0:0:0:
109,192,18315,1,0,0:0:0:0:
182,192,18477,1,0,0:0:0:0:
475,192,18477,1,0,0:0:0:0:
36,192,18477,1,0,0:0:0:0:
402,192,18477,1,0,0:0:0:0:
256,192,18477,1,0,0:0:0:0:
182,192,18639,1,0,0:0:0:0:
109,192,18639,1,0,0:0:0:0:
402,192,18639,1,0,0:0:0:0:
329,192,18639,1,0,0:0:0:0:
36,192,18801,1,0,0:0:0:0:
475,192,18801,1,0,0:0:0:0:
402,192,18801,1,0,0:0:0:0:
329,192,18801,1,0,0:0:0:0:
182,192,18801,1,0,0:0:0:0:
109,192,18882,1,0,0:0:0:0:
256,192,18882,1,0,0:0:0:0:
36,192,18963,1,0,0:0:0:0:
182,192,18963,1,0,0:0:0:0:
402,192,18963,1,0,0:0:0:0:
475,192,18963,1,0,0:0:0:0:
329,192,19044,1,0,0:0:0:0:
256,192,19044,1,0,0:0:0:0:
402,192,19125,1,0,0:0:0:0:
109,192,19125,1,0,0:0:0:0:
36,192,19125,1,0,0:0:0:0:
182,192,19125,1,0,0:0:0:0:
475,192,19125,1,0,0:0:0:0:
256,192,19207,1,0,0:0:0:0:
329,192,19207,1,0,0:0:0:0:
402,192,19288,1,0,0:0:0:0:
36,192,19288,1,0,0:0:0:0:
109,192,19288,1,0,0:0:0:0:
475,192,19288,1,0,0:0:0:0:
182,192,19369,1,0,0:0:0:0:
329,192,19369,1,0,0:0:0:0:
475,192,19450,1,0,0:0:0:0:
256,192,19450,1,0,0:0:0:0:
36,192,19450,1,0,0:0:0:0:
402,192,19490,1,0,0:0:0:0:
182,192,19490,1,0,0:0:0:0:
329,192,19531,1,0,0:0:0:0:
109,192,19531,1,0,0:0:0:0:
256,192,19571,1,0,0:0:0:0:
36,192,19571,1,0,0:0:0:0:
182,192,19612,1,0,0:0:0:0:
402,192,19612,1,0,0:0:0:0:
475,192,19612,1,0,0:0:0:0:
109,192,19693,1,0,0:0:0:0:
36,192,19693,1,0,0:0:0:0:
402,192,19774,1,0,0:0:0:0:
256,192,19774,1,0,0:0:0:0:
475,192,19774,1,0,0:0:0:0:
182,192,19774,1,0,0:0:0:0:
329,192,19774,1,0,0:0:0:0:
36,192,19855,1,0,0:0:0:0:
109,192,19855,1,0,0:0:0:0:
182,192,19936,1,0,0:0:0:0:
329,192,19936,1,0,0:0:0:0:
256,192,19936,1,0,0:0:0:0:
475,192,19936,1,0,0:0:0:0:
109,192,20017,1,0,0:0:0:0:
402,192,20017,1,0,0:0:0:0:
475,192,20098,1,0,0:0:0:0:
36,192,20098,1,0,0:0:0:0:
182,192,20098,1,0,0:0:0:0:
256,192,20098,128,0,21396:0:0:0:0:
329,192,20098,1,0,0:0:0:0:
475,192,21396,128,0,21639:0:0:0:0:
329,192,21396,1,0,0:0:0:0:
182,192,21396,1,0,0:0:0:0:
36,192,21396,1,0,0:0:0:0:
109,192,21396,1,0,0:0:0:0:
402,192,21396,1,0,0:0:0:0:
256,192,21558,1,0,0:0:0:0:
109,192,21558,1,0,0:0:0:0:
402,192,21720,1,0,0:0:0:0:
475,192,21720,1,0,0:0:0:0:
36,192,21720,1,0,0:0:0:0:
329,192,21720,1,0,0:0:0:0:
182,192,21720,128,0,21801:0:0:0:0:
182,192,21882,1,0,0:0:0:0:
329,192,21882,1,0,0:0:0:0:
182,192,21963,1,0,0:0:0:0:
475,192,22044,128,0,22125:0:0:0:0:
256,192,22044,1,0,0:0:0:0:
109,192,22044,1,0,0:0:0:0:
36,192,22044,1,0,0:0:0:0:
402,192,22044,1,0,0:0:0:0:
475,192,22207,128,0,22288:0:0:0:0:
329,192,22207,1,0,0:0:0:0:
36,192,22207,1,0,0:0:0:0:
109,192,22369,1,0,0:0:0:0:
256,192,22369,1,0,0:0:0:0:
182,192,22369,1,0,0:0:0:0:
402,192,22369,1,0,0:0:0:0:
475,192,22369,1,0,0:0:0:0:
109,192,22450,1,0,0:0:0:0:
329,192,22531,1,0,0:0:0:0:
402,192,22531,1,0,0:0:0:0:
109,192,22612,1,0,0:0:0:0:
402,192,22693,128,0,22774:0:0:0:0:
256,192,22693,1,0,0:0:0:0:
182,192,22693,1,0,0:0:0:0:
36,192,22693,1,0,0:0:0:0:
475,192,22693,1,0,0:0:0:0:
402,192,22855,1,0,0:0:0:0:
182,192,22855,1,0,0:0:0:0:
402,192,22936,1,0,0:0:0:0:
329,192,23017,128,0,23180:0:0:0:0:
109,192,23017,1,0,0:0:0:0:
256,192,23017,1,0,0:0:0:0:
36,192,23017,1,0,0:0:0:0:
475,192,23017,1,0,0:0:0:0:
475,192,23180,128,0,23342:0:0:0:0:
109,192,23180,1,0,0:0:0:0:
182,192,23180,1,0,0:0:0:0:
36,192,23342,128,0,23666:0:0:0:0:
182,192,23342,1,0,0:0:0:0:
256,192,23342,1,0,0:0:0:0:
329,192,23342,1,0,0:0:0:0:
402,192,23342,1,0,0:0:0:0:
475,192,23504,1,0,0:0:0:0:
329,192,23504,1,0,0:0:0:0:
475,192,23666,1,0,0:0:0:0:
402,192,23666,1,0,0:0:0:0:
256,192,23666,1,0,0:0:0:0:
182,192,23666,1,0,0:0:0:0:
109,192,23666,1,0,0:0:0:0:
182,192,23990,128,0,24234:0:0:0:0:
109,192,23990,1,0,0:0:0:0:
36,192,23990,1,0,0:0:0:0:
256,192,23990,1,0,0:0:0:0:
329,192,23990,1,0,0:0:0:0:
475,192,23990,1,0,0:0:0:0:
402,192,24152,1,0,0:0:0:0:
475,192,24152,1,0,0:0:0:0:
329,192,24315,1,0,0:0:0:0:
256,192,24315,1,0,0:0:0:0:
36,192,24315,1,0,0:0:0:0:
182,192,24315,1,0,0:0:0:0:
402,192,24315,1,0,0:0:0:0:
182,192,24396,1,0,0:0:0:0:
329,192,24477,1,0,0:0:0:0:
109,192,24477,1,0,0:0:0:0:
329,192,24558,1,0,0:0:0:0:
36,192,24639,128,0,24720:0:0:0:0:
475,192,24639,1,0,0:0:0:0:
402,192,24639,1,0,0:0:0:0:
256,192,24639,1,0,0:0:0:0:
109,192,24639,1,0,0:0:0:0:
182,192,24801,128,0,24882:0:0:0:0:
475,192,24801,1,0,0:0:0:0:
329,192,24801,1,0,0:0:0:0:
329,192,24963,128,0,25044:0:0:0:0:
402,192,24963,1,0,0:0:0:0:
256,192,24963,1,0,0:0:0:0:
109,192,24963,1,0,0:0:0:0:
36,192,24963,1,0,0:0:0:0:
475,192,25125,128,0,25207:0:0:0:0:
182,192,25125,1,0,0:0:0:0:
36,192,25125,1,0,0:0:0:0:
182,192,25288,128,0,25450:0:0:0:0:
109,192,25288,1,0,0:0:0:0:
36,192,25288,1,0,0:0:0:0:
256,192,25288,1,0,0:0:0:0:
402,192,25288,1,0,0:0:0:0:
329,192,25450,1,0,0:0:0:0:
475,192,25450,1,0,0:0:0:0:
329,192,25531,1,0,0:0:0:0:
109,192,25612,128,0,25774:0:0:0:0:
402,192,25612,1,0,0:0:0:0:
256,192,25612,1,0,0:0:0:0:
36,192,25612,1,0,0:0:0:0:
475,192,25612,1,0,0:0:0:0:
182,192,25774,128,0,25936:0:0:0:0:
256,192,25774,1,0,0:0:0:0:
329,192,25774,1,0,0:0:0:0:
402,192,25936,1,0,0:0:0:0:
36,192,25936,1,0,0:0:0:0:
329,192,25936,1,0,0:0:0:0:
475,192,25936,1,0,0:0:0:0:
329,192,26017,1,0,0:0:0:0:
109,192,26098,128,0,26261:0:0:0:0:
182,192,26098,1,0,0:0:0:0:
256,192,26098,1,0,0:0:0:0:
182,192,26261,1,0,0:0:0:0:
402,192,26261,1,0,0:0:0:0:
36,192,26261,1,0,0:0:0:0:
256,192,26261,1,0,0:0:0:0:
475,192,26261,1,0,0:0:0:0:
329,192,26585,128,0,26828:0:0:0:0:
182,192,26585,1,0,0:0:0:0:
36,192,26585,1,0,0:0:0:0:
402,192,26585,1,0,0:0:0:0:
475,192,26585,1,0,0:0:0:0:
256,192,26585,1,0,0:0:0:0:
109,192,26747,1,0,0:0:0:0:
182,192,26747,1,0,0:0:0:0:
36,192,26909,1,0,0:0:0:0:
256,192,26909,1,0,0:0:0:0:
329,192,26909,1,0,0:0:0:0:
475,192,26909,1,0,0:0:0:0:
109,192,26909,128,0,26990:0:0:0:0:
109,192,27071,1,0,0:0:0:0:
402,192,27071,1,0,0:0:0:0:
109,192,27152,1,0,0:0:0:0:
329,192,27234,128,0,27315:0:0:0:0:
475,192,27234,1,0,0:0:0:0:
256,192,27234,1,0,0:0:0:0:
36,192,27234,1,0,0:0:0:0:
182,192,27234,1,0,0:0:0:0:
329,192,27396,128,0,27477:0:0:0:0:
109,192,27396,1,0,0:0:0:0:
402,192,27396,1,0,0:0:0:0:
182,192,27558,1,0,0:0:0:0:
256,192,27558,1,0,0:0:0:0:
36,192,27558,1,0,0:0:0:0:
402,192,27558,1,0,0:0:0:0:
475,192,27558,1,0,0:0:0:0:
182,192,27639,1,0,0:0:0:0:
329,192,27720,1,0,0:0:0:0:
475,192,27720,1,0,0:0:0:0:
182,192,27801,1,0,0:0:0:0:
475,192,27882,128,0,27963:0:0:0:0:
109,192,27882,1,0,0:0:0:0:
256,192,27882,1,0,0:0:0:0:
36,192,27882,1,0,0:0:0:0:
329,192,27882,1,0,0:0:0:0:
475,192,28044,1,0,0:0:0:0:
182,192,28044,1,0,0:0:0:0:
256,192,28044,1,0,0:0:0:0:
475,192,28125,1,0,0:0:0:0:
182,192,28207,128,0,28369:0:0:0:0:
36,192,28207,1,0,0:0:0:0:
109,192,28207,1,0,0:0:0:0:
329,192,28207,1,0,0:0:0:0:
402,192,28207,1,0,0:0:0:0:
329,192,28369,128,0,28531:0:0:0:0:
256,192,28369,1,0,0:0:0:0:
475,192,28369,1,0,0:0:0:0:
36,192,28531,128,0,28855:0:0:0:0:
182,192,28531,1,0,0:0:0:0:
109,192,28531,1,0,0:0:0:0:
402,192,28531,1,0,0:0:0:0:
475,192,28531,1,0,0:0:0:0:
182,192,28693,1,0,0:0:0:0:
256,192,28693,1,0,0:0:0:0:
109,192,28855,1,0,0:0:0:0:
256,192,28855,1,0,0:0:0:0:
329,192,28855,1,0,0:0:0:0:
402,192,28855,1,0,0:0:0:0:
475,192,28855,1,0,0:0:0:0:
329,192,29180,128,0,29423:0:0:0:0:
109,192,29180,1,0,0:0:0:0:
36,192,29180,1,0,0:0:0:0:
402,192,29180,1,0,0:0:0:0:
475,192,29180,1,0,0:0:0:0:
256,192,29180,1,0,0:0:0:0:
182,192,29342,1,0,0:0:0:0:
109,192,29342,1,0,0:0:0:0:
329,192,29504,1,0,0:0:0:0:
475,192,29504,1,0,0:0:0:0:
182,192,29504,1,0,0:0:0:0:
36,192,29504,1,0,0:0:0:0:
256,192,29504,1,0,0:0:0:0:
329,192,29585,1,0,0:0:0:0:
182,192,29666,1,0,0:0:0:0:
109,192,29666,1,0,0:0:0:0:
182,192,29747,1,0,0:0:0:0:
402,192,29828,128,0,29909:0:0:0:0:
256,192,29828,1,0,0:0:0:0:
475,192,29828,1,0,0:0:0:0:
36,192,29828,1,0,0:0:0:0:
109,192,29828,1,0,0:0:0:0:
329,192,29990,128,0,30071:0:0:0:0:
109,192,29990,1,0,0:0:0:0:
182,192,29990,1,0,0:0:0:0:
182,192,30152,128,0,30234:0:0:0:0:
402,192,30152,1,0,0:0:0:0:
475,192,30152,1,0,0:0:0:0:
256,192,30152,1,0,0:0:0:0:
36,192,30152,1,0,0:0:0:0:
109,192,30315,128,0,30396:0:0:0:0:
329,192,30315,1,0,0:0:0:0:
402,192,30315,1,0,0:0:0:0:
36,192,30477,1,0,0:0:0:0:
329,192,30477,128,0,30639:0:0:0:0:
182,192,30477,1,0,0:0:0:0:
256,192,30477,1,0,0:0:0:0:
402,192,30477,1,0,0:0:0:0:
475,192,30477,1,0,0:0:0:0:
475,192,30639,128,0,30720:0:0:0:0:
109,192,30639,1,0,0:0:0:0:
36,192,30801,1,0,0:0:0:0:
402,192,30801,128,0,31125:0:0:0:0:
109,192,30963,1,0,0:0:0:0:
36,192,31125,1,0,0:0:0:0:
182,192,31125,1,0,0:0:0:0:
256,192,31125,1,0,0:0:0:0:
36,192,31288,1,0,0:0:0:0:
256,192,31288,1,0,0:0:0:0:
329,192,31288,1,0,0:0:0:0:
36,192,31450,1,0,0:0:0:0:
329,192,31450,1,0,0:0:0:0:
402,192,31450,1,0,0:0:0:0:
36,192,31612,1,0,0:0:0:0:
402,192,31612,1,0,0:0:0:0:
475,192,31612,1,0,0:0:0:0:
36,192,31774,128,0,32017:0:0:0:0:
182,192,31774,1,0,0:0:0:0:
329,192,31774,1,0,0:0:0:0:
475,192,31774,1,0,0:0:0:0:
402,192,31774,1,0,0:0:0:0:
109,192,31774,1,0,0:0:0:0:
256,192,31936,1,0,0:0:0:0:
402,192,31936,1,0,0:0:0:0:
109,192,32098,1,0,0:0:0:0:
36,192,32098,1,0,0:0:0:0:
475,192,32098,1,0,0:0:0:0:
182,192,32098,1,0,0:0:0:0:
329,192,32098,128,0,32180:0:0:0:0:
329,192,32261,1,0,0:0:0:0:
182,192,32261,1,0,0:0:0:0:
329,192,32342,1,0,0:0:0:0:
36,192,32423,128,0,32504:0:0:0:0:
256,192,32423,1,0,0:0:0:0:
402,192,32423,1,0,0:0:0:0:
475,192,32423,1,0,0:0:0:0:
109,192,32423,1,0,0:0:0:0:
36,192,32585,128,0,32666:0:0:0:0:
182,192,32585,1,0,0:0:0:0:
475,192,32585,1,0,0:0:0:0:
256,192,32747,1,0,0:0:0:0:
329,192,32747,1,0,0:0:0:0:
402,192,32747,1,0,0:0:0:0:
109,192,32747,1,0,0:0:0:0:
36,192,32747,1,0,0:0:0:0:
402,192,32828,1,0,0:0:0:0:
182,192,32909,1,0,0:0:0:0:
109,192,32909,1,0,0:0:0:0:
402,192,32990,1,0,0:0:0:0:
109,192,33071,128,0,33152:0:0:0:0:
256,192,33071,1,0,0:0:0:0:
329,192,33071,1,0,0:0:0:0:
475,192,33071,1,0,0:0:0:0:
36,192,33071,1,0,0:0:0:0:
109,192,33234,1,0,0:0:0:0:
402,192,33234,1,0,0:0:0:0:
109,192,33315,1,0,0:0:0:0:
182,192,33396,128,0,33558:0:0:0:0:
329,192,33396,1,0,0:0:0:0:
256,192,33396,1,0,0:0:0:0:
475,192,33396,1,0,0:0:0:0:
36,192,33396,1,0,0:0:0:0:
36,192,33558,128,0,33720:0:0:0:0:
402,192,33558,1,0,0:0:0:0:
329,192,33558,1,0,0:0:0:0:
475,192,33720,128,0,34044:0:0:0:0:
402,192,33720,1,0,0:0:0:0:
256,192,33720,1,0,0:0:0:0:
182,192,33720,1,0,0:0:0:0:
109,192,33720,1,0,0:0:0:0:
36,192,33882,1,0,0:0:0:0:
182,192,33882,1,0,0:0:0:0:
36,192,34044,1,0,0:0:0:0:
109,192,34044,1,0,0:0:0:0:
256,192,34044,1,0,0:0:0:0:
329,192,34044,1,0,0:0:0:0:
402,192,34044,1,0,0:0:0:0:
329,192,34369,128,0,34612:0:0:0:0:
402,192,34369,1,0,0:0:0:0:
475,192,34369,1,0,0:0:0:0:
256,192,34369,1,0,0:0:0:0:
182,192,34369,1,0,0:0:0:0:
36,192,34369,1,0,0:0:0:0:
109,192,34531,1,0,0:0:0:0:
36,192,34531,1,0,0:0:0:0:
182,192,34693,1,0,0:0:0:0:
256,192,34693,1,0,0:0:0:0:
475,192,34693,1,0,0:0:0:0:
329,192,34693,1,0,0:0:0:0:
109,192,34693,1,0,0:0:0:0:
329,192,34774,1,0,0:0:0:0:
182,192,34855,1,0,0:0:0:0:
402,192,34855,1,0,0:0:0:0:
182,192,34936,1,0,0:0:0:0:
475,192,35017,128,0,35098:0:0:0:0:
36,192,35017,1,0,0:0:0:0:
109,192,35017,1,0,0:0:0:0:
256,192,35017,1,0,0:0:0:0:
402,192,35017,1,0,0:0:0:0:
329,192,35180,128,0,35261:0:0:0:0:
36,192,35180,1,0,0:0:0:0:
182,192,35180,1,0,0:0:0:0:
182,192,35342,128,0,35423:0:0:0:0:
109,192,35342,1,0,0:0:0:0:
256,192,35342,1,0,0:0:0:0:
402,192,35342,1,0,0:0:0:0:
475,192,35342,1,0,0:0:0:0:
36,192,35504,128,0,35585:0:0:0:0:
329,192,35504,1,0,0:0:0:0:
475,192,35504,1,0,0:0:0:0:
329,192,35666,128,0,35828:0:0:0:0:
402,192,35666,1,0,0:0:0:0:
475,192,35666,1,0,0:0:0:0:
256,192,35666,1,0,0:0:0:0:
109,192,35666,1,0,0:0:0:0:
182,192,35828,1,0,0:0:0:0:
36,192,35828,1,0,0:0:0:0:
182,192,35909,1,0,0:0:0:0:
402,192,35990,128,0,36152:0:0:0:0:
109,192,35990,1,0,0:0:0:0:
256,192,35990,1,0,0:0:0:0:
475,192,35990,1,0,0:0:0:0:
36,192,35990,1,0,0:0:0:0:
329,192,36152,128,0,36315:0:0:0:0:
256,192,36152,1,0,0:0:0:0:
182,192,36152,1,0,0:0:0:0:
109,192,36315,1,0,0:0:0:0:
475,192,36315,1,0,0:0:0:0:
182,192,36315,1,0,0:0:0:0:
36,192,36315,1,0,0:0:0:0:
182,192,36396,1,0,0:0:0:0:
402,192,36477,128,0,36639:0:0:0:0:
329,192,36477,1,0,0:0:0:0:
256,192,36477,1,0,0:0:0:0:
329,192,36639,1,0,0:0:0:0:
109,192,36639,1,0,0:0:0:0:
475,192,36639,1,0,0:0:0:0:
256,192,36639,1,0,0:0:0:0:
36,192,36639,1,0,0:0:0:0:
182,192,36963,128,0,37207:0:0:0:0:
329,192,36963,1,0,0:0:0:0:
475,192,36963,1,0,0:0:0:0:
109,192,36963,1,0,0:0:0:0:
36,192,36963,1,0,0:0:0:0:
256,192,36963,1,0,0:0:0:0:
402,192,37125,1,0,0:0:0:0:
329,192,37125,1,0,0:0:0:0:
475,192,37288,1,0,0:0:0:0:
256,192,37288,1,0,0:0:0:0:
182,192,37288,1,0,0:0:0:0:
36,192,37288,1,0,0:0:0:0:
402,192,37288,128,0,37369:0:0:0:0:
402,192,37450,1,0,0:0:0:0:
109,192,37450,1,0,0:0:0:0:
402,192,37531,1,0,0:0:0:0:
182,192,37612,128,0,37693:0:0:0:0:
36,192,37612,1,0,0:0:0:0:
256,192,37612,1,0,0:0:0:0:
475,192,37612,1,0,0:0:0:0:
329,192,37612,1,0,0:0:0:0:
182,192,37774,128,0,37855:0:0:0:0:
402,192,37774,1,0,0:0:0:0:
109,192,37774,1,0,0:0:0:0:
329,192,37936,1,0,0:0:0:0:
256,192,37936,1,0,0:0:0:0:
475,192,37936,1,0,0:0:0:0:
109,192,37936,1,0,0:0:0:0:
36,192,37936,1,0,0:0:0:0:
329,192,38017,1,0,0:0:0:0:
182,192,38098,1,0,0:0:0:0:
36,192,38098,1,0,0:0:0:0:
329,192,38180,1,0,0:0:0:0:
36,192,38261,128,0,38342:0:0:0:0:
402,192,38261,1,0,0:0:0:0:
256,192,38261,1,0,0:0:0:0:
475,192,38261,1,0,0:0:0:0:
182,192,38261,1,0,0:0:0:0:
36,192,38423,1,0,0:0:0:0:
329,192,38423,1,0,0:0:0:0:
256,192,38423,1,0,0:0:0:0:
36,192,38504,1,0,0:0:0:0:
329,192,38585,128,0,38747:0:0:0:0:
475,192,38585,1,0,0:0:0:0:
402,192,38585,1,0,0:0:0:0:
182,192,38585,1,0,0:0:0:0:
109,192,38585,1,0,0:0:0:0:
182,192,38747,128,0,38909:0:0:0:0:
256,192,38747,1,0,0:0:0:0:
36,192,38747,1,0,0:0:0:0:
475,192,38909,128,0,39234:0:0:0:0:
329,192,38909,1,0,0:0:0:0:
402,192,38909,1,0,0:0:0:0:
109,192,38909,1,0,0:0:0:0:
36,192,38909,1,0,0:0:0:0:
329,192,39071,1,0,0:0:0:0:
256,192,39071,1,0,0:0:0:0:
402,192,39234,1,0,0:0:0:0:
256,192,39234,1,0,0:0:0:0:
182,192,39234,1,0,0:0:0:0:
109,192,39234,1,0,0:0:0:0:
36,192,39234,1,0,0:0:0:0:
182,192,39558,128,0,39801:0:0:0:0:
402,192,39558,1,0,0:0:0:0:
475,192,39558,1,0,0:0:0:0:
109,192,39558,1,0,0:0:0:0:
36,192,39558,1,0,0:0:0:0:
256,192,39558,1,0,0:0:0:0:
329,192,39720,1,0,0:0:0:0:
402,192,39720,1,0,0:0:0:0:
182,192,39882,1,0,0:0:0:0:
36,192,39882,1,0,0:0:0:0:
329,192,39882,1,0,0:0:0:0:
475,192,39882,1,0,0:0:0:0:
256,192,39882,1,0,0:0:0:0:
182,192,39963,1,0,0:0:0:0:
329,192,40044,1,0,0:0:0:0:
402,192,40044,1,0,0:0:0:0:
329,192,40125,1,0,0:0:0:0:
109,192,40207,128,0,40288:0:0:0:0:
256,192,40207,1,0,0:0:0:0:
36,192,40207,1,0,0:0:0:0:
475,192,40207,1,0,0:0:0:0:
402,192,40207,1,0,0:0:0:0:
182,192,40369,128,0,40450:0:0:0:0:
402,192,40369,1,0,0:0:0:0:
329,192,40369,1,0,0:0:0:0:
329,192,40531,128,0,40612:0:0:0:0:
109,192,40531,1,0,0:0:0:0:
36,192,40531,1,0,0:0:0:0:
256,192,40531,1,0,0:0:0:0:
475,192,40531,1,0,0:0:0:0:
182,192,40693,1,0,0:0:0:0:
109,192,40693,1,0,0:0:0:0:
402,192,40693,1,0,0:0:0:0:
402,192,40774,1,0,0:0:0:0:
475,192,40855,1,0,0:0:0:0:
182,192,40855,128,0,41017:0:0:0:0:
329,192,40855,1,0,0:0:0:0:
256,192,40855,1,0,0:0:0:0:
36,192,40855,1,0,0:0:0:0:
36,192,41017,128,0,41098:0:0:0:0:
402,192,41017,1,0,0:0:0:0:
475,192,41180,1,0,0:0:0:0:
109,192,41180,128,0,41504:0:0:0:0:
182,192,41180,1,0,0:0:0:0:
256,192,41180,1,0,0:0:0:0:
329,192,41180,1,0,0:0:0:0:
402,192,41342,1,0,0:0:0:0:
475,192,41504,1,0,0:0:0:0:
256,192,41504,1,0,0:0:0:0:
329,192,41504,128,0,41666:0:0:0:0:
36,192,41504,1,0,0:0:0:0:
182,192,41828,128,0,41990:0:0:0:0:
256,192,41828,1,0,0:0:0:0:
36,192,41828,1,0,0:0:0:0:
475,192,41828,1,0,0:0:0:0:
475,192,42152,1,0,0:0:0:0:
329,192,42152,1,0,0:0:0:0:
256,192,42152,1,0,0:0:0:0:
182,192,42152,1,0,0:0:0:0:
36,192,42152,1,0,0:0:0:0:
329,192,42315,1,0,0:0:0:0:
329,192,42477,1,0,0:0:0:0:
329,192,42639,1,0,0:0:0:0:
329,192,42801,1,0,0:0:0:0:
329,192,42963,1,0,0:0:0:0:
329,192,43125,1,0,0:0:0:0:
475,192,43288,1,0,0:0:0:0:
475,192,43450,1,0,0:0:0:0:
475,192,43612,1,0,0:0:0:0:
475,192,43774,1,0,0:0:0:0:
475,192,43936,1,0,0:0:0:0:
475,192,44098,1,0,0:0:0:0:
36,192,44098,128,0,44342:0:0:0:0:
475,192,44261,1,0,0:0:0:0:
109,192,44261,128,0,44342:0:0:0:0:
475,192,44423,1,0,0:0:0:0:
256,192,44423,128,0,44504:0:0:0:0:
475,192,44585,1,0,0:0:0:0:
329,192,44585,128,0,44666:0:0:0:0:
182,192,44747,1,0,0:0:0:0:
475,192,44747,128,0,45071:0:0:0:0:
182,192,44909,1,0,0:0:0:0:
402,192,44909,128,0,45071:0:0:0:0:
182,192,45071,1,0,0:0:0:0:
329,192,45071,1,0,0:0:0:0:
402,192,45112,1,0,0:0:0:0:
329,192,45152,128,0,45396:0:0:0:0:
182,192,45234,1,0,0:0:0:0:
256,192,45234,128,0,45396:0:0:0:0:
182,192,45396,1,0,0:0:0:0:
182,192,45558,1,0,0:0:0:0:
402,192,45558,128,0,45720:0:0:0:0:
182,192,45720,1,0,0:0:0:0:
36,192,45882,1,0,0:0:0:0:
475,192,45882,128,0,46855:0:0:0:0:
36,192,46044,1,0,0:0:0:0:
36,192,46207,1,0,0:0:0:0:
329,192,46207,128,0,46855:0:0:0:0:
36,192,46369,1,0,0:0:0:0:
36,192,46531,1,0,0:0:0:0:
109,192,46693,1,0,0:0:0:0:
109,192,46855,1,0,0:0:0:0:
402,192,46855,128,0,46936:0:0:0:0:
109,192,47017,1,0,0:0:0:0:
329,192,47017,128,0,47098:0:0:0:0:
109,192,47180,1,0,0:0:0:0:
475,192,47180,128,0,47261:0:0:0:0:
329,192,47342,1,0,0:0:0:0:
329,192,47504,1,0,0:0:0:0:
329,192,47666,1,0,0:0:0:0:
329,192,47828,1,0,0:0:0:0:
329,192,47990,1,0,0:0:0:0:
329,192,48152,1,0,0:0:0:0:
36,192,48152,128,0,48234:0:0:0:0:
329,192,48315,1,0,0:0:0:0:
475,192,48477,1,0,0:0:0:0:
109,192,48477,128,0,49125:0:0:0:0:
475,192,48639,1,0,0:0:0:0:
475,192,48801,1,0,0:0:0:0:
475,192,48963,1,0,0:0:0:0:
36,192,48963,128,0,49125:0:0:0:0:
475,192,49125,1,0,0:0:0:0:
182,192,49125,128,0,49207:0:0:0:0:
475,192,49288,1,0,0:0:0:0:
36,192,49288,128,0,49369:0:0:0:0:
475,192,49450,1,0,0:0:0:0:
182,192,49450,128,0,49531:0:0:0:0:
475,192,49612,1,0,0:0:0:0:
329,192,49612,128,0,49693:0:0:0:0:
475,192,49774,1,0,0:0:0:0:
36,192,49774,128,0,49855:0:0:0:0:
329,192,49936,128,0,50261:0:0:0:0:
182,192,49936,1,0,0:0:0:0:
182,192,50098,128,0,50119:0:0:0:0:
256,192,50261,128,0,50423:0:0:0:0:
182,192,50261,128,0,50301:0:0:0:0:
329,192,50342,128,0,50423:0:0:0:0:
402,192,50423,128,0,50747:0:0:0:0:
182,192,50423,128,0,50484:0:0:0:0:
182,192,50585,128,0,50666:0:0:0:0:
182,192,50747,128,0,50848:0:0:0:0:
329,192,50747,128,0,50909:0:0:0:0:
402,192,50828,128,0,50909:0:0:0:0:
475,192,50909,128,0,52531:0:0:0:0:
182,192,50909,128,0,51031:0:0:0:0:
36,192,51071,128,0,51193:0:0:0:0:
36,192,51234,128,0,51355:0:0:0:0:
36,192,51396,128,0,51517:0:0:0:0:
36,192,51558,128,0,51680:0:0:0:0:
36,192,51720,128,0,51842:0:0:0:0:
109,192,51882,128,0,52004:0:0:0:0:
109,192,52044,128,0,52166:0:0:0:0:
109,192,52207,128,0,52328:0:0:0:0:
109,192,52369,128,0,52490:0:0:0:0:
182,192,52531,1,0,0:0:0:0:
36,192,52531,1,0,0:0:0:0:
109,192,52531,1,0,0:0:0:0:
402,192,52531,1,0,0:0:0:0:
402,192,52693,128,0,52855:0:0:0:0:
182,192,52693,1,0,0:0:0:0:
329,192,52855,128,0,52936:0:0:0:0:
36,192,52855,1,0,0:0:0:0:
329,192,53017,1,0,0:0:0:0:
182,192,53017,1,0,0:0:0:0:
329,192,53098,1,0,0:0:0:0:
36,192,53180,1,0,0:0:0:0:
329,192,53342,128,0,53585:0:0:0:0:
182,192,53342,1,0,0:0:0:0:
475,192,53504,128,0,53585:0:0:0:0:
36,192,53504,1,0,0:0:0:0:
329,192,53666,1,0,0:0:0:0:
182,192,53666,1,0,0:0:0:0:
402,192,53707,128,0,53828:0:0:0:0:
36,192,53828,1,0,0:0:0:0:
109,192,53990,1,0,0:0:0:0:
329,192,53990,128,0,54071:0:0:0:0:
36,192,54152,1,0,0:0:0:0:
329,192,54152,1,0,0:0:0:0:
109,192,54315,1,0,0:0:0:0:
402,192,54315,128,0,54477:0:0:0:0:
36,192,54477,1,0,0:0:0:0:
329,192,54477,1,0,0:0:0:0:
109,192,54639,1,0,0:0:0:0:
475,192,54639,128,0,54801:0:0:0:0:
36,192,54801,1,0,0:0:0:0:
329,192,54801,128,0,55125:0:0:0:0:
109,192,54963,1,0,0:0:0:0:
475,192,55125,1,0,0:0:0:0:
402,192,55125,1,0,0:0:0:0:
182,192,55288,128,0,55450:0:0:0:0:
329,192,55288,1,0,0:0:0:0:
36,192,55450,128,0,55612:0:0:0:0:
475,192,55450,1,0,0:0:0:0:
402,192,55450,1,0,0:0:0:0:
182,192,55612,128,0,55774:0:0:0:0:
329,192,55612,1,0,0:0:0:0:
475,192,55774,1,0,0:0:0:0:
402,192,55774,1,0,0:0:0:0:
109,192,55855,128,0,55936:0:0:0:0:
329,192,55936,1,0,0:0:0:0:
109,192,56017,128,0,56098:0:0:0:0:
36,192,56098,128,0,56423:0:0:0:0:
475,192,56098,1,0,0:0:0:0:
402,192,56098,1,0,0:0:0:0:
109,192,56261,128,0,56423:0:0:0:0:
329,192,56261,1,0,0:0:0:0:
182,192,56423,128,0,56828:0:0:0:0:
256,192,56423,1,0,0:0:0:0:
402,192,56423,1,0,0:0:0:0:
475,192,56423,1,0,0:0:0:0:
36,192,56585,128,0,56666:0:0:0:0:
402,192,56585,1,0,0:0:0:0:
36,192,56747,128,0,56828:0:0:0:0:
329,192,56747,1,0,0:0:0:0:
256,192,56747,1,0,0:0:0:0:
475,192,56747,1,0,0:0:0:0:
182,192,56909,128,0,57315:0:0:0:0:
329,192,56909,1,0,0:0:0:0:
36,192,57071,128,0,57152:0:0:0:0:
256,192,57071,1,0,0:0:0:0:
402,192,57071,1,0,0:0:0:0:
475,192,57071,1,0,0:0:0:0:
36,192,57234,128,0,57315:0:0:0:0:
402,192,57234,1,0,0:0:0:0:
256,192,57396,1,0,0:0:0:0:
329,192,57396,1,0,0:0:0:0:
475,192,57396,1,0,0:0:0:0:
109,192,57396,128,0,57720:0:0:0:0:
329,192,57558,1,0,0:0:0:0:
182,192,57720,1,0,0:0:0:0:
36,192,57720,1,0,0:0:0:0:
256,192,57720,1,0,0:0:0:0:
475,192,57720,1,0,0:0:0:0:
402,192,57720,1,0,0:0:0:0:
329,192,57882,1,0,0:0:0:0:
36,192,57882,1,0,0:0:0:0:
109,192,57882,1,0,0:0:0:0:
256,192,57882,1,0,0:0:0:0:
109,192,58044,1,0,0:0:0:0:
402,192,58044,1,0,0:0:0:0:
329,192,58044,1,0,0:0:0:0:
475,192,58044,1,0,0:0:0:0:
182,192,58044,1,0,0:0:0:0:
402,192,58207,1,0,0:0:0:0:
475,192,58207,1,0,0:0:0:0:
256,192,58207,1,0,0:0:0:0:
182,192,58207,1,0,0:0:0:0:
36,192,58369,1,0,0:0:0:0:
109,192,58369,1,0,0:0:0:0:
329,192,58369,1,0,0:0:0:0:
256,192,58369,1,0,0:0:0:0:
402,192,58531,1,0,0:0:0:0:
329,192,58531,1,0,0:0:0:0:
109,192,58531,1,0,0:0:0:0:
182,192,58531,1,0,0:0:0:0:
36,192,58693,1,0,0:0:0:0:
256,192,58693,1,0,0:0:0:0:
182,192,58693,1,0,0:0:0:0:
402,192,58693,1,0,0:0:0:0:
475,192,58693,1,0,0:0:0:0:
329,192,58855,1,0,0:0:0:0:
36,192,58855,1,0,0:0:0:0:
109,192,58855,1,0,0:0:0:0:
256,192,58855,1,0,0:0:0:0:
109,192,59017,1,0,0:0:0:0:
475,192,59017,1,0,0:0:0:0:
402,192,59017,1,0,0:0:0:0:
182,192,59017,1,0,0:0:0:0:
109,192,59180,1,0,0:0:0:0:
256,192,59180,1,0,0:0:0:0:
329,192,59180,1,0,0:0:0:0:
36,192,59180,1,0,0:0:0:0:
182,192,59342,1,0,0:0:0:0:
36,192,59342,1,0,0:0:0:0:
402,192,59342,1,0,0:0:0:0:
256,192,59342,1,0,0:0:0:0:
475,192,59342,1,0,0:0:0:0:
182,192,59504,1,0,0:0:0:0:
402,192,59504,1,0,0:0:0:0:
329,192,59504,1,0,0:0:0:0:
109,192,59504,1,0,0:0:0:0:
109,192,59666,1,0,0:0:0:0:
256,192,59666,1,0,0:0:0:0:
36,192,59666,1,0,0:0:0:0:
329,192,59666,1,0,0:0:0:0:
475,192,59828,1,0,0:0:0:0:
402,192,59828,1,0,0:0:0:0:
182,192,59828,1,0,0:0:0:0:
256,192,59828,1,0,0:0:0:0:
109,192,59990,1,0,0:0:0:0:
256,192,59990,1,0,0:0:0:0:
475,192,59990,1,0,0:0:0:0:
329,192,59990,1,0,0:0:0:0:
36,192,59990,1,0,0:0:0:0:
109,192,60152,1,0,0:0:0:0:
182,192,60152,1,0,0:0:0:0:
329,192,60152,1,0,0:0:0:0:
402,192,60152,1,0,0:0:0:0:
475,192,60315,1,0,0:0:0:0:
36,192,60315,1,0,0:0:0:0:
109,192,60315,1,0,0:0:0:0:
182,192,60315,1,0,0:0:0:0:
329,192,60315,1,0,0:0:0:0:
402,192,60396,1,0,0:0:0:0:
256,192,60396,1,0,0:0:0:0:
475,192,60477,1,0,0:0:0:0:
329,192,60477,1,0,0:0:0:0:
109,192,60477,1,0,0:0:0:0:
36,192,60477,1,0,0:0:0:0:
182,192,60558,1,0,0:0:0:0:
256,192,60558,1,0,0:0:0:0:
109,192,60639,1,0,0:0:0:0:
402,192,60639,1,0,0:0:0:0:
475,192,60639,1,0,0:0:0:0:
329,192,60639,1,0,0:0:0:0:
36,192,60639,1,0,0:0:0:0:
256,192,60720,1,0,0:0:0:0:
182,192,60720,1,0,0:0:0:0:
109,192,60801,1,0,0:0:0:0:
475,192,60801,1,0,0:0:0:0:
402,192,60801,1,0,0:0:0:0:
36,192,60801,1,0,0:0:0:0:
329,192,60882,1,0,0:0:0:0:
182,192,60882,1,0,0:0:0:0:
36,192,60963,1,0,0:0:0:0:
256,192,60963,1,0,0:0:0:0:
475,192,60963,1,0,0:0:0:0:
109,192,61004,1,0,0:0:0:0:
329,192,61004,1,0,0:0:0:0:
182,192,61044,1,0,0:0:0:0:
402,192,61044,1,0,0:0:0:0:
256,192,61085,1,0,0:0:0:0:
475,192,61085,1,0,0:0:0:0:
329,192,61125,1,0,0:0:0:0:
109,192,61125,1,0,0:0:0:0:
36,192,61125,1,0,0:0:0:0:
402,192,61207,1,0,0:0:0:0:
475,192,61207,1,0,0:0:0:0:
109,192,61288,1,0,0:0:0:0:
256,192,61288,1,0,0:0:0:0:
36,192,61288,1,0,0:0:0:0:
329,192,61288,1,0,0:0:0:0:
182,192,61288,1,0,0:0:0:0:
475,192,61369,1,0,0:0:0:0:
402,192,61369,1,0,0:0:0:0:
329,192,61450,1,0,0:0:0:0:
109,192,61450,1,0,0:0:0:0:
256,192,61450,1,0,0:0:0:0:
36,192,61450,1,0,0:0:0:0:
475,192,61531,1,0,0:0:0:0:
182,192,61531,1,0,0:0:0:0:
402,192,61612,128,0,61693:0:0:0:0:
402,192,61774,128,0,61855:0:0:0:0:
109,192,61936,1,0,0:0:0:0:
109,192,62017,1,0,0:0:0:0:
402,192,62098,1,0,0:0:0:0:
402,192,62180,1,0,0:0:0:0:
109,192,62261,128,0,62342:0:0:0:0:
109,192,62423,128,0,62504:0:0:0:0:
256,192,62585,128,0,62747:0:0:0:0:
36,192,62909,1,0,0:0:0:0:
109,192,62909,1,0,0:0:0:0:
329,192,62909,1,0,0:0:0:0:
475,192,62909,1,0,0:0:0:0:
402,192,62909,1,0,0:0:0:0:
182,192,62909,128,0,63152:0:0:0:0:
256,192,63071,1,0,0:0:0:0:
402,192,63071,1,0,0:0:0:0:
182,192,63234,1,0,0:0:0:0:
36,192,63234,1,0,0:0:0:0:
475,192,63234,1,0,0:0:0:0:
109,192,63234,1,0,0:0:0:0:
329,192,63234,128,0,63315:0:0:0:0:
329,192,63396,1,0,0:0:0:0:
109,192,63396,1,0,0:0:0:0:
329,192,63477,1,0,0:0:0:0:
182,192,63558,128,0,63639:0:0:0:0:
36,192,63558,1,0,0:0:0:0:
256,192,63558,1,0,0:0:0:0:
402,192,63558,1,0,0:0:0:0:
475,192,63558,1,0,0:0:0:0:
182,192,63720,128,0,63801:0:0:0:0:
402,192,63720,1,0,0:0:0:0:
109,192,63720,1,0,0:0:0:0:
36,192,63882,1,0,0:0:0:0:
109,192,63882,1,0,0:0:0:0:
256,192,63882,1,0,0:0:0:0:
329,192,63882,1,0,0:0:0:0:
475,192,63882,1,0,0:0:0:0:
329,192,63963,1,0,0:0:0:0:
182,192,64044,1,0,0:0:0:0:
36,192,64044,1,0,0:0:0:0:
329,192,64125,1,0,0:0:0:0:
109,192,64207,128,0,64288:0:0:0:0:
182,192,64207,1,0,0:0:0:0:
402,192,64207,1,0,0:0:0:0:
475,192,64207,1,0,0:0:0:0:
256,192,64207,1,0,0:0:0:0:
109,192,64369,1,0,0:0:0:0:
402,192,64369,1,0,0:0:0:0:
109,192,64450,1,0,0:0:0:0:
36,192,64531,128,0,64693:0:0:0:0:
256,192,64531,1,0,0:0:0:0:
329,192,64531,1,0,0:0:0:0:
475,192,64531,1,0,0:0:0:0:
182,192,64531,1,0,0:0:0:0:
182,192,64693,128,0,64855:0:0:0:0:
329,192,64693,1,0,0:0:0:0:
402,192,64693,1,0,0:0:0:0:
475,192,64855,128,0,65180:0:0:0:0:
256,192,64855,1,0,0:0:0:0:
109,192,64855,1,0,0:0:0:0:
36,192,64855,1,0,0:0:0:0:
402,192,64855,1,0,0:0:0:0:
182,192,65017,1,0,0:0:0:0:
109,192,65017,1,0,0:0:0:0:
36,192,65180,1,0,0:0:0:0:
182,192,65180,1,0,0:0:0:0:
256,192,65180,1,0,0:0:0:0:
329,192,65180,1,0,0:0:0:0:
402,192,65180,1,0,0:0:0:0:
329,192,65504,128,0,65747:0:0:0:0:
36,192,65504,1,0,0:0:0:0:
109,192,65504,1,0,0:0:0:0:
256,192,65504,1,0,0:0:0:0:
402,192,65504,1,0,0:0:0:0:
475,192,65504,1,0,0:0:0:0:
182,192,65666,1,0,0:0:0:0:
36,192,65666,1,0,0:0:0:0:
329,192,65828,1,0,0:0:0:0:
256,192,65828,1,0,0:0:0:0:
109,192,65828,1,0,0:0:0:0:
402,192,65828,1,0,0:0:0:0:
475,192,65828,1,0,0:0:0:0:
329,192,65909,1,0,0:0:0:0:
182,192,65990,1,0,0:0:0:0:
36,192,65990,1,0,0:0:0:0:
182,192,66071,1,0,0:0:0:0:
475,192,66152,128,0,66234:0:0:0:0:
109,192,66152,1,0,0:0:0:0:
36,192,66152,1,0,0:0:0:0:
256,192,66152,1,0,0:0:0:0:
402,192,66152,1,0,0:0:0:0:
329,192,66315,128,0,66396:0:0:0:0:
109,192,66315,1,0,0:0:0:0:
182,192,66315,1,0,0:0:0:0:
182,192,66477,128,0,66558:0:0:0:0:
36,192,66477,1,0,0:0:0:0:
256,192,66477,1,0,0:0:0:0:
402,192,66477,1,0,0:0:0:0:
475,192,66477,1,0,0:0:0:0:
36,192,66639,128,0,66720:0:0:0:0:
402,192,66639,1,0,0:0:0:0:
329,192,66639,1,0,0:0:0:0:
256,192,66801,128,0,66963:0:0:0:0:
182,192,66801,1,0,0:0:0:0:
329,192,66801,1,0,0:0:0:0:
475,192,66801,1,0,0:0:0:0:
109,192,66801,1,0,0:0:0:0:
402,192,66963,1,0,0:0:0:0:
36,192,66963,1,0,0:0:0:0:
402,192,67044,1,0,0:0:0:0:
109,192,67125,128,0,67288:0:0:0:0:
182,192,67125,1,0,0:0:0:0:
36,192,67125,1,0,0:0:0:0:
256,192,67125,1,0,0:0:0:0:
475,192,67125,1,0,0:0:0:0:
256,192,67288,128,0,67450:0:0:0:0:
329,192,67288,1,0,0:0:0:0:
402,192,67288,1,0,0:0:0:0:
402,192,67450,1,0,0:0:0:0:
182,192,67450,1,0,0:0:0:0:
36,192,67450,1,0,0:0:0:0:
475,192,67450,1,0,0:0:0:0:
402,192,67531,1,0,0:0:0:0:
109,192,67612,128,0,67774:0:0:0:0:
256,192,67612,1,0,0:0:0:0:
329,192,67612,1,0,0:0:0:0:
329,192,67774,1,0,0:0:0:0:
256,192,67774,1,0,0:0:0:0:
182,192,67774,1,0,0:0:0:0:
475,192,67774,1,0,0:0:0:0:
36,192,67774,1,0,0:0:0:0:
36,192,68098,128,0,68342:0:0:0:0:
109,192,68098,1,0,0:0:0:0:
182,192,68098,1,0,0:0:0:0:
475,192,68098,1,0,0:0:0:0:
256,192,68098,1,0,0:0:0:0:
402,192,68098,1,0,0:0:0:0:
256,192,68261,1,0,0:0:0:0:
329,192,68261,1,0,0:0:0:0:
36,192,68423,1,0,0:0:0:0:
109,192,68423,1,0,0:0:0:0:
475,192,68423,1,0,0:0:0:0:
329,192,68423,1,0,0:0:0:0:
402,192,68423,128,0,68504:0:0:0:0:
402,192,68585,1,0,0:0:0:0:
182,192,68585,1,0,0:0:0:0:
402,192,68666,1,0,0:0:0:0:
36,192,68747,128,0,68828:0:0:0:0:
329,192,68747,1,0,0:0:0:0:
475,192,68747,1,0,0:0:0:0:
256,192,68747,1,0,0:0:0:0:
109,192,68747,1,0,0:0:0:0:
36,192,68909,128,0,68990:0:0:0:0:
182,192,68909,1,0,0:0:0:0:
329,192,68909,1,0,0:0:0:0:
475,192,69071,1,0,0:0:0:0:
109,192,69071,1,0,0:0:0:0:
36,192,69071,1,0,0:0:0:0:
256,192,69071,1,0,0:0:0:0:
402,192,69071,1,0,0:0:0:0:
475,192,69152,1,0,0:0:0:0:
109,192,69234,1,0,0:0:0:0:
182,192,69234,1,0,0:0:0:0:
475,192,69315,1,0,0:0:0:0:
109,192,69396,1,0,0:0:0:0:
329,192,69396,1,0,0:0:0:0:
36,192,69396,1,0,0:0:0:0:
182,192,69396,128,0,69477:0:0:0:0:
402,192,69396,1,0,0:0:0:0:
182,192,69558,1,0,0:0:0:0:
402,192,69558,1,0,0:0:0:0:
475,192,69558,1,0,0:0:0:0:
182,192,69639,1,0,0:0:0:0:
329,192,69720,128,0,69882:0:0:0:0:
256,192,69720,1,0,0:0:0:0:
109,192,69720,1,0,0:0:0:0:
36,192,69720,1,0,0:0:0:0:
475,192,69720,1,0,0:0:0:0:
36,192,69882,128,0,70044:0:0:0:0:
182,192,69882,1,0,0:0:0:0:
402,192,69882,1,0,0:0:0:0:
475,192,70044,128,0,70369:0:0:0:0:
109,192,70044,1,0,0:0:0:0:
256,192,70044,1,0,0:0:0:0:
329,192,70044,1,0,0:0:0:0:
402,192,70044,1,0,0:0:0:0:
182,192,70207,1,0,0:0:0:0:
109,192,70207,1,0,0:0:0:0:
182,192,70369,1,0,0:0:0:0:
36,192,70369,1,0,0:0:0:0:
256,192,70369,1,0,0:0:0:0:
329,192,70369,1,0,0:0:0:0:
402,192,70369,1,0,0:0:0:0:
256,192,70693,128,0,70936:0:0:0:0:
36,192,70693,1,0,0:0:0:0:
402,192,70693,1,0,0:0:0:0:
475,192,70693,1,0,0:0:0:0:
109,192,70693,1,0,0:0:0:0:
182,192,70693,1,0,0:0:0:0:
402,192,70855,1,0,0:0:0:0:
329,192,70855,1,0,0:0:0:0:
329,192,71017,1,0,0:0:0:0:
256,192,71017,1,0,0:0:0:0:
109,192,71017,1,0,0:0:0:0:
36,192,71017,1,0,0:0:0:0:
475,192,71017,1,0,0:0:0:0:
109,192,71098,1,0,0:0:0:0:
402,192,71180,1,0,0:0:0:0:
182,192,71180,1,0,0:0:0:0:
402,192,71261,1,0,0:0:0:0:
256,192,71342,1,0,0:0:0:0:
329,192,71342,1,0,0:0:0:0:
475,192,71342,1,0,0:0:0:0:
109,192,71342,128,0,71423:0:0:0:0:
36,192,71342,1,0,0:0:0:0:
182,192,71504,128,0,71585:0:0:0:0:
402,192,71504,1,0,0:0:0:0:
475,192,71504,1,0,0:0:0:0:
329,192,71666,128,0,71747:0:0:0:0:
475,192,71666,1,0,0:0:0:0:
36,192,71666,1,0,0:0:0:0:
256,192,71666,1,0,0:0:0:0:
182,192,71666,1,0,0:0:0:0:
402,192,71828,128,0,71909:0:0:0:0:
109,192,71828,1,0,0:0:0:0:
36,192,71828,1,0,0:0:0:0:
182,192,71990,128,0,72152:0:0:0:0:
329,192,71990,1,0,0:0:0:0:
475,192,71990,1,0,0:0:0:0:
109,192,71990,1,0,0:0:0:0:
256,192,71990,1,0,0:0:0:0:
36,192,72152,128,0,72234:0:0:0:0:
329,192,72152,1,0,0:0:0:0:
402,192,72152,1,0,0:0:0:0:
329,192,72315,128,0,72639:0:0:0:0:
182,192,72315,1,0,0:0:0:0:
109,192,72315,1,0,0:0:0:0:
256,192,72315,1,0,0:0:0:0:
475,192,72315,1,0,0:0:0:0:
109,192,72477,1,0,0:0:0:0:
402,192,72477,1,0,0:0:0:0:
182,192,72639,1,0,0:0:0:0:
256,192,72639,1,0,0:0:0:0:
36,192,72639,1,0,0:0:0:0:
329,192,72801,1,0,0:0:0:0:
256,192,72801,1,0,0:0:0:0:
36,192,72801,1,0,0:0:0:0:
329,192,72963,1,0,0:0:0:0:
402,192,72963,1,0,0:0:0:0:
36,192,72963,1,0,0:0:0:0:
402,192,73125,1,0,0:0:0:0:
475,192,73125,1,0,0:0:0:0:
36,192,73125,1,0,0:0:0:0:
475,192,73288,1,0,0:0:0:0:
402,192,73288,1,0,0:0:0:0:
182,192,73288,1,0,0:0:0:0:
36,192,73288,1,0,0:0:0:0:
109,192,73288,1,0,0:0:0:0:
329,192,73288,128,0,73531:0:0:0:0:
256,192,73450,1,0,0:0:0:0:
109,192,73450,1,0,0:0:0:0:
329,192,73612,1,0,0:0:0:0:
475,192,73612,1,0,0:0:0:0:
36,192,73612,1,0,0:0:0:0:
402,192,73612,1,0,0:0:0:0:
182,192,73612,128,0,73693:0:0:0:0:
182,192,73774,1,0,0:0:0:0:
402,192,73774,1,0,0:0:0:0:
182,192,73855,1,0,0:0:0:0:
329,192,73936,128,0,74017:0:0:0:0:
475,192,73936,1,0,0:0:0:0:
256,192,73936,1,0,0:0:0:0:
109,192,73936,1,0,0:0:0:0:
36,192,73936,1,0,0:0:0:0:
329,192,74098,128,0,74180:0:0:0:0:
109,192,74098,1,0,0:0:0:0:
402,192,74098,1,0,0:0:0:0:
475,192,74261,1,0,0:0:0:0:
402,192,74261,1,0,0:0:0:0:
256,192,74261,1,0,0:0:0:0:
182,192,74261,1,0,0:0:0:0:
36,192,74261,1,0,0:0:0:0:
182,192,74342,1,0,0:0:0:0:
329,192,74423,1,0,0:0:0:0:
475,192,74423,1,0,0:0:0:0:
182,192,74504,1,0,0:0:0:0:
402,192,74585,128,0,74666:0:0:0:0:
329,192,74585,1,0,0:0:0:0:
109,192,74585,1,0,0:0:0:0:
36,192,74585,1,0,0:0:0:0:
256,192,74585,1,0,0:0:0:0:
402,192,74747,1,0,0:0:0:0:
109,192,74747,1,0,0:0:0:0:
402,192,74828,1,0,0:0:0:0:
475,192,74909,128,0,75071:0:0:0:0:
256,192,74909,1,0,0:0:0:0:
182,192,74909,1,0,0:0:0:0:
36,192,74909,1,0,0:0:0:0:
329,192,74909,1,0,0:0:0:0:
329,192,75071,128,0,75234:0:0:0:0:
182,192,75071,1,0,0:0:0:0:
109,192,75071,1,0,0:0:0:0:
36,192,75234,128,0,75558:0:0:0:0:
256,192,75234,1,0,0:0:0:0:
402,192,75234,1,0,0:0:0:0:
475,192,75234,1,0,0:0:0:0:
109,192,75234,1,0,0:0:0:0:
329,192,75396,1,0,0:0:0:0:
402,192,75396,1,0,0:0:0:0:
475,192,75558,1,0,0:0:0:0:
329,192,75558,1,0,0:0:0:0:
256,192,75558,1,0,0:0:0:0:
182,192,75558,1,0,0:0:0:0:
109,192,75558,1,0,0:0:0:0:
182,192,75882,128,0,76125:0:0:0:0:
475,192,75882,1,0,0:0:0:0:
402,192,75882,1,0,0:0:0:0:
256,192,75882,1,0,0:0:0:0:
109,192,75882,1,0,0:0:0:0:
36,192,75882,1,0,0:0:0:0:
329,192,76044,1,0,0:0:0:0:
475,192,76044,1,0,0:0:0:0:
182,192,76207,1,0,0:0:0:0:
256,192,76207,1,0,0:0:0:0:
402,192,76207,1,0,0:0:0:0:
109,192,76207,1,0,0:0:0:0:
36,192,76207,1,0,0:0:0:0:
182,192,76288,1,0,0:0:0:0:
329,192,76369,1,0,0:0:0:0:
475,192,76369,1,0,0:0:0:0:
329,192,76450,1,0,0:0:0:0:
36,192,76531,128,0,76612:0:0:0:0:
402,192,76531,1,0,0:0:0:0:
475,192,76531,1,0,0:0:0:0:
256,192,76531,1,0,0:0:0:0:
109,192,76531,1,0,0:0:0:0:
182,192,76693,128,0,76774:0:0:0:0:
402,192,76693,1,0,0:0:0:0:
329,192,76693,1,0,0:0:0:0:
329,192,76855,128,0,76936:0:0:0:0:
475,192,76855,1,0,0:0:0:0:
256,192,76855,1,0,0:0:0:0:
109,192,76855,1,0,0:0:0:0:
36,192,76855,1,0,0:0:0:0:
475,192,77017,128,0,77098:0:0:0:0:
109,192,77017,1,0,0:0:0:0:
182,192,77017,1,0,0:0:0:0:
256,192,77180,128,0,77342:0:0:0:0:
329,192,77180,1,0,0:0:0:0:
182,192,77180,1,0,0:0:0:0:
36,192,77180,1,0,0:0:0:0:
402,192,77180,1,0,0:0:0:0:
109,192,77342,1,0,0:0:0:0:
475,192,77342,1,0,0:0:0:0:
109,192,77423,1,0,0:0:0:0:
402,192,77504,128,0,77666:0:0:0:0:
329,192,77504,1,0,0:0:0:0:
475,192,77504,1,0,0:0:0:0:
256,192,77504,1,0,0:0:0:0:
36,192,77504,1,0,0:0:0:0:
256,192,77666,128,0,77828:0:0:0:0:
182,192,77666,1,0,0:0:0:0:
109,192,77666,1,0,0:0:0:0:
109,192,77828,1,0,0:0:0:0:
329,192,77828,1,0,0:0:0:0:
475,192,77828,1,0,0:0:0:0:
36,192,77828,1,0,0:0:0:0:
109,192,77909,1,0,0:0:0:0:
402,192,77990,128,0,78152:0:0:0:0:
256,192,77990,1,0,0:0:0:0:
182,192,77990,1,0,0:0:0:0:
182,192,78152,1,0,0:0:0:0:
256,192,78152,1,0,0:0:0:0:
329,192,78152,1,0,0:0:0:0:
36,192,78152,1,0,0:0:0:0:
475,192,78152,1,0,0:0:0:0:
475,192,78477,128,0,78720:0:0:0:0:
402,192,78477,1,0,0:0:0:0:
329,192,78477,1,0,0:0:0:0:
36,192,78477,1,0,0:0:0:0:
256,192,78477,1,0,0:0:0:0:
109,192,78477,1,0,0:0:0:0:
256,192,78639,1,0,0:0:0:0:
182,192,78639,1,0,0:0:0:0:
475,192,78801,1,0,0:0:0:0:
402,192,78801,1,0,0:0:0:0:
36,192,78801,1,0,0:0:0:0:
182,192,78801,1,0,0:0:0:0:
109,192,78801,1,0,0:0:0:0:
109,192,78963,1,0,0:0:0:0:
329,192,78963,1,0,0:0:0:0:
109,192,79044,1,0,0:0:0:0:
475,192,79125,128,0,79207:0:0:0:0:
182,192,79125,1,0,0:0:0:0:
36,192,79125,1,0,0:0:0:0:
256,192,79125,1,0,0:0:0:0:
402,192,79125,1,0,0:0:0:0:
475,192,79288,128,0,79369:0:0:0:0:
329,192,79288,1,0,0:0:0:0:
182,192,79288,1,0,0:0:0:0:
36,192,79450,1,0,0:0:0:0:
402,192,79450,1,0,0:0:0:0:
475,192,79450,1,0,0:0:0:0:
256,192,79450,1,0,0:0:0:0:
109,192,79450,1,0,0:0:0:0:
36,192,79531,1,0,0:0:0:0:
402,192,79612,1,0,0:0:0:0:
329,192,79612,1,0,0:0:0:0:
36,192,79693,1,0,0:0:0:0:
402,192,79774,1,0,0:0:0:0:
182,192,79774,1,0,0:0:0:0:
475,192,79774,1,0,0:0:0:0:
329,192,79774,128,0,79855:0:0:0:0:
109,192,79774,1,0,0:0:0:0:
329,192,79936,1,0,0:0:0:0:
109,192,79936,1,0,0:0:0:0:
36,192,79936,1,0,0:0:0:0:
329,192,80017,1,0,0:0:0:0:
182,192,80098,128,0,80261:0:0:0:0:
256,192,80098,1,0,0:0:0:0:
402,192,80098,1,0,0:0:0:0:
475,192,80098,1,0,0:0:0:0:
36,192,80098,1,0,0:0:0:0:
475,192,80261,128,0,80423:0:0:0:0:
329,192,80261,1,0,0:0:0:0:
109,192,80261,1,0,0:0:0:0:
36,192,80423,128,0,80990:0:0:0:0:
402,192,80423,1,0,0:0:0:0:
256,192,80423,1,0,0:0:0:0:
182,192,80423,1,0,0:0:0:0:
109,192,80423,1,0,0:0:0:0:
329,192,80585,1,0,0:0:0:0:
402,192,80585,1,0,0:0:0:0:
329,192,80747,1,0,0:0:0:0:
475,192,80747,1,0,0:0:0:0:
256,192,80747,1,0,0:0:0:0:
182,192,80747,1,0,0:0:0:0:
109,192,80747,128,0,80990:0:0:0:0:
256,192,81071,128,0,81315:0:0:0:0:
475,192,81071,1,0,0:0:0:0:
109,192,81071,1,0,0:0:0:0:
36,192,81071,1,0,0:0:0:0:
402,192,81071,1,0,0:0:0:0:
329,192,81071,1,0,0:0:0:0:
109,192,81234,1,0,0:0:0:0:
182,192,81234,1,0,0:0:0:0:
182,192,81396,1,0,0:0:0:0:
256,192,81396,1,0,0:0:0:0:
402,192,81396,1,0,0:0:0:0:
475,192,81396,1,0,0:0:0:0:
36,192,81396,1,0,0:0:0:0:
402,192,81477,1,0,0:0:0:0:
109,192,81558,1,0,0:0:0:0:
329,192,81558,1,0,0:0:0:0:
109,192,81639,1,0,0:0:0:0:
256,192,81720,1,0,0:0:0:0:
182,192,81720,1,0,0:0:0:0:
36,192,81720,1,0,0:0:0:0:
402,192,81720,128,0,81801:0:0:0:0:
475,192,81720,1,0,0:0:0:0:
329,192,81882,128,0,81963:0:0:0:0:
109,192,81882,1,0,0:0:0:0:
36,192,81882,1,0,0:0:0:0:
182,192,82044,128,0,82125:0:0:0:0:
36,192,82044,1,0,0:0:0:0:
475,192,82044,1,0,0:0:0:0:
256,192,82044,1,0,0:0:0:0:
329,192,82044,1,0,0:0:0:0:
402,192,82207,1,0,0:0:0:0:
475,192,82207,1,0,0:0:0:0:
109,192,82207,1,0,0:0:0:0:
109,192,82288,1,0,0:0:0:0:
329,192,82369,128,0,82531:0:0:0:0:
182,192,82369,1,0,0:0:0:0:
36,192,82369,1,0,0:0:0:0:
402,192,82369,1,0,0:0:0:0:
256,192,82369,1,0,0:0:0:0:
475,192,82531,128,0,82612:0:0:0:0:
109,192,82531,1,0,0:0:0:0:
182,192,82693,128,0,83017:0:0:0:0:
36,192,82693,1,0,0:0:0:0:
109,192,82855,1,0,0:0:0:0:
402,192,83017,128,0,83180:0:0:0:0:
329,192,83098,128,0,83180:0:0:0:0:
109,192,83180,128,0,83342:0:0:0:0:
182,192,83261,128,0,83342:0:0:0:0:
475,192,83342,128,0,83504:0:0:0:0:
402,192,83423,128,0,83504:0:0:0:0:
36,192,83504,128,0,83666:0:0:0:0:
109,192,83585,128,0,83666:0:0:0:0:
182,192,83666,1,0,0:0:0:0:
256,192,83666,1,0,0:0:0:0:
329,192,83666,1,0,0:0:0:0:
475,192,83666,1,0,0:0:0:0:
402,192,83747,1,0,0:0:0:0:
109,192,83828,1,0,0:0:0:0:
329,192,83828,1,0,0:0:0:0:
36,192,83828,1,0,0:0:0:0:
182,192,83909,1,0,0:0:0:0:
402,192,83990,1,0,0:0:0:0:
256,192,83990,1,0,0:0:0:0:
36,192,83990,1,0,0:0:0:0:
475,192,83990,1,0,0:0:0:0:
109,192,83990,1,0,0:0:0:0:
329,192,84152,1,0,0:0:0:0:
182,192,84152,1,0,0:0:0:0:
36,192,84152,1,0,0:0:0:0:
402,192,84234,1,0,0:0:0:0:
475,192,84315,1,0,0:0:0:0:
256,192,84315,1,0,0:0:0:0:
36,192,84315,1,0,0:0:0:0:
109,192,84315,1,0,0:0:0:0:
329,192,84396,1,0,0:0:0:0:
182,192,84477,1,0,0:0:0:0:
402,192,84477,1,0,0:0:0:0:
475,192,84477,1,0,0:0:0:0:
256,192,84558,1,0,0:0:0:0:
329,192,84639,1,0,0:0:0:0:
36,192,84639,1,0,0:0:0:0:
402,192,84639,1,0,0:0:0:0:
475,192,84639,1,0,0:0:0:0:
109,192,84639,1,0,0:0:0:0:
182,192,84720,1,0,0:0:0:0:
256,192,84801,1,0,0:0:0:0:
36,192,84801,1,0,0:0:0:0:
329,192,84801,1,0,0:0:0:0:
109,192,84882,1,0,0:0:0:0:
329,192,84963,1,0,0:0:0:0:
182,192,84963,1,0,0:0:0:0:
402,192,84963,1,0,0:0:0:0:
475,192,84963,1,0,0:0:0:0:
109,192,85125,1,0,0:0:0:0:
36,192,85125,1,0,0:0:0:0:
256,192,85125,1,0,0:0:0:0:
182,192,85207,1,0,0:0:0:0:
256,192,85288,1,0,0:0:0:0:
329,192,85288,1,0,0:0:0:0:
36,192,85288,1,0,0:0:0:0:
402,192,85288,1,0,0:0:0:0:
475,192,85288,1,0,0:0:0:0:
109,192,85342,1,0,0:0:0:0:
182,192,85396,1,0,0:0:0:0:
256,192,85450,1,0,0:0:0:0:
329,192,85450,1,0,0:0:0:0:
475,192,85450,1,0,0:0:0:0:
109,192,85612,1,0,0:0:0:0:
402,192,85612,1,0,0:0:0:0:
36,192,85612,1,0,0:0:0:0:
475,192,85612,1,0,0:0:0:0:
182,192,85666,1,0,0:0:0:0:
329,192,85666,1,0,0:0:0:0:
475,192,85774,1,0,0:0:0:0:
36,192,85774,1,0,0:0:0:0:
256,192,85774,1,0,0:0:0:0:
329,192,85936,1,0,0:0:0:0:
109,192,85936,1,0,0:0:0:0:
256,192,85936,1,0,0:0:0:0:
182,192,85936,128,0,86261:0:0:0:0:
402,192,85936,128,0,86261:0:0:0:0:
36,192,86261,1,0,0:0:0:0:
109,192,86261,1,0,0:0:0:0:
329,192,86261,1,0,0:0:0:0:
256,192,86261,1,0,0:0:0:0:
475,192,86261,1,0,0:0:0:0:
182,192,86423,1,0,0:0:0:0:
402,192,86423,1,0,0:0:0:0:
36,192,86423,1,0,0:0:0:0:
329,192,86504,1,0,0:0:0:0:
256,192,86585,1,0,0:0:0:0:
109,192,86585,1,0,0:0:0:0:
36,192,86585,1,0,0:0:0:0:
475,192,86585,1,0,0:0:0:0:
402,192,86585,1,0,0:0:0:0:
182,192,86747,1,0,0:0:0:0:
329,192,86747,1,0,0:0:0:0:
36,192,86747,1,0,0:0:0:0:
109,192,86909,1,0,0:0:0:0:
256,192,86909,1,0,0:0:0:0:
329,192,86909,1,0,0:0:0:0:
475,192,86909,1,0,0:0:0:0:
36,192,86963,1,0,0:0:0:0:
182,192,86963,1,0,0:0:0:0:
109,192,87071,1,0,0:0:0:0:
402,192,87071,1,0,0:0:0:0:
475,192,87071,1,0,0:0:0:0:
182,192,87152,1,0,0:0:0:0:
36,192,87234,1,0,0:0:0:0:
109,192,87234,1,0,0:0:0:0:
256,192,87234,1,0,0:0:0:0:
329,192,87234,1,0,0:0:0:0:
475,192,87234,1,0,0:0:0:0:
402,192,87315,1,0,0:0:0:0:
182,192,87396,1,0,0:0:0:0:
329,192,87396,1,0,0:0:0:0:
256,192,87396,1,0,0:0:0:0:
109,192,87477,1,0,0:0:0:0:
36,192,87558,1,0,0:0:0:0:
256,192,87558,1,0,0:0:0:0:
182,192,87558,1,0,0:0:0:0:
475,192,87558,1,0,0:0:0:0:
329,192,87585,1,0,0:0:0:0:
402,192,87612,1,0,0:0:0:0:
256,192,87720,1,0,0:0:0:0:
475,192,87720,1,0,0:0:0:0:
36,192,87720,1,0,0:0:0:0:
402,192,87774,1,0,0:0:0:0:
182,192,87774,1,0,0:0:0:0:
329,192,87828,1,0,0:0:0:0:
109,192,87828,1,0,0:0:0:0:
256,192,87882,1,0,0:0:0:0:
36,192,87882,1,0,0:0:0:0:
475,192,87882,1,0,0:0:0:0:
182,192,87882,1,0,0:0:0:0:
402,192,87882,1,0,0:0:0:0:
109,192,87963,1,0,0:0:0:0:
329,192,87963,1,0,0:0:0:0:
256,192,88044,1,0,0:0:0:0:
475,192,88044,1,0,0:0:0:0:
402,192,88044,1,0,0:0:0:0:
329,192,88125,1,0,0:0:0:0:
109,192,88125,1,0,0:0:0:0:
182,192,88207,1,0,0:0:0:0:
36,192,88207,1,0,0:0:0:0:
256,192,88207,1,0,0:0:0:0:
402,192,88207,1,0,0:0:0:0:
475,192,88369,1,0,0:0:0:0:
329,192,88369,1,0,0:0:0:0:
109,192,88369,1,0,0:0:0:0:
256,192,88531,1,0,0:0:0:0:
36,192,88531,1,0,0:0:0:0:
475,192,88531,1,0,0:0:0:0:
109,192,88531,128,0,88612:0:0:0:0:
402,192,88531,128,0,88612:0:0:0:0:
109,192,88693,128,0,88774:0:0:0:0:
402,192,88693,128,0,88774:0:0:0:0:
182,192,88855,1,0,0:0:0:0:
36,192,88855,1,0,0:0:0:0:
256,192,88855,1,0,0:0:0:0:
402,192,88855,1,0,0:0:0:0:
475,192,88855,1,0,0:0:0:0:
109,192,89017,1,0,0:0:0:0:
329,192,89017,1,0,0:0:0:0:
475,192,89017,1,0,0:0:0:0:
36,192,89098,1,0,0:0:0:0:
182,192,89180,1,0,0:0:0:0:
256,192,89180,1,0,0:0:0:0:
402,192,89180,1,0,0:0:0:0:
475,192,89180,1,0,0:0:0:0:
329,192,89180,1,0,0:0:0:0:
109,192,89261,1,0,0:0:0:0:
256,192,89342,1,0,0:0:0:0:
36,192,89342,1,0,0:0:0:0:
475,192,89342,1,0,0:0:0:0:
182,192,89423,1,0,0:0:0:0:
329,192,89504,1,0,0:0:0:0:
109,192,89504,1,0,0:0:0:0:
36,192,89504,1,0,0:0:0:0:
475,192,89504,1,0,0:0:0:0:
256,192,89585,1,0,0:0:0:0:
402,192,89666,1,0,0:0:0:0:
182,192,89666,1,0,0:0:0:0:
109,192,89666,1,0,0:0:0:0:
329,192,89747,1,0,0:0:0:0:
475,192,89828,1,0,0:0:0:0:
256,192,89828,1,0,0:0:0:0:
36,192,89828,1,0,0:0:0:0:
109,192,89828,1,0,0:0:0:0:
182,192,89828,1,0,0:0:0:0:
402,192,89909,1,0,0:0:0:0:
329,192,89990,1,0,0:0:0:0:
36,192,89990,1,0,0:0:0:0:
256,192,89990,1,0,0:0:0:0:
109,192,90071,1,0,0:0:0:0:
182,192,90152,1,0,0:0:0:0:
402,192,90152,1,0,0:0:0:0:
256,192,90152,1,0,0:0:0:0:
36,192,90152,1,0,0:0:0:0:
475,192,90234,1,0,0:0:0:0:
329,192,90315,1,0,0:0:0:0:
109,192,90315,1,0,0:0:0:0:
182,192,90315,1,0,0:0:0:0:
402,192,90396,1,0,0:0:0:0:
256,192,90477,1,0,0:0:0:0:
36,192,90477,1,0,0:0:0:0:
109,192,90477,1,0,0:0:0:0:
475,192,90477,1,0,0:0:0:0:
182,192,90477,1,0,0:0:0:0:
329,192,90558,1,0,0:0:0:0:
182,192,90639,1,0,0:0:0:0:
402,192,90639,1,0,0:0:0:0:
36,192,90639,1,0,0:0:0:0:
256,192,90720,1,0,0:0:0:0:
109,192,90801,1,0,0:0:0:0:
36,192,90801,1,0,0:0:0:0:
329,192,90801,1,0,0:0:0:0:
475,192,90801,1,0,0:0:0:0:
182,192,90882,1,0,0:0:0:0:
36,192,90963,1,0,0:0:0:0:
256,192,90963,1,0,0:0:0:0:
402,192,90963,1,0,0:0:0:0:
109,192,91044,1,0,0:0:0:0:
256,192,91125,1,0,0:0:0:0:
329,192,91125,1,0,0:0:0:0:
475,192,91125,1,0,0:0:0:0:
182,192,91125,128,0,91450:0:0:0:0:
402,192,91125,128,0,91450:0:0:0:0:
256,192,91450,1,0,0:0:0:0:
36,192,91450,1,0,0:0:0:0:
109,192,91450,1,0,0:0:0:0:
329,192,91450,1,0,0:0:0:0:
475,192,91450,1,0,0:0:0:0:
36,192,91612,1,0,0:0:0:0:
475,192,91612,1,0,0:0:0:0:
256,192,91612,1,0,0:0:0:0:
329,192,91693,1,0,0:0:0:0:
182,192,91693,1,0,0:0:0:0:
256,192,91774,1,0,0:0:0:0:
475,192,91774,1,0,0:0:0:0:
36,192,91774,1,0,0:0:0:0:
402,192,91774,1,0,0:0:0:0:
109,192,91774,1,0,0:0:0:0:
329,192,91855,1,0,0:0:0:0:
182,192,91855,1,0,0:0:0:0:
36,192,91936,1,0,0:0:0:0:
475,192,91936,1,0,0:0:0:0:
256,192,91936,1,0,0:0:0:0:
402,192,92017,1,0,0:0:0:0:
109,192,92017,1,0,0:0:0:0:
329,192,92098,1,0,0:0:0:0:
475,192,92098,1,0,0:0:0:0:
182,192,92098,1,0,0:0:0:0:
36,192,92098,1,0,0:0:0:0:
109,192,92261,1,0,0:0:0:0:
256,192,92261,1,0,0:0:0:0:
402,192,92261,1,0,0:0:0:0:
36,192,92423,1,0,0:0:0:0:
109,192,92423,1,0,0:0:0:0:
256,192,92423,1,0,0:0:0:0:
329,192,92423,1,0,0:0:0:0:
475,192,92423,1,0,0:0:0:0:
402,192,92477,1,0,0:0:0:0:
182,192,92477,1,0,0:0:0:0:
329,192,92531,1,0,0:0:0:0:
109,192,92531,1,0,0:0:0:0:
256,192,92585,1,0,0:0:0:0:
36,192,92585,1,0,0:0:0:0:
475,192,92585,1,0,0:0:0:0:
182,192,92666,1,0,0:0:0:0:
402,192,92666,1,0,0:0:0:0:
109,192,92747,1,0,0:0:0:0:
36,192,92747,1,0,0:0:0:0:
329,192,92747,1,0,0:0:0:0:
475,192,92747,1,0,0:0:0:0:
256,192,92747,1,0,0:0:0:0:
182,192,92828,1,0,0:0:0:0:
402,192,92828,1,0,0:0:0:0:
475,192,92909,1,0,0:0:0:0:
256,192,92909,1,0,0:0:0:0:
36,192,92909,1,0,0:0:0:0:
109,192,92990,1,0,0:0:0:0:
329,192,92990,1,0,0:0:0:0:
475,192,93071,1,0,0:0:0:0:
182,192,93071,1,0,0:0:0:0:
256,192,93071,1,0,0:0:0:0:
402,192,93071,1,0,0:0:0:0:
36,192,93071,1,0,0:0:0:0:
109,192,93125,1,0,0:0:0:0:
329,192,93125,1,0,0:0:0:0:
36,192,93180,1,0,0:0:0:0:
256,192,93180,1,0,0:0:0:0:
182,192,93234,1,0,0:0:0:0:
475,192,93234,1,0,0:0:0:0:
402,192,93234,1,0,0:0:0:0:
109,192,93315,1,0,0:0:0:0:
329,192,93315,1,0,0:0:0:0:
402,192,93396,1,0,0:0:0:0:
256,192,93396,1,0,0:0:0:0:
36,192,93396,1,0,0:0:0:0:
475,192,93396,1,0,0:0:0:0:
182,192,93477,1,0,0:0:0:0:
329,192,93477,1,0,0:0:0:0:
109,192,93558,1,0,0:0:0:0:
256,192,93558,1,0,0:0:0:0:
402,192,93558,1,0,0:0:0:0:
182,192,93639,1,0,0:0:0:0:
36,192,93639,1,0,0:0:0:0:
329,192,93639,1,0,0:0:0:0:
475,192,93639,1,0,0:0:0:0:
36,192,93720,128,0,95342:0:0:0:0:
182,192,93720,128,0,95342:0:0:0:0:
475,192,93720,128,0,95342:0:0:0:0:
329,192,93720,128,0,95342:0:0:0:0:
256,192,93720,1,0,0:0:0:0:
