osu file format v14

[General]
AudioFilename: audio.mp3
AudioLeadIn: 0
PreviewTime: 61635
Countdown: 0
SampleSet: Normal
StackLeniency: 0.7
Mode: 1
LetterboxInBreaks: 0
WidescreenStoryboard: 0

[Editor]
Bookmarks: 1273,5489,11003,16192,21381,31760,42138,52516,61780,62590,70516,86084
DistanceSpacing: 0.6
BeatDivisor: 16
GridSize: 32
TimelineZoom: 1.700005

[Metadata]
Title:TSLove
TitleUnicode:TSLove
Artist:O2i3
ArtistUnicode:O2i3
Creator:[_Chichinya_]
Version:agu Love Love Love I Love You
Source:
Tags:Melanie Friggy-chan kqrth DDM Hi_Hello 404 AccNotFound FlamingRok Dargin Cyoris210 BlackWolf159 Yuno Taikocracy Prancer agu gamerock Nifty Lno Nepuri Raphalge frukoyurdakul Cyssel Unmei Muma Q____X Vulkin JessiChan iContol Chocola_2287 AezLack _yu68 zigizigiefe Grimbow
BeatmapID:1213920
BeatmapSetID:549370

[Difficulty]
HPDrainRate:5
CircleSize:4
OverallDifficulty:6
ApproachRate:5
SliderMultiplier:1.4042328936501
SliderTickRate:1

[Events]
//Background and Video events
0,0,"Chef_peepee_and_bowser_by_hayaiq-d7j6al5.png",0,0
//Break Periods
//Storyboard Layer 0 (Background)
//Storyboard Layer 1 (Fail)
//Storyboard Layer 2 (Pass)
//Storyboard Layer 3 (Foreground)
//Storyboard Sound Samples

[TimingPoints]
663,324.324324324324,4,1,0,90,1,0
21419,-100,4,1,0,15,0,1
23690,-133.333333333333,4,1,0,100,0,0
24014,-100,4,1,0,15,0,1
26284,-133.333333333333,4,1,0,100,0,0
26608,-100,4,1,0,15,0,1
28879,-133.333333333333,4,1,0,100,0,0
29203,-100,4,1,0,15,0,1
31149,-25,4,1,0,100,0,0
31798,-100,4,1,0,15,0,1
34068,-133.333333333333,4,1,0,100,0,0
34392,-100,4,1,0,15,0,1
36662,-133.333333333333,4,1,0,100,0,0
36987,-100,4,1,0,15,0,1
39257,-133.333333333333,4,1,0,100,0,0
39581,-100,4,1,0,15,0,1
41527,-25,4,1,0,100,0,1
42176,-100,4,1,0,90,0,0
43473,-111.111111111111,4,1,0,90,0,0
44771,-125,4,1,0,90,0,0
46068,-133.333333333333,4,1,0,90,0,0
47365,-142.857142857143,4,1,0,90,0,0
48662,-153.846153846154,4,1,0,90,0,0
49960,-172.413793103448,4,1,0,90,0,0
51257,-200,4,1,0,90,0,0
52554,-100,4,1,0,90,0,0
62933,-100,4,1,0,15,0,1
65203,-133.333333333333,4,1,0,100,0,0
65527,-100,4,1,0,15,0,1
67798,-133.333333333333,4,1,0,100,0,0
68122,-100,4,1,0,15,0,1
70392,-133.333333333333,4,1,0,100,0,0
70717,-100,4,1,0,15,0,1
72662,-25,4,1,0,100,0,0
73311,-100,4,1,0,15,0,1
75581,-133.333333333333,4,1,0,100,0,0
75906,-100,4,1,0,15,0,1
78176,-133.333333333333,4,1,0,100,0,0
78500,-100,4,1,0,15,0,1
80771,-133.333333333333,4,1,0,100,0,0
81095,-100,4,1,0,15,0,0
83690,-117.647058823529,4,1,0,5,0,1
85960,-25,4,1,0,50,0,0
86284,-117.647058823529,4,1,0,5,0,1
88554,-25,4,1,0,50,0,0
88879,-117.647058823529,4,1,0,5,0,1
91149,-25,4,1,0,50,0,0
91473,-111.111111111111,4,1,0,5,0,0
93744,-25,4,1,0,100,0,0

[HitObjects]
288,256,663,5,0,0:0:0:0:
288,256,825,1,0,0:0:0:0:
288,256,987,1,8,0:0:0:0:
320,256,1149,1,0,0:0:0:0:
320,256,1311,1,0,0:0:0:0:
288,256,1473,1,0,0:0:0:0:
288,256,1635,1,8,0:0:0:0:
288,256,1798,1,8,0:0:0:0:
288,256,1960,1,0,0:0:0:0:
288,256,2122,1,0,0:0:0:0:
288,256,2284,1,8,0:0:0:0:
288,256,2446,1,0,0:0:0:0:
288,256,2608,1,0,0:0:0:0:
288,256,2771,1,0,0:0:0:0:
288,256,2933,1,8,0:0:0:0:
288,256,3095,1,8,0:0:0:0:
288,256,3257,1,0,0:0:0:0:
288,256,3419,1,0,0:0:0:0:
288,256,3581,1,8,0:0:0:0:
288,256,3744,1,8,0:0:0:0:
288,256,3906,1,0,0:0:0:0:
288,256,4068,1,0,0:0:0:0:
288,256,4230,1,8,0:0:0:0:
288,256,4392,1,0,0:0:0:0:
288,256,4554,1,0,0:0:0:0:
288,256,4717,1,0,0:0:0:0:
288,256,4879,1,8,0:0:0:0:
288,256,5041,1,0,0:0:0:0:
288,256,5203,1,0,0:0:0:0:
288,256,5365,1,0,0:0:0:0:
288,256,5527,1,8,0:0:0:0:
256,288,5608,1,0,0:0:0:0:
256,288,5690,1,8,0:0:0:0:
256,288,5771,1,8,0:0:0:0:
288,256,5852,1,0,0:0:0:0:
288,256,6014,1,0,0:0:0:0:
288,256,6176,1,8,0:0:0:0:
256,288,6338,1,0,0:0:0:0:
256,288,6500,1,0,0:0:0:0:
256,288,6662,1,0,0:0:0:0:
256,288,6825,1,8,0:0:0:0:
256,288,6987,1,8,0:0:0:0:
256,288,7149,1,0,0:0:0:0:
256,288,7311,1,0,0:0:0:0:
256,288,7473,1,8,0:0:0:0:
256,288,7635,1,8,0:0:0:0:
256,288,7798,1,0,0:0:0:0:
256,288,7960,1,0,0:0:0:0:
256,288,8122,1,8,0:0:0:0:
256,288,8284,1,0,0:0:0:0:
256,288,8446,1,0,0:0:0:0:
256,288,8608,1,0,0:0:0:0:
256,288,8771,1,8,0:0:0:0:
256,288,8933,1,0,0:0:0:0:
256,288,9095,1,0,0:0:0:0:
256,288,9257,1,0,0:0:0:0:
256,288,9419,1,8,0:0:0:0:
256,288,9581,1,8,0:0:0:0:
256,288,9744,1,0,0:0:0:0:
256,288,9906,1,0,0:0:0:0:
256,288,10068,1,8,0:0:0:0:
256,288,10230,1,8,0:0:0:0:
256,288,10392,1,0,0:0:0:0:
256,288,10554,1,8,0:0:0:0:
256,288,10635,1,0,0:0:0:0:
256,288,10717,1,8,0:0:0:0:
256,288,10798,1,8,0:0:0:0:
256,288,10879,1,0,0:0:0:0:
256,288,10960,1,0,0:0:0:0:
256,288,11041,1,8,0:0:0:0:
256,288,11203,1,0,0:0:0:0:
256,288,11365,1,8,0:0:0:0:
256,288,11527,1,0,0:0:0:0:
256,288,11690,1,0,0:0:0:0:
256,288,11852,1,0,0:0:0:0:
256,288,12014,1,8,0:0:0:0:
288,288,12176,1,8,0:0:0:0:
256,288,12338,1,0,0:0:0:0:
256,288,12500,1,0,0:0:0:0:
256,288,12662,1,8,0:0:0:0:
256,288,12825,1,0,0:0:0:0:
256,288,12987,1,0,0:0:0:0:
256,288,13149,1,0,0:0:0:0:
256,288,13311,1,8,0:0:0:0:
256,288,13473,1,8,0:0:0:0:
256,288,13635,1,0,0:0:0:0:
256,288,13798,1,0,0:0:0:0:
256,288,13960,1,8,0:0:0:0:
256,288,14122,1,8,0:0:0:0:
256,288,14284,1,0,0:0:0:0:
256,288,14446,1,0,0:0:0:0:
256,288,14608,1,8,0:0:0:0:
256,288,14771,1,0,0:0:0:0:
256,288,14933,1,0,0:0:0:0:
256,288,15095,1,0,0:0:0:0:
256,288,15257,1,8,0:0:0:0:
256,288,15419,1,0,0:0:0:0:
256,288,15581,1,0,0:0:0:0:
256,288,15744,1,0,0:0:0:0:
256,288,15906,1,8,0:0:0:0:
256,288,16068,1,0,0:0:0:0:
256,288,16230,1,8,0:0:0:0:
256,288,16392,1,0,0:0:0:0:
192,320,16473,1,0,0:0:0:0:
256,288,16554,1,8,0:0:0:0:
256,288,16717,1,0,0:0:0:0:
256,288,16879,1,8,0:0:0:0:
256,288,17041,1,0,0:0:0:0:
256,320,17122,1,0,0:0:0:0:
256,288,17203,1,8,0:0:0:0:
256,288,17365,1,0,0:0:0:0:
256,288,17527,1,8,0:0:0:0:
224,320,17690,1,0,0:0:0:0:
224,320,17771,1,0,0:0:0:0:
256,288,17852,1,8,0:0:0:0:
256,288,18014,1,0,0:0:0:0:
256,288,18176,1,8,0:0:0:0:
256,288,18338,1,0,0:0:0:0:
256,288,18500,1,8,0:0:0:0:
256,288,18662,1,0,0:0:0:0:
224,320,18825,1,8,0:0:0:0:
224,320,18906,1,0,0:0:0:0:
224,320,18987,1,0,0:0:0:0:
224,320,19068,1,0,0:0:0:0:
224,320,19149,1,8,0:0:0:0:
224,320,19230,1,0,0:0:0:0:
224,320,19311,1,0,0:0:0:0:
224,320,19392,1,0,0:0:0:0:
224,320,19473,1,8,0:0:0:0:
224,320,19527,1,8,0:0:0:0:
224,320,19581,1,8,0:0:0:0:
224,320,19635,1,0,0:0:0:0:
224,320,19717,1,0,0:0:0:0:
224,320,19798,1,8,0:0:0:0:
224,320,19879,1,0,0:0:0:0:
224,320,19960,1,0,0:0:0:0:
224,320,20041,1,8,0:0:0:0:
224,320,20122,1,0,0:0:0:0:
256,320,21419,1,4,0:0:0:0:
256,320,21581,1,8,0:0:0:0:
256,320,21662,1,0,0:0:0:0:
256,320,21744,1,8,0:0:0:0:
256,320,21906,1,8,0:0:0:0:
256,320,21987,1,8,0:0:0:0:
256,320,22068,1,0,0:0:0:0:
256,320,22230,1,0,0:0:0:0:
256,320,22392,1,8,0:0:0:0:
256,320,22473,1,0,0:0:0:0:
256,320,22554,1,8,0:0:0:0:
256,320,22635,1,8,0:0:0:0:
256,320,22717,1,0,0:0:0:0:
224,352,22798,1,0,0:0:0:0:
256,320,22879,1,8,0:0:0:0:
224,320,22960,1,0,0:0:0:0:
256,320,23041,1,8,0:0:0:0:
256,320,23203,1,8,0:0:0:0:
256,320,23365,1,0,0:0:0:0:
256,320,23527,1,0,0:0:0:0:
256,320,23608,1,0,0:0:0:0:
256,320,23690,1,6,0:0:0:0:
256,320,24014,1,8,0:0:0:0:
256,320,24176,1,0,0:0:0:0:
256,320,24338,1,8,0:0:0:0:
256,320,24419,1,0,0:0:0:0:
256,320,24500,1,8,0:0:0:0:
256,320,24581,1,8,0:0:0:0:
256,320,24662,1,0,0:0:0:0:
256,320,24825,1,0,0:0:0:0:
256,320,24906,1,0,0:0:0:0:
256,320,24987,1,8,0:0:0:0:
256,320,25149,1,8,0:0:0:0:
256,320,25230,1,8,0:0:0:0:
256,320,25311,1,0,0:0:0:0:
256,320,25392,1,0,0:0:0:0:
256,320,25473,1,8,0:0:0:0:
256,320,25554,1,0,0:0:0:0:
256,320,25635,1,8,0:0:0:0:
256,320,25798,1,0,0:0:0:0:
256,320,25960,1,8,0:0:0:0:
256,320,26041,1,0,0:0:0:0:
256,320,26122,1,8,0:0:0:0:
256,320,26284,1,4,0:0:0:0:
256,320,26608,1,8,0:0:0:0:
256,320,26771,1,0,0:0:0:0:
256,320,26852,1,0,0:0:0:0:
256,320,26933,1,8,0:0:0:0:
256,320,27014,1,0,0:0:0:0:
256,320,27095,1,8,0:0:0:0:
256,320,27176,1,8,0:0:0:0:
256,320,27257,1,0,0:0:0:0:
256,320,27419,1,0,0:0:0:0:
256,320,27581,1,8,0:0:0:0:
256,320,27662,1,0,0:0:0:0:
256,320,27744,1,8,0:0:0:0:
256,320,27825,1,8,0:0:0:0:
256,320,27906,1,0,0:0:0:0:
256,320,27987,1,8,0:0:0:0:
256,320,28068,1,0,0:0:0:0:
256,320,28149,1,0,0:0:0:0:
256,320,28230,1,8,0:0:0:0:
256,320,28392,1,8,0:0:0:0:
224,320,28473,1,8,0:0:0:0:
224,288,28554,1,0,0:0:0:0:
224,288,28635,1,8,0:0:0:0:
224,320,28717,1,0,0:0:0:0:
224,320,28879,1,6,0:0:0:0:
224,256,29203,1,8,0:0:0:0:
224,256,29365,1,0,0:0:0:0:
224,256,29446,1,0,0:0:0:0:
224,256,29527,1,8,0:0:0:0:
224,288,29608,1,8,0:0:0:0:
224,288,29690,1,0,0:0:0:0:
224,288,29771,1,8,0:0:0:0:
224,288,29852,1,0,0:0:0:0:
224,256,30014,1,0,0:0:0:0:
224,256,30176,1,8,0:0:0:0:
224,256,30257,1,0,0:0:0:0:
224,256,30338,1,0,0:0:0:0:
224,256,30419,1,0,0:0:0:0:
224,256,30500,1,8,0:0:0:0:
224,256,30662,1,8,0:0:0:0:
224,256,30825,1,0,0:0:0:0:
224,256,30987,1,0,0:0:0:0:
224,256,31149,1,6,0:0:0:0:
224,256,31311,1,6,0:0:0:0:
224,256,31473,1,6,0:0:0:0:
224,256,31635,1,6,0:0:0:0:
224,256,31798,1,0,0:0:0:0:
224,256,31960,1,0,0:0:0:0:
224,256,32041,1,0,0:0:0:0:
224,256,32122,1,8,0:0:0:0:
224,256,32284,1,8,0:0:0:0:
224,256,32365,1,8,0:0:0:0:
224,256,32446,1,0,0:0:0:0:
256,256,32608,1,8,0:0:0:0:
224,256,32690,1,0,0:0:0:0:
224,256,32771,1,8,0:0:0:0:
256,256,32852,1,8,0:0:0:0:
256,256,32933,1,0,0:0:0:0:
256,256,33014,1,8,0:0:0:0:
256,256,33095,1,0,0:0:0:0:
256,256,33257,1,0,0:0:0:0:
256,256,33338,1,0,0:0:0:0:
256,256,33419,1,8,0:0:0:0:
256,256,33581,1,8,0:0:0:0:
256,256,33744,1,0,0:0:0:0:
224,256,33906,1,8,0:0:0:0:
224,256,34068,1,4,0:0:0:0:
256,256,34392,1,0,0:0:0:0:
256,256,34473,1,0,0:0:0:0:
256,256,34554,1,0,0:0:0:0:
256,256,34635,1,0,0:0:0:0:
256,256,34717,1,8,0:0:0:0:
224,256,34798,1,8,0:0:0:0:
224,256,34879,1,0,0:0:0:0:
224,256,34960,1,8,0:0:0:0:
224,256,35041,1,0,0:0:0:0:
224,256,35203,1,0,0:0:0:0:
224,256,35284,1,0,0:0:0:0:
224,256,35365,1,8,0:0:0:0:
224,256,35527,1,8,0:0:0:0:
224,256,35608,1,8,0:0:0:0:
224,256,35690,1,0,0:0:0:0:
224,256,35771,1,0,0:0:0:0:
224,256,35852,1,8,0:0:0:0:
224,256,35933,1,0,0:0:0:0:
224,256,36014,1,8,0:0:0:0:
224,256,36176,1,8,0:0:0:0:
224,256,36257,1,8,0:0:0:0:
224,256,36338,1,0,0:0:0:0:
224,256,36419,1,0,0:0:0:0:
224,256,36500,1,8,0:0:0:0:
224,256,36662,1,4,0:0:0:0:
216,268,36987,1,0,0:0:0:0:
216,268,37068,1,0,0:0:0:0:
216,268,37149,1,8,0:0:0:0:
216,268,37230,1,0,0:0:0:0:
216,268,37311,1,8,0:0:0:0:
216,268,37392,1,8,0:0:0:0:
216,268,37473,1,0,0:0:0:0:
217,268,37554,1,8,0:0:0:0:
216,268,37635,1,0,0:0:0:0:
216,268,37717,1,0,0:0:0:0:
216,268,37798,1,8,0:0:0:0:
216,268,37879,1,0,0:0:0:0:
216,268,37960,1,8,0:0:0:0:
216,268,38041,1,8,0:0:0:0:
216,268,38122,1,0,0:0:0:0:
216,268,38203,1,8,0:0:0:0:
216,268,38284,1,0,0:0:0:0:
216,268,38365,1,0,0:0:0:0:
216,268,38446,1,8,0:0:0:0:
216,268,38527,1,0,0:0:0:0:
217,268,38608,1,8,0:0:0:0:
216,268,38690,1,0,0:0:0:0:
216,268,38771,1,8,0:0:0:0:
216,268,38852,1,8,0:0:0:0:
216,268,38933,1,0,0:0:0:0:
216,268,39095,1,8,0:0:0:0:
216,268,39257,1,4,0:0:0:0:
201,287,39581,1,0,0:0:0:0:
216,277,39744,1,0,0:0:0:0:
215,277,39906,1,8,0:0:0:0:
215,277,39987,1,8,0:0:0:0:
215,277,40068,1,8,0:0:0:0:
214,277,40149,1,8,0:0:0:0:
214,277,40230,1,0,0:0:0:0:
214,277,40392,1,0,0:0:0:0:
214,277,40554,1,8,0:0:0:0:
216,277,40717,1,0,0:0:0:0:
216,277,40798,1,8,0:0:0:0:
215,277,40879,1,0,0:0:0:0:
215,277,41041,1,8,0:0:0:0:
214,277,41203,1,0,0:0:0:0:
204,282,41365,1,8,0:0:0:0:
204,282,41527,1,4,0:0:0:0:
204,282,41852,1,6,0:0:0:0:
204,282,42176,1,0,0:0:0:0:
206,268,42338,1,8,0:0:0:0:
206,268,42500,1,0,0:0:0:0:
206,268,42662,1,8,0:0:0:0:
206,268,42825,1,0,0:0:0:0:
221,279,42987,1,8,0:0:0:0:
206,268,43149,1,0,0:0:0:0:
221,279,43311,1,8,0:0:0:0:
206,268,43473,1,0,0:0:0:0:
221,279,43635,1,8,0:0:0:0:
221,279,43798,1,0,0:0:0:0:
221,279,43960,1,8,0:0:0:0:
221,279,44122,1,0,0:0:0:0:
221,279,44284,1,8,0:0:0:0:
196,281,44446,1,8,0:0:0:0:
221,279,44608,1,8,0:0:0:0:
221,279,44771,1,0,0:0:0:0:
221,279,44933,1,8,0:0:0:0:
221,279,45095,1,0,0:0:0:0:
221,279,45257,1,8,0:0:0:0:
221,279,45419,1,0,0:0:0:0:
221,279,45581,1,8,0:0:0:0:
221,279,45744,1,0,0:0:0:0:
221,279,45906,1,8,0:0:0:0:
221,279,46068,1,0,0:0:0:0:
221,279,46230,1,8,0:0:0:0:
221,279,46392,1,0,0:0:0:0:
221,279,46554,1,8,0:0:0:0:
221,279,46717,1,0,0:0:0:0:
221,279,46879,1,8,0:0:0:0:
221,279,47041,1,8,0:0:0:0:
221,279,47203,1,8,0:0:0:0:
221,279,47365,1,0,0:0:0:0:
221,279,47527,1,8,0:0:0:0:
221,279,47690,1,0,0:0:0:0:
221,279,47852,1,8,0:0:0:0:
221,279,48014,1,0,0:0:0:0:
221,279,48176,1,8,0:0:0:0:
221,279,48338,1,0,0:0:0:0:
221,279,48500,1,8,0:0:0:0:
221,279,48662,1,0,0:0:0:0:
221,279,48825,1,8,0:0:0:0:
221,279,48987,1,0,0:0:0:0:
221,279,49149,1,8,0:0:0:0:
222,286,49311,1,0,0:0:0:0:
221,279,49473,1,8,0:0:0:0:
223,286,49635,1,0,0:0:0:0:
221,279,49798,1,8,0:0:0:0:
221,279,49960,1,0,0:0:0:0:
221,279,50122,1,8,0:0:0:0:
222,286,50284,1,0,0:0:0:0:
221,279,50446,1,8,0:0:0:0:
221,279,50608,1,0,0:0:0:0:
221,279,50771,1,8,0:0:0:0:
221,279,50933,1,8,0:0:0:0:
221,279,51095,1,8,0:0:0:0:
221,279,51257,1,0,0:0:0:0:
221,279,51419,1,8,0:0:0:0:
221,279,51581,1,0,0:0:0:0:
221,279,51744,1,8,0:0:0:0:
221,279,51906,1,0,0:0:0:0:
221,279,52068,1,8,0:0:0:0:
221,279,52230,1,0,0:0:0:0:
221,279,52392,1,0,0:0:0:0:
222,295,52554,1,8,0:0:0:0:
235,298,52635,1,0,0:0:0:0:
235,298,52717,1,8,0:0:0:0:
235,298,52798,1,0,0:0:0:0:
220,296,52879,1,8,0:0:0:0:
203,309,52960,1,8,0:0:0:0:
235,300,53041,1,0,0:0:0:0:
203,309,53122,1,8,0:0:0:0:
220,296,53203,1,0,0:0:0:0:
230,305,53284,1,0,0:0:0:0:
220,296,53365,1,8,0:0:0:0:
222,295,53527,1,0,0:0:0:0:
220,295,53690,1,8,0:0:0:0:
220,295,53852,1,0,0:0:0:0:
220,296,54014,1,8,0:0:0:0:
220,296,54176,1,0,0:0:0:0:
220,296,54338,1,8,0:0:0:0:
200,295,54419,1,8,0:0:0:0:
222,295,54500,1,0,0:0:0:0:
228,306,54581,1,0,0:0:0:0:
226,277,54662,1,8,0:0:0:0:
241,304,54744,1,8,0:0:0:0:
241,304,54825,1,0,0:0:0:0:
241,304,54906,1,8,0:0:0:0:
241,304,54987,1,0,0:0:0:0:
242,304,55068,1,0,0:0:0:0:
242,304,55149,1,8,0:0:0:0:
217,285,55311,1,0,0:0:0:0:
242,304,55473,1,8,0:0:0:0:
212,267,55635,1,0,0:0:0:0:
208,268,55717,1,0,0:0:0:0:
235,313,55798,1,8,0:0:0:0:
210,312,55879,1,0,0:0:0:0:
210,312,55960,1,8,0:0:0:0:
226,283,56041,1,0,0:0:0:0:
210,312,56122,1,8,0:0:0:0:
234,312,56203,1,8,0:0:0:0:
206,314,56284,1,0,0:0:0:0:
216,253,56365,1,0,0:0:0:0:
206,314,56446,1,8,0:0:0:0:
205,282,56608,1,0,0:0:0:0:
214,300,56771,1,8,0:0:0:0:
214,300,56933,1,0,0:0:0:0:
185,293,57014,1,0,0:0:0:0:
185,293,57095,1,8,0:0:0:0:
214,300,57257,1,0,0:0:0:0:
214,300,57419,1,8,0:0:0:0:
214,300,57581,1,0,0:0:0:0:
214,300,57744,1,8,0:0:0:0:
214,300,57906,1,0,0:0:0:0:
214,300,58068,1,0,0:0:0:0:
214,300,58230,1,0,0:0:0:0:
214,300,58311,1,0,0:0:0:0:
214,300,58392,1,8,0:0:0:0:
214,300,58554,1,0,0:0:0:0:
214,300,58717,1,8,0:0:0:0:
214,300,58879,1,0,0:0:0:0:
214,300,59041,1,8,0:0:0:0:
214,300,59203,1,0,0:0:0:0:
214,300,59365,1,8,0:0:0:0:
214,300,59527,1,0,0:0:0:0:
214,300,59690,1,8,0:0:0:0:
214,300,59852,1,0,0:0:0:0:
214,300,60014,1,8,0:0:0:0:
214,300,60176,1,0,0:0:0:0:
214,300,60338,1,8,0:0:0:0:
214,300,60419,1,0,0:0:0:0:
214,300,60500,1,0,0:0:0:0:
214,300,60581,1,0,0:0:0:0:
214,300,60662,1,8,0:0:0:0:
214,300,60744,1,0,0:0:0:0:
214,300,60825,1,0,0:0:0:0:
214,300,60906,1,0,0:0:0:0:
214,300,60987,1,8,0:0:0:0:
244,304,61041,1,8,0:0:0:0:
244,304,61095,1,8,0:0:0:0:
244,304,61149,1,0,0:0:0:0:
238,331,61230,1,0,0:0:0:0:
238,331,61311,1,8,0:0:0:0:
237,331,61392,1,0,0:0:0:0:
237,331,61473,1,0,0:0:0:0:
237,331,61554,1,8,0:0:0:0:
237,331,61635,1,0,0:0:0:0:
243,324,61798,1,0,0:0:0:0:
241,326,61960,1,8,0:0:0:0:
241,326,62041,1,0,0:0:0:0:
235,328,62122,1,8,0:0:0:0:
235,328,62203,1,8,0:0:0:0:
238,331,62284,1,0,0:0:0:0:
237,331,62446,1,0,0:0:0:0:
237,331,62608,1,8,0:0:0:0:
235,328,62933,1,0,0:0:0:0:
224,320,63095,1,0,0:0:0:0:
224,320,63176,1,0,0:0:0:0:
224,320,63257,1,8,0:0:0:0:
224,320,63419,1,8,0:0:0:0:
224,320,63500,1,8,0:0:0:0:
224,320,63581,1,0,0:0:0:0:
192,320,63662,1,0,0:0:0:0:
224,320,63744,1,8,0:0:0:0:
224,320,63825,1,0,0:0:0:0:
224,320,63906,1,8,0:0:0:0:
192,320,63987,1,8,0:0:0:0:
192,320,64068,1,0,0:0:0:0:
192,320,64149,1,8,0:0:0:0:
192,320,64230,1,0,0:0:0:0:
192,320,64392,1,0,0:0:0:0:
192,320,64473,1,0,0:0:0:0:
192,320,64554,1,8,0:0:0:0:
192,320,64635,1,0,0:0:0:0:
192,320,64717,1,8,0:0:0:0:
192,320,64798,1,8,0:0:0:0:
192,320,64879,1,0,0:0:0:0:
192,320,65041,1,8,0:0:0:0:
192,320,65203,1,4,0:0:0:0:
192,320,65527,1,0,0:0:0:0:
192,320,65690,1,8,0:0:0:0:
192,320,65771,1,0,0:0:0:0:
192,320,65852,1,8,0:0:0:0:
192,320,65933,1,8,0:0:0:0:
192,320,66014,1,0,0:0:0:0:
192,320,66095,1,8,0:0:0:0:
192,320,66176,1,0,0:0:0:0:
192,320,66257,1,0,0:0:0:0:
192,320,66338,1,8,0:0:0:0:
192,320,66419,1,0,0:0:0:0:
192,320,66500,1,8,0:0:0:0:
192,320,66662,1,8,0:0:0:0:
192,320,66825,1,0,0:0:0:0:
192,320,66987,1,8,0:0:0:0:
192,320,67068,1,0,0:0:0:0:
192,320,67149,1,8,0:0:0:0:
224,256,67311,1,8,0:0:0:0:
192,256,67473,1,0,0:0:0:0:
192,256,67554,1,8,0:0:0:0:
192,256,67635,1,0,0:0:0:0:
192,256,67798,1,6,0:0:0:0:
192,256,68122,1,0,0:0:0:0:
192,256,68284,1,8,0:0:0:0:
192,256,68446,1,8,0:0:0:0:
192,256,68608,1,0,0:0:0:0:
192,256,68690,1,8,0:0:0:0:
192,256,68771,1,0,0:0:0:0:
192,256,68933,1,0,0:0:0:0:
192,256,69095,1,8,0:0:0:0:
192,256,69176,1,8,0:0:0:0:
192,256,69257,1,0,0:0:0:0:
192,256,69338,1,8,0:0:0:0:
192,256,69419,1,0,0:0:0:0:
192,256,69581,1,0,0:0:0:0:
192,256,69662,1,0,0:0:0:0:
192,256,69744,1,8,0:0:0:0:
192,256,69825,1,0,0:0:0:0:
192,256,69906,1,8,0:0:0:0:
192,256,69987,1,8,0:0:0:0:
192,256,70068,1,0,0:0:0:0:
192,256,70230,1,8,0:0:0:0:
192,256,70392,1,4,0:0:0:0:
192,256,70717,1,0,0:0:0:0:
192,256,70798,1,0,0:0:0:0:
192,256,70879,1,8,0:0:0:0:
192,256,70960,1,0,0:0:0:0:
192,256,71041,1,8,0:0:0:0:
192,256,71122,1,8,0:0:0:0:
192,256,71203,1,0,0:0:0:0:
192,256,71284,1,8,0:0:0:0:
192,256,71365,1,0,0:0:0:0:
192,256,71527,1,0,0:0:0:0:
192,256,71608,1,8,0:0:0:0:
192,256,71690,1,8,0:0:0:0:
192,256,71771,1,0,0:0:0:0:
192,256,71852,1,8,0:0:0:0:
192,256,71933,1,8,0:0:0:0:
192,256,72014,1,0,0:0:0:0:
192,256,72095,1,8,0:0:0:0:
192,256,72176,1,8,0:0:0:0:
192,256,72257,1,8,0:0:0:0:
192,256,72338,1,0,0:0:0:0:
192,256,72419,1,8,0:0:0:0:
192,256,72500,1,0,0:0:0:0:
192,256,72662,1,6,0:0:0:0:
192,256,72825,1,6,0:0:0:0:
192,256,72987,1,6,0:0:0:0:
192,256,73149,1,6,0:0:0:0:
192,256,73311,1,0,0:0:0:0:
192,256,73392,1,0,0:0:0:0:
192,256,73473,1,8,0:0:0:0:
192,256,73554,1,0,0:0:0:0:
192,256,73635,1,8,0:0:0:0:
192,256,73717,1,0,0:0:0:0:
192,256,73798,1,8,0:0:0:0:
192,256,73879,1,8,0:0:0:0:
192,256,73960,1,0,0:0:0:0:
192,256,74041,1,8,0:0:0:0:
192,256,74122,1,0,0:0:0:0:
192,256,74203,1,0,0:0:0:0:
192,256,74284,1,8,0:0:0:0:
192,256,74365,1,8,0:0:0:0:
192,256,74446,1,0,0:0:0:0:
192,256,74527,1,8,0:0:0:0:
192,256,74608,1,0,0:0:0:0:
192,256,74690,1,8,0:0:0:0:
192,256,74771,1,0,0:0:0:0:
192,256,74852,1,0,0:0:0:0:
192,256,74933,1,8,0:0:0:0:
192,256,75014,1,0,0:0:0:0:
192,256,75095,1,8,0:0:0:0:
192,256,75176,1,8,0:0:0:0:
192,256,75257,1,0,0:0:0:0:
192,256,75419,1,8,0:0:0:0:
192,256,75581,1,4,0:0:0:0:
192,256,75906,1,0,0:0:0:0:
192,256,75987,1,0,0:0:0:0:
192,256,76068,1,8,0:0:0:0:
192,256,76149,1,0,0:0:0:0:
192,256,76230,1,8,0:0:0:0:
192,256,76311,1,0,0:0:0:0:
192,256,76392,1,8,0:0:0:0:
192,256,76473,1,8,0:0:0:0:
192,256,76554,1,0,0:0:0:0:
192,256,76635,1,8,0:0:0:0:
192,256,76717,1,0,0:0:0:0:
192,256,76798,1,0,0:0:0:0:
192,256,76879,1,8,0:0:0:0:
192,256,76960,1,0,0:0:0:0:
192,256,77041,1,8,0:0:0:0:
192,256,77122,1,8,0:0:0:0:
192,256,77203,1,0,0:0:0:0:
192,256,77284,1,0,0:0:0:0:
192,256,77365,1,8,0:0:0:0:
192,256,77446,1,0,0:0:0:0:
192,256,77527,1,8,0:0:0:0:
192,256,77608,1,8,0:0:0:0:
192,256,77690,1,0,0:0:0:0:
192,256,77771,1,8,0:0:0:0:
192,256,77852,1,0,0:0:0:0:
192,256,77933,1,0,0:0:0:0:
192,256,78014,1,8,0:0:0:0:
192,256,78176,1,4,0:0:0:0:
192,256,78500,1,0,0:0:0:0:
192,256,78581,1,0,0:0:0:0:
192,256,78662,1,8,0:0:0:0:
192,256,78744,1,0,0:0:0:0:
192,256,78825,1,8,0:0:0:0:
192,256,78906,1,0,0:0:0:0:
192,256,78987,1,8,0:0:0:0:
192,256,79068,1,8,0:0:0:0:
192,256,79149,1,0,0:0:0:0:
192,256,79230,1,8,0:0:0:0:
192,256,79311,1,0,0:0:0:0:
192,256,79392,1,0,0:0:0:0:
192,256,79473,1,8,0:0:0:0:
192,256,79554,1,0,0:0:0:0:
192,256,79635,1,8,0:0:0:0:
192,256,79717,1,8,0:0:0:0:
192,256,79798,1,0,0:0:0:0:
192,256,79879,1,8,0:0:0:0:
192,256,79960,1,0,0:0:0:0:
192,256,80041,1,0,0:0:0:0:
192,256,80122,1,8,0:0:0:0:
192,256,80203,1,0,0:0:0:0:
192,256,80284,1,8,0:0:0:0:
192,256,80365,1,8,0:0:0:0:
192,256,80446,1,0,0:0:0:0:
192,256,80527,1,0,0:0:0:0:
192,256,80608,1,8,0:0:0:0:
192,256,80771,1,4,0:0:0:0:
192,256,81095,1,0,0:0:0:0:
192,256,81176,1,0,0:0:0:0:
192,256,81257,1,8,0:0:0:0:
192,256,81338,1,0,0:0:0:0:
192,256,81419,1,8,0:0:0:0:
192,256,81500,1,8,0:0:0:0:
192,256,81581,1,8,0:0:0:0:
192,256,81662,1,8,0:0:0:0:
192,256,81744,1,0,0:0:0:0:
192,256,81825,1,8,0:0:0:0:
192,256,81906,1,0,0:0:0:0:
192,256,81987,1,0,0:0:0:0:
192,256,82068,1,8,0:0:0:0:
192,256,82149,1,0,0:0:0:0:
192,256,82230,1,8,0:0:0:0:
192,256,82311,1,8,0:0:0:0:
192,256,82392,1,0,0:0:0:0:
192,256,82473,1,0,0:0:0:0:
192,256,82554,1,8,0:0:0:0:
192,256,82635,1,8,0:0:0:0:
192,256,82717,1,0,0:0:0:0:
192,256,82798,1,8,0:0:0:0:
192,256,82879,1,0,0:0:0:0:
192,256,82960,1,0,0:0:0:0:
192,256,83041,1,8,0:0:0:0:
192,288,83122,1,0,0:0:0:0:
192,256,83203,1,0,0:0:0:0:
192,256,83284,1,8,0:0:0:0:
192,256,83365,1,0,0:0:0:0:
192,256,83446,1,0,0:0:0:0:
192,256,83527,1,8,0:0:0:0:
192,256,83608,1,8,0:0:0:0:
192,256,83690,1,0,0:0:0:0:
192,256,83771,1,0,0:0:0:0:
192,256,83852,1,8,0:0:0:0:
192,256,83933,1,0,0:0:0:0:
192,256,84014,1,8,0:0:0:0:
192,256,84095,1,8,0:0:0:0:
192,256,84176,1,0,0:0:0:0:
192,256,84257,1,8,0:0:0:0:
192,256,84338,1,0,0:0:0:0:
192,256,84419,1,0,0:0:0:0:
192,256,84500,1,8,0:0:0:0:
192,256,84581,1,0,0:0:0:0:
192,256,84662,1,8,0:0:0:0:
192,256,84744,1,0,0:0:0:0:
192,256,84825,1,8,0:0:0:0:
192,256,84906,1,8,0:0:0:0:
192,256,84987,1,0,0:0:0:0:
192,256,85068,1,8,0:0:0:0:
192,256,85149,1,0,0:0:0:0:
192,256,85230,1,0,0:0:0:0:
192,256,85311,1,8,0:0:0:0:
192,256,85365,1,0,0:0:0:0:
192,256,85419,1,0,0:0:0:0:
192,256,85473,1,8,0:0:0:0:
192,256,85554,1,8,0:0:0:0:
192,256,85635,1,0,0:0:0:0:
192,256,85717,1,0,0:0:0:0:
192,256,85798,1,8,0:0:0:0:
192,256,85879,1,8,0:0:0:0:
192,256,85960,1,4,0:0:0:0:
192,256,86284,1,0,0:0:0:0:
192,256,86365,1,0,0:0:0:0:
192,256,86446,1,8,0:0:0:0:
192,256,86527,1,0,0:0:0:0:
192,256,86608,1,8,0:0:0:0:
192,256,86690,1,0,0:0:0:0:
192,256,86771,1,8,0:0:0:0:
192,256,86852,1,8,0:0:0:0:
192,256,86933,1,0,0:0:0:0:
192,256,87014,1,0,0:0:0:0:
192,256,87095,1,8,0:0:0:0:
192,256,87176,1,0,0:0:0:0:
192,256,87257,1,8,0:0:0:0:
192,256,87338,1,8,0:0:0:0:
192,256,87419,1,0,0:0:0:0:
192,256,87500,1,8,0:0:0:0:
192,256,87581,1,0,0:0:0:0:
192,256,87662,1,8,0:0:0:0:
192,256,87744,1,0,0:0:0:0:
192,256,87798,1,0,0:0:0:0:
192,256,87852,1,0,0:0:0:0:
192,256,87906,1,8,0:0:0:0:
192,256,87987,1,0,0:0:0:0:
192,256,88068,1,8,0:0:0:0:
192,256,88149,1,8,0:0:0:0:
192,256,88230,1,0,0:0:0:0:
192,256,88311,1,0,0:0:0:0:
192,256,88392,1,8,0:0:0:0:
192,256,88473,1,8,0:0:0:0:
192,256,88554,1,4,0:0:0:0:
192,256,88717,1,6,0:0:0:0:
224,256,88879,1,0,0:0:0:0:
192,256,88960,1,0,0:0:0:0:
224,256,89041,1,8,0:0:0:0:
224,256,89122,1,0,0:0:0:0:
224,256,89203,1,8,0:0:0:0:
224,256,89284,1,0,0:0:0:0:
224,256,89365,1,8,0:0:0:0:
224,256,89446,1,8,0:0:0:0:
224,256,89527,1,0,0:0:0:0:
224,256,89608,1,0,0:0:0:0:
224,256,89690,1,8,0:0:0:0:
224,256,89771,1,0,0:0:0:0:
224,256,89852,1,8,0:0:0:0:
224,256,89933,1,8,0:0:0:0:
224,256,90014,1,0,0:0:0:0:
224,256,90095,1,8,0:0:0:0:
224,256,90176,1,0,0:0:0:0:
224,256,90257,1,8,0:0:0:0:
224,256,90338,1,8,0:0:0:0:
224,256,90419,1,0,0:0:0:0:
224,256,90500,1,8,0:0:0:0:
224,256,90581,1,8,0:0:0:0:
224,256,90662,1,0,0:0:0:0:
256,256,90717,1,8,0:0:0:0:
256,256,90771,1,8,0:0:0:0:
224,256,90825,1,0,0:0:0:0:
224,256,90906,1,0,0:0:0:0:
224,256,90987,1,8,0:0:0:0:
224,256,91068,1,8,0:0:0:0:
224,256,91149,1,4,0:0:0:0:
224,256,91473,1,0,0:0:0:0:
224,256,91554,1,0,0:0:0:0:
224,256,91635,1,8,0:0:0:0:
224,256,91717,1,0,0:0:0:0:
224,256,91798,1,8,0:0:0:0:
224,256,91879,1,0,0:0:0:0:
224,256,91960,1,8,0:0:0:0:
224,256,92041,1,8,0:0:0:0:
224,256,92122,1,0,0:0:0:0:
224,256,92203,1,0,0:0:0:0:
224,256,92284,1,8,0:0:0:0:
224,256,92365,1,0,0:0:0:0:
224,256,92446,1,8,0:0:0:0:
224,256,92500,1,0,0:0:0:0:
224,256,92554,1,0,0:0:0:0:
224,256,92608,1,8,0:0:0:0:
224,256,92690,1,8,0:0:0:0:
224,256,92771,1,0,0:0:0:0:
224,256,92852,1,0,0:0:0:0:
224,256,92933,1,8,0:0:0:0:
224,256,93014,1,8,0:0:0:0:
224,256,93095,1,0,0:0:0:0:
224,256,93149,1,8,0:0:0:0:
224,256,93203,1,8,0:0:0:0:
224,256,93257,1,0,0:0:0:0:
224,256,93338,1,8,0:0:0:0:
224,256,93419,1,0,0:0:0:0:
224,256,93500,1,8,0:0:0:0:
224,256,93581,1,0,0:0:0:0:
224,256,93662,1,8,0:0:0:0:
224,256,93744,1,4,0:0:0:0:
