osu file format v14

[General]
AudioFilename: audio.mp3
AudioLeadIn: 0
PreviewTime: 61635
Countdown: 0
SampleSet: Soft
StackLeniency: 0.7
Mode: 3
LetterboxInBreaks: 0
SpecialStyle: 0
WidescreenStoryboard: 1

[Editor]
Bookmarks: 1273,5489,11003,16192,21381,31760,42138,52516,70516,86084
DistanceSpacing: 1
BeatDivisor: 4
GridSize: 32
TimelineZoom: 1.800005

[Metadata]
Title:TSLove
TitleUnicode:TSLove
Artist:O2i3
ArtistUnicode:O2i3
Creator:[_Chichinya_]
Version:ManiaLove <3
Source:
Tags:Melanie Friggy-chan kqrth DDM Hi_Hello 404 AccNotFound FlamingRok Dargin Cyoris210 BlackWolf159 Yuno Taikocracy Prancer agu gamerock Nifty Lno Nepuri Raphalge frukoyurdakul Cyssel Unmei Muma Q____X Vulkin JessiChan iContol Chocola_2287 AezLack _yu68 zigizigiefe Grimbow
BeatmapID:1163375
BeatmapSetID:549370

[Difficulty]
HPDrainRate:5
CircleSize:4
OverallDifficulty:7
ApproachRate:9
SliderMultiplier:1.5042328936501
SliderTickRate:1

[Events]
//Background and Video events
0,0,"Mermaid-Anime-HD-Wallpapers 2.jpg",0,0
//Break Periods
//Storyboard Layer 0 (Background)
//Storyboard Layer 1 (Fail)
//Storyboard Layer 2 (Pass)
//Storyboard Layer 3 (Foreground)
//Storyboard Sound Samples

[TimingPoints]
663,324.324324324324,4,2,1,100,1,0
16879,-100,4,2,1,100,0,0
17527,-100,4,2,1,100,0,0
20203,-1000,4,2,1,100,0,0
21257,-100,4,2,1,100,0,0
21419,-66.6666666666667,4,2,1,100,0,1
21744,-100,4,2,1,100,0,1
23690,-100,4,2,1,100,0,0
23771,-10000,4,2,1,100,0,0
23852,-100,4,2,1,100,0,0
24014,-100,4,2,1,100,0,1
26122,-66.6666666666667,4,2,1,100,0,1
26284,-100,4,2,1,100,0,0
26365,-10000,4,2,1,100,0,0
26446,-100,4,2,1,100,0,0
26608,-100,4,2,1,100,0,1
28878,-100,4,2,1,100,0,0
28960,-10000,4,2,1,100,0,0
29041,-100,4,2,1,100,0,0
29203,-100,4,2,1,100,0,1
30500,-90.9090909090909,4,2,1,100,0,0
30825,-89.2857142857143,4,2,1,100,0,0
31149,-87.719298245614,4,2,1,100,0,0
31311,-86.2068965517241,4,2,1,100,0,0
31473,-84.7457627118644,4,2,1,100,0,0
31797,-100,4,2,1,100,0,1
31798,-100,4,2,1,100,0,1
31879,-1000,4,2,1,100,0,1
31960,-100,4,2,1,100,0,1
32446,-100,4,2,1,100,0,1
34067,-100,4,2,1,100,0,0
34149,-10000,4,2,1,100,0,0
34230,-100,4,2,1,100,0,0
34391,-100,4,2,1,100,0,1
36014,-100,4,2,1,100,0,1
36661,-100,4,2,1,100,0,0
36662,-10000,4,2,1,100,0,0
36825,-100,4,2,1,100,0,0
36986,-100,4,2,1,100,0,1
37635,-100,4,2,1,100,0,1
39256,-100,4,2,1,100,0,1
39338,-10000,4,2,1,100,0,1
39419,-100,4,2,1,100,0,1
39580,-100,4,2,1,100,0,1
40877,-100,4,2,1,100,0,1
41203,-83.3333333333333,4,2,1,100,0,1
41527,-76.9230769230769,4,2,1,100,0,1
41852,-71.4285714285714,4,2,1,100,0,1
42176,-100,4,2,1,100,0,0
42338,-111.111111111111,4,2,1,100,0,0
42500,-125,4,2,1,100,0,0
42662,-133.333333333333,4,2,1,100,0,0
52230,-125,4,2,1,100,0,0
52392,-111.111111111111,4,2,1,100,0,0
52554,-100,4,2,1,100,0,0
56446,-100,4,2,1,100,0,0
57095,-100,4,2,1,100,0,0
57744,-95.2380952380952,4,2,1,100,0,0
59041,-90.9090909090909,4,2,1,100,0,0
60338,-86.9565217391304,4,2,1,100,0,0
61635,-100,4,2,1,100,0,0
61717,-10000,4,2,1,100,0,0
61798,-100,4,2,1,100,0,0
61879,-10000,4,2,1,100,0,0
61960,-90.9090909090909,4,2,1,100,0,0
62203,-10000,4,2,1,100,0,0
62284,-100,4,2,1,100,0,0
62608,-90.9090909090909,4,2,1,100,0,0
62932,-100,4,2,1,100,0,1
63014,-10000,4,2,1,100,0,1
63095,-100,4,2,1,100,0,1
63257,-100,4,2,1,100,0,1
65202,-100,4,2,1,100,0,0
65284,-10000,4,2,1,100,0,0
65365,-100,4,2,1,100,0,0
65526,-100,4,2,1,100,0,1
65527,-100,4,2,1,100,0,1
67634,-80,4,2,1,100,0,1
67717,-100,4,2,1,100,0,1
67798,-10000,4,2,1,100,0,1
67960,-100,4,2,1,100,0,1
68120,-100,4,2,1,100,0,1
70395,-100,4,2,1,100,0,1
70473,-10000,4,2,1,100,0,1
70554,-100,4,2,1,100,0,1
70714,-100,4,2,1,100,0,1
72013,-100,4,2,1,100,0,1
72175,-100,4,2,1,100,0,1
72337,-89.2857142857143,4,2,1,100,0,1
72499,-100,4,2,1,100,0,1
72662,-87.719298245614,4,2,1,100,0,1
72825,-86.2068965517241,4,2,1,100,0,1
72987,-83.3333333333333,4,2,1,100,0,1
73309,-100,4,2,1,100,0,1
75584,-100,4,2,1,100,0,1
75662,-10000,4,2,1,100,0,1
75744,-100,4,2,1,100,0,1
75903,-100,4,2,1,100,0,1
75906,-100,4,2,1,100,0,1
78011,-100,4,2,1,100,0,1
78095,-10000,4,2,1,100,0,1
78176,-100,4,2,1,100,0,1
78257,-10000,4,2,1,100,0,1
78338,-100,4,2,1,100,0,1
78497,-100,4,2,1,100,0,1
80771,-100,4,2,1,100,0,1
80825,-111.111111111111,4,2,1,100,0,1
80879,-125,4,2,1,100,0,1
80933,-142.857142857143,4,2,1,100,0,1
80987,-125,4,2,1,100,0,1
81041,-111.111111111111,4,2,1,100,0,1
81095,-100,4,2,1,100,0,1
82397,-100,4,2,1,100,0,1
82554,-100,4,2,1,100,0,1
82716,-100,4,2,1,100,0,1
82716,-100,4,2,1,100,0,1
82878,-100,4,2,1,100,0,1
83040,-100,4,2,1,100,0,0
83040,-100,4,2,1,100,0,0
83202,-100,4,2,1,100,0,0
83364,-100,4,2,1,100,0,0
83688,-100,4,2,1,100,0,0
86282,-86.9565217391304,4,2,1,100,0,0
88553,-100,4,2,1,100,0,0
88877,-90.9090909090909,4,2,1,100,0,0
91472,-83.3333333333333,4,2,1,100,0,0
92445,-84.0336134453781,4,2,1,100,0,0
92499,-84.7457627118644,4,2,1,100,0,0
92553,-85.4700854700855,4,2,1,100,0,0
92607,-86.2068965517241,4,2,1,100,0,0
92688,-86.9565217391304,4,2,1,100,0,0
92769,-87.719298245614,4,2,1,100,0,0
92850,-88.4955752212389,4,2,1,100,0,0
92931,-89.2857142857143,4,2,1,100,0,0
93012,-90.0900900900901,4,2,1,100,0,0
93093,-90.9090909090909,4,2,1,100,0,0
93174,-91.743119266055,4,2,1,100,0,0
93255,-92.5925925925926,4,2,1,100,0,0
93336,-93.4579439252336,4,2,1,100,0,0
93418,-94.3396226415094,4,2,1,100,0,0
93499,-95.2380952380952,4,2,1,100,0,0
93580,-96.1538461538461,4,2,1,100,0,0
93661,-97.0873786407767,4,2,1,100,0,0
93742,-98.0392156862745,4,2,1,100,0,0

[Colours]
Combo1 : 133,24,82
Combo2 : 96,61,99
Combo3 : 252,143,143
Combo4 : 234,69,21

[HitObjects]
64,192,663,5,0,0:0:0:0:
320,192,825,1,0,0:0:0:0:
192,192,987,1,0,0:0:0:0:
448,192,1149,1,0,0:0:0:0:
64,192,1230,1,0,0:0:0:0:
448,192,1311,1,0,0:0:0:0:
192,192,1473,1,0,0:0:0:0:
448,192,1635,1,0,0:0:0:0:
64,192,1798,1,0,0:0:0:0:
320,192,1960,1,0,0:0:0:0:
192,192,2122,1,0,0:0:0:0:
320,192,2284,1,0,0:0:0:0:
64,192,2446,1,0,0:0:0:0:
320,192,2527,1,0,0:0:0:0:
448,192,2608,1,0,0:0:0:0:
320,192,2771,1,0,0:0:0:0:
64,192,2933,1,0,0:0:0:0:
192,192,3095,1,0,0:0:0:0:
320,192,3257,1,0,0:0:0:0:
448,192,3419,1,0,0:0:0:0:
320,192,3581,1,0,0:0:0:0:
448,192,3744,1,0,0:0:0:0:
320,192,3825,1,0,0:0:0:0:
64,192,3906,1,0,0:0:0:0:
192,192,4068,1,0,0:0:0:0:
64,192,4230,1,0,0:0:0:0:
320,192,4392,1,0,0:0:0:0:
192,192,4554,1,0,0:0:0:0:
320,192,4717,1,0,0:0:0:0:
448,192,4879,1,0,0:0:0:0:
192,192,5041,1,0,0:0:0:0:
320,192,5122,1,0,0:0:0:0:
64,192,5203,1,0,0:0:0:0:
320,192,5365,1,0,0:0:0:0:
448,192,5527,1,0,0:0:0:0:
320,192,5608,1,0,0:0:0:0:
448,192,5690,1,0,0:0:0:0:
64,192,5771,1,0,0:0:0:0:
192,192,5852,1,0,0:0:0:0:
448,192,6014,1,0,0:0:0:0:
192,192,6176,1,0,0:0:0:0:
320,192,6338,1,0,0:0:0:0:
64,192,6419,1,0,0:0:0:0:
448,192,6500,1,0,0:0:0:0:
64,192,6662,1,0,0:0:0:0:
192,192,6744,1,0,0:0:0:0:
320,192,6825,1,0,0:0:0:0:
64,192,6987,1,0,0:0:0:0:
192,192,7149,1,0,0:0:0:0:
448,192,7311,1,0,0:0:0:0:
192,192,7473,1,0,0:0:0:0:
320,192,7635,1,0,0:0:0:0:
192,192,7717,1,0,0:0:0:0:
64,192,7798,1,0,0:0:0:0:
320,192,7960,1,0,0:0:0:0:
192,192,8122,1,0,0:0:0:0:
64,192,8284,1,0,0:0:0:0:
192,192,8365,1,0,0:0:0:0:
320,192,8446,1,0,0:0:0:0:
192,192,8608,1,0,0:0:0:0:
192,192,8771,1,0,0:0:0:0:
320,192,8933,1,0,0:0:0:0:
192,192,9014,1,0,0:0:0:0:
320,192,9095,1,0,0:0:0:0:
448,192,9257,1,0,0:0:0:0:
448,192,9419,1,0,0:0:0:0:
64,192,9581,1,0,0:0:0:0:
192,192,9662,1,0,0:0:0:0:
64,192,9744,1,0,0:0:0:0:
192,192,9906,1,0,0:0:0:0:
320,192,9906,1,0,0:0:0:0:
448,192,9987,1,0,0:0:0:0:
192,192,10068,1,0,0:0:0:0:
320,192,10068,1,0,0:0:0:0:
320,192,10230,1,0,0:0:0:0:
448,192,10230,1,0,0:0:0:0:
192,192,10311,1,0,0:0:0:0:
320,192,10392,1,0,0:0:0:0:
448,192,10392,1,0,0:0:0:0:
320,192,10554,1,0,0:0:0:0:
192,192,10554,1,0,0:0:0:0:
64,192,10635,1,0,0:0:0:0:
320,192,10717,1,0,0:0:0:0:
192,192,10717,1,0,0:0:0:0:
448,192,10798,1,0,0:0:0:0:
64,192,10879,1,0,0:0:0:0:
192,192,10879,1,0,0:0:0:0:
320,192,10960,1,0,0:0:0:0:
64,192,11041,1,0,0:0:0:0:
448,192,11041,1,0,0:0:0:0:
192,192,11041,1,0,0:0:0:0:
192,192,11203,1,0,0:0:0:0:
448,192,11365,1,0,0:0:0:0:
320,192,11527,1,0,0:0:0:0:
448,192,11608,1,0,0:0:0:0:
64,192,11771,1,0,0:0:0:0:
192,192,11852,1,0,0:0:0:0:
448,192,12014,1,0,0:0:0:0:
320,192,12095,1,0,0:0:0:0:
448,192,12176,1,0,0:0:0:0:
192,192,12257,1,0,0:0:0:0:
64,192,12338,1,0,0:0:0:0:
320,192,12500,1,0,0:0:0:0:
448,192,12662,1,0,0:0:0:0:
64,192,12825,1,0,0:0:0:0:
192,192,12906,1,0,0:0:0:0:
448,192,13068,1,0,0:0:0:0:
320,192,13149,1,0,0:0:0:0:
192,192,13311,1,0,0:0:0:0:
448,192,13311,1,0,0:0:0:0:
320,192,13392,1,0,0:0:0:0:
64,192,13473,1,0,0:0:0:0:
448,192,13554,1,0,0:0:0:0:
192,192,13635,1,0,0:0:0:0:
320,192,13798,1,0,0:0:0:0:
192,192,13960,1,0,0:0:0:0:
192,192,14122,1,0,0:0:0:0:
320,192,14203,1,0,0:0:0:0:
192,192,14284,1,0,0:0:0:0:
64,192,14365,1,0,0:0:0:0:
192,192,14446,1,0,0:0:0:0:
448,192,14446,1,0,0:0:0:0:
320,192,14608,1,0,0:0:0:0:
64,192,14608,1,0,0:0:0:0:
192,192,14771,1,0,0:0:0:0:
320,192,14852,1,0,0:0:0:0:
448,192,14933,1,0,0:0:0:0:
64,192,14933,1,0,0:0:0:0:
192,192,15095,1,0,0:0:0:0:
320,192,15257,1,0,0:0:0:0:
448,192,15257,1,0,0:0:0:0:
192,192,15419,1,0,0:0:0:0:
448,192,15500,1,0,0:0:0:0:
64,192,15581,1,0,0:0:0:0:
320,192,15581,1,0,0:0:0:0:
320,192,15744,1,0,0:0:0:0:
192,192,15906,1,0,0:0:0:0:
448,192,15906,1,0,0:0:0:0:
64,192,16068,1,0,0:0:0:0:
192,192,16230,1,0,0:0:0:0:
320,192,16230,1,0,0:0:0:0:
448,192,16230,1,0,0:0:0:0:
64,192,16392,1,0,0:0:0:0:
192,192,16392,1,0,0:0:0:0:
320,192,16392,1,0,0:0:0:0:
192,192,16554,1,0,0:0:0:0:
320,192,16554,1,0,0:0:0:0:
448,192,16554,1,0,0:0:0:0:
192,192,16717,1,0,0:0:0:0:
320,192,16717,1,0,0:0:0:0:
192,192,16879,1,0,0:0:0:0:
64,192,16879,1,0,0:0:0:0:
320,192,17041,1,0,0:0:0:0:
448,192,17041,1,0,0:0:0:0:
64,192,17203,1,0,0:0:0:0:
320,192,17203,1,0,0:0:0:0:
192,192,17203,1,0,0:0:0:0:
320,192,17365,1,0,0:0:0:0:
448,192,17365,1,0,0:0:0:0:
320,192,17527,1,0,0:0:0:0:
192,192,17527,1,0,0:0:0:0:
64,192,17690,1,0,0:0:0:0:
192,192,17690,1,0,0:0:0:0:
320,192,17852,1,0,0:0:0:0:
448,192,17852,1,0,0:0:0:0:
64,192,18014,1,0,0:0:0:0:
320,192,18014,1,0,0:0:0:0:
448,192,18014,1,0,0:0:0:0:
64,192,18176,1,0,0:0:0:0:
192,192,18176,1,0,0:0:0:0:
448,192,18176,1,0,0:0:0:0:
192,192,18338,1,0,0:0:0:0:
320,192,18338,1,0,0:0:0:0:
448,192,18338,1,0,0:0:0:0:
64,192,18500,1,0,0:0:0:0:
192,192,18500,1,0,0:0:0:0:
320,192,18500,1,0,0:0:0:0:
192,192,18662,1,0,0:0:0:0:
448,192,18662,1,0,0:0:0:0:
64,192,18825,1,0,0:0:0:0:
320,192,18825,1,0,0:0:0:0:
192,192,18906,1,0,0:0:0:0:
320,192,18987,1,0,0:0:0:0:
192,192,19068,1,0,0:0:0:0:
320,192,19149,1,0,0:0:0:0:
448,192,19230,1,0,0:0:0:0:
320,192,19311,1,0,0:0:0:0:
192,192,19392,1,0,0:0:0:0:
64,192,19473,1,0,0:0:0:0:
192,192,19527,1,0,0:0:0:0:
320,192,19581,1,0,0:0:0:0:
448,192,19635,1,0,0:0:0:0:
64,192,19717,1,0,0:0:0:0:
320,192,19798,1,0,0:0:0:0:
448,192,19879,1,0,0:0:0:0:
64,192,19879,1,0,0:0:0:0:
192,192,19960,1,0,0:0:0:0:
448,192,20041,1,0,0:0:0:0:
64,192,20122,128,4,21419:0:0:0:0:
320,192,20122,128,4,21419:0:0:0:0:
192,192,21419,1,4,0:0:0:0:
448,192,21419,1,4,0:0:0:0:
64,192,21744,1,0,0:0:0:0:
448,192,21744,1,0,0:0:0:0:
192,192,21825,1,0,0:0:0:0:
320,192,21906,1,0,0:0:0:0:
448,192,21987,1,0,0:0:0:0:
64,192,22068,1,0,0:0:0:0:
192,192,22149,1,0,0:0:0:0:
448,192,22230,1,0,0:0:0:0:
320,192,22311,1,0,0:0:0:0:
64,192,22392,1,0,0:0:0:0:
448,192,22392,1,0,0:0:0:0:
192,192,22473,1,0,0:0:0:0:
320,192,22554,1,0,0:0:0:0:
192,192,22635,1,0,0:0:0:0:
448,192,22717,1,0,0:0:0:0:
64,192,22717,1,0,0:0:0:0:
192,192,22879,1,0,0:0:0:0:
320,192,22960,1,0,0:0:0:0:
192,192,23041,1,0,0:0:0:0:
64,192,23203,1,0,0:0:0:0:
448,192,23365,1,0,0:0:0:0:
192,192,23365,1,0,0:0:0:0:
64,192,23690,128,4,24014:0:0:0:0:
448,192,23690,128,4,24014:0:0:0:0:
192,192,24014,1,4,0:0:0:0:
320,192,24014,1,4,0:0:0:0:
192,192,24338,1,0,0:0:0:0:
320,192,24419,1,0,0:0:0:0:
448,192,24500,1,0,0:0:0:0:
320,192,24581,1,0,0:0:0:0:
64,192,24662,1,0,0:0:0:0:
448,192,24662,1,0,0:0:0:0:
448,192,24824,1,0,0:0:0:0:
192,192,24824,1,0,0:0:0:0:
64,192,24905,1,0,0:0:0:0:
192,192,24986,1,0,0:0:0:0:
320,192,25068,1,0,0:0:0:0:
192,192,25149,1,0,0:0:0:0:
64,192,25230,1,0,0:0:0:0:
192,192,25311,1,0,0:0:0:0:
448,192,25311,1,0,0:0:0:0:
64,192,25392,1,0,0:0:0:0:
320,192,25473,1,0,0:0:0:0:
192,192,25554,1,0,0:0:0:0:
320,192,25635,1,0,0:0:0:0:
448,192,25716,1,0,0:0:0:0:
64,192,25797,1,0,0:0:0:0:
192,192,25797,1,0,0:0:0:0:
320,192,25878,1,0,0:0:0:0:
448,192,25959,1,0,0:0:0:0:
64,192,25959,1,0,0:0:0:0:
64,192,26122,1,0,0:0:0:0:
448,192,26122,1,0,0:0:0:0:
448,192,26284,128,4,26608:0:0:0:0:
192,192,26284,128,4,26608:0:0:0:0:
64,192,26608,1,4,0:0:0:0:
320,192,26608,1,4,0:0:0:0:
448,192,26933,1,0,0:0:0:0:
320,192,27013,1,0,0:0:0:0:
192,192,27094,1,0,0:0:0:0:
64,192,27256,1,0,0:0:0:0:
320,192,27418,1,0,0:0:0:0:
448,192,27499,1,0,0:0:0:0:
320,192,27580,1,0,0:0:0:0:
192,192,27662,1,0,0:0:0:0:
448,192,27662,1,0,0:0:0:0:
320,192,27743,1,0,0:0:0:0:
64,192,27743,1,0,0:0:0:0:
192,192,27824,1,0,0:0:0:0:
320,192,27905,1,0,0:0:0:0:
448,192,28067,1,0,0:0:0:0:
64,192,28067,1,0,0:0:0:0:
192,192,28148,1,0,0:0:0:0:
320,192,28148,1,0,0:0:0:0:
64,192,28229,1,0,0:0:0:0:
448,192,28229,1,0,0:0:0:0:
192,192,28391,1,0,0:0:0:0:
320,192,28391,1,0,0:0:0:0:
64,192,28553,128,0,28878:0:0:0:0:
448,192,28878,128,0,29203:0:0:0:0:
192,192,29202,1,0,0:0:0:0:
320,192,29203,1,0,0:0:0:0:
64,192,29203,1,0,0:0:0:0:
192,192,29527,1,0,0:0:0:0:
448,192,29527,1,0,0:0:0:0:
320,192,29608,1,0,0:0:0:0:
64,192,29689,1,0,0:0:0:0:
192,192,29770,1,0,0:0:0:0:
320,192,29851,1,0,0:0:0:0:
320,192,30013,1,0,0:0:0:0:
192,192,30094,1,0,0:0:0:0:
320,192,30175,1,0,0:0:0:0:
64,192,30338,1,0,0:0:0:0:
448,192,30500,1,0,0:0:0:0:
64,192,30500,1,0,0:0:0:0:
320,192,30824,1,0,0:0:0:0:
192,192,30824,1,0,0:0:0:0:
64,192,31148,1,0,0:0:0:0:
448,192,31148,1,0,0:0:0:0:
448,192,31310,1,0,0:0:0:0:
192,192,31310,1,0,0:0:0:0:
448,192,31472,1,0,0:0:0:0:
320,192,31472,1,0,0:0:0:0:
192,192,31635,1,0,0:0:0:0:
448,192,31635,1,0,0:0:0:0:
64,192,31798,128,0,32122:0:0:0:0:
448,192,31798,128,0,32122:0:0:0:0:
192,192,32122,1,0,0:0:0:0:
320,192,32122,1,0,0:0:0:0:
320,192,32283,1,0,0:0:0:0:
192,192,32364,1,0,0:0:0:0:
64,192,32445,1,0,0:0:0:0:
192,192,32607,1,0,0:0:0:0:
448,192,32607,1,0,0:0:0:0:
320,192,32688,1,0,0:0:0:0:
64,192,32688,1,0,0:0:0:0:
448,192,32769,1,0,0:0:0:0:
192,192,32769,1,0,0:0:0:0:
320,192,32852,1,0,0:0:0:0:
192,192,32933,1,0,0:0:0:0:
64,192,32933,1,0,0:0:0:0:
320,192,33013,1,0,0:0:0:0:
448,192,33014,1,0,0:0:0:0:
192,192,33094,1,0,0:0:0:0:
64,192,33095,1,0,0:0:0:0:
448,192,33256,1,0,0:0:0:0:
64,192,33337,1,0,0:0:0:0:
320,192,33418,1,0,0:0:0:0:
192,192,33580,1,0,0:0:0:0:
448,192,33580,1,0,0:0:0:0:
448,192,33742,1,0,0:0:0:0:
64,192,33742,1,0,0:0:0:0:
64,192,34067,128,0,34391:0:0:0:0:
448,192,34067,128,0,34391:0:0:0:0:
192,192,34391,1,0,0:0:0:0:
320,192,34391,1,0,0:0:0:0:
192,192,34717,1,0,0:0:0:0:
320,192,34798,1,0,0:0:0:0:
448,192,34879,1,0,0:0:0:0:
64,192,35041,1,0,0:0:0:0:
448,192,35203,1,0,0:0:0:0:
64,192,35284,1,0,0:0:0:0:
192,192,35365,1,0,0:0:0:0:
448,192,35527,1,0,0:0:0:0:
64,192,35690,1,0,0:0:0:0:
320,192,35690,1,0,0:0:0:0:
192,192,35771,1,0,0:0:0:0:
320,192,35852,1,0,0:0:0:0:
320,192,36014,1,0,0:0:0:0:
64,192,36176,1,0,0:0:0:0:
448,192,36176,1,0,0:0:0:0:
192,192,36257,1,0,0:0:0:0:
320,192,36338,1,0,0:0:0:0:
192,192,36419,1,0,0:0:0:0:
64,192,36500,1,0,0:0:0:0:
448,192,36500,1,0,0:0:0:0:
192,192,36662,1,0,0:0:0:0:
320,192,36662,1,0,0:0:0:0:
64,192,36987,1,0,0:0:0:0:
448,192,36987,1,0,0:0:0:0:
192,192,36987,1,0,0:0:0:0:
320,192,36987,1,0,0:0:0:0:
320,192,37311,1,0,0:0:0:0:
192,192,37392,1,0,0:0:0:0:
320,192,37473,1,0,0:0:0:0:
64,192,37635,1,0,0:0:0:0:
448,192,37635,1,0,0:0:0:0:
320,192,37798,1,0,0:0:0:0:
192,192,37879,1,0,0:0:0:0:
64,192,37960,1,0,0:0:0:0:
448,192,38041,1,0,0:0:0:0:
320,192,38122,1,0,0:0:0:0:
64,192,38203,1,0,0:0:0:0:
192,192,38284,1,0,0:0:0:0:
320,192,38284,1,0,0:0:0:0:
448,192,38365,1,0,0:0:0:0:
192,192,38446,1,0,0:0:0:0:
320,192,38527,1,0,0:0:0:0:
192,192,38608,1,0,0:0:0:0:
448,192,38771,1,0,0:0:0:0:
64,192,38933,1,0,0:0:0:0:
320,192,39257,128,0,39581:0:0:0:0:
192,192,39257,128,0,39581:0:0:0:0:
64,192,39581,1,0,0:0:0:0:
448,192,39581,1,0,0:0:0:0:
320,192,39906,1,0,0:0:0:0:
192,192,39987,1,0,0:0:0:0:
64,192,40068,1,0,0:0:0:0:
448,192,40149,1,0,0:0:0:0:
192,192,40230,1,0,0:0:0:0:
448,192,40392,1,0,0:0:0:0:
192,192,40554,1,0,0:0:0:0:
320,192,40717,1,0,0:0:0:0:
192,192,40877,1,0,0:0:0:0:
64,192,40879,1,0,0:0:0:0:
320,192,41201,1,0,0:0:0:0:
64,192,41203,1,0,0:0:0:0:
64,192,41527,1,0,0:0:0:0:
448,192,41527,1,0,0:0:0:0:
320,192,41849,1,0,0:0:0:0:
64,192,41852,1,0,0:0:0:0:
64,192,42173,1,0,0:0:0:0:
192,192,42173,1,0,0:0:0:0:
448,192,42338,1,0,0:0:0:0:
192,192,42500,1,0,0:0:0:0:
320,192,42662,1,0,0:0:0:0:
64,192,42824,1,0,0:0:0:0:
320,192,42986,1,0,0:0:0:0:
192,192,43148,1,0,0:0:0:0:
448,192,43311,1,0,0:0:0:0:
64,192,43473,1,0,0:0:0:0:
320,192,43473,1,0,0:0:0:0:
320,192,43635,1,0,0:0:0:0:
192,192,43635,1,0,0:0:0:0:
192,192,43797,1,0,0:0:0:0:
448,192,43797,1,0,0:0:0:0:
64,192,43959,1,0,0:0:0:0:
320,192,43959,1,0,0:0:0:0:
192,192,44121,1,0,0:0:0:0:
320,192,44121,1,0,0:0:0:0:
64,192,44284,1,0,0:0:0:0:
192,192,44446,1,0,0:0:0:0:
320,192,44608,1,0,0:0:0:0:
448,192,44770,128,0,45094:0:0:0:0:
192,192,44932,1,0,0:0:0:0:
64,192,45013,1,0,0:0:0:0:
192,192,45094,1,0,0:0:0:0:
320,192,45257,1,0,0:0:0:0:
448,192,45257,1,0,0:0:0:0:
192,192,45419,1,0,0:0:0:0:
64,192,45581,128,0,46716:0:0:0:0:
320,192,45743,1,0,0:0:0:0:
192,192,45905,128,0,46716:0:0:0:0:
320,192,46067,1,0,0:0:0:0:
448,192,46230,128,0,46716:0:0:0:0:
320,192,46230,1,0,0:0:0:0:
320,192,46392,1,0,0:0:0:0:
320,192,46554,1,0,0:0:0:0:
320,192,46716,1,0,0:0:0:0:
192,192,46878,1,0,0:0:0:0:
448,192,47040,1,0,0:0:0:0:
192,192,47203,1,0,0:0:0:0:
64,192,47365,1,0,0:0:0:0:
320,192,47527,1,0,0:0:0:0:
64,192,47689,1,0,0:0:0:0:
320,192,47851,1,0,0:0:0:0:
192,192,48013,1,0,0:0:0:0:
448,192,48175,1,0,0:0:0:0:
64,192,48176,128,0,48987:0:0:0:0:
192,192,48338,1,0,0:0:0:0:
320,192,48500,1,0,0:0:0:0:
448,192,48500,128,0,48987:0:0:0:0:
192,192,48662,1,0,0:0:0:0:
320,192,48825,1,0,0:0:0:0:
192,192,48986,1,0,0:0:0:0:
320,192,49148,1,0,0:0:0:0:
64,192,49311,1,0,0:0:0:0:
192,192,49473,1,0,0:0:0:0:
64,192,49635,1,0,0:0:0:0:
448,192,49797,1,0,0:0:0:0:
320,192,49959,1,0,0:0:0:0:
448,192,50121,1,0,0:0:0:0:
192,192,50284,1,0,0:0:0:0:
320,192,50284,1,0,0:0:0:0:
192,192,50446,1,0,0:0:0:0:
448,192,50446,1,0,0:0:0:0:
192,192,50608,1,0,0:0:0:0:
64,192,50608,1,0,0:0:0:0:
448,192,50770,1,0,0:0:0:0:
192,192,50770,1,0,0:0:0:0:
448,192,50932,1,0,0:0:0:0:
64,192,50932,1,0,0:0:0:0:
448,192,51094,1,0,0:0:0:0:
192,192,51094,1,0,0:0:0:0:
64,192,51257,1,0,0:0:0:0:
320,192,51257,1,0,0:0:0:0:
64,192,51419,1,0,0:0:0:0:
448,192,51419,1,0,0:0:0:0:
64,192,51581,1,0,0:0:0:0:
192,192,51581,1,0,0:0:0:0:
448,192,51743,1,0,0:0:0:0:
64,192,51743,1,0,0:0:0:0:
448,192,51905,1,0,0:0:0:0:
192,192,51905,1,0,0:0:0:0:
448,192,52067,1,0,0:0:0:0:
320,192,52067,1,0,0:0:0:0:
64,192,52230,1,0,0:0:0:0:
320,192,52230,1,0,0:0:0:0:
192,192,52392,1,0,0:0:0:0:
448,192,52392,1,0,0:0:0:0:
320,192,52554,1,0,0:0:0:0:
64,192,52554,1,0,0:0:0:0:
192,192,52554,1,0,0:0:0:0:
320,192,52717,1,0,0:0:0:0:
448,192,52879,1,0,0:0:0:0:
320,192,53041,1,0,0:0:0:0:
64,192,53122,1,0,0:0:0:0:
448,192,53122,1,0,0:0:0:0:
192,192,53203,1,0,0:0:0:0:
320,192,53365,1,0,0:0:0:0:
64,192,53527,1,0,0:0:0:0:
192,192,53608,1,0,0:0:0:0:
448,192,53690,1,0,0:0:0:0:
320,192,53771,1,0,0:0:0:0:
448,192,53852,1,0,0:0:0:0:
64,192,53852,1,0,0:0:0:0:
320,192,54014,1,0,0:0:0:0:
64,192,54176,1,0,0:0:0:0:
320,192,54176,1,0,0:0:0:0:
320,192,54338,1,0,0:0:0:0:
192,192,54500,1,0,0:0:0:0:
448,192,54500,1,0,0:0:0:0:
64,192,54662,1,0,0:0:0:0:
192,192,54744,1,0,0:0:0:0:
448,192,54825,1,0,0:0:0:0:
192,192,54987,1,0,0:0:0:0:
64,192,55149,1,0,0:0:0:0:
320,192,55149,1,0,0:0:0:0:
320,192,55311,1,0,0:0:0:0:
192,192,55392,1,0,0:0:0:0:
320,192,55473,1,0,0:0:0:0:
64,192,55635,1,0,0:0:0:0:
320,192,55717,1,0,0:0:0:0:
192,192,55798,1,0,0:0:0:0:
448,192,55798,1,0,0:0:0:0:
320,192,55879,1,0,0:0:0:0:
192,192,55960,1,0,0:0:0:0:
448,192,56041,1,0,0:0:0:0:
64,192,56122,1,0,0:0:0:0:
320,192,56122,1,0,0:0:0:0:
192,192,56284,1,0,0:0:0:0:
192,192,56446,1,0,0:0:0:0:
320,192,56446,1,0,0:0:0:0:
320,192,56608,1,0,0:0:0:0:
448,192,56608,1,0,0:0:0:0:
64,192,56771,1,0,0:0:0:0:
320,192,56771,1,0,0:0:0:0:
192,192,56933,1,0,0:0:0:0:
320,192,57014,1,0,0:0:0:0:
64,192,57095,1,0,0:0:0:0:
448,192,57095,1,0,0:0:0:0:
192,192,57257,1,0,0:0:0:0:
320,192,57257,1,0,0:0:0:0:
64,192,57419,1,0,0:0:0:0:
448,192,57419,1,0,0:0:0:0:
320,192,57500,1,0,0:0:0:0:
64,192,57581,1,0,0:0:0:0:
320,192,57662,1,0,0:0:0:0:
192,192,57744,1,0,0:0:0:0:
448,192,57744,1,0,0:0:0:0:
64,192,57906,1,0,0:0:0:0:
448,192,57906,1,0,0:0:0:0:
448,192,58068,1,0,0:0:0:0:
192,192,58068,1,0,0:0:0:0:
448,192,58230,1,0,0:0:0:0:
320,192,58230,1,0,0:0:0:0:
64,192,58392,1,0,0:0:0:0:
448,192,58392,1,0,0:0:0:0:
64,192,58554,1,0,0:0:0:0:
320,192,58554,1,0,0:0:0:0:
192,192,58717,1,0,0:0:0:0:
64,192,58717,1,0,0:0:0:0:
192,192,58879,1,0,0:0:0:0:
320,192,58879,1,0,0:0:0:0:
192,192,59041,1,0,0:0:0:0:
448,192,59041,1,0,0:0:0:0:
192,192,59203,1,0,0:0:0:0:
320,192,59203,1,0,0:0:0:0:
192,192,59365,1,0,0:0:0:0:
64,192,59365,1,0,0:0:0:0:
192,192,59527,1,0,0:0:0:0:
320,192,59527,1,0,0:0:0:0:
320,192,59690,1,0,0:0:0:0:
448,192,59690,1,0,0:0:0:0:
320,192,59852,1,0,0:0:0:0:
192,192,59852,1,0,0:0:0:0:
320,192,60014,1,0,0:0:0:0:
64,192,60014,1,0,0:0:0:0:
448,192,60095,1,0,0:0:0:0:
320,192,60176,1,0,0:0:0:0:
192,192,60176,1,0,0:0:0:0:
64,192,60257,1,0,0:0:0:0:
192,192,60338,1,0,0:0:0:0:
320,192,60419,1,0,0:0:0:0:
448,192,60500,1,0,0:0:0:0:
192,192,60581,1,0,0:0:0:0:
64,192,60662,1,0,0:0:0:0:
320,192,60744,1,0,0:0:0:0:
192,192,60825,1,0,0:0:0:0:
448,192,60987,1,0,0:0:0:0:
320,192,61041,1,0,0:0:0:0:
192,192,61095,1,0,0:0:0:0:
64,192,61149,1,0,0:0:0:0:
192,192,61230,1,0,0:0:0:0:
320,192,61311,1,0,0:0:0:0:
448,192,61392,1,0,0:0:0:0:
192,192,61473,1,0,0:0:0:0:
64,192,61635,1,0,0:0:0:0:
448,192,61635,1,0,0:0:0:0:
192,192,61798,1,0,0:0:0:0:
320,192,61798,1,0,0:0:0:0:
192,192,61960,1,0,0:0:0:0:
320,192,62041,1,0,0:0:0:0:
64,192,62122,1,0,0:0:0:0:
448,192,62203,1,0,0:0:0:0:
192,192,62284,1,0,0:0:0:0:
320,192,62446,1,0,0:0:0:0:
320,192,62608,1,0,0:0:0:0:
64,192,62933,1,0,0:0:0:0:
192,192,62933,1,0,0:0:0:0:
320,192,62933,1,0,0:0:0:0:
448,192,62933,1,0,0:0:0:0:
192,192,63257,1,0,0:0:0:0:
320,192,63257,1,0,0:0:0:0:
192,192,63419,1,0,0:0:0:0:
64,192,63500,1,0,0:0:0:0:
320,192,63581,1,0,0:0:0:0:
448,192,63744,1,0,0:0:0:0:
192,192,63906,1,0,0:0:0:0:
320,192,63987,1,0,0:0:0:0:
64,192,64068,1,0,0:0:0:0:
448,192,64149,1,0,0:0:0:0:
320,192,64230,1,0,0:0:0:0:
192,192,64392,1,0,0:0:0:0:
320,192,64473,1,0,0:0:0:0:
64,192,64554,1,0,0:0:0:0:
448,192,64717,1,0,0:0:0:0:
192,192,64879,1,0,0:0:0:0:
64,192,65203,1,0,0:0:0:0:
192,192,65203,1,0,0:0:0:0:
320,192,65203,1,0,0:0:0:0:
448,192,65203,1,0,0:0:0:0:
192,192,65527,1,0,0:0:0:0:
320,192,65527,1,0,0:0:0:0:
192,192,65852,1,0,0:0:0:0:
448,192,65933,1,0,0:0:0:0:
64,192,66014,1,0,0:0:0:0:
192,192,66095,1,0,0:0:0:0:
320,192,66176,1,0,0:0:0:0:
64,192,66338,1,0,0:0:0:0:
448,192,66419,1,0,0:0:0:0:
192,192,66500,1,0,0:0:0:0:
64,192,66581,1,0,0:0:0:0:
320,192,66662,1,0,0:0:0:0:
64,192,66825,1,0,0:0:0:0:
448,192,66825,1,0,0:0:0:0:
192,192,66987,1,0,0:0:0:0:
320,192,67068,1,0,0:0:0:0:
64,192,67149,1,0,0:0:0:0:
448,192,67149,1,0,0:0:0:0:
192,192,67311,1,0,0:0:0:0:
448,192,67473,1,0,0:0:0:0:
64,192,67473,1,0,0:0:0:0:
320,192,67554,1,0,0:0:0:0:
192,192,67635,1,0,0:0:0:0:
64,192,67635,1,0,0:0:0:0:
320,192,67717,1,0,0:0:0:0:
64,192,67798,1,0,0:0:0:0:
192,192,67798,1,0,0:0:0:0:
64,192,68122,1,0,0:0:0:0:
448,192,68122,1,0,0:0:0:0:
320,192,68446,1,0,0:0:0:0:
192,192,68527,1,0,0:0:0:0:
64,192,68608,1,0,0:0:0:0:
192,192,68690,1,0,0:0:0:0:
320,192,68771,1,0,0:0:0:0:
448,192,68933,1,0,0:0:0:0:
192,192,69014,1,0,0:0:0:0:
320,192,69095,1,0,0:0:0:0:
64,192,69095,1,0,0:0:0:0:
448,192,69176,1,0,0:0:0:0:
320,192,69257,1,0,0:0:0:0:
448,192,69338,1,0,0:0:0:0:
64,192,69419,1,0,0:0:0:0:
320,192,69581,1,0,0:0:0:0:
192,192,69662,1,0,0:0:0:0:
320,192,69744,1,0,0:0:0:0:
64,192,69906,1,0,0:0:0:0:
448,192,70068,1,0,0:0:0:0:
64,192,70392,1,0,0:0:0:0:
448,192,70392,1,0,0:0:0:0:
192,192,70392,1,0,0:0:0:0:
320,192,70392,1,0,0:0:0:0:
192,192,70717,1,0,0:0:0:0:
320,192,70717,1,0,0:0:0:0:
64,192,71041,1,0,0:0:0:0:
192,192,71122,1,0,0:0:0:0:
320,192,71203,1,0,0:0:0:0:
448,192,71284,1,0,0:0:0:0:
320,192,71365,1,0,0:0:0:0:
64,192,71365,1,0,0:0:0:0:
192,192,71527,1,0,0:0:0:0:
448,192,71527,1,0,0:0:0:0:
320,192,71690,1,0,0:0:0:0:
64,192,71771,1,0,0:0:0:0:
192,192,71852,1,0,0:0:0:0:
320,192,72014,1,0,0:0:0:0:
448,192,72014,1,0,0:0:0:0:
192,192,72176,1,0,0:0:0:0:
64,192,72338,1,0,0:0:0:0:
320,192,72338,1,0,0:0:0:0:
448,192,72500,1,0,0:0:0:0:
64,192,72662,1,0,0:0:0:0:
192,192,72662,1,0,0:0:0:0:
192,192,72825,1,0,0:0:0:0:
320,192,72825,1,0,0:0:0:0:
192,192,72987,1,0,0:0:0:0:
448,192,72987,1,0,0:0:0:0:
192,192,73149,1,0,0:0:0:0:
64,192,73149,1,0,0:0:0:0:
320,192,73311,1,0,0:0:0:0:
448,192,73311,1,0,0:0:0:0:
64,192,73311,1,0,0:0:0:0:
320,192,73635,1,0,0:0:0:0:
64,192,73717,1,0,0:0:0:0:
192,192,73798,1,0,0:0:0:0:
448,192,73879,1,0,0:0:0:0:
320,192,73960,1,0,0:0:0:0:
64,192,74122,1,0,0:0:0:0:
448,192,74203,1,0,0:0:0:0:
64,192,74284,1,0,0:0:0:0:
192,192,74365,1,0,0:0:0:0:
320,192,74446,1,0,0:0:0:0:
192,192,74527,1,0,0:0:0:0:
64,192,74608,1,0,0:0:0:0:
448,192,74608,1,0,0:0:0:0:
192,192,74771,1,0,0:0:0:0:
320,192,74852,1,0,0:0:0:0:
192,192,74933,1,0,0:0:0:0:
64,192,75095,1,0,0:0:0:0:
192,192,75257,1,0,0:0:0:0:
448,192,75257,1,0,0:0:0:0:
64,192,75581,1,0,0:0:0:0:
448,192,75581,1,0,0:0:0:0:
192,192,75581,1,0,0:0:0:0:
192,192,75906,1,0,0:0:0:0:
320,192,75906,1,0,0:0:0:0:
64,192,76230,1,0,0:0:0:0:
192,192,76311,1,0,0:0:0:0:
320,192,76392,1,0,0:0:0:0:
192,192,76473,1,0,0:0:0:0:
320,192,76554,1,0,0:0:0:0:
64,192,76717,1,0,0:0:0:0:
192,192,76798,1,0,0:0:0:0:
448,192,76879,1,0,0:0:0:0:
320,192,76960,1,0,0:0:0:0:
192,192,77041,1,0,0:0:0:0:
320,192,77122,1,0,0:0:0:0:
448,192,77203,1,0,0:0:0:0:
192,192,77203,1,0,0:0:0:0:
64,192,77284,1,0,0:0:0:0:
192,192,77365,1,0,0:0:0:0:
448,192,77527,1,0,0:0:0:0:
192,192,77527,1,0,0:0:0:0:
448,192,77690,1,0,0:0:0:0:
192,192,77690,1,0,0:0:0:0:
320,192,77771,1,0,0:0:0:0:
64,192,77852,1,0,0:0:0:0:
192,192,77852,1,0,0:0:0:0:
320,192,77933,1,0,0:0:0:0:
448,192,78014,1,0,0:0:0:0:
192,192,78014,1,0,0:0:0:0:
64,192,78095,1,0,0:0:0:0:
192,192,78176,1,0,0:0:0:0:
448,192,78176,1,0,0:0:0:0:
64,192,78500,1,0,0:0:0:0:
192,192,78500,1,0,0:0:0:0:
448,192,78500,1,0,0:0:0:0:
320,192,78825,1,0,0:0:0:0:
64,192,78906,1,0,0:0:0:0:
192,192,78987,1,0,0:0:0:0:
448,192,79068,1,0,0:0:0:0:
320,192,79149,1,0,0:0:0:0:
64,192,79311,1,0,0:0:0:0:
192,192,79392,1,0,0:0:0:0:
320,192,79392,1,0,0:0:0:0:
64,192,79473,1,0,0:0:0:0:
448,192,79473,1,0,0:0:0:0:
192,192,79554,1,0,0:0:0:0:
320,192,79635,1,0,0:0:0:0:
64,192,79717,1,0,0:0:0:0:
448,192,79798,1,0,0:0:0:0:
192,192,79798,1,0,0:0:0:0:
320,192,79960,1,0,0:0:0:0:
448,192,79960,1,0,0:0:0:0:
192,192,80041,1,0,0:0:0:0:
448,192,80041,1,0,0:0:0:0:
64,192,80122,1,0,0:0:0:0:
448,192,80122,1,0,0:0:0:0:
192,192,80284,5,0,0:0:0:0:
192,192,80446,1,0,0:0:0:0:
320,192,80446,1,0,0:0:0:0:
64,192,80771,5,0,0:0:0:0:
192,192,80825,1,0,0:0:0:0:
320,192,80879,1,0,0:0:0:0:
448,192,80933,1,0,0:0:0:0:
320,192,80987,1,0,0:0:0:0:
192,192,81041,1,0,0:0:0:0:
64,192,81095,1,0,0:0:0:0:
448,192,81095,1,0,0:0:0:0:
64,192,81419,1,0,0:0:0:0:
192,192,81500,1,0,0:0:0:0:
64,192,81581,1,0,0:0:0:0:
448,192,81662,1,0,0:0:0:0:
320,192,81744,1,0,0:0:0:0:
448,192,81825,1,0,0:0:0:0:
64,192,81906,1,0,0:0:0:0:
192,192,81987,1,0,0:0:0:0:
320,192,82068,1,0,0:0:0:0:
192,192,82149,1,0,0:0:0:0:
320,192,82230,1,0,0:0:0:0:
448,192,82311,1,0,0:0:0:0:
64,192,82392,1,0,0:0:0:0:
192,192,82392,1,0,0:0:0:0:
192,192,82554,1,0,0:0:0:0:
320,192,82717,1,0,0:0:0:0:
448,192,82717,1,0,0:0:0:0:
448,192,82879,1,0,0:0:0:0:
64,192,83041,1,0,0:0:0:0:
192,192,83122,1,0,0:0:0:0:
448,192,83203,1,0,0:0:0:0:
320,192,83365,1,0,0:0:0:0:
64,192,83527,1,0,0:0:0:0:
192,192,83690,1,0,0:0:0:0:
448,192,83690,1,0,0:0:0:0:
320,192,83771,1,0,0:0:0:0:
64,192,83933,1,0,0:0:0:0:
192,192,84014,1,0,0:0:0:0:
320,192,84176,1,0,0:0:0:0:
448,192,84338,1,0,0:0:0:0:
320,192,84419,1,0,0:0:0:0:
192,192,84500,1,0,0:0:0:0:
64,192,84581,1,0,0:0:0:0:
192,192,84662,1,0,0:0:0:0:
64,192,84744,1,0,0:0:0:0:
192,192,84825,1,0,0:0:0:0:
320,192,84906,1,0,0:0:0:0:
448,192,84987,1,0,0:0:0:0:
320,192,85068,1,0,0:0:0:0:
192,192,85149,1,0,0:0:0:0:
320,192,85230,1,0,0:0:0:0:
192,192,85311,1,0,0:0:0:0:
64,192,85392,1,0,0:0:0:0:
192,192,85473,1,0,0:0:0:0:
320,192,85554,1,0,0:0:0:0:
448,192,85635,1,0,0:0:0:0:
320,192,85717,1,0,0:0:0:0:
448,192,85798,1,0,0:0:0:0:
320,192,85879,1,0,0:0:0:0:
192,192,85960,1,0,0:0:0:0:
64,192,85960,1,0,0:0:0:0:
64,192,86284,1,0,0:0:0:0:
448,192,86284,1,0,0:0:0:0:
192,192,86446,1,0,0:0:0:0:
320,192,86527,1,0,0:0:0:0:
448,192,86608,1,0,0:0:0:0:
320,192,86771,1,0,0:0:0:0:
192,192,86852,1,0,0:0:0:0:
64,192,86933,1,0,0:0:0:0:
192,192,87014,1,0,0:0:0:0:
64,192,87095,1,0,0:0:0:0:
192,192,87176,1,0,0:0:0:0:
320,192,87257,1,0,0:0:0:0:
448,192,87338,1,0,0:0:0:0:
320,192,87419,1,0,0:0:0:0:
192,192,87500,1,0,0:0:0:0:
320,192,87581,1,0,0:0:0:0:
64,192,87662,1,0,0:0:0:0:
448,192,87744,1,0,0:0:0:0:
192,192,87825,1,0,0:0:0:0:
64,192,87906,1,0,0:0:0:0:
192,192,87987,1,0,0:0:0:0:
64,192,88068,1,0,0:0:0:0:
192,192,88149,1,0,0:0:0:0:
64,192,88230,1,0,0:0:0:0:
320,192,88311,1,0,0:0:0:0:
448,192,88392,1,0,0:0:0:0:
192,192,88473,1,0,0:0:0:0:
64,192,88554,1,0,0:0:0:0:
448,192,88554,1,0,0:0:0:0:
192,192,88717,1,0,0:0:0:0:
320,192,88717,1,0,0:0:0:0:
64,192,88879,1,0,0:0:0:0:
192,192,88879,1,0,0:0:0:0:
320,192,89041,1,0,0:0:0:0:
448,192,89122,1,0,0:0:0:0:
64,192,89203,1,0,0:0:0:0:
192,192,89284,1,0,0:0:0:0:
64,192,89365,1,0,0:0:0:0:
320,192,89446,1,0,0:0:0:0:
448,192,89527,1,0,0:0:0:0:
64,192,89608,1,0,0:0:0:0:
192,192,89690,1,0,0:0:0:0:
448,192,89771,1,0,0:0:0:0:
320,192,89852,1,0,0:0:0:0:
448,192,89933,1,0,0:0:0:0:
64,192,90014,1,0,0:0:0:0:
192,192,90095,1,0,0:0:0:0:
320,192,90176,1,0,0:0:0:0:
448,192,90257,1,0,0:0:0:0:
192,192,90257,1,0,0:0:0:0:
320,192,90338,1,0,0:0:0:0:
192,192,90419,1,0,0:0:0:0:
448,192,90419,1,0,0:0:0:0:
64,192,90500,1,0,0:0:0:0:
320,192,90500,1,0,0:0:0:0:
192,192,90581,1,0,0:0:0:0:
320,192,90662,1,0,0:0:0:0:
64,192,90662,1,0,0:0:0:0:
448,192,90744,1,0,0:0:0:0:
320,192,90825,1,0,0:0:0:0:
192,192,90906,1,0,0:0:0:0:
64,192,90987,1,0,0:0:0:0:
192,192,91068,1,0,0:0:0:0:
64,192,91149,1,0,0:0:0:0:
64,192,91473,1,0,0:0:0:0:
448,192,91473,1,0,0:0:0:0:
192,192,91554,1,0,0:0:0:0:
320,192,91635,1,0,0:0:0:0:
192,192,91717,1,0,0:0:0:0:
320,192,91798,1,0,0:0:0:0:
192,192,91879,1,0,0:0:0:0:
64,192,91960,1,0,0:0:0:0:
448,192,92041,1,0,0:0:0:0:
192,192,92122,1,0,0:0:0:0:
320,192,92122,1,0,0:0:0:0:
64,192,92203,1,0,0:0:0:0:
448,192,92284,1,0,0:0:0:0:
64,192,92365,1,0,0:0:0:0:
448,192,92446,1,0,0:0:0:0:
320,192,92527,1,0,0:0:0:0:
192,192,92608,1,0,0:0:0:0:
320,192,92690,1,0,0:0:0:0:
64,192,92771,1,0,0:0:0:0:
320,192,92852,1,0,0:0:0:0:
448,192,92933,1,0,0:0:0:0:
192,192,93014,1,0,0:0:0:0:
64,192,93095,1,0,0:0:0:0:
192,192,93176,1,0,0:0:0:0:
64,192,93257,1,0,0:0:0:0:
320,192,93338,1,0,0:0:0:0:
448,192,93419,1,0,0:0:0:0:
192,192,93419,1,0,0:0:0:0:
448,192,93500,1,0,0:0:0:0:
448,192,93581,1,0,0:0:0:0:
448,192,93662,1,0,0:0:0:0:
448,192,93744,1,0,0:0:0:0:
320,192,93744,1,0,0:0:0:0:
