osu file format v14

[General]
AudioFilename: audio.mp3
AudioLeadIn: 0
PreviewTime: 61617
Countdown: 0
SampleSet: Soft
StackLeniency: 0.7
Mode: 3
LetterboxInBreaks: 0
SpecialStyle: 0
WidescreenStoryboard: 1

[Editor]
Bookmarks: 1273,5489,11003,16192,21381,31760,42138,52516,70516,86084
DistanceSpacing: 1
BeatDivisor: 4
GridSize: 32
TimelineZoom: 1.800005

[Metadata]
Title:TSLove
TitleUnicode:TSLove
Artist:O2i3
ArtistUnicode:O2i3
Creator:[_Chichinya_]
Version:ManiaLove [NO SV]
Source:
Tags:Melanie Friggy-chan kqrth DDM Hi_Hello 404 AccNotFound FlamingRok Dargin Cyoris210 BlackWolf159 Yuno Taikocracy Prancer agu gamerock Nifty Lno Nepuri Raphalge frukoyurdakul Cyssel Unmei Muma Q____X Vulkin JessiChan iContol Chocola_2287 AezLack _yu68 zigizigiefe Grimbow
BeatmapID:1189209
BeatmapSetID:549370

[Difficulty]
HPDrainRate:5
CircleSize:4
OverallDifficulty:7
ApproachRate:9
SliderMultiplier:1.5042328936501
SliderTickRate:1

[Events]
//Background and Video events
0,0,"Mermaid-Anime-HD-Wallpapers.jpg",0,0
//Break Periods
//Storyboard Layer 0 (Background)
//Storyboard Layer 1 (Fail)
//Storyboard Layer 2 (Pass)
//Storyboard Layer 3 (Foreground)
//Storyboard Sound Samples

[TimingPoints]
645,324.324324324324,4,2,1,100,1,0
16861,-100,4,2,1,100,0,0
17509,-100,4,2,1,100,0,0
20185,-100,4,2,1,100,0,0
21239,-100,4,2,1,100,0,0
21401,-100,4,2,1,100,0,1
21726,-100,4,2,1,100,0,1
23672,-100,4,2,1,100,0,0
23753,-100,4,2,1,100,0,0
23834,-100,4,2,1,100,0,0
23996,-100,4,2,1,100,0,1
26104,-100,4,2,1,100,0,1
26266,-100,4,2,1,100,0,0
26347,-100,4,2,1,100,0,0
26428,-100,4,2,1,100,0,0
26590,-100,4,2,1,100,0,1
28860,-100,4,2,1,100,0,0
28942,-100,4,2,1,100,0,0
29023,-100,4,2,1,100,0,0
29185,-100,4,2,1,100,0,1
30482,-100,4,2,1,100,0,0
30807,-100,4,2,1,100,0,0
31131,-100,4,2,1,100,0,0
31293,-100,4,2,1,100,0,0
31455,-100,4,2,1,100,0,0
31779,-100,4,2,1,100,0,1
31780,-100,4,2,1,100,0,1
31861,-100,4,2,1,100,0,1
31942,-100,4,2,1,100,0,1
32428,-100,4,2,1,100,0,1
34049,-100,4,2,1,100,0,0
34131,-100,4,2,1,100,0,0
34212,-100,4,2,1,100,0,0
34373,-100,4,2,1,100,0,1
35996,-100,4,2,1,100,0,1
36643,-100,4,2,1,100,0,0
36644,-100,4,2,1,100,0,0
36807,-100,4,2,1,100,0,0
36968,-100,4,2,1,100,0,1
37617,-100,4,2,1,100,0,1
39238,-100,4,2,1,100,0,1
39320,-100,4,2,1,100,0,1
39401,-100,4,2,1,100,0,1
39562,-100,4,2,1,100,0,1
40859,-100,4,2,1,100,0,1
41185,-100,4,2,1,100,0,1
41509,-100,4,2,1,100,0,1
41834,-100,4,2,1,100,0,1
42158,-100,4,2,1,100,0,0
42320,-100,4,2,1,100,0,0
42482,-100,4,2,1,100,0,0
42644,-100,4,2,1,100,0,0
52212,-100,4,2,1,100,0,0
52374,-100,4,2,1,100,0,0
52536,-100,4,2,1,100,0,0
56428,-100,4,2,1,100,0,0
57077,-100,4,2,1,100,0,0
57726,-100,4,2,1,100,0,0
59023,-100,4,2,1,100,0,0
60320,-100,4,2,1,100,0,0
61617,-100,4,2,1,100,0,0
61699,-100,4,2,1,100,0,0
61780,-100,4,2,1,100,0,0
61861,-100,4,2,1,100,0,0
61942,-100,4,2,1,100,0,0
62185,-100,4,2,1,100,0,0
62266,-100,4,2,1,100,0,0
62590,-100,4,2,1,100,0,0
62914,-100,4,2,1,100,0,1
62996,-100,4,2,1,100,0,1
63077,-100,4,2,1,100,0,1
63239,-100,4,2,1,100,0,1
65184,-100,4,2,1,100,0,0
65266,-100,4,2,1,100,0,0
65347,-100,4,2,1,100,0,0
65508,-100,4,2,1,100,0,1
65509,-100,4,2,1,100,0,1
67616,-100,4,2,1,100,0,1
67699,-100,4,2,1,100,0,1
67780,-100,4,2,1,100,0,1
67942,-100,4,2,1,100,0,1
68102,-100,4,2,1,100,0,1
70377,-100,4,2,1,100,0,1
70455,-100,4,2,1,100,0,1
70536,-100,4,2,1,100,0,1
70696,-100,4,2,1,100,0,1
71995,-100,4,2,1,100,0,1
72157,-100,4,2,1,100,0,1
72319,-100,4,2,1,100,0,1
72481,-100,4,2,1,100,0,1
72644,-100,4,2,1,100,0,1
72807,-100,4,2,1,100,0,1
72969,-100,4,2,1,100,0,1
73291,-100,4,2,1,100,0,1
75566,-100,4,2,1,100,0,1
75644,-100,4,2,1,100,0,1
75726,-100,4,2,1,100,0,1
75885,-100,4,2,1,100,0,1
75888,-100,4,2,1,100,0,1
77993,-100,4,2,1,100,0,1
78077,-100,4,2,1,100,0,1
78158,-100,4,2,1,100,0,1
78239,-100,4,2,1,100,0,1
78320,-100,4,2,1,100,0,1
78479,-100,4,2,1,100,0,1
80753,-100,4,2,1,100,0,1
80807,-100,4,2,1,100,0,1
80861,-100,4,2,1,100,0,1
80915,-100,4,2,1,100,0,1
80969,-100,4,2,1,100,0,1
81023,-100,4,2,1,100,0,1
81077,-100,4,2,1,100,0,1
82379,-100,4,2,1,100,0,1
82536,-100,4,2,1,100,0,1
82698,-100,4,2,1,100,0,1
82698,-100,4,2,1,100,0,1
82860,-100,4,2,1,100,0,1
83022,-100,4,2,1,100,0,0
83022,-100,4,2,1,100,0,0
83184,-100,4,2,1,100,0,0
83346,-100,4,2,1,100,0,0
83670,-100,4,2,1,100,0,0
86264,-100,4,2,1,100,0,0
88535,-100,4,2,1,100,0,0
88859,-100,4,2,1,100,0,0
91454,-100,4,2,1,100,0,0
92427,-100,4,2,1,100,0,0
92481,-100,4,2,1,100,0,0
92535,-100,4,2,1,100,0,0
92589,-100,4,2,1,100,0,0
92670,-100,4,2,1,100,0,0
92751,-100,4,2,1,100,0,0
92832,-100,4,2,1,100,0,0
92913,-100,4,2,1,100,0,0
92994,-100,4,2,1,100,0,0
93075,-100,4,2,1,100,0,0
93156,-100,4,2,1,100,0,0
93237,-100,4,2,1,100,0,0
93318,-100,4,2,1,100,0,0
93400,-100,4,2,1,100,0,0
93481,-100,4,2,1,100,0,0
93562,-100,4,2,1,100,0,0
93643,-100,4,2,1,100,0,0
93724,-100,4,2,1,100,0,0

[Colours]
Combo1 : 133,24,82
Combo2 : 96,61,99
Combo3 : 252,143,143
Combo4 : 234,69,21

[HitObjects]
64,192,645,5,0,0:0:0:0:
320,192,807,1,0,0:0:0:0:
192,192,969,1,8,0:0:0:0:
448,192,1131,1,0,0:0:0:0:
64,192,1212,1,0,0:0:0:0:
448,192,1293,1,0,0:0:0:0:
192,192,1455,1,0,0:0:0:0:
448,192,1617,1,8,0:0:0:0:
64,192,1780,1,0,0:0:0:0:
320,192,1942,1,0,0:0:0:0:
192,192,2104,1,0,0:0:0:0:
320,192,2266,1,8,0:0:0:0:
64,192,2428,1,0,0:0:0:0:
320,192,2509,1,0,0:0:0:0:
448,192,2590,1,0,0:0:0:0:
320,192,2753,1,0,0:0:0:0:
64,192,2915,1,8,0:0:0:0:
192,192,3077,1,0,0:0:0:0:
320,192,3239,1,0,0:0:0:0:
448,192,3401,1,0,0:0:0:0:
320,192,3563,1,8,0:0:0:0:
448,192,3726,1,0,0:0:0:0:
320,192,3807,1,0,0:0:0:0:
64,192,3888,1,0,0:0:0:0:
192,192,4050,1,0,0:0:0:0:
64,192,4212,1,8,0:0:0:0:
320,192,4374,1,0,0:0:0:0:
192,192,4536,1,0,0:0:0:0:
320,192,4699,1,0,0:0:0:0:
448,192,4861,1,8,0:0:0:0:
192,192,5023,1,0,0:0:0:0:
320,192,5104,1,0,0:0:0:0:
64,192,5185,1,0,0:0:0:0:
320,192,5347,1,0,0:0:0:0:
448,192,5509,1,8,0:0:0:0:
320,192,5590,1,0,0:0:0:0:
448,192,5672,1,0,0:0:0:0:
64,192,5753,1,0,0:0:0:0:
192,192,5834,1,8,0:0:0:0:
448,192,5996,1,0,0:0:0:0:
192,192,6158,1,8,0:0:0:0:
320,192,6320,1,0,0:0:0:0:
64,192,6401,1,0,0:0:0:0:
448,192,6482,1,0,0:0:0:0:
64,192,6644,1,0,0:0:0:0:
192,192,6726,1,0,0:0:0:0:
320,192,6807,1,8,0:0:0:0:
64,192,6969,1,0,0:0:0:0:
192,192,7131,1,0,0:0:0:0:
448,192,7293,1,0,0:0:0:0:
192,192,7455,1,8,0:0:0:0:
320,192,7617,1,0,0:0:0:0:
192,192,7699,1,0,0:0:0:0:
64,192,7780,1,0,0:0:0:0:
320,192,7942,1,0,0:0:0:0:
192,192,8104,1,8,0:0:0:0:
64,192,8266,1,0,0:0:0:0:
192,192,8347,1,0,0:0:0:0:
320,192,8428,1,0,0:0:0:0:
192,192,8590,1,0,0:0:0:0:
192,192,8753,1,8,0:0:0:0:
320,192,8915,1,0,0:0:0:0:
192,192,8996,1,0,0:0:0:0:
320,192,9077,1,0,0:0:0:0:
448,192,9239,1,0,0:0:0:0:
448,192,9401,1,8,0:0:0:0:
64,192,9563,1,0,0:0:0:0:
192,192,9644,1,0,0:0:0:0:
64,192,9726,1,0,0:0:0:0:
192,192,9888,1,0,0:0:0:0:
320,192,9888,1,0,0:0:0:0:
448,192,9969,1,0,0:0:0:0:
192,192,10050,1,8,0:0:0:0:
320,192,10050,1,8,0:0:0:0:
320,192,10212,1,0,0:0:0:0:
448,192,10212,1,0,0:0:0:0:
192,192,10293,1,0,0:0:0:0:
320,192,10374,1,0,0:0:0:0:
448,192,10374,1,0,0:0:0:0:
320,192,10536,1,0,0:0:0:0:
192,192,10536,1,0,0:0:0:0:
64,192,10617,1,0,0:0:0:0:
320,192,10699,1,8,0:0:0:0:
192,192,10699,1,8,0:0:0:0:
448,192,10780,1,0,0:0:0:0:
64,192,10861,1,0,0:0:0:0:
192,192,10861,1,0,0:0:0:0:
320,192,10942,1,0,0:0:0:0:
64,192,11023,1,0,0:0:0:0:
448,192,11023,1,0,0:0:0:0:
192,192,11023,1,0,0:0:0:0:
192,192,11185,1,0,0:0:0:0:
448,192,11347,1,8,0:0:0:0:
320,192,11509,1,0,0:0:0:0:
448,192,11590,1,0,0:0:0:0:
64,192,11753,1,0,0:0:0:0:
192,192,11834,1,0,0:0:0:0:
448,192,11996,1,8,0:0:0:0:
320,192,12077,1,0,0:0:0:0:
448,192,12158,1,0,0:0:0:0:
192,192,12239,1,0,0:0:0:0:
64,192,12320,1,0,0:0:0:0:
320,192,12482,1,0,0:0:0:0:
448,192,12644,1,8,0:0:0:0:
64,192,12807,1,0,0:0:0:0:
192,192,12888,1,0,0:0:0:0:
448,192,13050,1,0,0:0:0:0:
320,192,13131,1,0,0:0:0:0:
192,192,13293,1,8,0:0:0:0:
448,192,13293,1,8,0:0:0:0:
320,192,13374,1,0,0:0:0:0:
64,192,13455,1,0,0:0:0:0:
448,192,13536,1,0,0:0:0:0:
192,192,13617,1,0,0:0:0:0:
320,192,13780,1,0,0:0:0:0:
192,192,13942,1,8,0:0:0:0:
192,192,14104,1,0,0:0:0:0:
320,192,14185,1,0,0:0:0:0:
192,192,14266,1,0,0:0:0:0:
64,192,14347,1,0,0:0:0:0:
192,192,14428,1,0,0:0:0:0:
448,192,14428,1,0,0:0:0:0:
320,192,14590,1,8,0:0:0:0:
64,192,14590,1,8,0:0:0:0:
192,192,14753,1,0,0:0:0:0:
320,192,14834,1,0,0:0:0:0:
448,192,14915,1,0,0:0:0:0:
64,192,14915,1,0,0:0:0:0:
192,192,15077,1,0,0:0:0:0:
320,192,15239,1,8,0:0:0:0:
448,192,15239,1,8,0:0:0:0:
192,192,15401,1,0,0:0:0:0:
448,192,15482,1,0,0:0:0:0:
64,192,15563,1,0,0:0:0:0:
320,192,15563,1,0,0:0:0:0:
320,192,15726,1,0,0:0:0:0:
192,192,15888,1,8,0:0:0:0:
448,192,15888,1,0,0:0:0:0:
64,192,16050,1,0,0:0:0:0:
192,192,16212,1,8,0:0:0:0:
320,192,16212,1,8,0:0:0:0:
448,192,16212,1,8,0:0:0:0:
64,192,16374,1,8,0:0:0:0:
192,192,16374,1,8,0:0:0:0:
320,192,16374,1,8,0:0:0:0:
192,192,16536,1,8,0:0:0:0:
320,192,16536,1,8,0:0:0:0:
448,192,16536,1,8,0:0:0:0:
192,192,16699,1,8,0:0:0:0:
320,192,16699,1,8,0:0:0:0:
192,192,16861,1,8,0:0:0:0:
64,192,16861,1,8,0:0:0:0:
320,192,17023,1,8,0:0:0:0:
448,192,17023,1,8,0:0:0:0:
64,192,17185,1,8,0:0:0:0:
320,192,17185,1,8,0:0:0:0:
192,192,17185,1,8,0:0:0:0:
320,192,17347,1,8,0:0:0:0:
448,192,17347,1,8,0:0:0:0:
320,192,17509,1,8,0:0:0:0:
192,192,17509,1,8,0:0:0:0:
64,192,17672,1,8,0:0:0:0:
192,192,17672,1,8,0:0:0:0:
320,192,17834,1,8,0:0:0:0:
448,192,17834,1,8,0:0:0:0:
64,192,17996,1,8,0:0:0:0:
320,192,17996,1,8,0:0:0:0:
448,192,17996,1,8,0:0:0:0:
64,192,18158,1,8,0:0:0:0:
192,192,18158,1,8,0:0:0:0:
448,192,18158,1,8,0:0:0:0:
192,192,18320,1,8,0:0:0:0:
320,192,18320,1,8,0:0:0:0:
448,192,18320,1,8,0:0:0:0:
64,192,18482,1,8,0:0:0:0:
192,192,18482,1,8,0:0:0:0:
320,192,18482,1,8,0:0:0:0:
192,192,18644,1,8,0:0:0:0:
448,192,18644,1,8,0:0:0:0:
64,192,18807,1,8,0:0:0:0:
320,192,18807,1,8,0:0:0:0:
192,192,18888,1,8,0:0:0:0:
320,192,18969,1,8,0:0:0:0:
192,192,19050,1,8,0:0:0:0:
320,192,19131,1,8,0:0:0:0:
448,192,19212,1,8,0:0:0:0:
320,192,19293,1,8,0:0:0:0:
192,192,19374,1,8,0:0:0:0:
64,192,19455,1,8,0:0:0:0:
192,192,19509,1,8,0:0:0:0:
320,192,19563,1,8,0:0:0:0:
448,192,19617,1,8,0:0:0:0:
64,192,19699,1,8,0:0:0:0:
320,192,19780,1,8,0:0:0:0:
448,192,19861,1,8,0:0:0:0:
64,192,19861,1,8,0:0:0:0:
192,192,19942,1,8,0:0:0:0:
448,192,20023,1,8,0:0:0:0:
64,192,20104,128,12,21401:0:0:0:0:
320,192,20104,128,12,21401:0:0:0:0:
192,192,21401,1,4,0:0:0:0:
448,192,21401,1,4,0:0:0:0:
64,192,21726,1,8,0:0:0:0:
448,192,21726,1,8,0:0:0:0:
192,192,21807,1,0,0:0:0:0:
320,192,21888,1,0,0:0:0:0:
448,192,21969,1,0,0:0:0:0:
64,192,22050,1,0,0:0:0:0:
192,192,22131,1,0,0:0:0:0:
448,192,22212,1,0,0:0:0:0:
320,192,22293,1,0,0:0:0:0:
64,192,22374,1,8,0:0:0:0:
448,192,22374,1,8,0:0:0:0:
192,192,22455,1,0,0:0:0:0:
320,192,22536,1,0,0:0:0:0:
192,192,22617,1,0,0:0:0:0:
448,192,22699,1,0,0:0:0:0:
64,192,22699,1,0,0:0:0:0:
192,192,22861,1,0,0:0:0:0:
320,192,22942,1,0,0:0:0:0:
192,192,23023,1,8,0:0:0:0:
64,192,23185,1,0,0:0:0:0:
448,192,23347,1,0,0:0:0:0:
192,192,23347,1,0,0:0:0:0:
64,192,23672,128,12,23996:0:0:0:0:
448,192,23672,128,12,23996:0:0:0:0:
192,192,23996,1,4,0:0:0:0:
320,192,23996,1,4,0:0:0:0:
192,192,24320,1,8,0:0:0:0:
320,192,24401,1,0,0:0:0:0:
448,192,24482,1,0,0:0:0:0:
320,192,24563,1,0,0:0:0:0:
64,192,24644,1,0,0:0:0:0:
448,192,24644,1,0,0:0:0:0:
448,192,24806,1,0,0:0:0:0:
192,192,24806,1,0,0:0:0:0:
64,192,24887,1,0,0:0:0:0:
192,192,24968,1,8,0:0:0:0:
320,192,25050,1,0,0:0:0:0:
192,192,25131,1,0,0:0:0:0:
64,192,25212,1,0,0:0:0:0:
192,192,25293,1,0,0:0:0:0:
448,192,25293,1,0,0:0:0:0:
64,192,25374,1,0,0:0:0:0:
320,192,25455,1,0,0:0:0:0:
192,192,25536,1,0,0:0:0:0:
320,192,25617,1,8,0:0:0:0:
448,192,25698,1,0,0:0:0:0:
64,192,25779,1,0,0:0:0:0:
192,192,25779,1,0,0:0:0:0:
320,192,25860,1,0,0:0:0:0:
448,192,25941,1,0,0:0:0:0:
64,192,25941,1,0,0:0:0:0:
64,192,26104,1,0,0:0:0:0:
448,192,26104,1,0,0:0:0:0:
448,192,26266,128,12,26590:0:0:0:0:
192,192,26266,128,12,26590:0:0:0:0:
64,192,26590,1,4,0:0:0:0:
320,192,26590,1,4,0:0:0:0:
448,192,26915,1,8,0:0:0:0:
320,192,26995,1,0,0:0:0:0:
192,192,27076,1,0,0:0:0:0:
64,192,27238,1,0,0:0:0:0:
320,192,27400,1,0,0:0:0:0:
448,192,27481,1,0,0:0:0:0:
320,192,27562,1,8,0:0:0:0:
192,192,27644,1,0,0:0:0:0:
448,192,27644,1,0,0:0:0:0:
320,192,27725,1,0,0:0:0:0:
64,192,27725,1,0,0:0:0:0:
192,192,27806,1,0,0:0:0:0:
320,192,27887,1,0,0:0:0:0:
448,192,28049,1,0,0:0:0:0:
64,192,28049,1,0,0:0:0:0:
192,192,28130,1,0,0:0:0:0:
320,192,28130,1,0,0:0:0:0:
64,192,28211,1,0,0:0:0:0:
448,192,28211,1,0,0:0:0:0:
192,192,28373,1,0,0:0:0:0:
320,192,28373,1,0,0:0:0:0:
64,192,28536,128,8,28861:0:0:0:0:
448,192,28861,128,12,29185:0:0:0:0:
192,192,29185,1,12,0:0:0:0:
320,192,29185,1,12,0:0:0:0:
64,192,29185,1,12,0:0:0:0:
192,192,29509,1,0,0:0:0:0:
448,192,29509,1,0,0:0:0:0:
320,192,29590,1,0,0:0:0:0:
64,192,29671,1,0,0:0:0:0:
192,192,29752,1,0,0:0:0:0:
320,192,29833,1,0,0:0:0:0:
320,192,29995,1,0,0:0:0:0:
192,192,30076,1,0,0:0:0:0:
320,192,30157,1,0,0:0:0:0:
64,192,30320,1,0,0:0:0:0:
448,192,30482,1,0,0:0:0:0:
64,192,30482,1,0,0:0:0:0:
320,192,30806,1,0,0:0:0:0:
192,192,30806,1,0,0:0:0:0:
64,192,31130,1,0,0:0:0:0:
448,192,31130,1,0,0:0:0:0:
448,192,31292,1,0,0:0:0:0:
192,192,31292,1,0,0:0:0:0:
448,192,31454,1,0,0:0:0:0:
320,192,31454,1,0,0:0:0:0:
192,192,31617,1,0,0:0:0:0:
448,192,31617,1,0,0:0:0:0:
64,192,31780,128,0,32104:0:0:0:0:
448,192,31780,128,0,32104:0:0:0:0:
192,192,32104,1,0,0:0:0:0:
320,192,32104,1,0,0:0:0:0:
320,192,32265,1,0,0:0:0:0:
192,192,32346,1,0,0:0:0:0:
64,192,32427,1,0,0:0:0:0:
192,192,32589,1,0,0:0:0:0:
448,192,32589,1,0,0:0:0:0:
320,192,32670,1,0,0:0:0:0:
64,192,32670,1,0,0:0:0:0:
448,192,32751,1,0,0:0:0:0:
192,192,32751,1,0,0:0:0:0:
320,192,32834,1,0,0:0:0:0:
192,192,32915,1,0,0:0:0:0:
64,192,32915,1,0,0:0:0:0:
320,192,32995,1,0,0:0:0:0:
448,192,32996,1,0,0:0:0:0:
192,192,33076,1,0,0:0:0:0:
64,192,33077,1,0,0:0:0:0:
448,192,33238,1,0,0:0:0:0:
64,192,33319,1,0,0:0:0:0:
320,192,33400,1,0,0:0:0:0:
192,192,33562,1,0,0:0:0:0:
448,192,33562,1,0,0:0:0:0:
448,192,33724,1,0,0:0:0:0:
64,192,33724,1,0,0:0:0:0:
64,192,34049,128,0,34373:0:0:0:0:
448,192,34049,128,0,34373:0:0:0:0:
192,192,34373,1,0,0:0:0:0:
320,192,34373,1,0,0:0:0:0:
192,192,34699,1,0,0:0:0:0:
320,192,34780,1,0,0:0:0:0:
448,192,34861,1,0,0:0:0:0:
64,192,35023,1,0,0:0:0:0:
448,192,35185,1,0,0:0:0:0:
64,192,35266,1,0,0:0:0:0:
192,192,35347,1,0,0:0:0:0:
448,192,35509,1,0,0:0:0:0:
64,192,35672,1,0,0:0:0:0:
320,192,35672,1,0,0:0:0:0:
192,192,35753,1,0,0:0:0:0:
320,192,35834,1,0,0:0:0:0:
320,192,35996,1,0,0:0:0:0:
64,192,36158,1,0,0:0:0:0:
448,192,36158,1,0,0:0:0:0:
192,192,36239,1,0,0:0:0:0:
320,192,36320,1,0,0:0:0:0:
192,192,36401,1,0,0:0:0:0:
64,192,36482,1,0,0:0:0:0:
448,192,36482,1,0,0:0:0:0:
192,192,36644,1,0,0:0:0:0:
320,192,36644,1,0,0:0:0:0:
64,192,36969,1,0,0:0:0:0:
448,192,36969,1,0,0:0:0:0:
192,192,36969,1,0,0:0:0:0:
320,192,36969,1,0,0:0:0:0:
320,192,37293,1,0,0:0:0:0:
192,192,37374,1,0,0:0:0:0:
320,192,37455,1,0,0:0:0:0:
64,192,37617,1,0,0:0:0:0:
448,192,37617,1,0,0:0:0:0:
320,192,37780,1,0,0:0:0:0:
192,192,37861,1,0,0:0:0:0:
64,192,37942,1,0,0:0:0:0:
448,192,38023,1,0,0:0:0:0:
320,192,38104,1,0,0:0:0:0:
64,192,38185,1,0,0:0:0:0:
192,192,38266,1,0,0:0:0:0:
320,192,38266,1,0,0:0:0:0:
448,192,38347,1,0,0:0:0:0:
192,192,38428,1,0,0:0:0:0:
320,192,38509,1,0,0:0:0:0:
192,192,38590,1,0,0:0:0:0:
448,192,38753,1,0,0:0:0:0:
64,192,38915,1,0,0:0:0:0:
320,192,39239,128,0,39563:0:0:0:0:
192,192,39239,128,0,39563:0:0:0:0:
64,192,39563,1,0,0:0:0:0:
448,192,39563,1,0,0:0:0:0:
320,192,39888,1,0,0:0:0:0:
192,192,39969,1,0,0:0:0:0:
64,192,40050,1,0,0:0:0:0:
448,192,40131,1,0,0:0:0:0:
192,192,40212,1,0,0:0:0:0:
448,192,40374,1,0,0:0:0:0:
192,192,40536,1,0,0:0:0:0:
320,192,40699,1,0,0:0:0:0:
192,192,40859,1,0,0:0:0:0:
64,192,40861,1,0,0:0:0:0:
320,192,41183,1,0,0:0:0:0:
64,192,41185,1,0,0:0:0:0:
64,192,41509,1,0,0:0:0:0:
448,192,41509,1,0,0:0:0:0:
320,192,41831,1,0,0:0:0:0:
64,192,41834,1,0,0:0:0:0:
64,192,42155,1,0,0:0:0:0:
192,192,42155,1,0,0:0:0:0:
448,192,42320,1,0,0:0:0:0:
192,192,42482,1,0,0:0:0:0:
320,192,42644,1,0,0:0:0:0:
64,192,42806,1,0,0:0:0:0:
320,192,42968,1,0,0:0:0:0:
192,192,43130,1,0,0:0:0:0:
448,192,43293,1,0,0:0:0:0:
64,192,43455,1,0,0:0:0:0:
320,192,43455,1,0,0:0:0:0:
320,192,43617,1,0,0:0:0:0:
192,192,43617,1,0,0:0:0:0:
192,192,43779,1,0,0:0:0:0:
448,192,43779,1,0,0:0:0:0:
64,192,43941,1,0,0:0:0:0:
320,192,43941,1,0,0:0:0:0:
192,192,44103,1,0,0:0:0:0:
320,192,44103,1,0,0:0:0:0:
64,192,44266,1,0,0:0:0:0:
192,192,44428,1,0,0:0:0:0:
320,192,44590,1,0,0:0:0:0:
448,192,44752,128,0,45076:0:0:0:0:
192,192,44914,1,0,0:0:0:0:
64,192,44995,1,0,0:0:0:0:
192,192,45076,1,0,0:0:0:0:
320,192,45239,1,0,0:0:0:0:
448,192,45239,1,0,0:0:0:0:
192,192,45401,1,0,0:0:0:0:
64,192,45563,128,0,46698:0:0:0:0:
320,192,45725,1,0,0:0:0:0:
192,192,45887,128,0,46698:0:0:0:0:
320,192,46049,1,0,0:0:0:0:
448,192,46212,128,0,46698:0:0:0:0:
320,192,46212,1,0,0:0:0:0:
320,192,46374,1,0,0:0:0:0:
320,192,46536,1,0,0:0:0:0:
320,192,46698,1,0,0:0:0:0:
192,192,46860,1,0,0:0:0:0:
448,192,47022,1,0,0:0:0:0:
192,192,47185,1,0,0:0:0:0:
64,192,47347,1,0,0:0:0:0:
320,192,47509,1,0,0:0:0:0:
64,192,47671,1,0,0:0:0:0:
320,192,47833,1,0,0:0:0:0:
192,192,47995,1,0,0:0:0:0:
448,192,48157,1,0,0:0:0:0:
64,192,48158,128,0,48969:0:0:0:0:
192,192,48320,1,0,0:0:0:0:
320,192,48482,1,0,0:0:0:0:
448,192,48482,128,0,48969:0:0:0:0:
192,192,48644,1,0,0:0:0:0:
320,192,48807,1,0,0:0:0:0:
192,192,48968,1,0,0:0:0:0:
320,192,49130,1,0,0:0:0:0:
64,192,49293,1,0,0:0:0:0:
192,192,49455,1,0,0:0:0:0:
64,192,49617,1,0,0:0:0:0:
448,192,49779,1,0,0:0:0:0:
320,192,49941,1,0,0:0:0:0:
448,192,50103,1,0,0:0:0:0:
192,192,50266,1,0,0:0:0:0:
320,192,50266,1,0,0:0:0:0:
192,192,50428,1,0,0:0:0:0:
448,192,50428,1,0,0:0:0:0:
192,192,50590,1,0,0:0:0:0:
64,192,50590,1,0,0:0:0:0:
448,192,50752,1,0,0:0:0:0:
192,192,50752,1,0,0:0:0:0:
448,192,50914,1,0,0:0:0:0:
64,192,50914,1,0,0:0:0:0:
448,192,51076,1,0,0:0:0:0:
192,192,51076,1,0,0:0:0:0:
64,192,51239,1,0,0:0:0:0:
320,192,51239,1,0,0:0:0:0:
64,192,51401,1,0,0:0:0:0:
448,192,51401,1,0,0:0:0:0:
64,192,51563,1,0,0:0:0:0:
192,192,51563,1,0,0:0:0:0:
448,192,51725,1,0,0:0:0:0:
64,192,51725,1,0,0:0:0:0:
448,192,51887,1,0,0:0:0:0:
192,192,51887,1,0,0:0:0:0:
448,192,52049,1,0,0:0:0:0:
320,192,52049,1,0,0:0:0:0:
64,192,52212,1,0,0:0:0:0:
320,192,52212,1,0,0:0:0:0:
192,192,52374,1,0,0:0:0:0:
448,192,52374,1,0,0:0:0:0:
320,192,52536,1,0,0:0:0:0:
64,192,52536,1,0,0:0:0:0:
192,192,52536,1,0,0:0:0:0:
320,192,52699,1,0,0:0:0:0:
448,192,52861,1,0,0:0:0:0:
320,192,53023,1,0,0:0:0:0:
64,192,53104,1,0,0:0:0:0:
448,192,53104,1,0,0:0:0:0:
192,192,53185,1,0,0:0:0:0:
320,192,53347,1,0,0:0:0:0:
64,192,53509,1,0,0:0:0:0:
192,192,53590,1,0,0:0:0:0:
448,192,53672,1,0,0:0:0:0:
320,192,53753,1,0,0:0:0:0:
448,192,53834,1,0,0:0:0:0:
64,192,53834,1,0,0:0:0:0:
320,192,53996,1,0,0:0:0:0:
64,192,54158,1,0,0:0:0:0:
320,192,54158,1,0,0:0:0:0:
320,192,54320,1,0,0:0:0:0:
192,192,54482,1,0,0:0:0:0:
448,192,54482,1,0,0:0:0:0:
64,192,54644,1,0,0:0:0:0:
192,192,54726,1,0,0:0:0:0:
448,192,54807,1,0,0:0:0:0:
192,192,54969,1,0,0:0:0:0:
64,192,55131,1,0,0:0:0:0:
320,192,55131,1,0,0:0:0:0:
320,192,55293,1,0,0:0:0:0:
192,192,55374,1,0,0:0:0:0:
320,192,55455,1,0,0:0:0:0:
64,192,55617,1,0,0:0:0:0:
320,192,55699,1,0,0:0:0:0:
192,192,55780,1,0,0:0:0:0:
448,192,55780,1,0,0:0:0:0:
320,192,55861,1,0,0:0:0:0:
192,192,55942,1,0,0:0:0:0:
448,192,56023,1,0,0:0:0:0:
64,192,56104,1,0,0:0:0:0:
320,192,56104,1,0,0:0:0:0:
192,192,56266,1,0,0:0:0:0:
192,192,56428,1,0,0:0:0:0:
320,192,56428,1,0,0:0:0:0:
320,192,56590,1,0,0:0:0:0:
448,192,56590,1,0,0:0:0:0:
64,192,56753,1,0,0:0:0:0:
320,192,56753,1,0,0:0:0:0:
192,192,56915,1,0,0:0:0:0:
320,192,56996,1,0,0:0:0:0:
64,192,57077,1,0,0:0:0:0:
448,192,57077,1,0,0:0:0:0:
192,192,57239,1,0,0:0:0:0:
320,192,57239,1,0,0:0:0:0:
64,192,57401,1,0,0:0:0:0:
448,192,57401,1,0,0:0:0:0:
320,192,57482,1,0,0:0:0:0:
64,192,57563,1,0,0:0:0:0:
320,192,57644,1,0,0:0:0:0:
192,192,57726,1,0,0:0:0:0:
448,192,57726,1,0,0:0:0:0:
64,192,57888,1,0,0:0:0:0:
448,192,57888,1,0,0:0:0:0:
448,192,58050,1,0,0:0:0:0:
192,192,58050,1,0,0:0:0:0:
448,192,58212,1,0,0:0:0:0:
320,192,58212,1,0,0:0:0:0:
64,192,58374,1,0,0:0:0:0:
448,192,58374,1,0,0:0:0:0:
64,192,58536,1,0,0:0:0:0:
320,192,58536,1,0,0:0:0:0:
192,192,58699,1,0,0:0:0:0:
64,192,58699,1,0,0:0:0:0:
192,192,58861,1,0,0:0:0:0:
320,192,58861,1,0,0:0:0:0:
192,192,59023,1,0,0:0:0:0:
448,192,59023,1,0,0:0:0:0:
192,192,59185,1,0,0:0:0:0:
320,192,59185,1,0,0:0:0:0:
192,192,59347,1,0,0:0:0:0:
64,192,59347,1,0,0:0:0:0:
192,192,59509,1,0,0:0:0:0:
320,192,59509,1,0,0:0:0:0:
320,192,59672,1,0,0:0:0:0:
448,192,59672,1,0,0:0:0:0:
320,192,59834,1,0,0:0:0:0:
192,192,59834,1,0,0:0:0:0:
320,192,59996,1,0,0:0:0:0:
64,192,59996,1,0,0:0:0:0:
448,192,60077,1,0,0:0:0:0:
320,192,60158,1,0,0:0:0:0:
192,192,60158,1,0,0:0:0:0:
64,192,60239,1,0,0:0:0:0:
192,192,60320,1,0,0:0:0:0:
320,192,60401,1,0,0:0:0:0:
448,192,60482,1,0,0:0:0:0:
192,192,60563,1,0,0:0:0:0:
64,192,60644,1,0,0:0:0:0:
320,192,60726,1,0,0:0:0:0:
192,192,60807,1,0,0:0:0:0:
448,192,60969,1,0,0:0:0:0:
320,192,61023,1,0,0:0:0:0:
192,192,61077,1,0,0:0:0:0:
64,192,61131,1,0,0:0:0:0:
192,192,61212,1,0,0:0:0:0:
320,192,61293,1,0,0:0:0:0:
448,192,61374,1,0,0:0:0:0:
192,192,61455,1,0,0:0:0:0:
64,192,61617,1,0,0:0:0:0:
448,192,61617,1,0,0:0:0:0:
192,192,61780,1,0,0:0:0:0:
320,192,61780,1,0,0:0:0:0:
192,192,61942,1,0,0:0:0:0:
320,192,62023,1,0,0:0:0:0:
64,192,62104,1,0,0:0:0:0:
448,192,62185,1,0,0:0:0:0:
192,192,62266,1,0,0:0:0:0:
320,192,62428,1,0,0:0:0:0:
320,192,62590,1,0,0:0:0:0:
64,192,62915,1,0,0:0:0:0:
192,192,62915,1,0,0:0:0:0:
320,192,62915,1,0,0:0:0:0:
448,192,62915,1,0,0:0:0:0:
192,192,63239,1,0,0:0:0:0:
320,192,63239,1,0,0:0:0:0:
192,192,63401,1,0,0:0:0:0:
64,192,63482,1,0,0:0:0:0:
320,192,63563,1,0,0:0:0:0:
448,192,63726,1,0,0:0:0:0:
192,192,63888,1,0,0:0:0:0:
320,192,63969,1,0,0:0:0:0:
64,192,64050,1,0,0:0:0:0:
448,192,64131,1,0,0:0:0:0:
320,192,64212,1,0,0:0:0:0:
192,192,64374,1,0,0:0:0:0:
320,192,64455,1,0,0:0:0:0:
64,192,64536,1,0,0:0:0:0:
448,192,64699,1,0,0:0:0:0:
192,192,64861,1,0,0:0:0:0:
64,192,65185,1,0,0:0:0:0:
192,192,65185,1,0,0:0:0:0:
320,192,65185,1,0,0:0:0:0:
448,192,65185,1,0,0:0:0:0:
192,192,65509,1,0,0:0:0:0:
320,192,65509,1,0,0:0:0:0:
192,192,65834,1,0,0:0:0:0:
448,192,65915,1,0,0:0:0:0:
64,192,65996,1,0,0:0:0:0:
192,192,66077,1,0,0:0:0:0:
320,192,66158,1,0,0:0:0:0:
64,192,66320,1,0,0:0:0:0:
448,192,66401,1,0,0:0:0:0:
192,192,66482,1,0,0:0:0:0:
64,192,66563,1,0,0:0:0:0:
320,192,66644,1,0,0:0:0:0:
64,192,66807,1,0,0:0:0:0:
448,192,66807,1,0,0:0:0:0:
192,192,66969,1,0,0:0:0:0:
320,192,67050,1,0,0:0:0:0:
64,192,67131,1,0,0:0:0:0:
448,192,67131,1,0,0:0:0:0:
192,192,67293,1,0,0:0:0:0:
448,192,67455,1,0,0:0:0:0:
64,192,67455,1,0,0:0:0:0:
320,192,67536,1,0,0:0:0:0:
192,192,67617,1,0,0:0:0:0:
64,192,67617,1,0,0:0:0:0:
320,192,67699,1,0,0:0:0:0:
64,192,67780,1,0,0:0:0:0:
192,192,67780,1,0,0:0:0:0:
64,192,68104,1,0,0:0:0:0:
448,192,68104,1,0,0:0:0:0:
320,192,68428,1,0,0:0:0:0:
192,192,68509,1,0,0:0:0:0:
64,192,68590,1,0,0:0:0:0:
192,192,68672,1,0,0:0:0:0:
320,192,68753,1,0,0:0:0:0:
448,192,68915,1,0,0:0:0:0:
192,192,68996,1,0,0:0:0:0:
320,192,69077,1,0,0:0:0:0:
64,192,69077,1,0,0:0:0:0:
448,192,69158,1,0,0:0:0:0:
320,192,69239,1,0,0:0:0:0:
448,192,69320,1,0,0:0:0:0:
64,192,69401,1,0,0:0:0:0:
320,192,69563,1,0,0:0:0:0:
192,192,69644,1,0,0:0:0:0:
320,192,69726,1,0,0:0:0:0:
64,192,69888,1,0,0:0:0:0:
448,192,70050,1,0,0:0:0:0:
64,192,70374,1,0,0:0:0:0:
448,192,70374,1,0,0:0:0:0:
192,192,70374,1,0,0:0:0:0:
320,192,70374,1,0,0:0:0:0:
192,192,70699,1,0,0:0:0:0:
320,192,70699,1,0,0:0:0:0:
64,192,71023,1,0,0:0:0:0:
192,192,71104,1,0,0:0:0:0:
320,192,71185,1,0,0:0:0:0:
448,192,71266,1,0,0:0:0:0:
320,192,71347,1,0,0:0:0:0:
64,192,71347,1,0,0:0:0:0:
192,192,71509,1,0,0:0:0:0:
448,192,71509,1,0,0:0:0:0:
320,192,71672,1,0,0:0:0:0:
64,192,71753,1,0,0:0:0:0:
192,192,71834,1,0,0:0:0:0:
320,192,71996,1,0,0:0:0:0:
448,192,71996,1,0,0:0:0:0:
192,192,72158,1,0,0:0:0:0:
64,192,72320,1,0,0:0:0:0:
320,192,72320,1,0,0:0:0:0:
448,192,72482,1,0,0:0:0:0:
64,192,72644,1,0,0:0:0:0:
192,192,72644,1,0,0:0:0:0:
192,192,72807,1,0,0:0:0:0:
320,192,72807,1,0,0:0:0:0:
192,192,72969,1,0,0:0:0:0:
448,192,72969,1,0,0:0:0:0:
192,192,73131,1,0,0:0:0:0:
64,192,73131,1,0,0:0:0:0:
320,192,73293,1,0,0:0:0:0:
448,192,73293,1,0,0:0:0:0:
64,192,73293,1,0,0:0:0:0:
320,192,73617,1,0,0:0:0:0:
64,192,73699,1,0,0:0:0:0:
192,192,73780,1,0,0:0:0:0:
448,192,73861,1,0,0:0:0:0:
320,192,73942,1,0,0:0:0:0:
64,192,74104,1,0,0:0:0:0:
448,192,74185,1,0,0:0:0:0:
64,192,74266,1,0,0:0:0:0:
192,192,74347,1,0,0:0:0:0:
320,192,74428,1,0,0:0:0:0:
192,192,74509,1,0,0:0:0:0:
64,192,74590,1,0,0:0:0:0:
448,192,74590,1,0,0:0:0:0:
192,192,74753,1,0,0:0:0:0:
320,192,74834,1,0,0:0:0:0:
192,192,74915,1,0,0:0:0:0:
64,192,75077,1,0,0:0:0:0:
192,192,75239,1,0,0:0:0:0:
448,192,75239,1,0,0:0:0:0:
64,192,75563,1,0,0:0:0:0:
448,192,75563,1,0,0:0:0:0:
192,192,75563,1,0,0:0:0:0:
192,192,75888,1,0,0:0:0:0:
320,192,75888,1,0,0:0:0:0:
64,192,76212,1,0,0:0:0:0:
192,192,76293,1,0,0:0:0:0:
320,192,76374,1,0,0:0:0:0:
192,192,76455,1,0,0:0:0:0:
320,192,76536,1,0,0:0:0:0:
64,192,76699,1,0,0:0:0:0:
192,192,76780,1,0,0:0:0:0:
448,192,76861,1,0,0:0:0:0:
320,192,76942,1,0,0:0:0:0:
192,192,77023,1,0,0:0:0:0:
320,192,77104,1,0,0:0:0:0:
448,192,77185,1,0,0:0:0:0:
192,192,77185,1,0,0:0:0:0:
64,192,77266,1,0,0:0:0:0:
192,192,77347,1,0,0:0:0:0:
448,192,77509,1,0,0:0:0:0:
192,192,77509,1,0,0:0:0:0:
448,192,77672,1,0,0:0:0:0:
192,192,77672,1,0,0:0:0:0:
320,192,77753,1,0,0:0:0:0:
64,192,77834,1,0,0:0:0:0:
192,192,77834,1,0,0:0:0:0:
320,192,77915,1,0,0:0:0:0:
448,192,77996,1,0,0:0:0:0:
192,192,77996,1,0,0:0:0:0:
64,192,78077,1,0,0:0:0:0:
192,192,78158,1,0,0:0:0:0:
448,192,78158,1,0,0:0:0:0:
64,192,78482,1,0,0:0:0:0:
192,192,78482,1,0,0:0:0:0:
448,192,78482,1,0,0:0:0:0:
320,192,78807,1,0,0:0:0:0:
64,192,78888,1,0,0:0:0:0:
192,192,78969,1,0,0:0:0:0:
448,192,79050,1,0,0:0:0:0:
320,192,79131,1,0,0:0:0:0:
64,192,79293,1,0,0:0:0:0:
192,192,79374,1,0,0:0:0:0:
320,192,79374,1,0,0:0:0:0:
64,192,79455,1,0,0:0:0:0:
448,192,79455,1,0,0:0:0:0:
192,192,79536,1,0,0:0:0:0:
320,192,79617,1,0,0:0:0:0:
64,192,79699,1,0,0:0:0:0:
448,192,79780,1,0,0:0:0:0:
192,192,79780,1,0,0:0:0:0:
320,192,79942,1,0,0:0:0:0:
448,192,79942,1,0,0:0:0:0:
192,192,80023,1,0,0:0:0:0:
448,192,80023,1,0,0:0:0:0:
64,192,80104,1,0,0:0:0:0:
448,192,80104,1,0,0:0:0:0:
192,192,80266,5,0,0:0:0:0:
192,192,80428,1,0,0:0:0:0:
320,192,80428,1,0,0:0:0:0:
64,192,80753,5,0,0:0:0:0:
192,192,80807,1,0,0:0:0:0:
320,192,80861,1,0,0:0:0:0:
448,192,80915,1,0,0:0:0:0:
320,192,80969,1,0,0:0:0:0:
192,192,81023,1,0,0:0:0:0:
64,192,81077,1,0,0:0:0:0:
448,192,81077,1,0,0:0:0:0:
64,192,81401,1,0,0:0:0:0:
192,192,81482,1,0,0:0:0:0:
64,192,81563,1,0,0:0:0:0:
448,192,81644,1,0,0:0:0:0:
320,192,81726,1,0,0:0:0:0:
448,192,81807,1,0,0:0:0:0:
64,192,81888,1,0,0:0:0:0:
192,192,81969,1,0,0:0:0:0:
320,192,82050,1,0,0:0:0:0:
192,192,82131,1,0,0:0:0:0:
320,192,82212,1,0,0:0:0:0:
448,192,82293,1,0,0:0:0:0:
64,192,82374,1,0,0:0:0:0:
192,192,82374,1,0,0:0:0:0:
192,192,82536,1,0,0:0:0:0:
320,192,82699,1,0,0:0:0:0:
448,192,82699,1,0,0:0:0:0:
448,192,82861,1,0,0:0:0:0:
64,192,83023,1,0,0:0:0:0:
192,192,83104,1,0,0:0:0:0:
448,192,83185,1,0,0:0:0:0:
320,192,83347,1,0,0:0:0:0:
64,192,83509,1,0,0:0:0:0:
192,192,83672,1,0,0:0:0:0:
448,192,83672,1,0,0:0:0:0:
320,192,83753,1,0,0:0:0:0:
64,192,83915,1,0,0:0:0:0:
192,192,83996,1,0,0:0:0:0:
320,192,84158,1,0,0:0:0:0:
448,192,84320,1,0,0:0:0:0:
320,192,84401,1,0,0:0:0:0:
192,192,84482,1,0,0:0:0:0:
64,192,84563,1,0,0:0:0:0:
192,192,84644,1,0,0:0:0:0:
64,192,84726,1,0,0:0:0:0:
192,192,84807,1,0,0:0:0:0:
320,192,84888,1,0,0:0:0:0:
448,192,84969,1,0,0:0:0:0:
320,192,85050,1,0,0:0:0:0:
192,192,85131,1,0,0:0:0:0:
320,192,85212,1,0,0:0:0:0:
192,192,85293,1,0,0:0:0:0:
64,192,85374,1,0,0:0:0:0:
192,192,85455,1,0,0:0:0:0:
320,192,85536,1,0,0:0:0:0:
448,192,85617,1,0,0:0:0:0:
320,192,85699,1,0,0:0:0:0:
448,192,85780,1,0,0:0:0:0:
320,192,85861,1,0,0:0:0:0:
192,192,85942,1,0,0:0:0:0:
64,192,85942,1,0,0:0:0:0:
64,192,86266,1,0,0:0:0:0:
448,192,86266,1,0,0:0:0:0:
192,192,86428,1,0,0:0:0:0:
320,192,86509,1,0,0:0:0:0:
448,192,86590,1,0,0:0:0:0:
320,192,86753,1,0,0:0:0:0:
192,192,86834,1,0,0:0:0:0:
64,192,86915,1,0,0:0:0:0:
192,192,86996,1,0,0:0:0:0:
64,192,87077,1,0,0:0:0:0:
192,192,87158,1,0,0:0:0:0:
320,192,87239,1,0,0:0:0:0:
448,192,87320,1,0,0:0:0:0:
320,192,87401,1,0,0:0:0:0:
192,192,87482,1,0,0:0:0:0:
320,192,87563,1,0,0:0:0:0:
64,192,87644,1,0,0:0:0:0:
448,192,87726,1,0,0:0:0:0:
192,192,87807,1,0,0:0:0:0:
64,192,87888,1,0,0:0:0:0:
192,192,87969,1,0,0:0:0:0:
64,192,88050,1,0,0:0:0:0:
192,192,88131,1,0,0:0:0:0:
64,192,88212,1,0,0:0:0:0:
320,192,88293,1,0,0:0:0:0:
448,192,88374,1,0,0:0:0:0:
192,192,88455,1,0,0:0:0:0:
64,192,88536,1,0,0:0:0:0:
448,192,88536,1,0,0:0:0:0:
192,192,88699,1,0,0:0:0:0:
320,192,88699,1,0,0:0:0:0:
64,192,88861,1,0,0:0:0:0:
192,192,88861,1,0,0:0:0:0:
320,192,89023,1,0,0:0:0:0:
448,192,89104,1,0,0:0:0:0:
64,192,89185,1,0,0:0:0:0:
192,192,89266,1,0,0:0:0:0:
64,192,89347,1,0,0:0:0:0:
320,192,89428,1,0,0:0:0:0:
448,192,89509,1,0,0:0:0:0:
64,192,89590,1,0,0:0:0:0:
192,192,89672,1,0,0:0:0:0:
448,192,89753,1,0,0:0:0:0:
320,192,89834,1,0,0:0:0:0:
448,192,89915,1,0,0:0:0:0:
64,192,89996,1,0,0:0:0:0:
192,192,90077,1,0,0:0:0:0:
320,192,90158,1,0,0:0:0:0:
448,192,90239,1,0,0:0:0:0:
192,192,90239,1,0,0:0:0:0:
320,192,90320,1,0,0:0:0:0:
192,192,90401,1,0,0:0:0:0:
448,192,90401,1,0,0:0:0:0:
64,192,90482,1,0,0:0:0:0:
320,192,90482,1,0,0:0:0:0:
192,192,90563,1,0,0:0:0:0:
320,192,90644,1,0,0:0:0:0:
64,192,90644,1,0,0:0:0:0:
448,192,90726,1,0,0:0:0:0:
320,192,90807,1,0,0:0:0:0:
192,192,90888,1,0,0:0:0:0:
64,192,90969,1,0,0:0:0:0:
192,192,91050,1,0,0:0:0:0:
64,192,91131,1,0,0:0:0:0:
64,192,91455,1,0,0:0:0:0:
448,192,91455,1,0,0:0:0:0:
192,192,91536,1,0,0:0:0:0:
320,192,91617,1,0,0:0:0:0:
192,192,91699,1,0,0:0:0:0:
320,192,91780,1,0,0:0:0:0:
192,192,91861,1,0,0:0:0:0:
64,192,91942,1,0,0:0:0:0:
448,192,92023,1,0,0:0:0:0:
192,192,92104,1,0,0:0:0:0:
320,192,92104,1,0,0:0:0:0:
64,192,92185,1,0,0:0:0:0:
448,192,92266,1,0,0:0:0:0:
64,192,92347,1,0,0:0:0:0:
448,192,92428,1,0,0:0:0:0:
320,192,92509,1,0,0:0:0:0:
192,192,92590,1,0,0:0:0:0:
320,192,92672,1,0,0:0:0:0:
64,192,92753,1,0,0:0:0:0:
320,192,92834,1,0,0:0:0:0:
448,192,92915,1,0,0:0:0:0:
192,192,92996,1,0,0:0:0:0:
64,192,93077,1,0,0:0:0:0:
192,192,93158,1,0,0:0:0:0:
64,192,93239,1,0,0:0:0:0:
320,192,93320,1,0,0:0:0:0:
448,192,93401,1,0,0:0:0:0:
192,192,93401,1,0,0:0:0:0:
448,192,93482,1,0,0:0:0:0:
448,192,93563,1,0,0:0:0:0:
448,192,93644,1,0,0:0:0:0:
448,192,93726,1,0,0:0:0:0:
320,192,93726,1,0,0:0:0:0:
