osu file format v14

[General]
AudioFilename: audio.mp3
AudioLeadIn: 0
PreviewTime: 61634
Countdown: 0
SampleSet: Normal
StackLeniency: 0.2
Mode: 1
LetterboxInBreaks: 0
WidescreenStoryboard: 0

[Editor]
DistanceSpacing: 1
BeatDivisor: 4
GridSize: 32
TimelineZoom: 2.400005

[Metadata]
Title:TSLove
TitleUnicode:TSLove
Artist:O2i3
ArtistUnicode:O2i3
Creator:[_Chichinya_]
Version:DDM's ChaoticLove <3
Source:
Tags:Melanie Friggy-chan kqrth DDM Hi_Hello FlamingRok Dargin Cyoris210 BlackWolf159 Yuno Taikocracy Prancer agu gamerock Nifty Lno Nepuri Raphalge frukoyurdakul Cyssel Unmei Muma Q____X Vulkin JessiChan iContol Chocola_2287 AezLack _yu68 zigizigiefe Grimbow
BeatmapID:1278888
BeatmapSetID:549370

[Difficulty]
HPDrainRate:2.2
CircleSize:2
OverallDifficulty:7.7
ApproachRate:10
SliderMultiplier:1.6
SliderTickRate:1

[Events]
//Background and Video events
0,0,"noRenard.jpg",0,-55
//Break Periods
//Storyboard Layer 0 (Background)
//Storyboard Layer 1 (Fail)
//Storyboard Layer 2 (Pass)
//Storyboard Layer 3 (Foreground)
//Storyboard Sound Samples

[TimingPoints]
663,324.324324324324,4,1,0,100,1,0
20122,1E+302,4,1,0,100,1,0
21419,324.324324324324,4,1,0,100,1,0
21419,-80,4,1,0,100,0,1
23689,1E+302,4,1,0,100,1,0
24014,324.324324324324,4,1,0,100,1,0
24014,-80,4,1,0,100,0,1
26283,1E+302,4,1,0,100,1,0
26608,324.324324324324,4,1,0,100,1,0
26608,-80,4,1,0,100,0,1
28878,1E+302,4,1,0,100,1,0
29203,324.324324324324,4,1,0,100,1,0
29203,-80,4,1,0,100,0,1
31149,1E+302,4,1,0,100,1,0
31798,324.324324324324,4,1,0,100,1,0
31798,-80,4,1,0,100,0,1
34067,1E+302,4,1,0,100,1,0
34392,324.324324324324,4,1,0,100,1,0
34392,-80,4,1,0,100,0,1
36662,1E+302,4,1,0,100,1,0
36987,324.324324324324,4,1,0,100,1,0
36987,-80,4,1,0,100,0,1
39256,1E+302,4,1,0,100,1,0
39581,324.324324324324,4,1,0,100,1,0
39581,-80,4,1,0,100,0,1
41527,1E+302,4,1,0,100,1,0
42176,324.324324324324,4,1,0,100,1,0
62932,648.648648648649,4,1,0,100,1,1
62932,-40,4,1,0,100,0,1
63013,648.648648648649,4,1,0,100,1,1
63013,-40,4,1,0,100,0,1
63094,648.648648648649,4,1,0,100,1,1
63094,-40,4,1,0,100,0,1
63175,648.648648648649,4,1,0,100,1,1
63175,-40,4,1,0,100,0,1
63256,648.648648648649,4,1,0,100,1,1
63256,-40,4,1,0,100,0,1
63337,648.648648648649,4,1,0,100,1,1
63337,-40,4,1,0,100,0,1
63418,648.648648648649,4,1,0,100,1,1
63418,-40,4,1,0,100,0,1
63499,648.648648648649,4,1,0,100,1,1
63499,-40,4,1,0,100,0,1
63580,648.648648648649,4,1,0,100,1,1
63580,-40,4,1,0,100,0,1
63661,648.648648648649,4,1,0,100,1,1
63661,-40,4,1,0,100,0,1
63742,648.648648648649,4,1,0,100,1,1
63742,-40,4,1,0,100,0,1
63823,648.648648648649,4,1,0,100,1,1
63823,-40,4,1,0,100,0,1
63904,648.648648648649,4,1,0,100,1,1
63904,-40,4,1,0,100,0,1
63985,648.648648648649,4,1,0,100,1,1
63985,-40,4,1,0,100,0,1
64066,648.648648648649,4,1,0,100,1,1
64066,-40,4,1,0,100,0,1
64147,648.648648648649,4,1,0,100,1,1
64147,-40,4,1,0,100,0,1
64228,648.648648648649,4,1,0,100,1,1
64228,-40,4,1,0,100,0,1
64309,648.648648648649,4,1,0,100,1,1
64309,-40,4,1,0,100,0,1
64390,648.648648648649,4,1,0,100,1,1
64390,-40,4,1,0,100,0,1
64471,648.648648648649,4,1,0,100,1,1
64471,-40,4,1,0,100,0,1
64552,648.648648648649,4,1,0,100,1,1
64552,-40,4,1,0,100,0,1
64633,648.648648648649,4,1,0,100,1,1
64633,-40,4,1,0,100,0,1
64714,648.648648648649,4,1,0,100,1,1
64714,-40,4,1,0,100,0,1
64795,648.648648648649,4,1,0,100,1,1
64795,-40,4,1,0,100,0,1
64876,648.648648648649,4,1,0,100,1,1
64876,-40,4,1,0,100,0,1
64957,648.648648648649,4,1,0,100,1,1
64957,-40,4,1,0,100,0,1
65038,648.648648648649,4,1,0,100,1,1
65038,-40,4,1,0,100,0,1
65119,648.648648648649,4,1,0,100,1,1
65119,-40,4,1,0,100,0,1
65202,1E+302,4,1,0,100,1,0
65527,648.648648648649,4,1,0,100,1,1
65527,-40,4,1,0,100,0,1
65608,648.648648648649,4,1,0,100,1,1
65608,-40,4,1,0,100,0,1
65689,648.648648648649,4,1,0,100,1,1
65689,-40,4,1,0,100,0,1
65770,648.648648648649,4,1,0,100,1,1
65770,-40,4,1,0,100,0,1
65851,648.648648648649,4,1,0,100,1,1
65851,-40,4,1,0,100,0,1
65932,648.648648648649,4,1,0,100,1,1
65932,-40,4,1,0,100,0,1
66013,648.648648648649,4,1,0,100,1,1
66013,-40,4,1,0,100,0,1
66094,648.648648648649,4,1,0,100,1,1
66094,-40,4,1,0,100,0,1
66175,648.648648648649,4,1,0,100,1,1
66175,-40,4,1,0,100,0,1
66256,648.648648648649,4,1,0,100,1,1
66256,-40,4,1,0,100,0,1
66337,648.648648648649,4,1,0,100,1,1
66337,-40,4,1,0,100,0,1
66418,648.648648648649,4,1,0,100,1,1
66418,-40,4,1,0,100,0,1
66498,648.648648648649,4,1,0,100,1,1
66498,-40,4,1,0,100,0,1
66580,648.648648648649,4,1,0,100,1,1
66580,-40,4,1,0,100,0,1
66660,648.648648648649,4,1,0,100,1,1
66660,-40,4,1,0,100,0,1
66741,648.648648648649,4,1,0,100,1,1
66741,-40,4,1,0,100,0,1
66822,648.648648648649,4,1,0,100,1,1
66822,-40,4,1,0,100,0,1
66903,648.648648648649,4,1,0,100,1,1
66903,-40,4,1,0,100,0,1
66984,648.648648648649,4,1,0,100,1,1
66984,-40,4,1,0,100,0,1
67065,648.648648648649,4,1,0,100,1,1
67065,-40,4,1,0,100,0,1
67146,648.648648648649,4,1,0,100,1,1
67146,-40,4,1,0,100,0,1
67227,648.648648648649,4,1,0,100,1,1
67227,-40,4,1,0,100,0,1
67308,648.648648648649,4,1,0,100,1,1
67308,-40,4,1,0,100,0,1
67389,648.648648648649,4,1,0,100,1,1
67389,-40,4,1,0,100,0,1
67470,648.648648648649,4,1,0,100,1,1
67470,-40,4,1,0,100,0,1
67551,648.648648648649,4,1,0,100,1,1
67551,-40,4,1,0,100,0,1
67632,648.648648648649,4,1,0,100,1,1
67632,-40,4,1,0,100,0,1
67713,648.648648648649,4,1,0,100,1,1
67713,-40,4,1,0,100,0,1
67797,1E+302,4,1,0,100,1,0
68122,648.648648648649,4,1,0,100,1,1
68122,-40,4,1,0,100,0,1
68203,648.648648648649,4,1,0,100,1,1
68203,-40,4,1,0,100,0,1
68284,648.648648648649,4,1,0,100,1,1
68284,-40,4,1,0,100,0,1
68365,648.648648648649,4,1,0,100,1,1
68365,-40,4,1,0,100,0,1
68446,648.648648648649,4,1,0,100,1,1
68446,-40,4,1,0,100,0,1
68527,648.648648648649,4,1,0,100,1,1
68527,-40,4,1,0,100,0,1
68608,648.648648648649,4,1,0,100,1,1
68608,-40,4,1,0,100,0,1
68689,648.648648648649,4,1,0,100,1,1
68689,-40,4,1,0,100,0,1
68770,648.648648648649,4,1,0,100,1,1
68770,-40,4,1,0,100,0,1
68851,648.648648648649,4,1,0,100,1,1
68851,-40,4,1,0,100,0,1
68932,648.648648648649,4,1,0,100,1,1
68932,-40,4,1,0,100,0,1
69013,648.648648648649,4,1,0,100,1,1
69013,-40,4,1,0,100,0,1
69094,648.648648648649,4,1,0,100,1,1
69094,-40,4,1,0,100,0,1
69175,648.648648648649,4,1,0,100,1,1
69175,-40,4,1,0,100,0,1
69256,648.648648648649,4,1,0,100,1,1
69256,-40,4,1,0,100,0,1
69337,648.648648648649,4,1,0,100,1,1
69337,-40,4,1,0,100,0,1
69418,648.648648648649,4,1,0,100,1,1
69418,-40,4,1,0,100,0,1
69499,648.648648648649,4,1,0,100,1,1
69499,-40,4,1,0,100,0,1
69580,648.648648648649,4,1,0,100,1,1
69580,-40,4,1,0,100,0,1
69661,648.648648648649,4,1,0,100,1,1
69661,-40,4,1,0,100,0,1
69742,648.648648648649,4,1,0,100,1,1
69742,-40,4,1,0,100,0,1
69823,648.648648648649,4,1,0,100,1,1
69823,-40,4,1,0,100,0,1
69904,648.648648648649,4,1,0,100,1,1
69904,-40,4,1,0,100,0,1
69985,648.648648648649,4,1,0,100,1,1
69985,-40,4,1,0,100,0,1
70066,648.648648648649,4,1,0,100,1,1
70066,-40,4,1,0,100,0,1
70147,648.648648648649,4,1,0,100,1,1
70147,-40,4,1,0,100,0,1
70228,648.648648648649,4,1,0,100,1,1
70228,-40,4,1,0,100,0,1
70309,648.648648648649,4,1,0,100,1,1
70309,-40,4,1,0,100,0,1
70392,1E+302,4,1,0,100,1,0
70717,648.648648648649,4,1,0,100,1,1
70717,-40,4,1,0,100,0,1
70798,648.648648648649,4,1,0,100,1,1
70798,-40,4,1,0,100,0,1
70879,648.648648648649,4,1,0,100,1,1
70879,-40,4,1,0,100,0,1
70960,648.648648648649,4,1,0,100,1,1
70960,-40,4,1,0,100,0,1
71041,648.648648648649,4,1,0,100,1,1
71041,-40,4,1,0,100,0,1
71122,648.648648648649,4,1,0,100,1,1
71122,-40,4,1,0,100,0,1
71203,648.648648648649,4,1,0,100,1,1
71203,-40,4,1,0,100,0,1
71284,648.648648648649,4,1,0,100,1,1
71284,-40,4,1,0,100,0,1
71365,648.648648648649,4,1,0,100,1,1
71365,-40,4,1,0,100,0,1
71446,648.648648648649,4,1,0,100,1,1
71446,-40,4,1,0,100,0,1
71527,648.648648648649,4,1,0,100,1,1
71527,-40,4,1,0,100,0,1
71608,648.648648648649,4,1,0,100,1,1
71608,-40,4,1,0,100,0,1
71689,648.648648648649,4,1,0,100,1,1
71689,-40,4,1,0,100,0,1
71770,648.648648648649,4,1,0,100,1,1
71770,-40,4,1,0,100,0,1
71851,648.648648648649,4,1,0,100,1,1
71851,-40,4,1,0,100,0,1
71932,648.648648648649,4,1,0,100,1,1
71932,-40,4,1,0,100,0,1
72013,648.648648648649,4,1,0,100,1,1
72013,-40,4,1,0,100,0,1
72094,648.648648648649,4,1,0,100,1,1
72094,-40,4,1,0,100,0,1
72175,648.648648648649,4,1,0,100,1,1
72175,-40,4,1,0,100,0,1
72256,648.648648648649,4,1,0,100,1,1
72256,-40,4,1,0,100,0,1
72337,648.648648648649,4,1,0,100,1,1
72337,-40,4,1,0,100,0,1
72418,648.648648648649,4,1,0,100,1,1
72418,-40,4,1,0,100,0,1
72498,648.648648648649,4,1,0,100,1,1
72498,-40,4,1,0,100,0,1
72580,648.648648648649,4,1,0,100,1,1
72580,-40,4,1,0,100,0,1
72662,1E+302,4,1,0,100,1,0
73311,648.648648648649,4,1,0,100,1,1
73311,-40,4,1,0,100,0,1
73392,648.648648648649,4,1,0,100,1,1
73392,-40,4,1,0,100,0,1
73473,648.648648648649,4,1,0,100,1,1
73473,-40,4,1,0,100,0,1
73554,648.648648648649,4,1,0,100,1,1
73554,-40,4,1,0,100,0,1
73635,648.648648648649,4,1,0,100,1,1
73635,-40,4,1,0,100,0,1
73716,648.648648648649,4,1,0,100,1,1
73716,-40,4,1,0,100,0,1
73797,648.648648648649,4,1,0,100,1,1
73797,-40,4,1,0,100,0,1
73878,648.648648648649,4,1,0,100,1,1
73878,-40,4,1,0,100,0,1
73958,648.648648648649,4,1,0,100,1,1
73958,-40,4,1,0,100,0,1
74040,648.648648648649,4,1,0,100,1,1
74040,-40,4,1,0,100,0,1
74120,648.648648648649,4,1,0,100,1,1
74120,-40,4,1,0,100,0,1
74201,648.648648648649,4,1,0,100,1,1
74201,-40,4,1,0,100,0,1
74282,648.648648648649,4,1,0,100,1,1
74282,-40,4,1,0,100,0,1
74363,648.648648648649,4,1,0,100,1,1
74363,-40,4,1,0,100,0,1
74444,648.648648648649,4,1,0,100,1,1
74444,-40,4,1,0,100,0,1
74525,648.648648648649,4,1,0,100,1,1
74525,-40,4,1,0,100,0,1
74606,648.648648648649,4,1,0,100,1,1
74606,-40,4,1,0,100,0,1
74687,648.648648648649,4,1,0,100,1,1
74687,-40,4,1,0,100,0,1
74768,648.648648648649,4,1,0,100,1,1
74768,-40,4,1,0,100,0,1
74849,648.648648648649,4,1,0,100,1,1
74849,-40,4,1,0,100,0,1
74930,648.648648648649,4,1,0,100,1,1
74930,-40,4,1,0,100,0,1
75011,648.648648648649,4,1,0,100,1,1
75011,-40,4,1,0,100,0,1
75092,648.648648648649,4,1,0,100,1,1
75092,-40,4,1,0,100,0,1
75173,648.648648648649,4,1,0,100,1,1
75173,-40,4,1,0,100,0,1
75254,648.648648648649,4,1,0,100,1,1
75254,-40,4,1,0,100,0,1
75335,648.648648648649,4,1,0,100,1,1
75335,-40,4,1,0,100,0,1
75415,648.648648648649,4,1,0,100,1,1
75415,-40,4,1,0,100,0,1
75497,648.648648648649,4,1,0,100,1,1
75497,-40,4,1,0,100,0,1
75581,1E+302,4,1,0,100,1,0
75906,648.648648648649,4,1,0,100,1,1
75906,-40,4,1,0,100,0,1
75987,648.648648648649,4,1,0,100,1,1
75987,-40,4,1,0,100,0,1
76068,648.648648648649,4,1,0,100,1,1
76068,-40,4,1,0,100,0,1
76149,648.648648648649,4,1,0,100,1,1
76149,-40,4,1,0,100,0,1
76230,648.648648648649,4,1,0,100,1,1
76230,-40,4,1,0,100,0,1
76311,648.648648648649,4,1,0,100,1,1
76311,-40,4,1,0,100,0,1
76392,648.648648648649,4,1,0,100,1,1
76392,-40,4,1,0,100,0,1
76473,648.648648648649,4,1,0,100,1,1
76473,-40,4,1,0,100,0,1
76554,648.648648648649,4,1,0,100,1,1
76554,-40,4,1,0,100,0,1
76635,648.648648648649,4,1,0,100,1,1
76635,-40,4,1,0,100,0,1
76716,648.648648648649,4,1,0,100,1,1
76716,-40,4,1,0,100,0,1
76797,648.648648648649,4,1,0,100,1,1
76797,-40,4,1,0,100,0,1
76878,648.648648648649,4,1,0,100,1,1
76878,-40,4,1,0,100,0,1
76959,648.648648648649,4,1,0,100,1,1
76959,-40,4,1,0,100,0,1
77040,648.648648648649,4,1,0,100,1,1
77040,-40,4,1,0,100,0,1
77121,648.648648648649,4,1,0,100,1,1
77121,-40,4,1,0,100,0,1
77202,648.648648648649,4,1,0,100,1,1
77202,-40,4,1,0,100,0,1
77283,648.648648648649,4,1,0,100,1,1
77283,-40,4,1,0,100,0,1
77364,648.648648648649,4,1,0,100,1,1
77364,-40,4,1,0,100,0,1
77445,648.648648648649,4,1,0,100,1,1
77445,-40,4,1,0,100,0,1
77526,648.648648648649,4,1,0,100,1,1
77526,-40,4,1,0,100,0,1
77607,648.648648648649,4,1,0,100,1,1
77607,-40,4,1,0,100,0,1
77688,648.648648648649,4,1,0,100,1,1
77688,-40,4,1,0,100,0,1
77769,648.648648648649,4,1,0,100,1,1
77769,-40,4,1,0,100,0,1
77850,648.648648648649,4,1,0,100,1,1
77850,-40,4,1,0,100,0,1
77931,648.648648648649,4,1,0,100,1,1
77931,-40,4,1,0,100,0,1
78012,648.648648648649,4,1,0,100,1,1
78012,-40,4,1,0,100,0,1
78093,648.648648648649,4,1,0,100,1,1
78093,-40,4,1,0,100,0,1
78175,1E+302,4,1,0,100,1,0
78500,648.648648648649,4,1,0,100,1,1
78500,-40,4,1,0,100,0,1
78581,648.648648648649,4,1,0,100,1,1
78581,-40,4,1,0,100,0,1
78662,648.648648648649,4,1,0,100,1,1
78662,-40,4,1,0,100,0,1
78743,648.648648648649,4,1,0,100,1,1
78743,-40,4,1,0,100,0,1
78824,648.648648648649,4,1,0,100,1,1
78824,-40,4,1,0,100,0,1
78905,648.648648648649,4,1,0,100,1,1
78905,-40,4,1,0,100,0,1
78986,648.648648648649,4,1,0,100,1,1
78986,-40,4,1,0,100,0,1
79067,648.648648648649,4,1,0,100,1,1
79067,-40,4,1,0,100,0,1
79148,648.648648648649,4,1,0,100,1,1
79148,-40,4,1,0,100,0,1
79229,648.648648648649,4,1,0,100,1,1
79229,-40,4,1,0,100,0,1
79310,648.648648648649,4,1,0,100,1,1
79310,-40,4,1,0,100,0,1
79391,648.648648648649,4,1,0,100,1,1
79391,-40,4,1,0,100,0,1
79472,648.648648648649,4,1,0,100,1,1
79472,-40,4,1,0,100,0,1
79553,648.648648648649,4,1,0,100,1,1
79553,-40,4,1,0,100,0,1
79634,648.648648648649,4,1,0,100,1,1
79634,-40,4,1,0,100,0,1
79715,648.648648648649,4,1,0,100,1,1
79715,-40,4,1,0,100,0,1
79796,648.648648648649,4,1,0,100,1,1
79796,-40,4,1,0,100,0,1
79876,648.648648648649,4,1,0,100,1,1
79876,-40,4,1,0,100,0,1
79957,648.648648648649,4,1,0,100,1,1
79957,-40,4,1,0,100,0,1
80038,648.648648648649,4,1,0,100,1,1
80038,-40,4,1,0,100,0,1
80119,648.648648648649,4,1,0,100,1,1
80119,-40,4,1,0,100,0,1
80200,648.648648648649,4,1,0,100,1,1
80200,-40,4,1,0,100,0,1
80281,648.648648648649,4,1,0,100,1,1
80281,-40,4,1,0,100,0,1
80362,648.648648648649,4,1,0,100,1,1
80362,-40,4,1,0,100,0,1
80443,648.648648648649,4,1,0,100,1,1
80443,-40,4,1,0,100,0,1
80524,648.648648648649,4,1,0,100,1,1
80524,-40,4,1,0,100,0,1
80605,648.648648648649,4,1,0,100,1,1
80605,-40,4,1,0,100,0,1
80686,648.648648648649,4,1,0,100,1,1
80686,-40,4,1,0,100,0,1
80770,1E+302,4,1,0,100,1,0
81095,648.648648648649,4,1,0,100,1,1
81095,-40,4,1,0,100,0,1
81176,648.648648648649,4,1,0,100,1,1
81176,-40,4,1,0,100,0,1
81257,648.648648648649,4,1,0,100,1,1
81257,-40,4,1,0,100,0,1
81338,648.648648648649,4,1,0,100,1,1
81338,-40,4,1,0,100,0,1
81419,648.648648648649,4,1,0,100,1,1
81419,-40,4,1,0,100,0,1
81500,648.648648648649,4,1,0,100,1,1
81500,-40,4,1,0,100,0,1
81581,648.648648648649,4,1,0,100,1,1
81581,-40,4,1,0,100,0,1
81662,648.648648648649,4,1,0,100,1,1
81662,-40,4,1,0,100,0,1
81743,648.648648648649,4,1,0,100,1,1
81743,-40,4,1,0,100,0,1
81824,648.648648648649,4,1,0,100,1,1
81824,-40,4,1,0,100,0,1
81905,648.648648648649,4,1,0,100,1,1
81905,-40,4,1,0,100,0,1
81986,648.648648648649,4,1,0,100,1,1
81986,-40,4,1,0,100,0,1
82066,648.648648648649,4,1,0,100,1,1
82066,-40,4,1,0,100,0,1
82147,648.648648648649,4,1,0,100,1,1
82147,-40,4,1,0,100,0,1
82228,648.648648648649,4,1,0,100,1,1
82228,-40,4,1,0,100,0,1
82309,648.648648648649,4,1,0,100,1,1
82309,-40,4,1,0,100,0,1
82390,648.648648648649,4,1,0,100,1,1
82390,-40,4,1,0,100,0,1
82471,648.648648648649,4,1,0,100,1,1
82471,-40,4,1,0,100,0,1
82552,648.648648648649,4,1,0,100,1,1
82552,-40,4,1,0,100,0,1
82633,648.648648648649,4,1,0,100,1,1
82633,-40,4,1,0,100,0,1
82714,648.648648648649,4,1,0,100,1,1
82714,-40,4,1,0,100,0,1
82795,648.648648648649,4,1,0,100,1,1
82795,-40,4,1,0,100,0,1
82875,648.648648648649,4,1,0,100,1,1
82875,-40,4,1,0,100,0,1
82956,648.648648648649,4,1,0,100,1,1
82956,-40,4,1,0,100,0,1
83041,1E+302,4,1,0,100,1,0
83690,324.324324324324,4,1,0,100,1,1
83690,-66.6666666666667,4,1,0,100,0,1
83691,-133.333333333333,4,1,0,100,0,1
83771,-66.6666666666667,4,1,0,100,0,1
83772,-133.333333333333,4,1,0,100,0,1
83852,-66.6666666666667,4,1,0,100,0,1
83853,-133.333333333333,4,1,0,100,0,1
83933,-66.6666666666667,4,1,0,100,0,1
83934,-133.333333333333,4,1,0,100,0,1
84014,-66.6666666666667,4,1,0,100,0,1
84015,-133.333333333333,4,1,0,100,0,1
84176,-66.6666666666667,4,1,0,100,0,1
84177,-133.333333333333,4,1,0,100,0,1
84257,-66.6666666666667,4,1,0,100,0,1
84258,-133.333333333333,4,1,0,100,0,1
84338,-66.6666666666667,4,1,0,100,0,1
84339,-133.333333333333,4,1,0,100,0,1
84419,-66.6666666666667,4,1,0,100,0,1
84420,-133.333333333333,4,1,0,100,0,1
84500,-66.6666666666667,4,1,0,100,0,1
84501,-133.333333333333,4,1,0,100,0,1
84581,-66.6666666666667,4,1,0,100,0,1
84582,-133.333333333333,4,1,0,100,0,1
84662,-66.6666666666667,4,1,0,100,0,1
84663,-133.333333333333,4,1,0,100,0,1
84744,-66.6666666666667,4,1,0,100,0,1
84745,-133.333333333333,4,1,0,100,0,1
84825,-66.6666666666667,4,1,0,100,0,1
84826,-133.333333333333,4,1,0,100,0,1
84906,-66.6666666666667,4,1,0,100,0,1
84907,-133.333333333333,4,1,0,100,0,1
84987,-66.6666666666667,4,1,0,100,0,1
84988,-133.333333333333,4,1,0,100,0,1
85149,-66.6666666666667,4,1,0,100,0,1
85150,-133.333333333333,4,1,0,100,0,1
85230,-66.6666666666667,4,1,0,100,0,1
85231,-133.333333333333,4,1,0,100,0,1
85311,-66.6666666666667,4,1,0,100,0,1
85312,-133.333333333333,4,1,0,100,0,1
85365,-66.6666666666667,4,1,0,100,0,1
85366,-133.333333333333,4,1,0,100,0,1
85419,-66.6666666666667,4,1,0,100,0,1
85420,-133.333333333333,4,1,0,100,0,1
85473,-66.6666666666667,4,1,0,100,0,1
85473,-66.6666666666667,4,1,0,100,0,1
85474,-133.333333333333,4,1,0,100,0,1
85474,-133.333333333333,4,1,0,100,0,1
85554,-66.6666666666667,4,1,0,100,0,1
85555,-133.333333333333,4,1,0,100,0,1
85635,-66.6666666666667,4,1,0,100,0,1
85636,-133.333333333333,4,1,0,100,0,1
85717,-66.6666666666667,4,1,0,100,0,1
85718,-133.333333333333,4,1,0,100,0,1
85798,-66.6666666666667,4,1,0,100,0,1
85799,-133.333333333333,4,1,0,100,0,1
85959,1E+302,4,1,0,100,1,0
86284,324.324324324324,4,1,0,100,1,1
86284,-66.6666666666667,4,1,0,100,0,1
86285,-133.333333333333,4,1,0,100,0,1
86446,-66.6666666666667,4,1,0,100,0,1
86447,-133.333333333333,4,1,0,100,0,1
86527,-66.6666666666667,4,1,0,100,0,1
86528,-133.333333333333,4,1,0,100,0,1
86608,-66.6666666666667,4,1,0,100,0,1
86609,-133.333333333333,4,1,0,100,0,1
86689,-66.6666666666667,4,1,0,100,0,1
86690,-133.333333333333,4,1,0,100,0,1
86770,-66.6666666666667,4,1,0,100,0,1
86771,-133.333333333333,4,1,0,100,0,1
86932,-66.6666666666667,4,1,0,100,0,1
86933,-133.333333333333,4,1,0,100,0,1
87094,-66.6666666666667,4,1,0,100,0,1
87095,-133.333333333333,4,1,0,100,0,1
87175,-66.6666666666667,4,1,0,100,0,1
87176,-133.333333333333,4,1,0,100,0,1
87256,-66.6666666666667,4,1,0,100,0,1
87257,-133.333333333333,4,1,0,100,0,1
87338,-66.6666666666667,4,1,0,100,0,1
87339,-133.333333333333,4,1,0,100,0,1
87419,-66.6666666666667,4,1,0,100,0,1
87420,-133.333333333333,4,1,0,100,0,1
87500,-66.6666666666667,4,1,0,100,0,1
87501,-133.333333333333,4,1,0,100,0,1
87581,-66.6666666666667,4,1,0,100,0,1
87582,-133.333333333333,4,1,0,100,0,1
87743,-66.6666666666667,4,1,0,100,0,1
87744,-133.333333333333,4,1,0,100,0,1
87797,-66.6666666666667,4,1,0,100,0,1
87798,-133.333333333333,4,1,0,100,0,1
87851,-66.6666666666667,4,1,0,100,0,1
87852,-133.333333333333,4,1,0,100,0,1
87905,-66.6666666666667,4,1,0,100,0,1
87906,-133.333333333333,4,1,0,100,0,1
87986,-66.6666666666667,4,1,0,100,0,1
87987,-133.333333333333,4,1,0,100,0,1
88067,-66.6666666666667,4,1,0,100,0,1
88068,-133.333333333333,4,1,0,100,0,1
88148,-66.6666666666667,4,1,0,100,0,1
88149,-133.333333333333,4,1,0,100,0,1
88229,-66.6666666666667,4,1,0,100,0,1
88230,-133.333333333333,4,1,0,100,0,1
88392,-66.6666666666667,4,1,0,100,0,1
88393,-133.333333333333,4,1,0,100,0,1
88554,1E+302,4,1,0,100,1,0
88879,324.324324324324,4,1,0,100,1,1
88879,-66.6666666666667,4,1,0,100,0,1
88880,-133.333333333333,4,1,0,100,0,1
88960,-66.6666666666667,4,1,0,100,0,1
88961,-133.333333333333,4,1,0,100,0,1
89041,-66.6666666666667,4,1,0,100,0,1
89042,-133.333333333333,4,1,0,100,0,1
89203,-66.6666666666667,4,1,0,100,0,1
89204,-133.333333333333,4,1,0,100,0,1
89365,-66.6666666666667,4,1,0,100,0,1
89366,-133.333333333333,4,1,0,100,0,1
89446,-66.6666666666667,4,1,0,100,0,1
89447,-133.333333333333,4,1,0,100,0,1
89527,-66.6666666666667,4,1,0,100,0,1
89528,-133.333333333333,4,1,0,100,0,1
89689,-66.6666666666667,4,1,0,100,0,1
89690,-133.333333333333,4,1,0,100,0,1
89770,-66.6666666666667,4,1,0,100,0,1
89771,-133.333333333333,4,1,0,100,0,1
89851,-66.6666666666667,4,1,0,100,0,1
89852,-133.333333333333,4,1,0,100,0,1
89933,-66.6666666666667,4,1,0,100,0,1
89934,-133.333333333333,4,1,0,100,0,1
90014,-66.6666666666667,4,1,0,100,0,1
90015,-133.333333333333,4,1,0,100,0,1
90176,-66.6666666666667,4,1,0,100,0,1
90177,-133.333333333333,4,1,0,100,0,1
90257,-66.6666666666667,4,1,0,100,0,1
90258,-133.333333333333,4,1,0,100,0,1
90338,-66.6666666666667,4,1,0,100,0,1
90339,-133.333333333333,4,1,0,100,0,1
90419,-66.6666666666667,4,1,0,100,0,1
90420,-133.333333333333,4,1,0,100,0,1
90500,-66.6666666666667,4,1,0,100,0,1
90501,-133.333333333333,4,1,0,100,0,1
90581,-66.6666666666667,4,1,0,100,0,1
90582,-133.333333333333,4,1,0,100,0,1
90662,-66.6666666666667,4,1,0,100,0,1
90663,-133.333333333333,4,1,0,100,0,1
90716,-66.6666666666667,4,1,0,100,0,1
90717,-133.333333333333,4,1,0,100,0,1
90770,-66.6666666666667,4,1,0,100,0,1
90771,-133.333333333333,4,1,0,100,0,1
90824,-66.6666666666667,4,1,0,100,0,1
90825,-133.333333333333,4,1,0,100,0,1
90987,-66.6666666666667,4,1,0,100,0,1
90988,-133.333333333333,4,1,0,100,0,1
91148,1E+302,4,1,0,100,1,0
91473,324.324324324324,4,1,0,100,1,1
91473,-66.6666666666667,4,1,0,100,0,1
91474,-133.333333333333,4,1,0,100,0,1
91554,-66.6666666666667,4,1,0,100,0,1
91555,-133.333333333333,4,1,0,100,0,1
91635,-66.6666666666667,4,1,0,100,0,1
91636,-133.333333333333,4,1,0,100,0,1
91716,-66.6666666666667,4,1,0,100,0,1
91717,-133.333333333333,4,1,0,100,0,1
91797,-66.6666666666667,4,1,0,100,0,1
91798,-133.333333333333,4,1,0,100,0,1
91878,-66.6666666666667,4,1,0,100,0,1
91879,-133.333333333333,4,1,0,100,0,1
91959,-66.6666666666667,4,1,0,100,0,1
91960,-133.333333333333,4,1,0,100,0,1
92040,-66.6666666666667,4,1,0,100,0,1
92041,-133.333333333333,4,1,0,100,0,1
92121,-66.6666666666667,4,1,0,100,0,1
92122,-133.333333333333,4,1,0,100,0,1
92283,-66.6666666666667,4,1,0,100,0,1
92284,-133.333333333333,4,1,0,100,0,1
92364,-66.6666666666667,4,1,0,100,0,1
92365,-133.333333333333,4,1,0,100,0,1
92445,-66.6666666666667,4,1,0,100,0,1
92446,-133.333333333333,4,1,0,100,0,1
92500,-66.6666666666667,4,1,0,100,0,1
92501,-133.333333333333,4,1,0,100,0,1
92554,-66.6666666666667,4,1,0,100,0,1
92555,-133.333333333333,4,1,0,100,0,1
92608,-66.6666666666667,4,1,0,100,0,1
92609,-133.333333333333,4,1,0,100,0,1
92689,-66.6666666666667,4,1,0,100,0,1
92690,-133.333333333333,4,1,0,100,0,1
92770,-66.6666666666667,4,1,0,100,0,1
92771,-133.333333333333,4,1,0,100,0,1
92851,-66.6666666666667,4,1,0,100,0,1
92852,-133.333333333333,4,1,0,100,0,1
92932,-66.6666666666667,4,1,0,100,0,1
92933,-133.333333333333,4,1,0,100,0,1
93013,-66.6666666666667,4,1,0,100,0,1
93014,-133.333333333333,4,1,0,100,0,1
93094,-66.6666666666667,4,1,0,100,0,1
93095,-133.333333333333,4,1,0,100,0,1
93148,-66.6666666666667,4,1,0,100,0,1
93149,-133.333333333333,4,1,0,100,0,1
93202,-66.6666666666667,4,1,0,100,0,1
93203,-133.333333333333,4,1,0,100,0,1
93256,-66.6666666666667,4,1,0,100,0,1
93257,-133.333333333333,4,1,0,100,0,1
93337,-66.6666666666667,4,1,0,100,0,1
93338,-133.333333333333,4,1,0,100,0,1
93418,-66.6666666666667,4,1,0,100,0,1
93419,-133.333333333333,4,1,0,100,0,1
93500,-66.6666666666667,4,1,0,100,0,1
93501,-133.333333333333,4,1,0,100,0,1
93581,-66.6666666666667,4,1,0,100,0,1
93582,-133.333333333333,4,1,0,100,0,1
93662,-66.6666666666667,4,1,0,100,0,1
93663,-133.333333333333,4,1,0,100,0,1
93743,1E+302,4,1,0,100,1,0
95365,324.324324324324,4,1,0,100,1,0

[Colours]
Combo1 : 133,24,82
Combo2 : 96,61,99
Combo3 : 252,143,143
Combo4 : 234,69,21

[HitObjects]
256,192,663,5,0,0:0:0:0:
256,192,826,1,0,0:0:0:0:
256,192,988,1,8,0:0:0:0:
256,192,1150,1,0,0:0:0:0:
256,192,1231,1,0,0:0:0:0:
256,192,1312,1,0,0:0:0:0:
256,192,1392,2,0,L,1,0.01
256,192,1474,1,0,0:0:0:0:
256,192,1636,1,8,0:0:0:0:
256,192,1799,1,0,0:0:0:0:
256,192,1880,1,0,0:0:0:0:
256,192,1961,5,0,0:0:0:0:
256,192,2041,2,0,L,1,0.01
256,192,2123,1,0,0:0:0:0:
256,192,2285,1,8,0:0:0:0:
256,192,2447,1,0,0:0:0:0:
256,192,2528,1,0,0:0:0:0:
256,192,2609,1,0,0:0:0:0:
256,192,2691,1,0,0:0:0:0:
256,192,2772,1,0,0:0:0:0:
256,192,2934,1,8,0:0:0:0:
256,192,3096,1,0,0:0:0:0:
256,192,3176,2,0,L,1,0.01
256,192,3258,5,0,0:0:0:0:
256,192,3420,1,0,0:0:0:0:
256,192,3582,1,8,0:0:0:0:
256,192,3745,1,0,0:0:0:0:
256,192,3826,1,0,0:0:0:0:
256,192,3907,1,0,0:0:0:0:
256,192,3987,2,0,L,1,0.01
256,192,4069,1,0,0:0:0:0:
256,192,4231,1,8,0:0:0:0:
256,192,4393,1,0,0:0:0:0:
256,192,4474,1,0,0:0:0:0:
256,192,4555,5,0,0:0:0:0:
256,192,4635,2,0,L,1,0.01
256,192,4718,1,0,0:0:0:0:
256,192,4880,1,8,0:0:0:0:
256,192,5042,1,0,0:0:0:0:
256,192,5123,1,0,0:0:0:0:
256,192,5204,1,0,0:0:0:0:
256,192,5285,1,0,0:0:0:0:
256,192,5366,1,0,0:0:0:0:
256,192,5528,1,8,0:0:0:0:
256,192,5609,1,0,0:0:0:0:
256,192,5691,1,8,0:0:0:0:
256,192,5772,1,8,0:0:0:0:
256,192,5853,5,0,0:0:0:0:
256,192,6015,1,0,0:0:0:0:
256,192,6095,2,0,L,1,0.01
256,192,6177,1,8,0:0:0:0:
256,192,6339,1,0,0:0:0:0:
256,192,6420,1,0,0:0:0:0:
256,192,6501,1,0,0:0:0:0:
256,192,6663,1,0,0:0:0:0:
256,192,6744,2,0,L,1,0.01
256,192,6826,1,8,0:0:0:0:
256,192,6988,1,0,0:0:0:0:
256,192,7069,1,0,0:0:0:0:
256,192,7150,5,0,0:0:0:0:
256,192,7312,1,0,0:0:0:0:
256,192,7392,2,0,L,1,0.01
256,192,7474,1,8,0:0:0:0:
256,192,7636,1,0,0:0:0:0:
256,192,7718,1,0,0:0:0:0:
256,192,7799,1,0,0:0:0:0:
256,192,7880,1,0,0:0:0:0:
256,192,7961,1,0,0:0:0:0:
256,192,8123,1,8,0:0:0:0:
256,192,8285,1,0,0:0:0:0:
256,192,8366,1,0,0:0:0:0:
256,192,8447,5,0,0:0:0:0:
256,192,8609,1,0,0:0:0:0:
256,192,8690,2,0,L,1,0.01
256,192,8772,1,8,0:0:0:0:
256,192,8934,1,0,0:0:0:0:
256,192,9015,1,0,0:0:0:0:
256,192,9096,1,0,0:0:0:0:
256,192,9258,1,0,0:0:0:0:
256,192,9338,2,0,L,1,0.01
256,192,9420,1,8,0:0:0:0:
256,192,9582,1,0,0:0:0:0:
256,192,9663,1,0,0:0:0:0:
256,192,9745,5,0,0:0:0:0:
256,192,9907,1,0,0:0:0:0:
256,192,9987,2,0,L,1,0.01
256,192,10069,1,8,0:0:0:0:
256,192,10231,1,0,0:0:0:0:
256,192,10312,1,0,0:0:0:0:
256,192,10393,1,0,0:0:0:0:
256,192,10555,1,0,0:0:0:0:
256,192,10636,1,0,0:0:0:0:
256,192,10718,1,8,0:0:0:0:
256,192,10880,1,0,0:0:0:0:
256,192,11042,5,4,0:0:0:0:
256,192,11204,1,8,0:0:0:0:
256,192,11285,1,0,0:0:0:0:
256,192,11366,1,0,0:0:0:0:
256,192,11446,2,0,L,1,0.01
256,192,11528,1,8,0:0:0:0:
256,192,11691,1,0,0:0:0:0:
256,192,11771,2,0,L,1,0.01
256,192,11853,1,8,0:0:0:0:
256,192,11934,1,0,0:0:0:0:
256,192,12015,1,0,0:0:0:0:
256,192,12177,1,8,0:0:0:0:
256,192,12258,1,8,0:0:0:0:
256,192,12339,5,0,0:0:0:0:
256,192,12420,1,0,0:0:0:0:
256,192,12501,1,8,0:0:0:0:
256,192,12663,1,0,0:0:0:0:
256,192,12744,2,0,L,1,0.01
256,192,12826,1,8,0:0:0:0:
256,192,12906,2,0,L,1,0.01
256,192,12988,1,0,0:0:0:0:
256,192,13069,1,0,0:0:0:0:
256,192,13150,1,8,0:0:0:0:
256,192,13312,1,0,0:0:0:0:
256,192,13392,2,0,L,1,0.01
256,192,13474,1,8,0:0:0:0:
256,192,13555,1,8,0:0:0:0:
256,192,13636,5,0,0:0:0:0:
256,192,13799,1,8,0:0:0:0:
256,192,13880,1,0,0:0:0:0:
256,192,13961,1,0,0:0:0:0:
256,192,14041,2,0,L,1,0.01
256,192,14123,1,8,0:0:0:0:
256,192,14285,1,0,0:0:0:0:
256,192,14365,2,0,L,1,0.01
256,192,14447,1,8,0:0:0:0:
256,192,14528,1,0,0:0:0:0:
256,192,14609,1,0,0:0:0:0:
256,192,14772,1,8,0:0:0:0:
256,192,14853,1,8,0:0:0:0:
256,192,14934,5,0,0:0:0:0:
256,192,15015,1,0,0:0:0:0:
256,192,15096,1,8,0:0:0:0:
256,192,15176,2,0,L,1,0.01
256,192,15258,1,0,0:0:0:0:
256,192,15420,1,8,0:0:0:0:
256,192,15500,2,0,L,1,0.01
256,192,15582,1,0,0:0:0:0:
256,192,15663,1,0,0:0:0:0:
256,192,15745,1,8,0:0:0:0:
256,192,15907,1,0,0:0:0:0:
256,192,15987,2,0,L,1,0.01
256,192,16069,1,8,0:0:0:0:
256,192,16231,5,4,0:0:0:0:
256,192,16393,1,0,0:0:0:0:
256,192,16555,1,0,0:0:0:0:
256,192,16718,1,0,0:0:0:0:
256,192,16880,1,0,0:0:0:0:
256,192,17042,1,0,0:0:0:0:
256,192,17204,1,0,0:0:0:0:
256,192,17366,1,0,0:0:0:0:
256,192,17447,1,0,0:0:0:0:
256,192,17528,1,0,0:0:0:0:
256,192,17691,1,8,0:0:0:0:
256,192,17853,1,0,0:0:0:0:
256,192,17934,1,0,0:0:0:0:
256,192,18015,1,8,0:0:0:0:
256,192,18177,1,0,0:0:0:0:
256,192,18339,1,8,0:0:0:0:
256,192,18501,1,0,0:0:0:0:
256,192,18582,1,0,0:0:0:0:
256,192,18663,1,8,0:0:0:0:
256,192,18826,5,0,0:0:0:0:
256,192,18907,1,0,0:0:0:0:
256,192,18988,1,0,0:0:0:0:
256,192,19069,1,0,0:0:0:0:
256,192,19150,1,8,0:0:0:0:
256,192,19231,1,0,0:0:0:0:
256,192,19312,1,0,0:0:0:0:
256,192,19393,1,0,0:0:0:0:
256,192,19474,1,8,0:0:0:0:
256,192,19528,1,8,0:0:0:0:
256,192,19582,1,8,0:0:0:0:
256,192,19636,1,0,0:0:0:0:
256,192,19718,1,0,0:0:0:0:
256,192,19799,1,8,0:0:0:0:
256,192,19880,1,0,0:0:0:0:
256,192,19961,1,0,0:0:0:0:
256,192,20042,1,0,0:0:0:0:
256,192,20123,12,0,21258,0:0:0:0:
256,192,21420,5,4,0:0:0:0:
256,192,21582,2,0,L,1,0.01
256,192,21582,1,8,0:0:0:0:
256,192,21744,1,0,0:0:0:0:
256,192,21906,1,0,0:0:0:0:
256,192,21987,1,0,0:0:0:0:
256,192,22068,2,0,L,1,0.01
256,192,22068,1,8,0:0:0:0:
256,192,22149,1,0,0:0:0:0:
256,192,22230,2,0,L,1,0.01
256,192,22230,1,8,0:0:0:0:
256,192,22392,2,0,L,1,0.01
256,192,22392,1,8,0:0:0:0:
256,192,22474,1,8,0:0:0:0:
256,192,22474,2,0,L,1,0.01
256,192,22555,1,0,0:0:0:0:
256,192,22636,2,0,L,1,0.01
256,192,22636,1,8,0:0:0:0:
256,192,22717,5,0,0:0:0:0:
256,192,22879,1,0,0:0:0:0:
256,192,22960,1,0,0:0:0:0:
256,192,23041,1,8,0:0:0:0:
256,192,23041,2,0,L,1,0.01
256,192,23122,1,0,0:0:0:0:
256,192,23203,2,0,L,1,0.01
256,192,23203,1,8,0:0:0:0:
256,192,23284,1,8,0:0:0:0:
256,192,23284,2,0,L,1,0.01
256,192,23365,1,0,0:0:0:0:
256,192,23528,1,0,0:0:0:0:
256,192,23690,1,8,0:0:0:0:
256,192,24015,5,4,0:0:0:0:
256,192,24015,2,4,L,1,0.01
256,192,24177,1,8,0:0:0:0:
256,192,24339,2,0,L,1,0.01
256,192,24339,1,0,0:0:0:0:
256,192,24420,1,0,0:0:0:0:
256,192,24420,2,0,L,1,0.01
256,192,24501,1,8,0:0:0:0:
256,192,24582,2,0,L,1,0.01
256,192,24582,1,0,0:0:0:0:
256,192,24663,1,8,0:0:0:0:
256,192,24744,1,8,0:0:0:0:
256,192,24825,1,0,0:0:0:0:
256,192,24825,2,0,L,1,0.01
256,192,24906,2,0,L,1,0.01
256,192,24906,1,0,0:0:0:0:
256,192,24987,1,8,0:0:0:0:
256,192,25069,1,0,0:0:0:0:
256,192,25069,2,0,L,1,0.01
256,192,25150,1,8,0:0:0:0:
256,192,25312,2,0,L,1,0.01
256,192,25312,1,0,0:0:0:0:
256,192,25474,1,8,0:0:0:0:
256,192,25555,1,8,0:0:0:0:
256,192,25636,1,0,0:0:0:0:
256,192,25636,2,0,L,1,0.01
256,192,25717,2,0,L,1,0.01
256,192,25717,1,0,0:0:0:0:
256,192,25798,1,8,0:0:0:0:
256,192,25960,1,0,0:0:0:0:
256,192,25960,2,0,L,1,0.01
256,192,26042,1,0,0:0:0:0:
256,192,26042,2,0,L,1,0.01
256,192,26123,1,8,0:0:0:0:
256,192,26284,1,8,0:0:0:0:
256,192,26609,5,4,0:0:0:0:
256,192,26771,1,8,0:0:0:0:
256,192,26771,2,0,L,1,0.01
256,192,26933,1,0,0:0:0:0:
256,192,27095,1,0,0:0:0:0:
256,192,27176,1,0,0:0:0:0:
256,192,27257,2,0,L,1,0.01
256,192,27257,1,8,0:0:0:0:
256,192,27338,1,0,0:0:0:0:
256,192,27419,1,8,0:0:0:0:
256,192,27419,2,0,L,1,0.01
256,192,27581,2,0,L,1,0.01
256,192,27581,1,8,0:0:0:0:
256,192,27663,1,8,0:0:0:0:
256,192,27663,2,0,L,1,0.01
256,192,27744,1,0,0:0:0:0:
256,192,27825,2,0,L,1,0.01
256,192,27825,1,8,0:0:0:0:
256,192,27906,5,0,0:0:0:0:
256,192,28068,1,0,0:0:0:0:
256,192,28149,1,0,0:0:0:0:
256,192,28230,1,8,0:0:0:0:
256,192,28230,2,0,L,1,0.01
256,192,28311,1,0,0:0:0:0:
256,192,28392,2,0,L,1,0.01
256,192,28392,1,8,0:0:0:0:
256,192,28473,1,8,0:0:0:0:
256,192,28473,2,0,L,1,0.01
256,192,28554,1,0,0:0:0:0:
256,192,28717,1,0,0:0:0:0:
256,192,28879,1,8,0:0:0:0:
256,192,29204,5,4,0:0:0:0:
256,192,29204,6,4,L,1,0.01
256,192,29366,1,8,0:0:0:0:
256,192,29528,2,0,L,1,0.01
256,192,29528,1,0,0:0:0:0:
256,192,29609,1,0,0:0:0:0:
256,192,29609,2,0,L,1,0.01
256,192,29690,1,8,0:0:0:0:
256,192,29771,2,0,L,1,0.01
256,192,29771,1,0,0:0:0:0:
256,192,29852,1,8,0:0:0:0:
256,192,29933,1,8,0:0:0:0:
256,192,30014,1,0,0:0:0:0:
256,192,30014,2,0,L,1,0.01
256,192,30095,2,0,L,1,0.01
256,192,30095,1,0,0:0:0:0:
256,192,30176,1,8,0:0:0:0:
256,192,30258,1,0,0:0:0:0:
256,192,30258,2,0,L,1,0.01
256,192,30339,1,8,0:0:0:0:
256,192,30501,2,0,L,1,0.01
256,192,30501,1,0,0:0:0:0:
256,192,30663,1,8,0:0:0:0:
256,192,30744,1,8,0:0:0:0:
256,192,30825,1,0,0:0:0:0:
256,192,30825,2,0,L,1,0.01
256,192,30987,1,8,0:0:0:0:
256,192,31150,1,0,0:0:0:0:
256,192,31312,1,0,0:0:0:0:
256,192,31474,1,8,0:0:0:0:
256,192,31636,1,8,0:0:0:0:
256,192,31799,5,4,0:0:0:0:
256,192,31961,1,8,0:0:0:0:
256,192,31961,2,0,L,1,0.01
256,192,32123,1,0,0:0:0:0:
256,192,32285,1,0,0:0:0:0:
256,192,32366,1,0,0:0:0:0:
256,192,32447,2,0,L,1,0.01
256,192,32447,1,8,0:0:0:0:
256,192,32528,1,0,0:0:0:0:
256,192,32609,1,8,0:0:0:0:
256,192,32609,2,0,L,1,0.01
256,192,32771,2,0,L,1,0.01
256,192,32771,1,8,0:0:0:0:
256,192,32853,1,8,0:0:0:0:
256,192,32853,2,0,L,1,0.01
256,192,32934,1,0,0:0:0:0:
256,192,33015,2,0,L,1,0.01
256,192,33015,1,8,0:0:0:0:
256,192,33096,5,0,0:0:0:0:
256,192,33258,1,0,0:0:0:0:
256,192,33339,1,0,0:0:0:0:
256,192,33420,1,8,0:0:0:0:
256,192,33420,2,0,L,1,0.01
256,192,33501,1,0,0:0:0:0:
256,192,33582,2,0,L,1,0.01
256,192,33582,1,8,0:0:0:0:
256,192,33663,1,8,0:0:0:0:
256,192,33663,2,0,L,1,0.01
256,192,33744,1,0,0:0:0:0:
256,192,33907,1,0,0:0:0:0:
256,192,34068,1,8,0:0:0:0:
256,192,34393,5,4,0:0:0:0:
256,192,34393,2,4,L,1,0.01
256,192,34555,1,8,0:0:0:0:
256,192,34717,2,0,L,1,0.01
256,192,34717,1,0,0:0:0:0:
256,192,34798,1,0,0:0:0:0:
256,192,34798,2,0,L,1,0.01
256,192,34879,1,8,0:0:0:0:
256,192,34960,2,0,L,1,0.01
256,192,34960,1,0,0:0:0:0:
256,192,35041,1,8,0:0:0:0:
256,192,35122,1,8,0:0:0:0:
256,192,35203,1,0,0:0:0:0:
256,192,35203,2,0,L,1,0.01
256,192,35284,2,0,L,1,0.01
256,192,35284,1,0,0:0:0:0:
256,192,35365,1,8,0:0:0:0:
256,192,35447,1,0,0:0:0:0:
256,192,35447,2,0,L,1,0.01
256,192,35528,1,8,0:0:0:0:
256,192,35690,2,0,L,1,0.01
256,192,35690,1,0,0:0:0:0:
256,192,35852,1,8,0:0:0:0:
256,192,35933,1,8,0:0:0:0:
256,192,36014,1,0,0:0:0:0:
256,192,36014,2,0,L,1,0.01
256,192,36095,2,0,L,1,0.01
256,192,36095,1,0,0:0:0:0:
256,192,36176,1,8,0:0:0:0:
256,192,36338,1,0,0:0:0:0:
256,192,36338,2,0,L,1,0.01
256,192,36420,2,0,L,1,0.01
256,192,36420,1,0,0:0:0:0:
256,192,36501,1,8,0:0:0:0:
256,192,36663,1,8,0:0:0:0:
256,192,36988,5,4,0:0:0:0:
256,192,37150,2,0,L,1,0.01
256,192,37150,1,8,0:0:0:0:
256,192,37312,1,0,0:0:0:0:
256,192,37474,1,0,0:0:0:0:
256,192,37555,1,0,0:0:0:0:
256,192,37636,1,8,0:0:0:0:
256,192,37636,2,0,L,1,0.01
256,192,37717,1,0,0:0:0:0:
256,192,37798,2,0,L,1,0.01
256,192,37798,1,8,0:0:0:0:
256,192,37960,1,8,0:0:0:0:
256,192,37960,2,0,L,1,0.01
256,192,38042,2,0,L,1,0.01
256,192,38042,1,8,0:0:0:0:
256,192,38123,1,0,0:0:0:0:
256,192,38204,1,8,0:0:0:0:
256,192,38204,2,0,L,1,0.01
256,192,38285,5,0,0:0:0:0:
256,192,38447,1,0,0:0:0:0:
256,192,38528,1,0,0:0:0:0:
256,192,38609,2,0,L,1,0.01
256,192,38609,1,8,0:0:0:0:
256,192,38690,1,0,0:0:0:0:
256,192,38771,1,8,0:0:0:0:
256,192,38771,2,0,L,1,0.01
256,192,38852,2,0,L,1,0.01
256,192,38852,1,8,0:0:0:0:
256,192,38933,1,0,0:0:0:0:
256,192,39096,1,0,0:0:0:0:
256,192,39258,1,8,0:0:0:0:
256,192,39582,5,4,0:0:0:0:
256,192,39582,2,4,L,1,0.01
256,192,39744,1,8,0:0:0:0:
256,192,39906,2,0,L,1,0.01
256,192,39906,1,0,0:0:0:0:
256,192,39987,1,8,0:0:0:0:
256,192,40068,1,8,0:0:0:0:
256,192,40149,1,8,0:0:0:0:
256,192,40230,1,0,0:0:0:0:
256,192,40230,2,0,L,1,0.01
256,192,40311,2,0,L,1,0.01
256,192,40311,1,0,0:0:0:0:
256,192,40392,1,8,0:0:0:0:
256,192,40554,1,0,0:0:0:0:
256,192,40554,2,0,L,1,0.01
256,192,40717,1,8,0:0:0:0:
256,192,40879,2,0,L,1,0.01
256,192,40879,1,0,0:0:0:0:
256,192,40960,1,0,0:0:0:0:
256,192,40960,2,0,L,1,0.01
256,192,41041,1,8,0:0:0:0:
256,192,41203,2,0,L,1,0.01
256,192,41203,1,0,0:0:0:0:
256,192,41365,1,8,0:0:0:0:
256,192,41528,5,0,0:0:0:0:
256,192,41852,1,0,0:0:0:0:
256,192,42177,5,8,0:0:0:0:
256,192,44122,1,0,0:0:0:0:
256,192,44285,1,0,0:0:0:0:
256,192,44447,1,0,0:0:0:0:
256,192,44609,1,0,0:0:0:0:
256,192,44771,1,8,0:0:0:0:
256,192,44933,1,8,0:0:0:0:
256,192,45095,1,8,0:0:0:0:
256,192,45258,1,0,0:0:0:0:
256,192,45582,1,8,0:0:0:0:
256,192,45906,1,8,0:0:0:0:
256,192,46231,1,0,0:0:0:0:
256,192,46879,1,0,0:0:0:0:
256,192,47041,1,8,0:0:0:0:
256,192,47204,1,0,0:0:0:0:
256,192,48176,1,0,0:0:0:0:
256,192,48501,1,8,0:0:0:0:
256,192,48987,1,0,0:0:0:0:
256,192,49149,1,8,0:0:0:0:
256,192,49312,1,0,0:0:0:0:
256,192,49474,1,0,0:0:0:0:
256,192,49636,1,8,0:0:0:0:
256,192,49960,5,8,0:0:0:0:
256,192,50203,2,0,L,1,0.01
256,192,50285,1,0,0:0:0:0:
256,192,50366,1,0,0:0:0:0:
256,192,50447,1,8,0:0:0:0:
256,192,50689,2,0,L,1,0.01
256,192,50771,1,0,0:0:0:0:
256,192,50852,1,0,0:0:0:0:
256,192,50933,1,8,0:0:0:0:
256,192,51095,12,0,52393,0:0:0:0:
256,192,52555,5,0,0:0:0:0:
256,192,52635,2,0,L,1,0.01
256,192,52717,1,8,0:0:0:0:
256,192,52879,1,0,0:0:0:0:
256,192,52960,1,0,0:0:0:0:
256,192,53041,1,8,0:0:0:0:
256,192,53121,2,0,L,1,0.01
256,192,53204,1,0,0:0:0:0:
256,192,53366,1,8,0:0:0:0:
256,192,53528,1,0,0:0:0:0:
256,192,53608,2,0,L,1,0.01
256,192,53690,1,8,0:0:0:0:
256,192,53771,1,8,0:0:0:0:
256,192,53852,1,0,0:0:0:0:
256,192,54014,1,8,0:0:0:0:
256,192,54094,2,0,L,1,0.01
256,192,54176,1,0,0:0:0:0:
256,192,54258,1,0,0:0:0:0:
256,192,54339,1,8,0:0:0:0:
256,192,54501,1,0,0:0:0:0:
256,192,54581,2,0,L,1,0.01
256,192,54663,1,8,0:0:0:0:
256,192,54825,1,0,0:0:0:0:
256,192,54906,1,0,0:0:0:0:
256,192,54987,1,8,0:0:0:0:
256,192,55068,1,8,0:0:0:0:
256,192,55149,5,0,0:0:0:0:
256,192,55230,2,0,L,1,0.01
256,192,55312,1,8,0:0:0:0:
256,192,55474,1,0,0:0:0:0:
256,192,55555,1,0,0:0:0:0:
256,192,55636,1,8,0:0:0:0:
256,192,55798,1,0,0:0:0:0:
256,192,55878,2,0,L,1,0.01
256,192,55960,1,8,0:0:0:0:
256,192,56041,1,8,0:0:0:0:
256,192,56122,1,0,0:0:0:0:
256,192,56285,1,8,0:0:0:0:
256,192,56447,1,0,0:0:0:0:
256,192,56528,1,0,0:0:0:0:
256,192,56609,1,8,0:0:0:0:
256,192,56689,2,0,L,1,0.01
256,192,56771,1,0,0:0:0:0:
256,192,56933,1,8,0:0:0:0:
256,192,57014,1,0,0:0:0:0:
256,192,57095,1,0,0:0:0:0:
256,192,57258,1,8,0:0:0:0:
256,192,57339,1,0,0:0:0:0:
256,192,57420,1,0,0:0:0:0:
256,192,57501,1,0,0:0:0:0:
256,192,57582,1,8,0:0:0:0:
256,192,57744,5,4,0:0:0:0:
256,192,57906,1,0,0:0:0:0:
256,192,58068,1,0,0:0:0:0:
256,192,58231,1,0,0:0:0:0:
256,192,58393,1,0,0:0:0:0:
256,192,58555,1,0,0:0:0:0:
256,192,58717,1,0,0:0:0:0:
256,192,58879,1,0,0:0:0:0:
256,192,58960,1,0,0:0:0:0:
256,192,59041,1,0,0:0:0:0:
256,192,59204,1,8,0:0:0:0:
256,192,59366,1,0,0:0:0:0:
256,192,59447,1,0,0:0:0:0:
256,192,59528,1,8,0:0:0:0:
256,192,59690,1,0,0:0:0:0:
256,192,59852,1,8,0:0:0:0:
256,192,60014,1,0,0:0:0:0:
256,192,60095,1,0,0:0:0:0:
256,192,60176,1,8,0:0:0:0:
256,192,60339,5,0,0:0:0:0:
256,192,60420,1,0,0:0:0:0:
256,192,60501,1,0,0:0:0:0:
256,192,60582,1,0,0:0:0:0:
256,192,60663,1,8,0:0:0:0:
256,192,60744,1,0,0:0:0:0:
256,192,60825,1,0,0:0:0:0:
256,192,60905,1,0,0:0:0:0:
256,192,60987,1,8,0:0:0:0:
256,192,61041,1,8,0:0:0:0:
256,192,61095,1,8,0:0:0:0:
256,192,61149,1,0,0:0:0:0:
256,192,61231,1,0,0:0:0:0:
256,192,61312,1,8,0:0:0:0:
256,192,61393,1,0,0:0:0:0:
256,192,61474,1,0,0:0:0:0:
256,192,61555,1,0,0:0:0:0:
256,192,61636,5,0,0:0:0:0:
256,192,61798,1,0,0:0:0:0:
256,192,61960,1,8,0:0:0:0:
256,192,62041,1,8,0:0:0:0:
256,192,62122,1,0,0:0:0:0:
256,192,62204,1,0,0:0:0:0:
256,192,62285,1,8,0:0:0:0:
256,192,62366,1,0,0:0:0:0:
256,192,62447,1,8,0:0:0:0:
256,192,62501,1,8,0:0:0:0:
256,192,62555,1,8,0:0:0:0:
256,192,62609,1,0,0:0:0:0:
256,192,62933,5,4,0:0:0:0:
256,192,63094,1,8,0:0:0:0:
256,192,63096,2,0,L,1,0.01
256,192,63096,2,0,L,1,0.01
256,192,63096,2,0,L,1,0.01
256,192,63257,1,0,0:0:0:0:
256,192,63419,1,0,0:0:0:0:
256,192,63500,1,0,0:0:0:0:
256,192,63581,1,8,0:0:0:0:
256,192,63583,2,0,L,1,0.01
256,192,63583,2,0,L,1,0.01
256,192,63583,2,0,L,1,0.01
256,192,63663,1,0,0:0:0:0:
256,192,63743,1,8,0:0:0:0:
256,192,63745,2,0,L,1,0.01
256,192,63745,2,0,L,1,0.01
256,192,63745,2,0,L,1,0.01
256,192,63905,1,8,0:0:0:0:
256,192,63907,2,0,L,1,0.01
256,192,63907,2,0,L,1,0.01
256,192,63907,2,0,L,1,0.01
256,192,63986,1,8,0:0:0:0:
256,192,63988,2,0,L,1,0.01
256,192,63988,2,0,L,1,0.01
256,192,63988,2,0,L,1,0.01
256,192,64068,1,0,0:0:0:0:
256,192,64148,1,8,0:0:0:0:
256,192,64150,2,0,L,1,0.01
256,192,64150,2,0,L,1,0.01
256,192,64150,2,0,L,1,0.01
256,192,64231,1,0,0:0:0:0:
256,192,64393,1,0,0:0:0:0:
256,192,64474,1,0,0:0:0:0:
256,192,64554,1,8,0:0:0:0:
256,192,64556,2,0,L,1,0.01
256,192,64556,2,0,L,1,0.01
256,192,64556,2,0,L,1,0.01
256,192,64636,1,0,0:0:0:0:
256,192,64716,1,8,0:0:0:0:
256,192,64718,2,0,L,1,0.01
256,192,64718,2,0,L,1,0.01
256,192,64718,2,0,L,1,0.01
256,192,64797,1,8,0:0:0:0:
256,192,64799,2,0,L,1,0.01
256,192,64799,2,0,L,1,0.01
256,192,64799,2,0,L,1,0.01
256,192,64879,1,0,0:0:0:0:
256,192,65041,1,0,0:0:0:0:
256,192,65203,1,8,0:0:0:0:
256,192,65527,5,4,0:0:0:0:
256,192,65529,2,4,L,1,0.01
256,192,65529,2,4,L,1,0.01
256,192,65529,2,4,L,1,0.01
256,192,65690,1,8,0:0:0:0:
256,192,65851,1,0,0:0:0:0:
256,192,65853,2,0,L,1,0.01
256,192,65853,2,0,L,1,0.01
256,192,65853,2,0,L,1,0.01
256,192,65932,1,0,0:0:0:0:
256,192,65934,2,0,L,1,0.01
256,192,65934,2,0,L,1,0.01
256,192,65934,2,0,L,1,0.01
256,192,66014,1,8,0:0:0:0:
256,192,66094,1,0,0:0:0:0:
256,192,66096,2,0,L,1,0.01
256,192,66096,2,0,L,1,0.01
256,192,66096,2,0,L,1,0.01
256,192,66176,1,8,0:0:0:0:
256,192,66257,1,8,0:0:0:0:
256,192,66337,1,0,0:0:0:0:
256,192,66339,2,0,L,1,0.01
256,192,66339,2,0,L,1,0.01
256,192,66339,2,0,L,1,0.01
256,192,66418,1,0,0:0:0:0:
256,192,66420,2,0,L,1,0.01
256,192,66420,2,0,L,1,0.01
256,192,66420,2,0,L,1,0.01
256,192,66500,1,8,0:0:0:0:
256,192,66581,1,0,0:0:0:0:
256,192,66583,2,0,L,1,0.01
256,192,66583,2,0,L,1,0.01
256,192,66583,2,0,L,1,0.01
256,192,66663,1,8,0:0:0:0:
256,192,66824,1,0,0:0:0:0:
256,192,66826,2,0,L,1,0.01
256,192,66826,2,0,L,1,0.01
256,192,66826,2,0,L,1,0.01
256,192,66987,1,8,0:0:0:0:
256,192,67068,1,8,0:0:0:0:
256,192,67148,1,0,0:0:0:0:
256,192,67150,2,0,L,1,0.01
256,192,67150,2,0,L,1,0.01
256,192,67150,2,0,L,1,0.01
256,192,67229,1,0,0:0:0:0:
256,192,67231,2,0,L,1,0.01
256,192,67231,2,0,L,1,0.01
256,192,67231,2,0,L,1,0.01
256,192,67311,1,8,0:0:0:0:
256,192,67472,1,0,0:0:0:0:
256,192,67474,2,0,L,1,0.01
256,192,67474,2,0,L,1,0.01
256,192,67474,2,0,L,1,0.01
256,192,67554,1,0,0:0:0:0:
256,192,67556,2,0,L,1,0.01
256,192,67556,2,0,L,1,0.01
256,192,67556,2,0,L,1,0.01
256,192,67636,1,8,0:0:0:0:
256,192,67798,1,8,0:0:0:0:
256,192,68123,5,4,0:0:0:0:
256,192,68284,1,8,0:0:0:0:
256,192,68286,2,0,L,1,0.01
256,192,68286,2,0,L,1,0.01
256,192,68286,2,0,L,1,0.01
256,192,68447,1,0,0:0:0:0:
256,192,68609,1,0,0:0:0:0:
256,192,68690,1,0,0:0:0:0:
256,192,68770,1,8,0:0:0:0:
256,192,68772,2,0,L,1,0.01
256,192,68772,2,0,L,1,0.01
256,192,68772,2,0,L,1,0.01
256,192,68852,1,0,0:0:0:0:
256,192,68932,1,8,0:0:0:0:
256,192,68934,2,0,L,1,0.01
256,192,68934,2,0,L,1,0.01
256,192,68934,2,0,L,1,0.01
256,192,69094,1,8,0:0:0:0:
256,192,69096,2,0,L,1,0.01
256,192,69096,2,0,L,1,0.01
256,192,69096,2,0,L,1,0.01
256,192,69176,1,8,0:0:0:0:
256,192,69178,2,0,L,1,0.01
256,192,69178,2,0,L,1,0.01
256,192,69178,2,0,L,1,0.01
256,192,69258,1,0,0:0:0:0:
256,192,69338,1,8,0:0:0:0:
256,192,69340,2,0,L,1,0.01
256,192,69340,2,0,L,1,0.01
256,192,69340,2,0,L,1,0.01
256,192,69420,5,0,0:0:0:0:
256,192,69582,1,0,0:0:0:0:
256,192,69663,1,0,0:0:0:0:
256,192,69743,1,8,0:0:0:0:
256,192,69745,2,0,L,1,0.01
256,192,69745,2,0,L,1,0.01
256,192,69745,2,0,L,1,0.01
256,192,69825,1,0,0:0:0:0:
256,192,69905,1,8,0:0:0:0:
256,192,69907,2,0,L,1,0.01
256,192,69907,2,0,L,1,0.01
256,192,69907,2,0,L,1,0.01
256,192,69986,1,8,0:0:0:0:
256,192,69988,2,0,L,1,0.01
256,192,69988,2,0,L,1,0.01
256,192,69988,2,0,L,1,0.01
256,192,70068,1,0,0:0:0:0:
256,192,70231,1,0,0:0:0:0:
256,192,70393,1,8,0:0:0:0:
256,192,70717,5,4,0:0:0:0:
256,192,70719,2,4,L,1,0.01
256,192,70719,2,4,L,1,0.01
256,192,70719,2,4,L,1,0.01
256,192,70880,1,8,0:0:0:0:
256,192,71041,1,0,0:0:0:0:
256,192,71043,2,0,L,1,0.01
256,192,71043,2,0,L,1,0.01
256,192,71043,2,0,L,1,0.01
256,192,71122,1,0,0:0:0:0:
256,192,71124,2,0,L,1,0.01
256,192,71124,2,0,L,1,0.01
256,192,71124,2,0,L,1,0.01
256,192,71204,1,8,0:0:0:0:
256,192,71284,1,0,0:0:0:0:
256,192,71286,2,0,L,1,0.01
256,192,71286,2,0,L,1,0.01
256,192,71286,2,0,L,1,0.01
256,192,71366,1,8,0:0:0:0:
256,192,71447,1,8,0:0:0:0:
256,192,71527,1,0,0:0:0:0:
256,192,71529,2,0,L,1,0.01
256,192,71529,2,0,L,1,0.01
256,192,71529,2,0,L,1,0.01
256,192,71608,1,0,0:0:0:0:
256,192,71610,2,0,L,1,0.01
256,192,71610,2,0,L,1,0.01
256,192,71610,2,0,L,1,0.01
256,192,71690,1,8,0:0:0:0:
256,192,71771,1,0,0:0:0:0:
256,192,71773,2,0,L,1,0.01
256,192,71773,2,0,L,1,0.01
256,192,71773,2,0,L,1,0.01
256,192,71853,1,8,0:0:0:0:
256,192,72014,1,0,0:0:0:0:
256,192,72016,2,0,L,1,0.01
256,192,72016,2,0,L,1,0.01
256,192,72016,2,0,L,1,0.01
256,192,72177,1,8,0:0:0:0:
256,192,72258,1,8,0:0:0:0:
256,192,72338,1,0,0:0:0:0:
256,192,72340,2,0,L,1,0.01
256,192,72340,2,0,L,1,0.01
256,192,72340,2,0,L,1,0.01
256,192,72501,1,8,0:0:0:0:
256,192,72663,1,0,0:0:0:0:
256,192,72825,1,0,0:0:0:0:
256,192,72987,1,8,0:0:0:0:
256,192,73149,1,8,0:0:0:0:
256,192,73311,5,4,0:0:0:0:
256,192,73313,6,4,L,1,0.01
256,192,73313,6,4,L,1,0.01
256,192,73313,6,4,L,1,0.01
256,192,73473,1,8,0:0:0:0:
256,192,73475,2,0,L,1,0.01
256,192,73475,2,0,L,1,0.01
256,192,73475,2,0,L,1,0.01
256,192,73635,1,0,0:0:0:0:
256,192,73637,2,0,L,1,0.01
256,192,73637,2,0,L,1,0.01
256,192,73637,2,0,L,1,0.01
256,192,73797,1,0,0:0:0:0:
256,192,73799,2,0,L,1,0.01
256,192,73799,2,0,L,1,0.01
256,192,73799,2,0,L,1,0.01
256,192,73878,1,0,0:0:0:0:
256,192,73880,2,0,L,1,0.01
256,192,73880,2,0,L,1,0.01
256,192,73880,2,0,L,1,0.01
256,192,73959,1,8,0:0:0:0:
256,192,73961,2,0,L,1,0.01
256,192,73961,2,0,L,1,0.01
256,192,73961,2,0,L,1,0.01
256,192,74040,1,0,0:0:0:0:
256,192,74042,2,0,L,1,0.01
256,192,74042,2,0,L,1,0.01
256,192,74042,2,0,L,1,0.01
256,192,74121,1,8,0:0:0:0:
256,192,74123,2,0,L,1,0.01
256,192,74123,2,0,L,1,0.01
256,192,74123,2,0,L,1,0.01
256,192,74283,1,8,0:0:0:0:
256,192,74285,2,0,L,1,0.01
256,192,74285,2,0,L,1,0.01
256,192,74285,2,0,L,1,0.01
256,192,74365,1,8,0:0:0:0:
256,192,74367,2,0,L,1,0.01
256,192,74367,2,0,L,1,0.01
256,192,74367,2,0,L,1,0.01
256,192,74446,1,0,0:0:0:0:
256,192,74448,2,0,L,1,0.01
256,192,74448,2,0,L,1,0.01
256,192,74448,2,0,L,1,0.01
256,192,74527,1,8,0:0:0:0:
256,192,74529,2,0,L,1,0.01
256,192,74529,2,0,L,1,0.01
256,192,74529,2,0,L,1,0.01
256,192,74608,1,0,0:0:0:0:
256,192,74610,2,0,L,1,0.01
256,192,74610,2,0,L,1,0.01
256,192,74610,2,0,L,1,0.01
256,192,74770,1,0,0:0:0:0:
256,192,74772,2,0,L,1,0.01
256,192,74772,2,0,L,1,0.01
256,192,74772,2,0,L,1,0.01
256,192,74851,1,0,0:0:0:0:
256,192,74853,2,0,L,1,0.01
256,192,74853,2,0,L,1,0.01
256,192,74853,2,0,L,1,0.01
256,192,74932,1,8,0:0:0:0:
256,192,74934,2,0,L,1,0.01
256,192,74934,2,0,L,1,0.01
256,192,74934,2,0,L,1,0.01
256,192,75013,1,0,0:0:0:0:
256,192,75015,2,0,L,1,0.01
256,192,75015,2,0,L,1,0.01
256,192,75015,2,0,L,1,0.01
256,192,75094,1,8,0:0:0:0:
256,192,75096,2,0,L,1,0.01
256,192,75096,2,0,L,1,0.01
256,192,75096,2,0,L,1,0.01
256,192,75175,1,8,0:0:0:0:
256,192,75177,2,0,L,1,0.01
256,192,75177,2,0,L,1,0.01
256,192,75177,2,0,L,1,0.01
256,192,75256,1,0,0:0:0:0:
256,192,75258,2,0,L,1,0.01
256,192,75258,2,0,L,1,0.01
256,192,75258,2,0,L,1,0.01
256,192,75419,1,0,0:0:0:0:
256,192,75421,2,0,L,1,0.01
256,192,75421,2,0,L,1,0.01
256,192,75421,2,0,L,1,0.01
256,192,75582,1,8,0:0:0:0:
256,192,75906,5,4,0:0:0:0:
256,192,75908,2,4,L,1,0.01
256,192,75908,2,4,L,1,0.01
256,192,75908,2,4,L,1,0.01
256,192,76068,1,8,0:0:0:0:
256,192,76070,2,0,L,1,0.01
256,192,76070,2,0,L,1,0.01
256,192,76070,2,0,L,1,0.01
256,192,76230,1,0,0:0:0:0:
256,192,76232,2,0,L,1,0.01
256,192,76232,2,0,L,1,0.01
256,192,76232,2,0,L,1,0.01
256,192,76311,1,0,0:0:0:0:
256,192,76313,2,0,L,1,0.01
256,192,76313,2,0,L,1,0.01
256,192,76313,2,0,L,1,0.01
256,192,76392,1,8,0:0:0:0:
256,192,76394,2,0,L,1,0.01
256,192,76394,2,0,L,1,0.01
256,192,76394,2,0,L,1,0.01
256,192,76473,1,0,0:0:0:0:
256,192,76475,2,0,L,1,0.01
256,192,76475,2,0,L,1,0.01
256,192,76475,2,0,L,1,0.01
256,192,76554,1,8,0:0:0:0:
256,192,76556,2,0,L,1,0.01
256,192,76556,2,0,L,1,0.01
256,192,76556,2,0,L,1,0.01
256,192,76635,1,8,0:0:0:0:
256,192,76637,2,0,L,1,0.01
256,192,76637,2,0,L,1,0.01
256,192,76637,2,0,L,1,0.01
256,192,76716,1,0,0:0:0:0:
256,192,76718,2,0,L,1,0.01
256,192,76718,2,0,L,1,0.01
256,192,76718,2,0,L,1,0.01
256,192,76797,1,0,0:0:0:0:
256,192,76799,2,0,L,1,0.01
256,192,76799,2,0,L,1,0.01
256,192,76799,2,0,L,1,0.01
256,192,76878,1,8,0:0:0:0:
256,192,76880,2,0,L,1,0.01
256,192,76880,2,0,L,1,0.01
256,192,76880,2,0,L,1,0.01
256,192,76960,1,0,0:0:0:0:
256,192,76962,2,0,L,1,0.01
256,192,76962,2,0,L,1,0.01
256,192,76962,2,0,L,1,0.01
256,192,77041,1,8,0:0:0:0:
256,192,77043,2,0,L,1,0.01
256,192,77043,2,0,L,1,0.01
256,192,77043,2,0,L,1,0.01
256,192,77203,1,0,0:0:0:0:
256,192,77205,2,0,L,1,0.01
256,192,77205,2,0,L,1,0.01
256,192,77205,2,0,L,1,0.01
256,192,77365,1,8,0:0:0:0:
256,192,77367,2,0,L,1,0.01
256,192,77367,2,0,L,1,0.01
256,192,77367,2,0,L,1,0.01
256,192,77446,1,8,0:0:0:0:
256,192,77448,2,0,L,1,0.01
256,192,77448,2,0,L,1,0.01
256,192,77448,2,0,L,1,0.01
256,192,77527,1,0,0:0:0:0:
256,192,77529,2,0,L,1,0.01
256,192,77529,2,0,L,1,0.01
256,192,77529,2,0,L,1,0.01
256,192,77608,1,0,0:0:0:0:
256,192,77610,2,0,L,1,0.01
256,192,77610,2,0,L,1,0.01
256,192,77610,2,0,L,1,0.01
256,192,77689,1,8,0:0:0:0:
256,192,77691,2,0,L,1,0.01
256,192,77691,2,0,L,1,0.01
256,192,77691,2,0,L,1,0.01
256,192,77851,1,0,0:0:0:0:
256,192,77853,2,0,L,1,0.01
256,192,77853,2,0,L,1,0.01
256,192,77853,2,0,L,1,0.01
256,192,77933,1,0,0:0:0:0:
256,192,77935,2,0,L,1,0.01
256,192,77935,2,0,L,1,0.01
256,192,77935,2,0,L,1,0.01
256,192,78014,1,8,0:0:0:0:
256,192,78016,2,0,L,1,0.01
256,192,78016,2,0,L,1,0.01
256,192,78016,2,0,L,1,0.01
256,192,78176,1,8,0:0:0:0:
256,192,78500,5,4,0:0:0:0:
256,192,78502,2,4,L,1,0.01
256,192,78502,2,4,L,1,0.01
256,192,78502,2,4,L,1,0.01
256,192,78662,1,8,0:0:0:0:
256,192,78664,2,0,L,1,0.01
256,192,78664,2,0,L,1,0.01
256,192,78664,2,0,L,1,0.01
256,192,78824,1,0,0:0:0:0:
256,192,78826,2,0,L,1,0.01
256,192,78826,2,0,L,1,0.01
256,192,78826,2,0,L,1,0.01
256,192,78986,1,0,0:0:0:0:
256,192,78988,2,0,L,1,0.01
256,192,78988,2,0,L,1,0.01
256,192,78988,2,0,L,1,0.01
256,192,79067,1,0,0:0:0:0:
256,192,79069,2,0,L,1,0.01
256,192,79069,2,0,L,1,0.01
256,192,79069,2,0,L,1,0.01
256,192,79148,1,8,0:0:0:0:
256,192,79150,2,0,L,1,0.01
256,192,79150,2,0,L,1,0.01
256,192,79150,2,0,L,1,0.01
256,192,79229,1,0,0:0:0:0:
256,192,79231,2,0,L,1,0.01
256,192,79231,2,0,L,1,0.01
256,192,79231,2,0,L,1,0.01
256,192,79310,1,8,0:0:0:0:
256,192,79312,2,0,L,1,0.01
256,192,79312,2,0,L,1,0.01
256,192,79312,2,0,L,1,0.01
256,192,79472,1,8,0:0:0:0:
256,192,79474,2,0,L,1,0.01
256,192,79474,2,0,L,1,0.01
256,192,79474,2,0,L,1,0.01
256,192,79554,1,8,0:0:0:0:
256,192,79556,2,0,L,1,0.01
256,192,79556,2,0,L,1,0.01
256,192,79556,2,0,L,1,0.01
256,192,79635,1,0,0:0:0:0:
256,192,79637,2,0,L,1,0.01
256,192,79637,2,0,L,1,0.01
256,192,79637,2,0,L,1,0.01
256,192,79716,1,8,0:0:0:0:
256,192,79718,2,0,L,1,0.01
256,192,79718,2,0,L,1,0.01
256,192,79718,2,0,L,1,0.01
256,192,79797,1,0,0:0:0:0:
256,192,79799,2,0,L,1,0.01
256,192,79799,2,0,L,1,0.01
256,192,79799,2,0,L,1,0.01
256,192,79959,1,0,0:0:0:0:
256,192,79961,2,0,L,1,0.01
256,192,79961,2,0,L,1,0.01
256,192,79961,2,0,L,1,0.01
256,192,80040,1,0,0:0:0:0:
256,192,80042,2,0,L,1,0.01
256,192,80042,2,0,L,1,0.01
256,192,80042,2,0,L,1,0.01
256,192,80121,1,8,0:0:0:0:
256,192,80123,2,0,L,1,0.01
256,192,80123,2,0,L,1,0.01
256,192,80123,2,0,L,1,0.01
256,192,80202,1,0,0:0:0:0:
256,192,80204,2,0,L,1,0.01
256,192,80204,2,0,L,1,0.01
256,192,80204,2,0,L,1,0.01
256,192,80283,1,8,0:0:0:0:
256,192,80285,2,0,L,1,0.01
256,192,80285,2,0,L,1,0.01
256,192,80285,2,0,L,1,0.01
256,192,80364,1,8,0:0:0:0:
256,192,80366,2,0,L,1,0.01
256,192,80366,2,0,L,1,0.01
256,192,80366,2,0,L,1,0.01
256,192,80445,1,8,0:0:0:0:
256,192,80447,2,0,L,1,0.01
256,192,80447,2,0,L,1,0.01
256,192,80447,2,0,L,1,0.01
256,192,80608,1,0,0:0:0:0:
256,192,80610,2,0,L,1,0.01
256,192,80610,2,0,L,1,0.01
256,192,80610,2,0,L,1,0.01
256,192,80771,1,8,0:0:0:0:
256,192,81095,5,4,0:0:0:0:
256,192,81097,2,4,L,1,0.01
256,192,81097,2,4,L,1,0.01
256,192,81097,2,4,L,1,0.01
256,192,81097,2,4,L,1,0.01
256,192,81097,2,4,L,1,0.01
256,192,81097,2,4,L,1,0.01
256,192,81257,1,8,0:0:0:0:
256,192,81259,2,0,L,1,0.01
256,192,81259,2,0,L,1,0.01
256,192,81259,2,0,L,1,0.01
256,192,81259,2,0,L,1,0.01
256,192,81259,2,0,L,1,0.01
256,192,81259,2,0,L,1,0.01
256,192,81419,1,0,0:0:0:0:
256,192,81421,2,0,L,1,0.01
256,192,81421,2,0,L,1,0.01
256,192,81421,2,0,L,1,0.01
256,192,81421,2,0,L,1,0.01
256,192,81421,2,0,L,1,0.01
256,192,81421,2,0,L,1,0.01
256,192,81500,1,8,0:0:0:0:
256,192,81502,2,0,L,1,0.01
256,192,81502,2,0,L,1,0.01
256,192,81502,2,0,L,1,0.01
256,192,81502,2,0,L,1,0.01
256,192,81502,2,0,L,1,0.01
256,192,81502,2,0,L,1,0.01
256,192,81581,1,8,0:0:0:0:
256,192,81583,2,0,L,1,0.01
256,192,81583,2,0,L,1,0.01
256,192,81583,2,0,L,1,0.01
256,192,81583,2,0,L,1,0.01
256,192,81583,2,0,L,1,0.01
256,192,81583,2,0,L,1,0.01
256,192,81662,1,8,0:0:0:0:
256,192,81664,2,0,L,1,0.01
256,192,81664,2,0,L,1,0.01
256,192,81664,2,0,L,1,0.01
256,192,81664,2,0,L,1,0.01
256,192,81664,2,0,L,1,0.01
256,192,81664,2,0,L,1,0.01
256,192,81743,1,0,0:0:0:0:
256,192,81745,2,0,L,1,0.01
256,192,81745,2,0,L,1,0.01
256,192,81745,2,0,L,1,0.01
256,192,81745,2,0,L,1,0.01
256,192,81745,2,0,L,1,0.01
256,192,81745,2,0,L,1,0.01
256,192,81824,1,0,0:0:0:0:
256,192,81826,2,0,L,1,0.01
256,192,81826,2,0,L,1,0.01
256,192,81826,2,0,L,1,0.01
256,192,81826,2,0,L,1,0.01
256,192,81826,2,0,L,1,0.01
256,192,81826,2,0,L,1,0.01
256,192,81905,1,8,0:0:0:0:
256,192,81907,2,0,L,1,0.01
256,192,81907,2,0,L,1,0.01
256,192,81907,2,0,L,1,0.01
256,192,81907,2,0,L,1,0.01
256,192,81907,2,0,L,1,0.01
256,192,81907,2,0,L,1,0.01
256,192,82067,1,0,0:0:0:0:
256,192,82069,2,0,L,1,0.01
256,192,82069,2,0,L,1,0.01
256,192,82069,2,0,L,1,0.01
256,192,82069,2,0,L,1,0.01
256,192,82069,2,0,L,1,0.01
256,192,82069,2,0,L,1,0.01
256,192,82230,1,8,0:0:0:0:
256,192,82232,2,0,L,1,0.01
256,192,82232,2,0,L,1,0.01
256,192,82232,2,0,L,1,0.01
256,192,82232,2,0,L,1,0.01
256,192,82232,2,0,L,1,0.01
256,192,82232,2,0,L,1,0.01
256,192,82392,1,0,0:0:0:0:
256,192,82394,2,0,L,1,0.01
256,192,82394,2,0,L,1,0.01
256,192,82394,2,0,L,1,0.01
256,192,82394,2,0,L,1,0.01
256,192,82394,2,0,L,1,0.01
256,192,82394,2,0,L,1,0.01
256,192,82473,1,0,0:0:0:0:
256,192,82475,2,0,L,1,0.01
256,192,82475,2,0,L,1,0.01
256,192,82475,2,0,L,1,0.01
256,192,82475,2,0,L,1,0.01
256,192,82475,2,0,L,1,0.01
256,192,82475,2,0,L,1,0.01
256,192,82554,1,8,0:0:0:0:
256,192,82556,2,0,L,1,0.01
256,192,82556,2,0,L,1,0.01
256,192,82556,2,0,L,1,0.01
256,192,82556,2,0,L,1,0.01
256,192,82556,2,0,L,1,0.01
256,192,82556,2,0,L,1,0.01
256,192,82716,1,0,0:0:0:0:
256,192,82718,2,0,L,1,0.01
256,192,82718,2,0,L,1,0.01
256,192,82718,2,0,L,1,0.01
256,192,82718,2,0,L,1,0.01
256,192,82718,2,0,L,1,0.01
256,192,82718,2,0,L,1,0.01
256,192,82878,1,8,0:0:0:0:
256,192,82880,2,0,L,1,0.01
256,192,82880,2,0,L,1,0.01
256,192,82880,2,0,L,1,0.01
256,192,82880,2,0,L,1,0.01
256,192,82880,2,0,L,1,0.01
256,192,82880,2,0,L,1,0.01
256,192,83042,1,0,0:0:0:0:
256,192,83204,1,0,0:0:0:0:
256,192,83366,1,8,0:0:0:0:
256,192,83528,1,0,0:0:0:0:
256,192,83690,5,0,0:0:0:0:
256,128,83691,6,0,L|256:1,1,1.1
256,128,83710,2,0,L|256:1,1,1.1
256,128,83731,2,0,L|256:1,1,1.1
256,128,83750,2,0,L|256:1,1,1.1
256,192,83771,1,8,0:0:0:0:
256,128,83772,2,0,L|256:1,1,1.1
256,128,83791,2,0,L|256:1,1,1.1
256,128,83812,2,0,L|256:1,1,1.1
256,128,83831,2,0,L|256:1,1,1.1
256,192,83852,1,0,0:0:0:0:
256,128,83853,2,0,L|256:1,1,1.1
256,128,83873,2,0,L|256:1,1,1.1
256,128,83893,2,0,L|256:1,1,1.1
256,128,83913,2,0,L|256:1,1,1.1
256,192,83933,1,8,0:0:0:0:
256,128,83934,2,0,L|256:1,1,1.1
256,128,83954,2,0,L|256:1,1,1.1
256,128,83974,2,0,L|256:1,1,1.1
256,128,83995,2,0,L|256:1,1,1.1
256,192,84014,1,8,0:0:0:0:
256,128,84015,2,0,L|256:1,1,1.1
256,128,84035,2,0,L|256:1,1,1.1
256,128,84055,2,0,L|256:1,1,1.1
256,128,84076,2,0,L|256:1,1,1.1
256,128,84096,2,0,L|256:1,1,1.1
256,128,84116,2,0,L|256:1,1,1.1
256,128,84136,2,0,L|256:1,1,1.1
256,128,84157,2,0,L|256:1,1,1.1
256,192,84176,1,0,0:0:0:0:
256,128,84177,2,0,L|256:1,1,1.1
256,128,84197,2,0,L|256:1,1,1.1
256,128,84218,2,0,L|256:1,1,1.1
256,128,84238,2,0,L|256:1,1,1.1
256,192,84257,1,0,0:0:0:0:
256,128,84258,2,0,L|256:1,1,1.1
256,128,84278,2,0,L|256:1,1,1.1
256,128,84299,2,0,L|256:1,1,1.1
256,128,84319,2,0,L|256:1,1,1.1
256,192,84338,1,8,0:0:0:0:
256,128,84339,2,0,L|256:1,1,1.1
256,128,84359,2,0,L|256:1,1,1.1
256,128,84380,2,0,L|256:1,1,1.1
256,128,84400,2,0,L|256:1,1,1.1
256,192,84419,1,8,0:0:0:0:
256,128,84420,2,0,L|256:1,1,1.1
256,128,84441,2,0,L|256:1,1,1.1
256,128,84461,2,0,L|256:1,1,1.1
256,128,84481,2,0,L|256:1,1,1.1
256,192,84500,1,0,0:0:0:0:
256,128,84501,2,0,L|256:1,1,1.1
256,128,84522,2,0,L|256:1,1,1.1
256,128,84542,2,0,L|256:1,1,1.1
256,128,84562,2,0,L|256:1,1,1.1
256,192,84581,1,8,0:0:0:0:
256,128,84582,2,0,L|256:1,1,1.1
256,128,84603,2,0,L|256:1,1,1.1
256,128,84623,2,0,L|256:1,1,1.1
256,128,84643,2,0,L|256:1,1,1.1
256,192,84662,1,0,0:0:0:0:
256,128,84663,2,0,L|256:1,1,1.1
256,128,84684,2,0,L|256:1,1,1.1
256,128,84704,2,0,L|256:1,1,1.1
256,128,84724,2,0,L|256:1,1,1.1
256,192,84744,1,0,0:0:0:0:
256,128,84745,2,0,L|256:1,1,1.1
256,128,84765,2,0,L|256:1,1,1.1
256,128,84785,2,0,L|256:1,1,1.1
256,128,84805,2,0,L|256:1,1,1.1
256,192,84825,1,8,0:0:0:0:
256,128,84826,2,0,L|256:1,1,1.1
256,128,84846,2,0,L|256:1,1,1.1
256,128,84866,2,0,L|256:1,1,1.1
256,128,84886,2,0,L|256:1,1,1.1
256,192,84906,1,8,0:0:0:0:
256,128,84907,2,0,L|256:1,1,1.1
256,128,84927,2,0,L|256:1,1,1.1
256,128,84947,2,0,L|256:1,1,1.1
256,128,84968,2,0,L|256:1,1,1.1
256,192,84987,1,0,0:0:0:0:
256,128,84988,2,0,L|256:1,1,1.1
256,128,85008,2,0,L|256:1,1,1.1
256,128,85028,2,0,L|256:1,1,1.1
256,128,85049,2,0,L|256:1,1,1.1
256,128,85069,2,0,L|256:1,1,1.1
256,128,85089,2,0,L|256:1,1,1.1
256,128,85109,2,0,L|256:1,1,1.1
256,128,85130,2,0,L|256:1,1,1.1
256,192,85149,1,0,0:0:0:0:
256,128,85150,2,0,L|256:1,1,1.1
256,128,85170,2,0,L|256:1,1,1.1
256,128,85191,2,0,L|256:1,1,1.1
256,128,85211,2,0,L|256:1,1,1.1
256,192,85230,1,8,0:0:0:0:
256,128,85231,2,0,L|256:1,1,1.1
256,128,85251,2,0,L|256:1,1,1.1
256,128,85272,2,0,L|256:1,1,1.1
256,128,85292,2,0,L|256:1,1,1.1
256,192,85311,1,0,0:0:0:0:
256,128,85312,2,0,L|256:1,1,1.1
256,128,85332,2,0,L|256:1,1,1.1
256,128,85353,2,0,L|256:1,1,1.1
256,192,85365,1,0,0:0:0:0:
256,128,85373,2,0,L|256:1,1,1.1
256,128,85393,2,0,L|256:1,1,1.1
256,128,85413,2,0,L|256:1,1,1.1
256,192,85419,1,0,0:0:0:0:
256,128,85434,2,0,L|256:1,1,1.1
256,128,85454,2,0,L|256:1,1,1.1
256,192,85473,1,8,0:0:0:0:
256,128,85474,2,0,L|256:1,1,1.1
256,128,85495,2,0,L|256:1,1,1.1
256,128,85515,2,0,L|256:1,1,1.1
256,128,85535,2,0,L|256:1,1,1.1
256,192,85554,1,8,0:0:0:0:
256,128,85555,2,0,L|256:1,1,1.1
256,128,85576,2,0,L|256:1,1,1.1
256,128,85596,2,0,L|256:1,1,1.1
256,128,85616,2,0,L|256:1,1,1.1
256,192,85635,1,0,0:0:0:0:
256,128,85636,2,0,L|256:1,1,1.1
256,128,85657,2,0,L|256:1,1,1.1
256,128,85677,2,0,L|256:1,1,1.1
256,128,85697,2,0,L|256:1,1,1.1
256,192,85717,1,0,0:0:0:0:
256,128,85718,2,0,L|256:1,1,1.1
256,128,85738,2,0,L|256:1,1,1.1
256,128,85758,2,0,L|256:1,1,1.1
256,128,85778,2,0,L|256:1,1,1.1
256,192,85798,1,8,0:0:0:0:
256,128,85799,2,0,L|256:1,1,1.1
256,128,85819,2,0,L|256:1,1,1.1
256,128,85839,2,0,L|256:1,1,1.1
256,128,85859,2,0,L|256:1,1,1.1
256,128,85880,2,0,L|256:1,1,1.1
256,128,85900,2,0,L|256:1,1,1.1
256,128,85920,2,0,L|256:1,1,1.1
256,128,85941,2,0,L|256:1,1,1.1
256,192,85960,1,0,0:0:0:0:
256,192,86284,5,0,0:0:0:0:
256,128,86285,2,0,L|256:1,1,1.1
256,128,86305,2,0,L|256:1,1,1.1
256,128,86325,2,0,L|256:1,1,1.1
256,128,86345,2,0,L|256:1,1,1.1
256,128,86366,2,0,L|256:1,1,1.1
256,128,86386,2,0,L|256:1,1,1.1
256,128,86406,2,0,L|256:1,1,1.1
256,128,86426,2,0,L|256:1,1,1.1
256,192,86446,1,0,0:0:0:0:
256,128,86447,2,0,L|256:1,1,1.1
256,128,86467,2,0,L|256:1,1,1.1
256,128,86487,2,0,L|256:1,1,1.1
256,128,86507,2,0,L|256:1,1,1.1
256,192,86527,1,0,0:0:0:0:
256,128,86528,2,0,L|256:1,1,1.1
256,128,86548,2,0,L|256:1,1,1.1
256,128,86568,2,0,L|256:1,1,1.1
256,128,86589,2,0,L|256:1,1,1.1
256,192,86608,1,8,0:0:0:0:
256,128,86609,2,0,L|256:1,1,1.1
256,128,86629,2,0,L|256:1,1,1.1
256,128,86649,2,0,L|256:1,1,1.1
256,128,86670,2,0,L|256:1,1,1.1
256,192,86689,1,0,0:0:0:0:
256,128,86690,2,0,L|256:1,1,1.1
256,128,86710,2,0,L|256:1,1,1.1
256,128,86730,2,0,L|256:1,1,1.1
256,128,86751,2,0,L|256:1,1,1.1
256,192,86770,1,8,0:0:0:0:
256,128,86771,2,0,L|256:1,1,1.1
256,128,86791,2,0,L|256:1,1,1.1
256,128,86812,2,0,L|256:1,1,1.1
256,128,86832,2,0,L|256:1,1,1.1
256,128,86852,2,0,L|256:1,1,1.1
256,128,86872,2,0,L|256:1,1,1.1
256,128,86893,2,0,L|256:1,1,1.1
256,128,86913,2,0,L|256:1,1,1.1
256,192,86932,1,8,0:0:0:0:
256,128,86933,2,0,L|256:1,1,1.1
256,128,86953,2,0,L|256:1,1,1.1
256,128,86974,2,0,L|256:1,1,1.1
256,128,86994,2,0,L|256:1,1,1.1
256,128,87014,2,0,L|256:1,1,1.1
256,128,87035,2,0,L|256:1,1,1.1
256,128,87055,2,0,L|256:1,1,1.1
256,128,87075,2,0,L|256:1,1,1.1
256,192,87094,1,8,0:0:0:0:
256,128,87095,2,0,L|256:1,1,1.1
256,128,87116,2,0,L|256:1,1,1.1
256,128,87136,2,0,L|256:1,1,1.1
256,128,87156,2,0,L|256:1,1,1.1
256,192,87175,1,8,0:0:0:0:
256,128,87176,2,0,L|256:1,1,1.1
256,128,87197,2,0,L|256:1,1,1.1
256,128,87217,2,0,L|256:1,1,1.1
256,128,87237,2,0,L|256:1,1,1.1
256,192,87256,1,0,0:0:0:0:
256,128,87257,2,0,L|256:1,1,1.1
256,128,87278,2,0,L|256:1,1,1.1
256,128,87298,2,0,L|256:1,1,1.1
256,128,87318,2,0,L|256:1,1,1.1
256,192,87338,1,0,0:0:0:0:
256,128,87339,2,0,L|256:1,1,1.1
256,128,87359,2,0,L|256:1,1,1.1
256,128,87379,2,0,L|256:1,1,1.1
256,128,87399,2,0,L|256:1,1,1.1
256,192,87419,1,8,0:0:0:0:
256,128,87420,2,0,L|256:1,1,1.1
256,128,87440,2,0,L|256:1,1,1.1
256,128,87460,2,0,L|256:1,1,1.1
256,128,87480,2,0,L|256:1,1,1.1
256,192,87500,1,0,0:0:0:0:
256,128,87501,2,0,L|256:1,1,1.1
256,128,87521,2,0,L|256:1,1,1.1
256,128,87541,2,0,L|256:1,1,1.1
256,128,87562,2,0,L|256:1,1,1.1
256,192,87581,5,8,0:0:0:0:
256,128,87582,2,0,L|256:1,1,1.1
256,128,87602,2,0,L|256:1,1,1.1
256,128,87622,2,0,L|256:1,1,1.1
256,128,87643,2,0,L|256:1,1,1.1
256,128,87663,2,0,L|256:1,1,1.1
256,128,87683,2,0,L|256:1,1,1.1
256,128,87703,2,0,L|256:1,1,1.1
256,128,87724,2,0,L|256:1,1,1.1
256,192,87743,1,8,0:0:0:0:
256,128,87744,2,0,L|256:1,1,1.1
256,128,87764,2,0,L|256:1,1,1.1
256,128,87785,2,0,L|256:1,1,1.1
256,192,87797,1,0,0:0:0:0:
256,128,87805,2,0,L|256:1,1,1.1
256,128,87825,2,0,L|256:1,1,1.1
256,128,87845,2,0,L|256:1,1,1.1
256,192,87851,1,0,0:0:0:0:
256,128,87866,2,0,L|256:1,1,1.1
256,128,87886,2,0,L|256:1,1,1.1
256,192,87905,1,0,0:0:0:0:
256,128,87906,2,0,L|256:1,1,1.1
256,128,87926,2,0,L|256:1,1,1.1
256,128,87947,2,0,L|256:1,1,1.1
256,128,87967,2,0,L|256:1,1,1.1
256,192,87986,1,0,0:0:0:0:
256,128,87987,2,0,L|256:1,1,1.1
256,128,88007,2,0,L|256:1,1,1.1
256,128,88028,2,0,L|256:1,1,1.1
256,128,88048,2,0,L|256:1,1,1.1
256,192,88067,1,8,0:0:0:0:
256,128,88068,2,0,L|256:1,1,1.1
256,128,88089,2,0,L|256:1,1,1.1
256,128,88109,2,0,L|256:1,1,1.1
256,128,88129,2,0,L|256:1,1,1.1
256,192,88148,1,8,0:0:0:0:
256,128,88149,2,0,L|256:1,1,1.1
256,128,88170,2,0,L|256:1,1,1.1
256,128,88190,2,0,L|256:1,1,1.1
256,128,88210,2,0,L|256:1,1,1.1
256,192,88229,1,0,0:0:0:0:
256,128,88230,2,0,L|256:1,1,1.1
256,128,88251,2,0,L|256:1,1,1.1
256,128,88271,2,0,L|256:1,1,1.1
256,128,88291,2,0,L|256:1,1,1.1
256,128,88312,2,0,L|256:1,1,1.1
256,128,88332,2,0,L|256:1,1,1.1
256,128,88352,2,0,L|256:1,1,1.1
256,128,88372,2,0,L|256:1,1,1.1
256,192,88392,1,8,0:0:0:0:
256,128,88393,2,0,L|256:1,1,1.1
256,128,88413,2,0,L|256:1,1,1.1
256,128,88433,2,0,L|256:1,1,1.1
256,128,88453,2,0,L|256:1,1,1.1
256,128,88474,2,0,L|256:1,1,1.1
256,128,88494,2,0,L|256:1,1,1.1
256,128,88514,2,0,L|256:1,1,1.1
256,128,88535,2,0,L|256:1,1,1.1
256,192,88554,1,0,0:0:0:0:
256,192,88717,1,0,0:0:0:0:
256,192,88879,5,0,0:0:0:0:
256,128,88880,2,0,L|256:1,1,1.1
256,128,88900,2,0,L|256:1,1,1.1
256,128,88920,2,0,L|256:1,1,1.1
256,128,88940,2,0,L|256:1,1,1.1
256,192,88960,1,0,0:0:0:0:
256,128,88961,2,0,L|256:1,1,1.1
256,128,88981,2,0,L|256:1,1,1.1
256,128,89001,2,0,L|256:1,1,1.1
256,128,89021,2,0,L|256:1,1,1.1
256,192,89041,1,8,0:0:0:0:
256,128,89042,2,0,L|256:1,1,1.1
256,128,89062,2,0,L|256:1,1,1.1
256,128,89082,2,0,L|256:1,1,1.1
256,128,89102,2,0,L|256:1,1,1.1
256,128,89123,2,0,L|256:1,1,1.1
256,128,89143,2,0,L|256:1,1,1.1
256,128,89163,2,0,L|256:1,1,1.1
256,128,89184,2,0,L|256:1,1,1.1
256,192,89203,1,0,0:0:0:0:
256,128,89204,2,0,L|256:1,1,1.1
256,128,89224,2,0,L|256:1,1,1.1
256,128,89244,2,0,L|256:1,1,1.1
256,128,89265,2,0,L|256:1,1,1.1
256,128,89285,2,0,L|256:1,1,1.1
256,128,89305,2,0,L|256:1,1,1.1
256,128,89325,2,0,L|256:1,1,1.1
256,128,89346,2,0,L|256:1,1,1.1
256,192,89365,1,8,0:0:0:0:
256,128,89366,2,0,L|256:1,1,1.1
256,128,89386,2,0,L|256:1,1,1.1
256,128,89407,2,0,L|256:1,1,1.1
256,128,89427,2,0,L|256:1,1,1.1
256,192,89446,1,8,0:0:0:0:
256,128,89447,2,0,L|256:1,1,1.1
256,128,89467,2,0,L|256:1,1,1.1
256,128,89488,2,0,L|256:1,1,1.1
256,128,89508,2,0,L|256:1,1,1.1
256,192,89527,1,0,0:0:0:0:
256,128,89528,2,0,L|256:1,1,1.1
256,128,89548,2,0,L|256:1,1,1.1
256,128,89569,2,0,L|256:1,1,1.1
256,128,89589,2,0,L|256:1,1,1.1
256,128,89609,2,0,L|256:1,1,1.1
256,128,89630,2,0,L|256:1,1,1.1
256,128,89650,2,0,L|256:1,1,1.1
256,128,89670,2,0,L|256:1,1,1.1
256,192,89689,1,0,0:0:0:0:
256,128,89690,2,0,L|256:1,1,1.1
256,128,89711,2,0,L|256:1,1,1.1
256,128,89731,2,0,L|256:1,1,1.1
256,128,89751,2,0,L|256:1,1,1.1
256,192,89770,1,8,0:0:0:0:
256,128,89771,2,0,L|256:1,1,1.1
256,128,89792,2,0,L|256:1,1,1.1
256,128,89812,2,0,L|256:1,1,1.1
256,128,89832,2,0,L|256:1,1,1.1
256,192,89851,1,8,0:0:0:0:
256,128,89852,2,0,L|256:1,1,1.1
256,128,89873,2,0,L|256:1,1,1.1
256,128,89893,2,0,L|256:1,1,1.1
256,128,89913,2,0,L|256:1,1,1.1
256,192,89933,1,0,0:0:0:0:
256,128,89934,2,0,L|256:1,1,1.1
256,128,89954,2,0,L|256:1,1,1.1
256,128,89974,2,0,L|256:1,1,1.1
256,128,89994,2,0,L|256:1,1,1.1
256,192,90014,1,8,0:0:0:0:
256,128,90015,2,0,L|256:1,1,1.1
256,128,90035,2,0,L|256:1,1,1.1
256,128,90055,2,0,L|256:1,1,1.1
256,128,90075,2,0,L|256:1,1,1.1
256,128,90096,2,0,L|256:1,1,1.1
256,128,90116,2,0,L|256:1,1,1.1
256,128,90136,2,0,L|256:1,1,1.1
256,128,90157,2,0,L|256:1,1,1.1
256,192,90176,5,0,0:0:0:0:
256,128,90177,2,0,L|256:1,1,1.1
256,128,90197,2,0,L|256:1,1,1.1
256,128,90217,2,0,L|256:1,1,1.1
256,128,90238,2,0,L|256:1,1,1.1
256,192,90257,1,0,0:0:0:0:
256,128,90258,2,0,L|256:1,1,1.1
256,128,90278,2,0,L|256:1,1,1.1
256,128,90298,2,0,L|256:1,1,1.1
256,128,90319,2,0,L|256:1,1,1.1
256,192,90338,1,0,0:0:0:0:
256,128,90339,2,0,L|256:1,1,1.1
256,128,90359,2,0,L|256:1,1,1.1
256,128,90380,2,0,L|256:1,1,1.1
256,128,90400,2,0,L|256:1,1,1.1
256,192,90419,1,8,0:0:0:0:
256,128,90420,2,0,L|256:1,1,1.1
256,128,90440,2,0,L|256:1,1,1.1
256,128,90461,2,0,L|256:1,1,1.1
256,128,90481,2,0,L|256:1,1,1.1
256,192,90500,1,0,0:0:0:0:
256,128,90501,2,0,L|256:1,1,1.1
256,128,90521,2,0,L|256:1,1,1.1
256,128,90542,2,0,L|256:1,1,1.1
256,128,90562,2,0,L|256:1,1,1.1
256,192,90581,1,8,0:0:0:0:
256,128,90582,2,0,L|256:1,1,1.1
256,128,90602,2,0,L|256:1,1,1.1
256,128,90623,2,0,L|256:1,1,1.1
256,128,90643,2,0,L|256:1,1,1.1
256,192,90662,1,0,0:0:0:0:
256,128,90663,2,0,L|256:1,1,1.1
256,128,90684,2,0,L|256:1,1,1.1
256,128,90704,2,0,L|256:1,1,1.1
256,192,90716,1,8,0:0:0:0:
256,128,90724,2,0,L|256:1,1,1.1
256,128,90744,2,0,L|256:1,1,1.1
256,128,90765,2,0,L|256:1,1,1.1
256,192,90770,1,8,0:0:0:0:
256,128,90785,2,0,L|256:1,1,1.1
256,128,90805,2,0,L|256:1,1,1.1
256,192,90824,1,8,0:0:0:0:
256,128,90825,2,0,L|256:1,1,1.1
256,128,90846,2,0,L|256:1,1,1.1
256,128,90866,2,0,L|256:1,1,1.1
256,128,90886,2,0,L|256:1,1,1.1
256,128,90907,2,0,L|256:1,1,1.1
256,128,90927,2,0,L|256:1,1,1.1
256,128,90947,2,0,L|256:1,1,1.1
256,128,90967,2,0,L|256:1,1,1.1
256,192,90987,1,0,0:0:0:0:
256,128,90988,2,0,L|256:1,1,1.1
256,128,91008,2,0,L|256:1,1,1.1
256,128,91028,2,0,L|256:1,1,1.1
256,128,91048,2,0,L|256:1,1,1.1
256,128,91069,6,0,L|256:1,1,1.1
256,128,91089,2,0,L|256:1,1,1.1
256,128,91109,2,0,L|256:1,1,1.1
256,128,91130,2,0,L|256:1,1,1.1
256,192,91148,12,0,91472,0:0:0:0:
256,192,91473,5,0,0:0:0:0:
256,128,91474,2,0,L|256:1,1,1.1
256,128,91494,2,0,L|256:1,1,1.1
256,128,91514,2,0,L|256:1,1,1.1
256,128,91534,2,0,L|256:1,1,1.1
256,192,91554,1,0,0:0:0:0:
256,128,91555,2,0,L|256:1,1,1.1
256,128,91575,2,0,L|256:1,1,1.1
256,128,91595,2,0,L|256:1,1,1.1
256,128,91615,2,0,L|256:1,1,1.1
256,192,91635,1,8,0:0:0:0:
256,128,91636,2,0,L|256:1,1,1.1
256,128,91656,2,0,L|256:1,1,1.1
256,128,91676,2,0,L|256:1,1,1.1
256,128,91696,2,0,L|256:1,1,1.1
256,192,91716,1,8,0:0:0:0:
256,128,91717,2,0,L|256:1,1,1.1
256,128,91737,2,0,L|256:1,1,1.1
256,128,91757,2,0,L|256:1,1,1.1
256,128,91778,2,0,L|256:1,1,1.1
256,192,91797,1,0,0:0:0:0:
256,128,91798,2,0,L|256:1,1,1.1
256,128,91818,2,0,L|256:1,1,1.1
256,128,91838,2,0,L|256:1,1,1.1
256,128,91859,2,0,L|256:1,1,1.1
256,192,91878,1,8,0:0:0:0:
256,128,91879,2,0,L|256:1,1,1.1
256,128,91899,2,0,L|256:1,1,1.1
256,128,91919,2,0,L|256:1,1,1.1
256,128,91940,2,0,L|256:1,1,1.1
256,192,91959,1,0,0:0:0:0:
256,128,91960,2,0,L|256:1,1,1.1
256,128,91980,2,0,L|256:1,1,1.1
256,128,92001,2,0,L|256:1,1,1.1
256,128,92021,2,0,L|256:1,1,1.1
256,192,92040,1,8,0:0:0:0:
256,128,92041,2,0,L|256:1,1,1.1
256,128,92061,2,0,L|256:1,1,1.1
256,128,92082,2,0,L|256:1,1,1.1
256,128,92102,2,0,L|256:1,1,1.1
256,192,92121,1,8,0:0:0:0:
256,128,92122,2,0,L|256:1,1,1.1
256,128,92142,2,0,L|256:1,1,1.1
256,128,92163,2,0,L|256:1,1,1.1
256,128,92183,2,0,L|256:1,1,1.1
256,128,92203,2,0,L|256:1,1,1.1
256,128,92224,2,0,L|256:1,1,1.1
256,128,92244,2,0,L|256:1,1,1.1
256,128,92264,2,0,L|256:1,1,1.1
256,192,92283,1,0,0:0:0:0:
256,128,92284,2,0,L|256:1,1,1.1
256,128,92305,2,0,L|256:1,1,1.1
256,128,92325,2,0,L|256:1,1,1.1
256,128,92345,2,0,L|256:1,1,1.1
256,192,92364,1,0,0:0:0:0:
256,128,92365,2,0,L|256:1,1,1.1
256,128,92386,2,0,L|256:1,1,1.1
256,128,92406,2,0,L|256:1,1,1.1
256,128,92426,2,0,L|256:1,1,1.1
256,192,92445,1,8,0:0:0:0:
256,128,92446,2,0,L|256:1,1,1.1
256,128,92467,2,0,L|256:1,1,1.1
256,128,92487,2,0,L|256:1,1,1.1
256,192,92500,1,8,0:0:0:0:
256,128,92507,2,0,L|256:1,1,1.1
256,128,92528,2,0,L|256:1,1,1.1
256,128,92548,2,0,L|256:1,1,1.1
256,192,92554,1,8,0:0:0:0:
256,128,92568,2,0,L|256:1,1,1.1
256,128,92588,2,0,L|256:1,1,1.1
256,192,92608,1,0,0:0:0:0:
256,128,92609,2,0,L|256:1,1,1.1
256,128,92629,2,0,L|256:1,1,1.1
256,128,92649,2,0,L|256:1,1,1.1
256,128,92669,2,0,L|256:1,1,1.1
256,192,92689,1,0,0:0:0:0:
256,128,92690,2,0,L|256:1,1,1.1
256,128,92710,2,0,L|256:1,1,1.1
256,128,92730,2,0,L|256:1,1,1.1
256,128,92751,2,0,L|256:1,1,1.1
256,192,92770,5,8,0:0:0:0:
256,128,92771,2,0,L|256:1,1,1.1
256,128,92791,2,0,L|256:1,1,1.1
256,128,92811,2,0,L|256:1,1,1.1
256,128,92832,2,0,L|256:1,1,1.1
256,192,92851,1,0,0:0:0:0:
256,128,92852,2,0,L|256:1,1,1.1
256,128,92872,2,0,L|256:1,1,1.1
256,128,92892,2,0,L|256:1,1,1.1
256,128,92913,2,0,L|256:1,1,1.1
256,192,92932,1,8,0:0:0:0:
256,128,92933,2,0,L|256:1,1,1.1
256,128,92953,2,0,L|256:1,1,1.1
256,128,92974,2,0,L|256:1,1,1.1
256,128,92994,2,0,L|256:1,1,1.1
256,192,93013,1,8,0:0:0:0:
256,128,93014,2,0,L|256:1,1,1.1
256,128,93034,2,0,L|256:1,1,1.1
256,128,93055,2,0,L|256:1,1,1.1
256,128,93075,2,0,L|256:1,1,1.1
256,192,93094,1,0,0:0:0:0:
256,128,93095,2,0,L|256:1,1,1.1
256,128,93115,2,0,L|256:1,1,1.1
256,128,93136,2,0,L|256:1,1,1.1
256,192,93148,1,0,0:0:0:0:
256,128,93156,2,0,L|256:1,1,1.1
256,128,93176,2,0,L|256:1,1,1.1
256,128,93196,2,0,L|256:1,1,1.1
256,192,93202,1,0,0:0:0:0:
256,128,93217,2,0,L|256:1,1,1.1
256,128,93237,2,0,L|256:1,1,1.1
256,192,93256,1,8,0:0:0:0:
256,128,93257,2,0,L|256:1,1,1.1
256,128,93278,2,0,L|256:1,1,1.1
256,128,93298,2,0,L|256:1,1,1.1
256,128,93318,2,0,L|256:1,1,1.1
256,192,93337,1,0,0:0:0:0:
256,128,93338,2,0,L|256:1,1,1.1
256,128,93359,2,0,L|256:1,1,1.1
256,128,93379,2,0,L|256:1,1,1.1
256,128,93399,2,0,L|256:1,1,1.1
256,192,93418,1,8,0:0:0:0:
256,128,93419,2,0,L|256:1,1,1.1
256,128,93440,2,0,L|256:1,1,1.1
256,128,93460,2,0,L|256:1,1,1.1
256,128,93480,2,0,L|256:1,1,1.1
256,192,93500,1,8,0:0:0:0:
256,128,93501,2,0,L|256:1,1,1.1
256,128,93521,2,0,L|256:1,1,1.1
256,128,93541,2,0,L|256:1,1,1.1
256,128,93561,2,0,L|256:1,1,1.1
256,192,93581,1,0,0:0:0:0:
256,128,93582,2,0,L|256:1,1,1.1
256,128,93602,2,0,L|256:1,1,1.1
256,128,93622,2,0,L|256:1,1,1.1
256,128,93642,2,0,L|256:1,1,1.1
256,192,93662,1,0,0:0:0:0:
256,128,93663,2,0,L|256:1,1,1.1
256,128,93683,2,0,L|256:1,1,1.1
256,128,93703,2,0,L|256:1,1,1.1
256,128,93724,2,0,L|256:1,1,1.1
256,192,93743,12,0,99241,0:0:0:0:
