osu file format v14

[General]
AudioFilename: audio.mp3
AudioLeadIn: 0
PreviewTime: 61617
Countdown: 0
SampleSet: Soft
StackLeniency: 0.7
Mode: 3
LetterboxInBreaks: 0
SpecialStyle: 0
WidescreenStoryboard: 1

[Editor]
Bookmarks: 1273,5489,11003,16192,21381,31760,42138,52516,70516,86084
DistanceSpacing: 1
BeatDivisor: 4
GridSize: 32
TimelineZoom: 1.800005

[Metadata]
Title:TSLove
TitleUnicode:TSLove
Artist:O2i3
ArtistUnicode:O2i3
Creator:[_Chichinya_]
Version:CysseLove
Source:
Tags:Melanie Friggy-chan kqrth DDM Hi_Hello 404 AccNotFound FlamingRok Dargin Cyoris210 BlackWolf159 Yuno Taikocracy Prancer agu gamerock Nifty Lno Nepuri Raphalge frukoyurdakul Cyssel Unmei Muma Q____X Vulkin JessiChan iContol Chocola_2287 AezLack _yu68 zigizigiefe Grimbow
BeatmapID:1191293
BeatmapSetID:549370

[Difficulty]
HPDrainRate:5
CircleSize:4
OverallDifficulty:7
ApproachRate:9
SliderMultiplier:1.5042328936501
SliderTickRate:1

[Events]
//Background and Video events
0,0,"deep_sea_by_iil0sey-d7c8f1v.png",0,0
//Break Periods
//Storyboard Layer 0 (Background)
//Storyboard Layer 1 (Fail)
//Storyboard Layer 2 (Pass)
//Storyboard Layer 3 (Foreground)
//Storyboard Sound Samples

[TimingPoints]
645,324.324324324324,4,2,1,100,1,0

[Colours]
Combo1 : 133,24,82
Combo2 : 96,61,99
Combo3 : 252,143,143
Combo4 : 234,69,21

[HitObjects]
192,192,645,5,0,0:0:0:0:
320,192,645,1,0,0:0:0:0:
448,192,645,1,0,0:0:0:0:
64,192,645,1,0,0:0:0:0:
448,192,807,1,0,0:0:0:0:
448,192,969,1,0,0:0:0:0:
448,192,1131,1,0,0:0:0:0:
448,192,1293,1,0,0:0:0:0:
448,192,1455,1,0,0:0:0:0:
448,192,1617,1,0,0:0:0:0:
448,192,1780,1,0,0:0:0:0:
64,192,1780,1,0,0:0:0:0:
64,192,1942,1,0,0:0:0:0:
64,192,2104,1,0,0:0:0:0:
64,192,2266,1,0,0:0:0:0:
64,192,2428,1,0,0:0:0:0:
64,192,2590,1,0,0:0:0:0:
64,192,2753,1,0,0:0:0:0:
64,192,2915,1,0,0:0:0:0:
64,192,3077,1,0,0:0:0:0:
320,192,3239,1,0,0:0:0:0:
64,192,3239,1,0,0:0:0:0:
320,192,3401,1,0,0:0:0:0:
320,192,3563,1,0,0:0:0:0:
320,192,3726,1,0,0:0:0:0:
320,192,3888,1,0,0:0:0:0:
320,192,4050,1,0,0:0:0:0:
320,192,4212,1,0,0:0:0:0:
64,192,4374,1,0,0:0:0:0:
64,192,4536,1,0,0:0:0:0:
64,192,4699,1,0,0:0:0:0:
64,192,4861,1,0,0:0:0:0:
64,192,5023,1,0,0:0:0:0:
64,192,5185,1,0,0:0:0:0:
64,192,5347,1,0,0:0:0:0:
64,192,5509,1,0,0:0:0:0:
64,192,5672,1,0,0:0:0:0:
448,192,5834,1,0,0:0:0:0:
448,192,5996,1,0,0:0:0:0:
448,192,6158,1,0,0:0:0:0:
448,192,6320,1,0,0:0:0:0:
448,192,6482,1,0,0:0:0:0:
448,192,6644,1,0,0:0:0:0:
448,192,6807,1,0,0:0:0:0:
448,192,6969,1,0,0:0:0:0:
64,192,7131,1,0,0:0:0:0:
64,192,7293,1,0,0:0:0:0:
64,192,7455,1,0,0:0:0:0:
64,192,7617,1,0,0:0:0:0:
64,192,7780,1,0,0:0:0:0:
64,192,7942,1,0,0:0:0:0:
64,192,8104,1,0,0:0:0:0:
64,192,8266,1,0,0:0:0:0:
320,192,8428,1,0,0:0:0:0:
320,192,8590,1,0,0:0:0:0:
320,192,8753,1,0,0:0:0:0:
320,192,8915,1,0,0:0:0:0:
320,192,9077,1,0,0:0:0:0:
320,192,9239,1,0,0:0:0:0:
320,192,9401,1,0,0:0:0:0:
64,192,9563,1,0,0:0:0:0:
64,192,9726,1,0,0:0:0:0:
64,192,9888,1,0,0:0:0:0:
64,192,10050,1,0,0:0:0:0:
64,192,10212,1,0,0:0:0:0:
64,192,10374,1,0,0:0:0:0:
64,192,10536,1,0,0:0:0:0:
64,192,10699,1,0,0:0:0:0:
320,192,10861,1,0,0:0:0:0:
192,192,11023,1,0,0:0:0:0:
320,192,11023,1,0,0:0:0:0:
64,192,11104,1,0,0:0:0:0:
192,192,11185,1,0,0:0:0:0:
64,192,11266,1,0,0:0:0:0:
320,192,11347,1,0,0:0:0:0:
448,192,11347,1,0,0:0:0:0:
192,192,11428,1,0,0:0:0:0:
320,192,11509,1,0,0:0:0:0:
448,192,11590,1,0,0:0:0:0:
192,192,11672,1,0,0:0:0:0:
64,192,11672,1,0,0:0:0:0:
320,192,11753,1,0,0:0:0:0:
192,192,11834,1,0,0:0:0:0:
64,192,11915,1,0,0:0:0:0:
192,192,11996,1,0,0:0:0:0:
320,192,11996,1,0,0:0:0:0:
64,192,12077,1,0,0:0:0:0:
192,192,12158,1,0,0:0:0:0:
64,192,12239,1,0,0:0:0:0:
320,192,12320,1,0,0:0:0:0:
448,192,12320,1,0,0:0:0:0:
64,192,12401,1,0,0:0:0:0:
192,192,12482,1,0,0:0:0:0:
320,192,12563,1,0,0:0:0:0:
192,192,12644,1,0,0:0:0:0:
64,192,12644,1,0,0:0:0:0:
448,192,12726,1,0,0:0:0:0:
320,192,12807,1,0,0:0:0:0:
192,192,12888,1,0,0:0:0:0:
320,192,12969,1,0,0:0:0:0:
448,192,12969,1,0,0:0:0:0:
192,192,13050,1,0,0:0:0:0:
320,192,13131,1,0,0:0:0:0:
448,192,13212,1,0,0:0:0:0:
192,192,13293,1,0,0:0:0:0:
320,192,13293,1,0,0:0:0:0:
448,192,13374,1,0,0:0:0:0:
320,192,13455,1,0,0:0:0:0:
448,192,13536,1,0,0:0:0:0:
64,192,13617,1,0,0:0:0:0:
192,192,13617,1,0,0:0:0:0:
320,192,13699,1,0,0:0:0:0:
192,192,13780,1,0,0:0:0:0:
64,192,13861,1,0,0:0:0:0:
192,192,13942,1,0,0:0:0:0:
320,192,13942,1,0,0:0:0:0:
64,192,14023,1,0,0:0:0:0:
192,192,14104,1,0,0:0:0:0:
64,192,14185,1,0,0:0:0:0:
320,192,14266,1,0,0:0:0:0:
448,192,14266,1,0,0:0:0:0:
192,192,14347,1,0,0:0:0:0:
320,192,14428,1,0,0:0:0:0:
448,192,14509,1,0,0:0:0:0:
192,192,14590,1,0,0:0:0:0:
320,192,14590,1,0,0:0:0:0:
448,192,14672,1,0,0:0:0:0:
320,192,14753,1,0,0:0:0:0:
192,192,14834,1,0,0:0:0:0:
320,192,14915,1,0,0:0:0:0:
448,192,14915,1,0,0:0:0:0:
192,192,14996,1,0,0:0:0:0:
320,192,15077,1,0,0:0:0:0:
64,192,15158,1,0,0:0:0:0:
320,192,15239,1,0,0:0:0:0:
192,192,15239,1,0,0:0:0:0:
448,192,15320,1,0,0:0:0:0:
320,192,15401,1,0,0:0:0:0:
448,192,15482,1,0,0:0:0:0:
192,192,15563,1,0,0:0:0:0:
64,192,15563,1,0,0:0:0:0:
448,192,15644,1,0,0:0:0:0:
320,192,15726,1,0,0:0:0:0:
448,192,15807,1,0,0:0:0:0:
192,192,15888,1,0,0:0:0:0:
320,192,15888,1,0,0:0:0:0:
64,192,15969,1,0,0:0:0:0:
192,192,16050,1,0,0:0:0:0:
64,192,16131,1,0,0:0:0:0:
320,192,16212,1,0,0:0:0:0:
192,192,16212,1,0,0:0:0:0:
192,192,16374,1,0,0:0:0:0:
320,192,16374,1,0,0:0:0:0:
448,192,16374,1,0,0:0:0:0:
320,192,16536,1,0,0:0:0:0:
192,192,16536,1,0,0:0:0:0:
320,192,16699,1,0,0:0:0:0:
192,192,16699,1,0,0:0:0:0:
64,192,16699,1,0,0:0:0:0:
192,192,16861,1,0,0:0:0:0:
64,192,16861,1,0,0:0:0:0:
192,192,17023,1,0,0:0:0:0:
320,192,17023,1,0,0:0:0:0:
64,192,17185,1,0,0:0:0:0:
192,192,17185,1,0,0:0:0:0:
320,192,17347,1,0,0:0:0:0:
448,192,17347,1,0,0:0:0:0:
192,192,17509,1,0,0:0:0:0:
320,192,17509,1,0,0:0:0:0:
320,192,17672,1,0,0:0:0:0:
448,192,17672,1,0,0:0:0:0:
320,192,17834,1,0,0:0:0:0:
192,192,17834,1,0,0:0:0:0:
192,192,17996,1,0,0:0:0:0:
64,192,17996,1,0,0:0:0:0:
192,192,18158,1,0,0:0:0:0:
320,192,18158,1,0,0:0:0:0:
192,192,18320,1,0,0:0:0:0:
64,192,18320,1,0,0:0:0:0:
192,192,18482,1,0,0:0:0:0:
320,192,18482,1,0,0:0:0:0:
320,192,18644,1,0,0:0:0:0:
448,192,18644,1,0,0:0:0:0:
320,192,18807,1,0,0:0:0:0:
192,192,18807,1,0,0:0:0:0:
192,192,18969,1,0,0:0:0:0:
64,192,18969,1,0,0:0:0:0:
320,192,19050,1,0,0:0:0:0:
192,192,19131,1,0,0:0:0:0:
64,192,19131,1,0,0:0:0:0:
320,192,19212,1,0,0:0:0:0:
448,192,19212,1,0,0:0:0:0:
192,192,19293,1,0,0:0:0:0:
320,192,19374,1,0,0:0:0:0:
448,192,19374,1,0,0:0:0:0:
192,192,19455,1,0,0:0:0:0:
64,192,19455,1,0,0:0:0:0:
448,192,19455,1,0,0:0:0:0:
320,192,19536,1,0,0:0:0:0:
192,192,19617,1,0,0:0:0:0:
64,192,19617,1,0,0:0:0:0:
320,192,19699,1,0,0:0:0:0:
448,192,19699,1,0,0:0:0:0:
320,192,19780,1,0,0:0:0:0:
448,192,19780,1,0,0:0:0:0:
320,192,19861,1,0,0:0:0:0:
448,192,19861,1,0,0:0:0:0:
448,192,19942,1,0,0:0:0:0:
320,192,19942,1,0,0:0:0:0:
192,192,20104,128,0,21401:0:0:0:0:
320,192,20104,128,0,21401:0:0:0:0:
64,192,21401,1,0,0:0:0:0:
448,192,21401,1,0,0:0:0:0:
448,192,21563,1,0,0:0:0:0:
320,192,21563,1,0,0:0:0:0:
64,192,21644,1,0,0:0:0:0:
192,192,21726,1,0,0:0:0:0:
320,192,21726,1,0,0:0:0:0:
64,192,21807,1,0,0:0:0:0:
192,192,21888,1,0,0:0:0:0:
320,192,21969,1,0,0:0:0:0:
64,192,22050,1,0,0:0:0:0:
448,192,22050,1,0,0:0:0:0:
320,192,22131,1,0,0:0:0:0:
192,192,22212,1,0,0:0:0:0:
64,192,22293,1,0,0:0:0:0:
192,192,22374,1,0,0:0:0:0:
320,192,22374,1,0,0:0:0:0:
448,192,22455,1,0,0:0:0:0:
320,192,22536,1,0,0:0:0:0:
192,192,22617,1,0,0:0:0:0:
64,192,22699,1,0,0:0:0:0:
448,192,22699,1,0,0:0:0:0:
192,192,22780,1,0,0:0:0:0:
320,192,22861,1,0,0:0:0:0:
448,192,22942,1,0,0:0:0:0:
192,192,23023,1,0,0:0:0:0:
320,192,23023,1,0,0:0:0:0:
448,192,23104,1,0,0:0:0:0:
64,192,23104,1,0,0:0:0:0:
192,192,23185,1,0,0:0:0:0:
320,192,23185,1,0,0:0:0:0:
192,192,23347,1,0,0:0:0:0:
320,192,23347,1,0,0:0:0:0:
192,192,23672,1,0,0:0:0:0:
320,192,23672,1,0,0:0:0:0:
64,192,23672,1,0,0:0:0:0:
448,192,23672,1,0,0:0:0:0:
192,192,23996,1,0,0:0:0:0:
320,192,23996,1,0,0:0:0:0:
448,192,24158,1,0,0:0:0:0:
320,192,24239,1,0,0:0:0:0:
192,192,24320,1,0,0:0:0:0:
64,192,24320,1,0,0:0:0:0:
448,192,24320,1,0,0:0:0:0:
320,192,24401,1,0,0:0:0:0:
448,192,24482,1,0,0:0:0:0:
192,192,24482,1,0,0:0:0:0:
64,192,24482,1,0,0:0:0:0:
320,192,24563,1,0,0:0:0:0:
192,192,24644,1,0,0:0:0:0:
64,192,24644,1,0,0:0:0:0:
448,192,24644,1,0,0:0:0:0:
320,192,24726,1,0,0:0:0:0:
448,192,24807,1,0,0:0:0:0:
192,192,24807,1,0,0:0:0:0:
64,192,24807,1,0,0:0:0:0:
320,192,24888,1,0,0:0:0:0:
64,192,24969,1,0,0:0:0:0:
192,192,24969,1,0,0:0:0:0:
320,192,25050,1,0,0:0:0:0:
64,192,25131,1,0,0:0:0:0:
448,192,25131,1,0,0:0:0:0:
192,192,25212,1,0,0:0:0:0:
320,192,25293,1,0,0:0:0:0:
448,192,25293,1,0,0:0:0:0:
192,192,25374,1,0,0:0:0:0:
448,192,25455,1,0,0:0:0:0:
64,192,25455,1,0,0:0:0:0:
320,192,25536,1,0,0:0:0:0:
192,192,25617,1,0,0:0:0:0:
64,192,25617,1,0,0:0:0:0:
320,192,25699,1,0,0:0:0:0:
64,192,25780,1,0,0:0:0:0:
448,192,25780,1,0,0:0:0:0:
192,192,25861,1,0,0:0:0:0:
320,192,25942,1,0,0:0:0:0:
448,192,25942,1,0,0:0:0:0:
64,192,26023,1,0,0:0:0:0:
192,192,26104,1,0,0:0:0:0:
64,192,26266,1,0,0:0:0:0:
192,192,26266,1,0,0:0:0:0:
320,192,26266,1,0,0:0:0:0:
448,192,26266,1,0,0:0:0:0:
192,192,26590,1,0,0:0:0:0:
320,192,26590,1,0,0:0:0:0:
64,192,26672,1,0,0:0:0:0:
192,192,26753,1,0,0:0:0:0:
320,192,26834,1,0,0:0:0:0:
320,192,26915,1,0,0:0:0:0:
448,192,26915,1,0,0:0:0:0:
64,192,26996,1,0,0:0:0:0:
192,192,27077,1,0,0:0:0:0:
320,192,27158,1,0,0:0:0:0:
320,192,27239,1,0,0:0:0:0:
448,192,27239,1,0,0:0:0:0:
64,192,27320,1,0,0:0:0:0:
192,192,27401,1,0,0:0:0:0:
320,192,27482,1,0,0:0:0:0:
320,192,27563,1,0,0:0:0:0:
448,192,27563,1,0,0:0:0:0:
64,192,27644,1,0,0:0:0:0:
192,192,27726,1,0,0:0:0:0:
320,192,27807,1,0,0:0:0:0:
320,192,27888,1,0,0:0:0:0:
448,192,27888,1,0,0:0:0:0:
448,192,27969,1,0,0:0:0:0:
320,192,28050,1,0,0:0:0:0:
192,192,28131,1,0,0:0:0:0:
192,192,28212,1,0,0:0:0:0:
64,192,28212,1,0,0:0:0:0:
448,192,28293,1,0,0:0:0:0:
320,192,28374,1,0,0:0:0:0:
192,192,28455,1,0,0:0:0:0:
192,192,28536,1,0,0:0:0:0:
64,192,28536,1,0,0:0:0:0:
320,192,28617,1,0,0:0:0:0:
192,192,28699,1,0,0:0:0:0:
64,192,28780,1,0,0:0:0:0:
320,192,28861,1,0,0:0:0:0:
192,192,28861,1,0,0:0:0:0:
448,192,28861,1,0,0:0:0:0:
64,192,29185,1,0,0:0:0:0:
192,192,29185,1,0,0:0:0:0:
320,192,29185,1,0,0:0:0:0:
448,192,29185,1,0,0:0:0:0:
448,192,29347,1,0,0:0:0:0:
320,192,29428,1,0,0:0:0:0:
192,192,29509,1,0,0:0:0:0:
320,192,29509,1,0,0:0:0:0:
448,192,29509,1,0,0:0:0:0:
64,192,29590,1,0,0:0:0:0:
192,192,29672,1,0,0:0:0:0:
320,192,29753,1,0,0:0:0:0:
320,192,29834,1,0,0:0:0:0:
192,192,29834,1,0,0:0:0:0:
64,192,29834,1,0,0:0:0:0:
448,192,29915,1,0,0:0:0:0:
320,192,29996,1,0,0:0:0:0:
192,192,30077,1,0,0:0:0:0:
64,192,30158,1,0,0:0:0:0:
192,192,30158,1,0,0:0:0:0:
320,192,30158,1,0,0:0:0:0:
448,192,30239,1,0,0:0:0:0:
320,192,30320,1,0,0:0:0:0:
448,192,30401,1,0,0:0:0:0:
448,192,30482,1,0,0:0:0:0:
320,192,30482,1,0,0:0:0:0:
192,192,30482,1,0,0:0:0:0:
64,192,30482,1,0,0:0:0:0:
64,192,30563,1,0,0:0:0:0:
192,192,30644,1,0,0:0:0:0:
64,192,30726,1,0,0:0:0:0:
192,192,30807,1,0,0:0:0:0:
320,192,30807,1,0,0:0:0:0:
448,192,30807,1,0,0:0:0:0:
192,192,31131,1,0,0:0:0:0:
320,192,31131,1,0,0:0:0:0:
192,192,31293,1,0,0:0:0:0:
320,192,31293,1,0,0:0:0:0:
64,192,31293,1,0,0:0:0:0:
448,192,31293,1,0,0:0:0:0:
192,192,31455,1,0,0:0:0:0:
320,192,31455,1,0,0:0:0:0:
192,192,31617,1,0,0:0:0:0:
320,192,31617,1,0,0:0:0:0:
64,192,31617,1,0,0:0:0:0:
448,192,31617,1,0,0:0:0:0:
192,192,31780,1,0,0:0:0:0:
320,192,31780,1,0,0:0:0:0:
320,192,31861,1,0,0:0:0:0:
192,192,31942,1,0,0:0:0:0:
64,192,32023,1,0,0:0:0:0:
192,192,32104,1,0,0:0:0:0:
320,192,32104,1,0,0:0:0:0:
448,192,32104,1,0,0:0:0:0:
64,192,32185,1,0,0:0:0:0:
192,192,32266,1,0,0:0:0:0:
64,192,32347,1,0,0:0:0:0:
192,192,32428,1,0,0:0:0:0:
320,192,32428,1,0,0:0:0:0:
448,192,32428,1,0,0:0:0:0:
64,192,32509,1,0,0:0:0:0:
192,192,32590,1,0,0:0:0:0:
320,192,32672,1,0,0:0:0:0:
448,192,32753,1,0,0:0:0:0:
64,192,32753,1,0,0:0:0:0:
192,192,32834,1,0,0:0:0:0:
320,192,32915,1,0,0:0:0:0:
192,192,32996,1,0,0:0:0:0:
64,192,33077,1,0,0:0:0:0:
448,192,33077,1,0,0:0:0:0:
320,192,33158,1,0,0:0:0:0:
192,192,33239,1,0,0:0:0:0:
320,192,33320,1,0,0:0:0:0:
448,192,33401,1,0,0:0:0:0:
192,192,33401,1,0,0:0:0:0:
64,192,33482,1,0,0:0:0:0:
192,192,33563,1,0,0:0:0:0:
320,192,33644,1,0,0:0:0:0:
448,192,33726,1,0,0:0:0:0:
64,192,33726,1,0,0:0:0:0:
320,192,33807,1,0,0:0:0:0:
192,192,33888,1,0,0:0:0:0:
64,192,33969,1,0,0:0:0:0:
192,192,34050,1,0,0:0:0:0:
320,192,34050,1,0,0:0:0:0:
448,192,34050,1,0,0:0:0:0:
64,192,34374,1,0,0:0:0:0:
192,192,34374,1,0,0:0:0:0:
320,192,34374,1,0,0:0:0:0:
448,192,34374,1,0,0:0:0:0:
448,192,34455,1,0,0:0:0:0:
320,192,34536,1,0,0:0:0:0:
192,192,34617,1,0,0:0:0:0:
192,192,34699,1,0,0:0:0:0:
320,192,34699,1,0,0:0:0:0:
448,192,34699,1,0,0:0:0:0:
64,192,34780,1,0,0:0:0:0:
192,192,34861,1,0,0:0:0:0:
320,192,34942,1,0,0:0:0:0:
320,192,35023,1,0,0:0:0:0:
192,192,35023,1,0,0:0:0:0:
64,192,35023,1,0,0:0:0:0:
448,192,35104,1,0,0:0:0:0:
320,192,35185,1,0,0:0:0:0:
192,192,35266,1,0,0:0:0:0:
192,192,35347,1,0,0:0:0:0:
320,192,35347,1,0,0:0:0:0:
448,192,35347,1,0,0:0:0:0:
64,192,35428,1,0,0:0:0:0:
192,192,35509,1,0,0:0:0:0:
320,192,35590,1,0,0:0:0:0:
320,192,35672,1,0,0:0:0:0:
192,192,35672,1,0,0:0:0:0:
64,192,35672,1,0,0:0:0:0:
448,192,35753,1,0,0:0:0:0:
192,192,35753,1,0,0:0:0:0:
320,192,35834,1,0,0:0:0:0:
192,192,35915,1,0,0:0:0:0:
448,192,35915,1,0,0:0:0:0:
64,192,35996,1,0,0:0:0:0:
320,192,35996,1,0,0:0:0:0:
192,192,36077,1,0,0:0:0:0:
320,192,36158,1,0,0:0:0:0:
64,192,36158,1,0,0:0:0:0:
448,192,36239,1,0,0:0:0:0:
192,192,36239,1,0,0:0:0:0:
320,192,36320,1,0,0:0:0:0:
192,192,36401,1,0,0:0:0:0:
448,192,36401,1,0,0:0:0:0:
320,192,36482,1,0,0:0:0:0:
64,192,36482,1,0,0:0:0:0:
192,192,36563,1,0,0:0:0:0:
64,192,36644,1,0,0:0:0:0:
192,192,36644,1,0,0:0:0:0:
320,192,36644,1,0,0:0:0:0:
448,192,36644,1,0,0:0:0:0:
64,192,36969,1,0,0:0:0:0:
192,192,36969,1,0,0:0:0:0:
320,192,36969,1,0,0:0:0:0:
448,192,36969,1,0,0:0:0:0:
192,192,37050,1,0,0:0:0:0:
320,192,37131,1,0,0:0:0:0:
192,192,37212,1,0,0:0:0:0:
64,192,37293,1,0,0:0:0:0:
448,192,37293,1,0,0:0:0:0:
320,192,37374,1,0,0:0:0:0:
192,192,37455,1,0,0:0:0:0:
320,192,37536,1,0,0:0:0:0:
64,192,37617,1,0,0:0:0:0:
448,192,37617,1,0,0:0:0:0:
192,192,37699,1,0,0:0:0:0:
320,192,37780,1,0,0:0:0:0:
192,192,37861,1,0,0:0:0:0:
64,192,37942,1,0,0:0:0:0:
448,192,37942,1,0,0:0:0:0:
320,192,38023,1,0,0:0:0:0:
192,192,38104,1,0,0:0:0:0:
320,192,38185,1,0,0:0:0:0:
64,192,38266,1,0,0:0:0:0:
448,192,38266,1,0,0:0:0:0:
192,192,38347,1,0,0:0:0:0:
64,192,38428,1,0,0:0:0:0:
320,192,38428,1,0,0:0:0:0:
192,192,38509,1,0,0:0:0:0:
320,192,38590,1,0,0:0:0:0:
192,192,38672,1,0,0:0:0:0:
448,192,38672,1,0,0:0:0:0:
64,192,38753,1,0,0:0:0:0:
448,192,38834,1,0,0:0:0:0:
192,192,38834,1,0,0:0:0:0:
320,192,38915,1,0,0:0:0:0:
192,192,38996,1,0,0:0:0:0:
64,192,39077,1,0,0:0:0:0:
320,192,39077,1,0,0:0:0:0:
192,192,39239,1,0,0:0:0:0:
320,192,39239,1,0,0:0:0:0:
64,192,39563,1,0,0:0:0:0:
192,192,39563,1,0,0:0:0:0:
320,192,39563,1,0,0:0:0:0:
448,192,39563,1,0,0:0:0:0:
192,192,39644,1,0,0:0:0:0:
320,192,39726,1,0,0:0:0:0:
192,192,39807,1,0,0:0:0:0:
448,192,39807,1,0,0:0:0:0:
64,192,39888,1,0,0:0:0:0:
320,192,39888,1,0,0:0:0:0:
192,192,39969,1,0,0:0:0:0:
64,192,40050,1,0,0:0:0:0:
320,192,40050,1,0,0:0:0:0:
192,192,40131,1,0,0:0:0:0:
448,192,40131,1,0,0:0:0:0:
320,192,40212,1,0,0:0:0:0:
192,192,40293,1,0,0:0:0:0:
448,192,40293,1,0,0:0:0:0:
320,192,40374,1,0,0:0:0:0:
192,192,40455,1,0,0:0:0:0:
448,192,40455,1,0,0:0:0:0:
64,192,40536,1,0,0:0:0:0:
192,192,40617,1,0,0:0:0:0:
64,192,40699,1,0,0:0:0:0:
448,192,40699,1,0,0:0:0:0:
320,192,40780,1,0,0:0:0:0:
448,192,40861,1,0,0:0:0:0:
64,192,40942,1,0,0:0:0:0:
192,192,41023,1,0,0:0:0:0:
64,192,41104,1,0,0:0:0:0:
192,192,41185,1,0,0:0:0:0:
320,192,41185,1,0,0:0:0:0:
448,192,41185,1,0,0:0:0:0:
64,192,41509,1,0,0:0:0:0:
448,192,41509,1,0,0:0:0:0:
64,192,41834,1,0,0:0:0:0:
320,192,41834,1,0,0:0:0:0:
192,192,42158,1,0,0:0:0:0:
64,192,42158,1,0,0:0:0:0:
448,192,42320,1,0,0:0:0:0:
192,192,42482,1,0,0:0:0:0:
320,192,42644,1,0,0:0:0:0:
64,192,42807,1,0,0:0:0:0:
320,192,42969,1,0,0:0:0:0:
192,192,43131,1,0,0:0:0:0:
448,192,43293,1,0,0:0:0:0:
320,192,43455,1,0,0:0:0:0:
64,192,43455,1,0,0:0:0:0:
192,192,43617,1,0,0:0:0:0:
320,192,43617,1,0,0:0:0:0:
192,192,43780,1,0,0:0:0:0:
448,192,43780,1,0,0:0:0:0:
320,192,43942,1,0,0:0:0:0:
64,192,43942,1,0,0:0:0:0:
192,192,44104,1,0,0:0:0:0:
320,192,44104,1,0,0:0:0:0:
64,192,44266,1,0,0:0:0:0:
192,192,44428,1,0,0:0:0:0:
320,192,44590,1,0,0:0:0:0:
192,192,44753,128,0,45077:0:0:0:0:
448,192,44915,1,0,0:0:0:0:
320,192,44996,1,0,0:0:0:0:
448,192,45077,1,0,0:0:0:0:
64,192,45239,1,0,0:0:0:0:
192,192,45239,1,0,0:0:0:0:
320,192,45401,1,0,0:0:0:0:
64,192,45563,1,0,0:0:0:0:
192,192,45726,1,0,0:0:0:0:
320,192,45888,1,0,0:0:0:0:
192,192,46050,1,0,0:0:0:0:
64,192,46212,1,0,0:0:0:0:
192,192,46374,1,0,0:0:0:0:
320,192,46536,1,0,0:0:0:0:
448,192,46699,1,0,0:0:0:0:
320,192,46861,1,0,0:0:0:0:
64,192,47023,1,0,0:0:0:0:
320,192,47185,1,0,0:0:0:0:
448,192,47347,1,0,0:0:0:0:
192,192,47509,1,0,0:0:0:0:
448,192,47672,1,0,0:0:0:0:
192,192,47834,1,0,0:0:0:0:
320,192,47996,1,0,0:0:0:0:
64,192,48158,1,0,0:0:0:0:
448,192,48158,128,0,48969:0:0:0:0:
192,192,48320,1,0,0:0:0:0:
320,192,48482,1,0,0:0:0:0:
64,192,48482,128,0,48969:0:0:0:0:
192,192,48644,1,0,0:0:0:0:
320,192,48807,1,0,0:0:0:0:
192,192,48969,1,0,0:0:0:0:
192,192,49131,1,0,0:0:0:0:
448,192,49293,1,0,0:0:0:0:
320,192,49455,1,0,0:0:0:0:
448,192,49617,1,0,0:0:0:0:
64,192,49780,1,0,0:0:0:0:
192,192,49942,1,0,0:0:0:0:
64,192,50104,1,0,0:0:0:0:
192,192,50266,1,0,0:0:0:0:
320,192,50266,1,0,0:0:0:0:
64,192,50428,1,0,0:0:0:0:
320,192,50428,1,0,0:0:0:0:
320,192,50590,1,0,0:0:0:0:
448,192,50590,1,0,0:0:0:0:
320,192,50753,1,0,0:0:0:0:
64,192,50753,1,0,0:0:0:0:
64,192,50915,1,0,0:0:0:0:
448,192,50915,1,0,0:0:0:0:
320,192,51077,1,0,0:0:0:0:
64,192,51077,1,0,0:0:0:0:
192,192,51239,1,0,0:0:0:0:
448,192,51239,1,0,0:0:0:0:
64,192,51401,1,0,0:0:0:0:
448,192,51401,1,0,0:0:0:0:
320,192,51563,1,0,0:0:0:0:
448,192,51563,1,0,0:0:0:0:
64,192,51726,1,0,0:0:0:0:
448,192,51726,1,0,0:0:0:0:
320,192,51888,1,0,0:0:0:0:
64,192,51888,1,0,0:0:0:0:
64,192,52050,1,0,0:0:0:0:
192,192,52050,1,0,0:0:0:0:
192,192,52212,1,0,0:0:0:0:
448,192,52212,1,0,0:0:0:0:
320,192,52374,1,0,0:0:0:0:
64,192,52374,1,0,0:0:0:0:
192,192,52536,1,0,0:0:0:0:
320,192,52536,1,0,0:0:0:0:
448,192,52536,1,0,0:0:0:0:
192,192,52699,1,0,0:0:0:0:
64,192,52861,1,0,0:0:0:0:
320,192,52942,1,0,0:0:0:0:
448,192,53023,1,0,0:0:0:0:
320,192,53104,1,0,0:0:0:0:
64,192,53185,1,0,0:0:0:0:
192,192,53266,1,0,0:0:0:0:
64,192,53347,1,0,0:0:0:0:
448,192,53347,1,0,0:0:0:0:
320,192,53428,1,0,0:0:0:0:
448,192,53509,1,0,0:0:0:0:
192,192,53590,1,0,0:0:0:0:
320,192,53672,1,0,0:0:0:0:
192,192,53753,1,0,0:0:0:0:
64,192,53834,1,0,0:0:0:0:
320,192,53915,1,0,0:0:0:0:
192,192,53996,1,0,0:0:0:0:
320,192,54077,1,0,0:0:0:0:
448,192,54158,1,0,0:0:0:0:
192,192,54239,1,0,0:0:0:0:
320,192,54320,1,0,0:0:0:0:
192,192,54401,1,0,0:0:0:0:
64,192,54482,1,0,0:0:0:0:
448,192,54482,1,0,0:0:0:0:
320,192,54563,1,0,0:0:0:0:
192,192,54644,1,0,0:0:0:0:
320,192,54726,1,0,0:0:0:0:
64,192,54807,1,0,0:0:0:0:
320,192,54888,1,0,0:0:0:0:
64,192,54969,1,0,0:0:0:0:
448,192,55050,1,0,0:0:0:0:
192,192,55131,1,0,0:0:0:0:
448,192,55212,1,0,0:0:0:0:
64,192,55293,1,0,0:0:0:0:
320,192,55374,1,0,0:0:0:0:
64,192,55455,1,0,0:0:0:0:
448,192,55536,1,0,0:0:0:0:
320,192,55617,1,0,0:0:0:0:
192,192,55699,1,0,0:0:0:0:
64,192,55780,1,0,0:0:0:0:
64,192,55861,1,0,0:0:0:0:
192,192,55942,1,0,0:0:0:0:
320,192,56023,1,0,0:0:0:0:
448,192,56104,1,0,0:0:0:0:
448,192,56185,1,0,0:0:0:0:
320,192,56266,1,0,0:0:0:0:
192,192,56347,1,0,0:0:0:0:
64,192,56428,1,0,0:0:0:0:
64,192,56509,1,0,0:0:0:0:
192,192,56590,1,0,0:0:0:0:
320,192,56672,1,0,0:0:0:0:
448,192,56753,1,0,0:0:0:0:
448,192,56834,1,0,0:0:0:0:
320,192,56915,1,0,0:0:0:0:
192,192,56996,1,0,0:0:0:0:
64,192,57077,1,0,0:0:0:0:
192,192,57158,1,0,0:0:0:0:
320,192,57239,1,0,0:0:0:0:
192,192,57320,1,0,0:0:0:0:
320,192,57401,1,0,0:0:0:0:
448,192,57401,1,0,0:0:0:0:
64,192,57401,1,0,0:0:0:0:
192,192,57482,1,0,0:0:0:0:
320,192,57563,1,0,0:0:0:0:
192,192,57644,1,0,0:0:0:0:
448,192,57726,1,0,0:0:0:0:
64,192,57726,1,0,0:0:0:0:
320,192,57726,1,0,0:0:0:0:
448,192,57888,1,0,0:0:0:0:
64,192,57888,1,0,0:0:0:0:
64,192,58050,1,0,0:0:0:0:
320,192,58050,1,0,0:0:0:0:
64,192,58212,1,0,0:0:0:0:
192,192,58212,1,0,0:0:0:0:
448,192,58374,1,0,0:0:0:0:
64,192,58374,1,0,0:0:0:0:
448,192,58536,1,0,0:0:0:0:
192,192,58536,1,0,0:0:0:0:
448,192,58699,1,0,0:0:0:0:
320,192,58699,1,0,0:0:0:0:
320,192,58861,1,0,0:0:0:0:
192,192,58861,1,0,0:0:0:0:
64,192,59023,1,0,0:0:0:0:
320,192,59023,1,0,0:0:0:0:
192,192,59185,1,0,0:0:0:0:
320,192,59185,1,0,0:0:0:0:
320,192,59347,1,0,0:0:0:0:
448,192,59347,1,0,0:0:0:0:
320,192,59509,1,0,0:0:0:0:
192,192,59509,1,0,0:0:0:0:
192,192,59672,1,0,0:0:0:0:
64,192,59672,1,0,0:0:0:0:
192,192,59834,1,0,0:0:0:0:
320,192,59834,1,0,0:0:0:0:
320,192,59996,1,0,0:0:0:0:
448,192,59996,1,0,0:0:0:0:
320,192,60158,1,0,0:0:0:0:
192,192,60158,1,0,0:0:0:0:
192,192,60320,1,0,0:0:0:0:
64,192,60320,1,0,0:0:0:0:
320,192,60401,1,0,0:0:0:0:
448,192,60401,1,0,0:0:0:0:
320,192,60482,1,0,0:0:0:0:
448,192,60482,1,0,0:0:0:0:
192,192,60563,1,0,0:0:0:0:
64,192,60563,1,0,0:0:0:0:
192,192,60644,1,0,0:0:0:0:
64,192,60644,1,0,0:0:0:0:
320,192,60726,1,0,0:0:0:0:
448,192,60726,1,0,0:0:0:0:
320,192,60807,1,0,0:0:0:0:
448,192,60807,1,0,0:0:0:0:
192,192,60888,1,0,0:0:0:0:
64,192,60888,1,0,0:0:0:0:
64,192,60969,1,0,0:0:0:0:
192,192,60969,1,0,0:0:0:0:
192,192,61050,1,0,0:0:0:0:
320,192,61050,1,0,0:0:0:0:
320,192,61131,1,0,0:0:0:0:
192,192,61131,1,0,0:0:0:0:
192,192,61212,1,0,0:0:0:0:
320,192,61293,1,0,0:0:0:0:
192,192,61374,1,0,0:0:0:0:
448,192,61617,128,0,62753:0:0:0:0:
320,192,61942,128,0,62753:0:0:0:0:
192,192,62266,128,0,62753:0:0:0:0:
64,192,62590,128,0,62753:0:0:0:0:
64,192,62915,1,0,0:0:0:0:
192,192,62915,1,0,0:0:0:0:
320,192,62915,1,0,0:0:0:0:
448,192,62915,1,0,0:0:0:0:
192,192,63077,1,0,0:0:0:0:
320,192,63158,1,0,0:0:0:0:
320,192,63239,1,0,0:0:0:0:
448,192,63239,1,0,0:0:0:0:
192,192,63401,1,0,0:0:0:0:
320,192,63482,1,0,0:0:0:0:
320,192,63563,1,0,0:0:0:0:
448,192,63563,1,0,0:0:0:0:
192,192,63726,1,0,0:0:0:0:
320,192,63807,1,0,0:0:0:0:
320,192,63888,1,0,0:0:0:0:
448,192,63888,1,0,0:0:0:0:
320,192,64050,1,0,0:0:0:0:
192,192,64131,1,0,0:0:0:0:
192,192,64212,1,0,0:0:0:0:
64,192,64212,1,0,0:0:0:0:
320,192,64374,1,0,0:0:0:0:
192,192,64455,1,0,0:0:0:0:
192,192,64536,1,0,0:0:0:0:
64,192,64536,1,0,0:0:0:0:
192,192,64699,1,0,0:0:0:0:
320,192,64780,1,0,0:0:0:0:
320,192,64861,1,0,0:0:0:0:
448,192,64861,1,0,0:0:0:0:
320,192,65023,1,0,0:0:0:0:
192,192,65104,1,0,0:0:0:0:
192,192,65185,1,0,0:0:0:0:
64,192,65185,1,0,0:0:0:0:
320,192,65185,1,0,0:0:0:0:
448,192,65185,1,0,0:0:0:0:
192,192,65509,1,0,0:0:0:0:
320,192,65509,1,0,0:0:0:0:
64,192,65509,1,0,0:0:0:0:
448,192,65509,1,0,0:0:0:0:
448,192,65590,1,0,0:0:0:0:
320,192,65672,1,0,0:0:0:0:
448,192,65753,1,0,0:0:0:0:
64,192,65753,1,0,0:0:0:0:
320,192,65834,1,0,0:0:0:0:
192,192,65915,1,0,0:0:0:0:
64,192,65996,1,0,0:0:0:0:
448,192,65996,1,0,0:0:0:0:
192,192,66077,1,0,0:0:0:0:
320,192,66158,1,0,0:0:0:0:
192,192,66239,1,0,0:0:0:0:
64,192,66320,1,0,0:0:0:0:
448,192,66320,1,0,0:0:0:0:
192,192,66401,1,0,0:0:0:0:
320,192,66482,1,0,0:0:0:0:
448,192,66563,1,0,0:0:0:0:
64,192,66563,1,0,0:0:0:0:
320,192,66644,1,0,0:0:0:0:
192,192,66726,1,0,0:0:0:0:
64,192,66807,1,0,0:0:0:0:
192,192,66888,1,0,0:0:0:0:
320,192,66969,1,0,0:0:0:0:
448,192,67050,1,0,0:0:0:0:
320,192,67131,1,0,0:0:0:0:
192,192,67131,1,0,0:0:0:0:
64,192,67212,1,0,0:0:0:0:
192,192,67293,1,0,0:0:0:0:
320,192,67374,1,0,0:0:0:0:
320,192,67455,1,0,0:0:0:0:
448,192,67455,1,0,0:0:0:0:
448,192,67536,1,0,0:0:0:0:
320,192,67617,1,0,0:0:0:0:
192,192,67699,1,0,0:0:0:0:
192,192,67780,1,0,0:0:0:0:
64,192,67780,1,0,0:0:0:0:
320,192,67780,1,0,0:0:0:0:
64,192,68104,1,0,0:0:0:0:
192,192,68104,1,0,0:0:0:0:
320,192,68104,1,0,0:0:0:0:
448,192,68104,1,0,0:0:0:0:
192,192,68185,1,0,0:0:0:0:
64,192,68266,1,0,0:0:0:0:
320,192,68266,1,0,0:0:0:0:
192,192,68347,1,0,0:0:0:0:
320,192,68428,1,0,0:0:0:0:
64,192,68428,1,0,0:0:0:0:
192,192,68509,1,0,0:0:0:0:
448,192,68509,1,0,0:0:0:0:
320,192,68590,1,0,0:0:0:0:
192,192,68672,1,0,0:0:0:0:
64,192,68753,1,0,0:0:0:0:
320,192,68753,1,0,0:0:0:0:
448,192,68753,1,0,0:0:0:0:
192,192,68834,1,0,0:0:0:0:
320,192,68915,1,0,0:0:0:0:
448,192,68915,1,0,0:0:0:0:
192,192,68996,1,0,0:0:0:0:
320,192,69077,1,0,0:0:0:0:
448,192,69077,1,0,0:0:0:0:
192,192,69158,1,0,0:0:0:0:
64,192,69239,1,0,0:0:0:0:
320,192,69239,1,0,0:0:0:0:
192,192,69320,1,0,0:0:0:0:
448,192,69401,1,0,0:0:0:0:
64,192,69401,1,0,0:0:0:0:
320,192,69482,1,0,0:0:0:0:
448,192,69563,1,0,0:0:0:0:
192,192,69563,1,0,0:0:0:0:
320,192,69644,1,0,0:0:0:0:
192,192,69726,1,0,0:0:0:0:
64,192,69726,1,0,0:0:0:0:
320,192,69807,1,0,0:0:0:0:
448,192,69888,1,0,0:0:0:0:
192,192,69888,1,0,0:0:0:0:
320,192,69969,1,0,0:0:0:0:
192,192,70050,1,0,0:0:0:0:
64,192,70050,1,0,0:0:0:0:
320,192,70131,1,0,0:0:0:0:
192,192,70212,1,0,0:0:0:0:
448,192,70212,1,0,0:0:0:0:
320,192,70293,1,0,0:0:0:0:
192,192,70374,1,0,0:0:0:0:
64,192,70374,1,0,0:0:0:0:
448,192,70374,1,0,0:0:0:0:
64,192,70699,1,0,0:0:0:0:
192,192,70699,1,0,0:0:0:0:
320,192,70699,1,0,0:0:0:0:
448,192,70699,1,0,0:0:0:0:
448,192,70861,1,0,0:0:0:0:
320,192,70942,1,0,0:0:0:0:
448,192,71023,1,0,0:0:0:0:
64,192,71023,1,0,0:0:0:0:
192,192,71104,1,0,0:0:0:0:
64,192,71185,1,0,0:0:0:0:
448,192,71185,1,0,0:0:0:0:
320,192,71266,1,0,0:0:0:0:
448,192,71347,1,0,0:0:0:0:
192,192,71347,1,0,0:0:0:0:
320,192,71428,1,0,0:0:0:0:
192,192,71509,1,0,0:0:0:0:
448,192,71590,1,0,0:0:0:0:
64,192,71590,1,0,0:0:0:0:
320,192,71672,1,0,0:0:0:0:
192,192,71672,1,0,0:0:0:0:
448,192,71753,1,0,0:0:0:0:
64,192,71753,1,0,0:0:0:0:
192,192,71834,1,0,0:0:0:0:
320,192,71834,1,0,0:0:0:0:
448,192,71915,1,0,0:0:0:0:
64,192,71915,1,0,0:0:0:0:
192,192,71996,1,0,0:0:0:0:
320,192,71996,1,0,0:0:0:0:
64,192,72077,1,0,0:0:0:0:
192,192,72158,1,0,0:0:0:0:
320,192,72239,1,0,0:0:0:0:
64,192,72320,1,0,0:0:0:0:
448,192,72320,1,0,0:0:0:0:
320,192,72644,1,0,0:0:0:0:
192,192,72644,1,0,0:0:0:0:
448,192,72644,1,0,0:0:0:0:
64,192,72644,1,0,0:0:0:0:
192,192,72807,1,0,0:0:0:0:
320,192,72807,1,0,0:0:0:0:
192,192,72969,1,0,0:0:0:0:
320,192,72969,1,0,0:0:0:0:
64,192,72969,1,0,0:0:0:0:
448,192,72969,1,0,0:0:0:0:
192,192,73131,1,0,0:0:0:0:
320,192,73131,1,0,0:0:0:0:
320,192,73293,1,0,0:0:0:0:
448,192,73293,1,0,0:0:0:0:
64,192,73293,1,0,0:0:0:0:
192,192,73374,1,0,0:0:0:0:
64,192,73455,1,0,0:0:0:0:
320,192,73536,1,0,0:0:0:0:
320,192,73617,1,0,0:0:0:0:
448,192,73617,1,0,0:0:0:0:
192,192,73699,1,0,0:0:0:0:
64,192,73699,1,0,0:0:0:0:
64,192,73780,1,0,0:0:0:0:
320,192,73780,1,0,0:0:0:0:
448,192,73780,1,0,0:0:0:0:
320,192,73861,1,0,0:0:0:0:
192,192,73942,1,0,0:0:0:0:
192,192,74023,1,0,0:0:0:0:
320,192,74023,1,0,0:0:0:0:
448,192,74104,1,0,0:0:0:0:
448,192,74185,1,0,0:0:0:0:
320,192,74185,1,0,0:0:0:0:
64,192,74185,1,0,0:0:0:0:
64,192,74266,1,0,0:0:0:0:
192,192,74266,1,0,0:0:0:0:
320,192,74347,1,0,0:0:0:0:
192,192,74428,1,0,0:0:0:0:
320,192,74509,1,0,0:0:0:0:
448,192,74590,1,0,0:0:0:0:
320,192,74590,1,0,0:0:0:0:
192,192,74672,1,0,0:0:0:0:
320,192,74753,1,0,0:0:0:0:
448,192,74834,1,0,0:0:0:0:
320,192,74915,1,0,0:0:0:0:
192,192,74915,1,0,0:0:0:0:
448,192,74996,1,0,0:0:0:0:
320,192,75077,1,0,0:0:0:0:
192,192,75158,1,0,0:0:0:0:
320,192,75239,1,0,0:0:0:0:
448,192,75239,1,0,0:0:0:0:
64,192,75320,1,0,0:0:0:0:
192,192,75401,1,0,0:0:0:0:
320,192,75482,1,0,0:0:0:0:
192,192,75563,1,0,0:0:0:0:
64,192,75563,1,0,0:0:0:0:
448,192,75563,1,0,0:0:0:0:
320,192,75888,1,0,0:0:0:0:
448,192,75888,1,0,0:0:0:0:
192,192,75888,1,0,0:0:0:0:
64,192,75888,1,0,0:0:0:0:
192,192,75969,1,0,0:0:0:0:
320,192,76050,1,0,0:0:0:0:
192,192,76131,1,0,0:0:0:0:
320,192,76212,1,0,0:0:0:0:
448,192,76212,1,0,0:0:0:0:
192,192,76293,1,0,0:0:0:0:
320,192,76374,1,0,0:0:0:0:
64,192,76374,1,0,0:0:0:0:
448,192,76455,1,0,0:0:0:0:
64,192,76536,1,0,0:0:0:0:
192,192,76536,1,0,0:0:0:0:
320,192,76617,1,0,0:0:0:0:
448,192,76699,1,0,0:0:0:0:
320,192,76780,1,0,0:0:0:0:
192,192,76861,1,0,0:0:0:0:
64,192,76861,1,0,0:0:0:0:
192,192,76942,1,0,0:0:0:0:
320,192,77023,1,0,0:0:0:0:
448,192,77104,1,0,0:0:0:0:
192,192,77185,1,0,0:0:0:0:
64,192,77185,1,0,0:0:0:0:
448,192,77185,1,0,0:0:0:0:
64,192,77266,1,0,0:0:0:0:
192,192,77347,1,0,0:0:0:0:
320,192,77428,1,0,0:0:0:0:
320,192,77509,1,0,0:0:0:0:
448,192,77509,1,0,0:0:0:0:
192,192,77590,1,0,0:0:0:0:
64,192,77672,1,0,0:0:0:0:
192,192,77753,1,0,0:0:0:0:
320,192,77834,1,0,0:0:0:0:
448,192,77834,1,0,0:0:0:0:
192,192,77915,1,0,0:0:0:0:
64,192,77996,1,0,0:0:0:0:
192,192,78077,1,0,0:0:0:0:
320,192,78158,1,0,0:0:0:0:
448,192,78158,1,0,0:0:0:0:
64,192,78482,1,0,0:0:0:0:
192,192,78482,1,0,0:0:0:0:
320,192,78482,1,0,0:0:0:0:
448,192,78482,1,0,0:0:0:0:
320,192,78563,1,0,0:0:0:0:
448,192,78644,1,0,0:0:0:0:
320,192,78726,1,0,0:0:0:0:
192,192,78807,1,0,0:0:0:0:
64,192,78807,1,0,0:0:0:0:
320,192,78888,1,0,0:0:0:0:
448,192,78969,1,0,0:0:0:0:
320,192,79050,1,0,0:0:0:0:
192,192,79131,1,0,0:0:0:0:
64,192,79131,1,0,0:0:0:0:
320,192,79212,1,0,0:0:0:0:
448,192,79293,1,0,0:0:0:0:
320,192,79374,1,0,0:0:0:0:
192,192,79455,1,0,0:0:0:0:
64,192,79455,1,0,0:0:0:0:
320,192,79455,1,0,0:0:0:0:
192,192,79536,1,0,0:0:0:0:
64,192,79617,1,0,0:0:0:0:
192,192,79699,1,0,0:0:0:0:
320,192,79780,1,0,0:0:0:0:
448,192,79780,1,0,0:0:0:0:
192,192,79861,1,0,0:0:0:0:
64,192,79942,1,0,0:0:0:0:
192,192,80023,1,0,0:0:0:0:
320,192,80104,1,0,0:0:0:0:
448,192,80104,1,0,0:0:0:0:
192,192,80185,1,0,0:0:0:0:
64,192,80266,1,0,0:0:0:0:
192,192,80347,1,0,0:0:0:0:
320,192,80428,1,0,0:0:0:0:
448,192,80428,1,0,0:0:0:0:
192,192,80753,1,0,0:0:0:0:
320,192,80753,1,0,0:0:0:0:
64,192,80834,1,0,0:0:0:0:
448,192,80834,1,0,0:0:0:0:
192,192,80915,1,0,0:0:0:0:
320,192,80996,1,0,0:0:0:0:
448,192,81077,1,0,0:0:0:0:
64,192,81077,1,0,0:0:0:0:
192,192,81158,1,0,0:0:0:0:
320,192,81239,1,0,0:0:0:0:
192,192,81320,1,0,0:0:0:0:
64,192,81401,1,0,0:0:0:0:
448,192,81401,1,0,0:0:0:0:
320,192,81482,1,0,0:0:0:0:
192,192,81563,1,0,0:0:0:0:
320,192,81644,1,0,0:0:0:0:
448,192,81726,1,0,0:0:0:0:
64,192,81726,1,0,0:0:0:0:
192,192,81807,1,0,0:0:0:0:
320,192,81888,1,0,0:0:0:0:
192,192,81969,1,0,0:0:0:0:
64,192,82050,1,0,0:0:0:0:
192,192,82131,1,0,0:0:0:0:
320,192,82212,1,0,0:0:0:0:
192,192,82293,1,0,0:0:0:0:
320,192,82374,1,0,0:0:0:0:
192,192,82455,1,0,0:0:0:0:
448,192,82455,1,0,0:0:0:0:
64,192,82536,1,0,0:0:0:0:
320,192,82617,1,0,0:0:0:0:
192,192,82699,1,0,0:0:0:0:
448,192,82780,1,0,0:0:0:0:
64,192,83023,128,0,83590:0:0:0:0:
192,192,83023,128,0,83590:0:0:0:0:
320,192,83023,128,0,83590:0:0:0:0:
448,192,83023,128,0,83590:0:0:0:0:
64,192,83672,1,0,0:0:0:0:
192,192,83672,1,0,0:0:0:0:
320,192,83672,1,0,0:0:0:0:
448,192,83672,1,0,0:0:0:0:
448,192,83753,1,0,0:0:0:0:
320,192,83834,1,0,0:0:0:0:
192,192,83915,1,0,0:0:0:0:
64,192,83996,1,0,0:0:0:0:
320,192,83996,1,0,0:0:0:0:
448,192,83996,1,0,0:0:0:0:
192,192,84077,1,0,0:0:0:0:
320,192,84158,1,0,0:0:0:0:
192,192,84239,1,0,0:0:0:0:
64,192,84320,1,0,0:0:0:0:
320,192,84320,1,0,0:0:0:0:
448,192,84320,1,0,0:0:0:0:
192,192,84401,1,0,0:0:0:0:
320,192,84482,1,0,0:0:0:0:
448,192,84563,1,0,0:0:0:0:
320,192,84644,1,0,0:0:0:0:
192,192,84644,1,0,0:0:0:0:
192,192,84726,1,0,0:0:0:0:
320,192,84807,1,0,0:0:0:0:
448,192,84888,1,0,0:0:0:0:
320,192,84969,1,0,0:0:0:0:
192,192,84969,1,0,0:0:0:0:
192,192,85050,1,0,0:0:0:0:
64,192,85131,1,0,0:0:0:0:
192,192,85212,1,0,0:0:0:0:
320,192,85293,1,0,0:0:0:0:
192,192,85293,1,0,0:0:0:0:
192,192,85374,1,0,0:0:0:0:
64,192,85455,1,0,0:0:0:0:
192,192,85536,1,0,0:0:0:0:
320,192,85617,1,0,0:0:0:0:
448,192,85617,1,0,0:0:0:0:
448,192,85699,1,0,0:0:0:0:
320,192,85780,1,0,0:0:0:0:
192,192,85861,1,0,0:0:0:0:
320,192,85942,1,0,0:0:0:0:
448,192,85942,1,0,0:0:0:0:
448,192,86266,1,0,0:0:0:0:
64,192,86266,1,0,0:0:0:0:
192,192,86347,1,0,0:0:0:0:
320,192,86428,1,0,0:0:0:0:
192,192,86509,1,0,0:0:0:0:
64,192,86590,1,0,0:0:0:0:
320,192,86590,1,0,0:0:0:0:
448,192,86590,1,0,0:0:0:0:
192,192,86672,1,0,0:0:0:0:
320,192,86753,1,0,0:0:0:0:
192,192,86834,1,0,0:0:0:0:
64,192,86915,1,0,0:0:0:0:
448,192,86915,1,0,0:0:0:0:
320,192,86915,1,0,0:0:0:0:
320,192,86996,1,0,0:0:0:0:
192,192,87077,1,0,0:0:0:0:
320,192,87158,1,0,0:0:0:0:
192,192,87239,1,0,0:0:0:0:
64,192,87239,1,0,0:0:0:0:
448,192,87239,1,0,0:0:0:0:
320,192,87320,1,0,0:0:0:0:
192,192,87401,1,0,0:0:0:0:
320,192,87482,1,0,0:0:0:0:
192,192,87563,1,0,0:0:0:0:
64,192,87563,1,0,0:0:0:0:
448,192,87563,1,0,0:0:0:0:
320,192,87644,1,0,0:0:0:0:
192,192,87726,1,0,0:0:0:0:
320,192,87807,1,0,0:0:0:0:
192,192,87888,1,0,0:0:0:0:
64,192,87888,1,0,0:0:0:0:
448,192,87888,1,0,0:0:0:0:
320,192,87969,1,0,0:0:0:0:
192,192,88050,1,0,0:0:0:0:
320,192,88131,1,0,0:0:0:0:
192,192,88212,1,0,0:0:0:0:
64,192,88212,1,0,0:0:0:0:
448,192,88212,1,0,0:0:0:0:
320,192,88293,1,0,0:0:0:0:
448,192,88374,1,0,0:0:0:0:
192,192,88455,1,0,0:0:0:0:
64,192,88536,1,0,0:0:0:0:
320,192,88536,1,0,0:0:0:0:
448,192,88536,1,0,0:0:0:0:
192,192,88861,1,0,0:0:0:0:
64,192,88861,1,0,0:0:0:0:
320,192,88861,1,0,0:0:0:0:
448,192,89023,1,0,0:0:0:0:
320,192,89023,1,0,0:0:0:0:
192,192,89185,1,0,0:0:0:0:
320,192,89185,1,0,0:0:0:0:
448,192,89185,1,0,0:0:0:0:
320,192,89347,1,0,0:0:0:0:
192,192,89347,1,0,0:0:0:0:
320,192,89509,1,0,0:0:0:0:
192,192,89509,1,0,0:0:0:0:
64,192,89509,1,0,0:0:0:0:
192,192,89672,1,0,0:0:0:0:
64,192,89672,1,0,0:0:0:0:
320,192,89834,1,0,0:0:0:0:
192,192,89834,1,0,0:0:0:0:
448,192,89834,1,0,0:0:0:0:
320,192,89996,1,0,0:0:0:0:
448,192,89996,1,0,0:0:0:0:
192,192,90158,1,0,0:0:0:0:
64,192,90158,1,0,0:0:0:0:
320,192,90158,1,0,0:0:0:0:
192,192,90320,1,0,0:0:0:0:
320,192,90320,1,0,0:0:0:0:
192,192,90482,1,0,0:0:0:0:
320,192,90482,1,0,0:0:0:0:
448,192,90482,1,0,0:0:0:0:
320,192,90644,1,0,0:0:0:0:
192,192,90644,1,0,0:0:0:0:
320,192,90807,1,0,0:0:0:0:
192,192,90807,1,0,0:0:0:0:
64,192,90807,1,0,0:0:0:0:
448,192,90888,1,0,0:0:0:0:
320,192,90969,1,0,0:0:0:0:
192,192,91050,1,0,0:0:0:0:
64,192,91131,1,0,0:0:0:0:
320,192,91131,1,0,0:0:0:0:
448,192,91131,1,0,0:0:0:0:
192,192,91455,1,0,0:0:0:0:
64,192,91536,1,0,0:0:0:0:
320,192,91536,1,0,0:0:0:0:
192,192,91617,1,0,0:0:0:0:
448,192,91617,1,0,0:0:0:0:
320,192,91699,1,0,0:0:0:0:
64,192,91699,1,0,0:0:0:0:
192,192,91780,1,0,0:0:0:0:
320,192,91861,1,0,0:0:0:0:
192,192,91942,1,0,0:0:0:0:
448,192,91942,1,0,0:0:0:0:
320,192,92023,1,0,0:0:0:0:
64,192,92023,1,0,0:0:0:0:
192,192,92104,1,0,0:0:0:0:
448,192,92104,1,0,0:0:0:0:
320,192,92185,1,0,0:0:0:0:
192,192,92266,1,0,0:0:0:0:
320,192,92347,1,0,0:0:0:0:
64,192,92347,1,0,0:0:0:0:
192,192,92428,1,0,0:0:0:0:
448,192,92428,1,0,0:0:0:0:
320,192,92509,1,0,0:0:0:0:
192,192,92590,1,0,0:0:0:0:
64,192,92672,1,0,0:0:0:0:
192,192,92753,1,0,0:0:0:0:
320,192,92753,1,0,0:0:0:0:
448,192,92753,1,0,0:0:0:0:
64,192,92834,1,0,0:0:0:0:
192,192,92915,1,0,0:0:0:0:
64,192,92996,1,0,0:0:0:0:
192,192,93077,1,0,0:0:0:0:
320,192,93077,1,0,0:0:0:0:
448,192,93077,1,0,0:0:0:0:
64,192,93158,1,0,0:0:0:0:
192,192,93239,1,0,0:0:0:0:
448,192,93239,1,0,0:0:0:0:
320,192,93401,1,0,0:0:0:0:
64,192,93401,1,0,0:0:0:0:
192,192,93482,1,0,0:0:0:0:
320,192,93563,1,0,0:0:0:0:
192,192,93644,1,0,0:0:0:0:
64,192,93726,1,0,0:0:0:0:
320,192,93726,1,0,0:0:0:0:
448,192,93726,1,0,0:0:0:0:
