osu file format v14

[General]
AudioFilename: audio.mp3
AudioLeadIn: 0
PreviewTime: 61597
Countdown: 0
SampleSet: Normal
StackLeniency: 0.2
Mode: 0
LetterboxInBreaks: 0
WidescreenStoryboard: 1

[Editor]
Bookmarks: 11023,22455,70861
DistanceSpacing: 1
BeatDivisor: 4
GridSize: 4
TimelineZoom: 1.900005

[Metadata]
Title:TSLove
TitleUnicode:TSLove
Artist:O2i3
ArtistUnicode:O2i3
Creator:[_Chichinya_]
Version:Black Wolf's Raabu Raabu
Source:
Tags:Melanie Friggy-chan kqrth DDM Hi_Hello 404 AccNotFound FlamingRok Dargin Cyoris210 BlackWolf159 Yuno Taikocracy Prancer agu gamerock Nifty Lno Nepuri Raphalge frukoyurdakul Cyssel Unmei Muma Q____X Vulkin JessiChan iContol Chocola_2287 AezLack _yu68 zigizigiefe Grimbow
BeatmapID:1251844
BeatmapSetID:549370

[Difficulty]
HPDrainRate:6
CircleSize:4
OverallDifficulty:6
ApproachRate:9
SliderMultiplier:1.5
SliderTickRate:1

[Events]
//Background and Video events
0,0,"a021cfd00a6ba8dffceee0ba025d5954.jpg",0,0
//Break Periods
2,42357,51936
//Storyboard Layer 0 (Background)
//Storyboard Layer 1 (Fail)
//Storyboard Layer 2 (Pass)
//Storyboard Layer 3 (Foreground)
//Storyboard Sound Samples

[TimingPoints]
645,324.324324324324,4,1,0,80,1,0
21401,-83.3333333333333,4,3,0,100,0,1
23347,148.148148148148,4,3,0,100,1,1
23347,-50,4,3,0,100,0,1
23996,324.324324324324,4,3,0,100,1,1
25942,-66.6666666666667,4,3,0,100,0,1
26428,-100,4,3,0,100,0,1
28050,-66.6666666666667,4,3,0,100,0,1
28942,-100,4,3,0,100,0,1
29509,-66.6666666666667,4,3,0,100,0,1
31780,-100,4,3,0,100,0,1
33725,148.148148148148,4,3,0,100,1,1
33725,-50,4,3,0,100,0,1
34374,324.324324324324,4,3,0,100,1,1
36482,-66.6666666666667,4,3,0,100,0,1
36807,-100,4,3,0,100,0,1
37293,-66.6666666666667,4,3,0,100,0,1
42158,-100,4,1,0,80,0,0
51888,-100,4,2,0,80,0,0
61536,-83.3333333333333,4,1,0,80,0,0
62915,-83.3333333333333,4,3,0,100,0,1
65185,-66.6666666666667,4,3,0,100,0,1
83022,-83.3333333333333,4,1,0,80,0,0

[Colours]
Combo1 : 133,24,82
Combo2 : 96,61,99
Combo3 : 252,143,143
Combo4 : 234,69,21

[HitObjects]
64,96,645,5,0,0:0:0:0:
142,38,807,1,0,0:0:0:0:
211,104,969,1,0,0:0:0:0:
286,41,1131,1,0,0:0:0:0:
286,41,1212,1,0,0:0:0:0:
286,41,1293,1,0,0:0:0:0:
372,99,1455,1,0,0:0:0:0:
371,213,1617,5,0,0:0:0:0:
305,290,1780,1,0,0:0:0:0:
258,184,1942,1,0,0:0:0:0:
201,291,2104,1,0,0:0:0:0:
110,238,2266,1,0,0:0:0:0:
179,145,2428,1,0,0:0:0:0:
179,145,2509,1,0,0:0:0:0:
179,145,2590,1,0,0:0:0:0:
409,60,2753,6,0,P|383:125|356:143,1,75
288,160,3077,1,0,0:0:0:0:
183,181,3239,2,0,P|154:233|157:271,1,75
222,314,3563,1,0,0:0:0:0:
320,288,3726,1,0,0:0:0:0:
320,288,3807,1,0,0:0:0:0:
320,288,3889,1,0,0:0:0:0:
448,192,4051,5,0,0:0:0:0:
384,96,4212,1,0,0:0:0:0:
320,192,4374,1,0,0:0:0:0:
320,192,4455,1,0,0:0:0:0:
320,192,4536,1,0,0:0:0:0:
320,192,4617,1,0,0:0:0:0:
320,192,4699,1,0,0:0:0:0:
64,64,4861,5,0,0:0:0:0:
192,160,5023,1,0,0:0:0:0:
192,160,5104,1,0,0:0:0:0:
192,160,5185,1,0,0:0:0:0:
192,160,5266,1,0,0:0:0:0:
192,160,5347,1,0,0:0:0:0:
412,160,5509,6,0,L|368:160,3,37.5
416,160,5834,1,0,0:0:0:0:
352,256,5996,1,0,0:0:0:0:
256,192,6158,1,0,0:0:0:0:
192,288,6320,1,0,0:0:0:0:
192,288,6401,1,0,0:0:0:0:
192,288,6482,1,0,0:0:0:0:
96,224,6644,1,0,0:0:0:0:
96,96,6807,1,0,0:0:0:0:
256,96,6969,5,0,0:0:0:0:
320,192,7131,1,0,0:0:0:0:
224,256,7293,1,0,0:0:0:0:
320,320,7455,1,0,0:0:0:0:
416,256,7617,1,0,0:0:0:0:
416,256,7699,1,0,0:0:0:0:
416,256,7780,1,0,0:0:0:0:
416,128,7942,2,0,P|384:96|352:96,1,75
256,96,8266,1,0,0:0:0:0:
128,96,8428,2,0,P|96:160|96:192,1,75
256,192,8753,12,0,11023,0:0:0:0:
96,288,11347,6,0,P|64:224|64:192,1,75
128,160,11672,2,0,P|96:128|96:96,1,75
192,32,11996,2,0,L|224:64|224:128,1,75
224,192,12320,2,0,B|224:224|224:224|256:256,1,75
320,320,12644,2,0,P|352:288|352:256,1,75
448,224,12969,2,0,P|470:179|469:129,1,75
429,55,13293,1,0,0:0:0:0:
354,131,13455,1,0,0:0:0:0:
273,55,13617,1,0,0:0:0:0:
39,56,13780,6,0,B|37:97|37:97|56:141,1,75
56,216,14104,2,0,B|45:249|45:249|69:289,1,75
156,344,14428,2,0,P|188:312|184:260,1,75
224,196,14753,2,0,P|240:148|236:112,1,75
336,56,15077,2,0,P|352:116|368:152,1,75
388,216,15401,2,0,P|388:256|400:288,1,75
256,64,15726,1,0,0:0:0:0:
144,184,15888,1,0,0:0:0:0:
256,312,16050,1,0,0:0:0:0:
352,128,16212,5,0,0:0:0:0:
160,192,16374,1,0,0:0:0:0:
352,288,16536,1,0,0:0:0:0:
256,32,16699,1,0,0:0:0:0:
160,256,16861,1,0,0:0:0:0:
416,128,17023,1,0,0:0:0:0:
96,128,17185,1,0,0:0:0:0:
416,256,17347,1,0,0:0:0:0:
128,320,17509,5,0,0:0:0:0:
256,64,17672,1,0,0:0:0:0:
480,256,17834,1,0,0:0:0:0:
160,160,17996,1,0,0:0:0:0:
480,64,18158,1,0,0:0:0:0:
288,352,18320,1,0,0:0:0:0:
64,32,18482,1,0,0:0:0:0:
64,320,18644,1,0,0:0:0:0:
188,292,18807,5,0,0:0:0:0:
204,280,18888,1,0,0:0:0:0:
220,272,18969,1,0,0:0:0:0:
240,260,19050,1,0,0:0:0:0:
256,248,19131,5,0,0:0:0:0:
272,236,19212,1,0,0:0:0:0:
296,220,19293,1,0,0:0:0:0:
320,196,19374,1,0,0:0:0:0:
320,160,19455,2,0,L|316:132,4,18.75
292,108,19699,1,0,0:0:0:0:
260,88,19780,5,0,0:0:0:0:
220,104,19861,1,0,0:0:0:0:
188,124,19942,1,0,0:0:0:0:
148,132,20023,1,0,0:0:0:0:
256,192,20266,12,0,21401,0:0:0:0:
416,96,21726,5,0,0:0:0:0:
416,128,21807,1,0,0:0:0:0:
416,160,21888,1,0,0:0:0:0:
416,192,21969,1,0,0:0:0:0:
416,224,22050,2,0,P|384:288|352:288,1,89.9999972534181
256,192,22374,5,0,0:0:0:0:
248,207,22455,1,0,0:0:0:0:
239,223,22536,1,0,0:0:0:0:
169,319,22699,1,0,0:0:0:0:
75,245,22861,5,0,0:0:0:0:
104,212,22942,1,0,0:0:0:0:
132,179,23023,1,0,0:0:0:0:
196,116,23185,1,0,0:0:0:0:
364,120,23347,2,0,B|432:48|496:84|512:144|492:184|456:224|392:256|364:268|364:268|340:256|276:224|240:184|224:140|248:84|304:40|376:132,1,675
444,319,23996,6,0,P|424:265|390:255,1,89.9999972534181
256,256,24320,1,0,0:0:0:0:
256,256,24401,1,0,0:0:0:0:
256,256,24482,1,0,0:0:0:0:
256,256,24563,1,0,0:0:0:0:
256,256,24644,1,0,0:0:0:0:
96,320,24807,1,0,0:0:0:0:
160,64,24969,5,0,0:0:0:0:
416,192,25131,1,0,0:0:0:0:
96,192,25293,1,0,0:0:0:0:
352,64,25455,1,0,0:0:0:0:
352,64,25536,1,0,0:0:0:0:
352,64,25617,1,0,0:0:0:0:
256,320,25780,1,0,0:0:0:0:
72,136,25942,2,0,P|80:88|112:92,1,56.2500021457673
120,160,26104,2,0,P|159:126|143:111,1,56.2500021457673
132,92,26266,2,0,P|176:44|216:56,1,112.500004291535
354,66,26590,5,0,0:0:0:0:
432,126,26753,2,0,P|448:172|438:209,1,75
427,295,27077,1,0,0:0:0:0:
397,273,27158,1,0,0:0:0:0:
361,279,27239,1,0,0:0:0:0:
251,314,27401,1,0,0:0:0:0:
352,192,27563,1,0,0:0:0:0:
352,192,27644,1,0,0:0:0:0:
352,192,27726,1,0,0:0:0:0:
352,192,27806,1,0,0:0:0:0:
352,192,27888,5,0,0:0:0:0:
252,56,28050,6,0,P|264:96|256:144,1,56.2500021457673
288,260,28212,2,0,P|320:228|320:196,1,56.2500021457673
444,58,28374,2,0,P|401:77|380:128,1,56.2500021457673
252,56,28536,2,0,B|240:92|240:92|184:68|172:104,1,112.500004291535
420,304,28861,1,8,0:0:0:0:
64,320,29185,6,0,P|96:288|96:256,1,75
96,64,29509,2,0,P|128:96|128:128,1,56.2500021457673
256,320,29672,2,0,P|224:288|224:256,1,56.2500021457673
352,64,29834,6,0,P|320:96|320:128,1,56.2500021457673
256,320,29996,2,0,P|224:288|224:256,1,56.2500021457673
192,64,30158,2,0,P|224:96|224:128,1,56.2500021457673
384,320,30320,2,0,P|352:288|352:256,1,56.2500021457673
352,64,30482,6,0,P|320:96|320:128,1,56.2500021457673
160,256,30644,2,0,P|128:288|128:320,1,56.2500021457673
32,160,30807,2,0,P|32:192|64:224,1,56.2500021457673
96,32,30969,2,0,P|96:64|128:96,1,56.2500021457673
256,32,31131,6,0,P|256:64|288:96,1,56.2500021457673
256,32,31293,2,0,P|256:64|288:96,1,56.2500021457673
256,32,31455,2,0,P|256:64|288:96,1,56.2500021457673
256,32,31617,2,0,P|256:64|288:96,1,56.2500021457673
352,288,31780,5,0,0:0:0:0:
288,224,31942,1,0,0:0:0:0:
224,288,32104,1,0,0:0:0:0:
224,288,32185,1,0,0:0:0:0:
224,288,32266,1,0,0:0:0:0:
224,288,32347,1,0,0:0:0:0:
224,288,32428,1,0,0:0:0:0:
159,182,32590,5,0,0:0:0:0:
256,64,32753,1,0,0:0:0:0:
224,64,32834,1,0,0:0:0:0:
192,64,32915,1,0,0:0:0:0:
160,64,32996,1,0,0:0:0:0:
128,64,33077,1,0,0:0:0:0:
256,224,33239,5,0,0:0:0:0:
256,224,33320,1,0,0:0:0:0:
256,224,33401,1,0,0:0:0:0:
128,64,33563,1,0,0:0:0:0:
253,139,33725,2,0,B|192:72|140:108|116:164|132:208|168:248|232:280|256:292|256:292|284:280|348:248|384:208|404:168|388:108|324:68|256:144,1,675
483,232,34374,6,0,P|438:217|397:241,1,75
311,269,34699,1,0,0:0:0:0:
311,269,34780,1,0,0:0:0:0:
311,269,34861,1,0,0:0:0:0:
311,269,34942,1,0,0:0:0:0:
311,269,35023,2,0,B|273:277|273:277|231:250,1,75
242,257,35266,1,0,0:0:0:0:
242,257,35347,1,0,0:0:0:0:
128,128,35509,5,0,0:0:0:0:
128,128,35590,1,0,0:0:0:0:
128,128,35672,1,0,0:0:0:0:
416,64,35834,5,0,0:0:0:0:
416,64,35915,1,0,0:0:0:0:
416,64,35996,1,0,0:0:0:0:
128,286,36158,5,0,0:0:0:0:
130,160,36320,1,0,0:0:0:0:
192,64,36482,2,0,P|224:96|224:128,1,56.2500021457673
288,320,36644,2,0,P|256:288|256:256,1,56.2500021457673
448,64,36969,6,0,P|440:103|384:128,1,75
320,64,37293,2,0,B|288:64|288:64|256:96,1,56.2500021457673
224,160,37455,2,0,B|192:160|192:160|160:128,1,56.2500021457673
128,64,37617,2,0,B|96:96|96:96|96:128,1,56.2500021457673
96,192,37780,2,0,B|96:224|96:224|128:256,1,56.2500021457673
192,288,37942,6,0,L|256:288,1,56.2500021457673
384,288,38104,2,0,B|352:256|352:256|320:256,1,56.2500021457673
160,192,38266,2,0,B|192:160|192:160|192:128,1,56.2500021457673
288,64,38428,2,0,B|320:96|320:96|320:128,1,56.2500021457673
320,256,38590,6,0,L|256:192,1,56.2500021457673
128,32,38753,2,0,B|96:64|96:64|96:96,1,56.2500021457673
96,288,38915,2,0,P|128:256|128:224,1,56.2500021457673
256,64,39077,2,0,B|288:96|288:96|288:128,1,56.2500021457673
288,288,39239,1,0,0:0:0:0:
416,288,39563,5,0,0:0:0:0:
480,192,39726,1,0,0:0:0:0:
416,64,39888,1,0,0:0:0:0:
384,64,39969,1,0,0:0:0:0:
352,64,40050,1,0,0:0:0:0:
320,64,40131,1,0,0:0:0:0:
288,64,40212,1,0,0:0:0:0:
256,160,40374,1,0,0:0:0:0:
256,160,40455,1,0,0:0:0:0:
256,160,40536,1,0,0:0:0:0:
160,288,40699,5,0,0:0:0:0:
448,160,40861,1,0,0:0:0:0:
128,64,41023,1,0,0:0:0:0:
384,288,41185,1,0,0:0:0:0:
96,192,41347,2,0,L|224:192,1,112.500004291535
332,192,41833,1,0,0:0:0:0:
448,192,42157,1,4,0:0:0:0:
128,32,52536,21,0,0:0:0:0:
64,96,52699,1,0,0:0:0:0:
96,192,52861,1,0,0:0:0:0:
128,288,53023,2,0,L|161:293|192:256,1,75
263,215,53347,2,0,L|320:160,1,75
451,54,53672,2,0,P|413:83|384:96,1,75
448,192,53996,2,0,L|352:192,1,75
462,306,54320,2,0,P|430:296|384:320,1,75
256,320,54644,6,0,P|224:288|224:256,1,75
224,160,54969,2,0,P|224:128|192:64,1,75
416,64,55293,1,0,0:0:0:0:
288,160,55455,1,0,0:0:0:0:
448,160,55617,1,0,0:0:0:0:
288,288,55780,1,0,0:0:0:0:
384,96,55942,1,0,0:0:0:0:
192,96,56104,1,0,0:0:0:0:
64,224,56266,5,0,0:0:0:0:
128,288,56428,1,0,0:0:0:0:
224,288,56590,1,0,0:0:0:0:
288,224,56753,1,0,0:0:0:0:
32,32,56915,1,0,0:0:0:0:
256,32,57077,1,0,0:0:0:0:
32,160,57239,1,0,0:0:0:0:
256,160,57401,1,0,0:0:0:0:
480,320,57726,6,0,L|436:272,1,56.2500021457673
285,36,58050,1,0,0:0:0:0:
214,176,58212,1,0,0:0:0:0:
387,178,58374,1,0,0:0:0:0:
282,36,58536,1,0,0:0:0:0:
288,288,58699,1,0,0:0:0:0:
192,96,58861,1,0,0:0:0:0:
384,96,59023,5,0,0:0:0:0:
128,320,59185,1,0,0:0:0:0:
416,320,59347,1,0,0:0:0:0:
256,64,59509,1,0,0:0:0:0:
64,192,59672,1,0,0:0:0:0:
448,192,59834,1,0,0:0:0:0:
256,352,59996,1,0,0:0:0:0:
352,64,60158,1,0,0:0:0:0:
56,80,60320,5,0,0:0:0:0:
96,112,60401,1,0,0:0:0:0:
108,164,60482,1,0,0:0:0:0:
80,208,60563,1,0,0:0:0:0:
68,256,60644,1,0,0:0:0:0:
88,300,60726,1,0,0:0:0:0:
136,288,60807,1,0,0:0:0:0:
186,276,60888,5,0,0:0:0:0:
237,281,60969,1,0,0:0:0:0:
286,298,61050,1,0,0:0:0:0:
332,277,61131,1,0,0:0:0:0:
368,241,61212,1,0,0:0:0:0:
396,197,61293,1,0,0:0:0:0:
392,145,61374,1,0,0:0:0:0:
366,95,61455,1,0,0:0:0:0:
256,192,61617,12,0,62590,0:0:0:0:
64,320,62915,5,0,0:0:0:0:
62,198,63239,1,0,0:0:0:0:
96,128,63320,1,0,0:0:0:0:
148,74,63401,1,0,0:0:0:0:
218,48,63482,1,0,0:0:0:0:
290,54,63563,1,0,0:0:0:0:
428,173,63725,5,0,0:0:0:0:
384,288,63888,1,0,0:0:0:0:
352,256,63969,1,0,0:0:0:0:
320,224,64050,1,0,0:0:0:0:
192,96,64212,5,0,0:0:0:0:
256,288,64374,1,0,0:0:0:0:
224,288,64455,1,0,0:0:0:0:
192,288,64536,1,0,0:0:0:0:
128,192,64699,1,0,0:0:0:0:
224,96,64861,1,0,0:0:0:0:
320,224,65023,1,0,0:0:0:0:
404,148,65184,2,0,L|404:40,1,89.9999972534181
160,32,65509,5,0,0:0:0:0:
96,128,65672,1,0,0:0:0:0:
192,192,65834,1,0,0:0:0:0:
192,192,65915,1,0,0:0:0:0:
192,192,65996,1,0,0:0:0:0:
192,192,66077,1,0,0:0:0:0:
192,192,66158,1,0,0:0:0:0:
128,320,66320,5,0,0:0:0:0:
128,320,66401,1,0,0:0:0:0:
128,320,66482,1,0,0:0:0:0:
256,256,66644,6,0,L|320:320,1,56.2500021457673
384,160,66807,1,0,0:0:0:0:
384,160,66888,1,0,0:0:0:0:
384,160,66969,1,0,0:0:0:0:
256,96,67131,6,0,L|192:32,1,56.2500021457673
128,160,67293,1,0,0:0:0:0:
128,160,67374,1,0,0:0:0:0:
128,160,67455,1,0,0:0:0:0:
384,288,67617,2,0,L|320:288,1,56.2500021457673
128,288,67780,2,0,L|192:288,1,56.2500021457673
448,64,68104,5,0,0:0:0:0:
416,160,68266,1,0,0:0:0:0:
320,64,68428,2,0,L|256:128,1,56.2500021457673
192,32,68590,2,0,L|128:96,1,56.2500021457673
64,128,68753,6,0,L|128:192,1,56.2500021457673
64,256,68915,2,0,L|128:320,1,56.2500021457673
288,320,69077,2,0,L|320:256,1,56.2500021457673
192,320,69239,2,0,L|224:256,1,56.2500021457673
288,64,69401,6,0,L|256:128,1,56.2500021457673
416,64,69563,2,0,L|384:128,1,56.2500021457673
448,320,69726,2,0,L|416:256,1,56.2500021457673
320,320,69888,2,0,L|288:256,1,56.2500021457673
192,64,70050,6,0,L|160:128,1,56.2500021457673
320,64,70212,2,0,L|352:128,1,56.2500021457673
256,288,70374,2,0,L|256:224,1,56.2500021457673
160,64,70699,6,0,L|224:128,1,56.2500021457673
384,288,70861,2,0,L|320:224,1,56.2500021457673
160,288,71023,6,0,L|224:224,1,56.2500021457673
352,64,71185,2,0,L|288:128,1,56.2500021457673
128,192,71347,6,0,L|192:192,1,56.2500021457673
384,192,71509,2,0,L|320:192,1,56.2500021457673
256,352,71672,6,0,L|256:288,1,56.2500021457673
256,32,71834,2,0,L|256:96,1,56.2500021457673
416,320,71996,6,0,L|480:256,1,56.2500021457673
320,320,72158,2,0,L|384:256,1,56.2500021457673
224,320,72320,2,0,L|288:256,1,56.2500021457673
128,320,72482,2,0,L|192:256,1,56.2500021457673
96,96,72644,6,0,L|160:160,1,56.2500021457673
96,96,72807,2,0,L|160:160,1,56.2500021457673
96,96,72969,2,0,L|160:160,1,56.2500021457673
96,96,73131,2,0,L|160:160,1,56.2500021457673
96,96,73293,2,0,L|160:160,1,56.2500021457673
448,32,73617,5,0,0:0:0:0:
448,96,73699,1,0,0:0:0:0:
448,160,73780,1,0,0:0:0:0:
415,218,73861,1,0,0:0:0:0:
374,267,73942,1,0,0:0:0:0:
256,268,74104,1,0,0:0:0:0:
96,224,74266,5,0,0:0:0:0:
128,64,74428,1,0,0:0:0:0:
128,64,74509,1,0,0:0:0:0:
128,64,74590,1,0,0:0:0:0:
256,192,74753,1,0,0:0:0:0:
256,192,74834,1,0,0:0:0:0:
256,192,74915,1,0,0:0:0:0:
352,224,75077,6,0,L|352:289,1,56.2500021457673
352,64,75239,2,0,L|353:127,1,56.2500021457673
160,64,75401,2,0,L|160:151,1,56.2500021457673
160,224,75563,2,0,L|160:288,1,56.2500021457673
288,64,75888,6,0,L|320:128,1,56.2500021457673
480,64,76050,2,0,L|448:128,1,56.2500021457673
480,320,76212,2,0,L|416:256,1,56.2500021457673
288,320,76374,2,0,L|352:256,1,56.2500021457673
32,320,76536,6,0,L|96:256,1,56.2500021457673
224,320,76699,2,0,L|160:256,1,56.2500021457673
224,32,76861,2,0,L|160:96,1,56.2500021457673
32,32,77023,2,0,L|96:96,1,56.2500021457673
32,192,77185,6,0,L|96:192,1,56.2500021457673
339,193,77347,2,0,L|275:193,1,56.2500021457673
160,192,77509,2,0,L|224:192,1,56.2500021457673
462,192,77672,2,0,L|366:192,1,56.2500021457673
458,59,77834,2,0,L|421:110,1,56.2500021457673
320,64,77996,2,0,L|288:128,1,56.2500021457673
192,64,78158,2,0,L|159:138,1,56.2500021457673
96,192,78482,5,0,0:0:0:0:
256,192,78644,1,0,0:0:0:0:
288,224,78726,1,0,0:0:0:0:
324,242,78807,1,0,0:0:0:0:
364,243,78888,1,0,0:0:0:0:
405,242,78969,1,0,0:0:0:0:
416,75,79131,5,0,0:0:0:0:
320,64,79293,1,0,0:0:0:0:
320,64,79374,1,0,0:0:0:0:
320,64,79455,1,0,0:0:0:0:
160,64,79618,5,0,0:0:0:0:
160,128,79699,1,0,0:0:0:0:
160,192,79781,1,0,0:0:0:0:
336,300,79942,1,0,0:0:0:0:
336,300,80023,1,0,0:0:0:0:
336,300,80104,1,0,0:0:0:0:
160,296,80266,5,0,0:0:0:0:
296,216,80428,1,0,0:0:0:0:
320,64,80590,1,0,0:0:0:0:
160,160,80753,2,0,L|160:43,1,112.500004291535
416,96,81077,5,0,0:0:0:0:
384,224,81239,1,0,0:0:0:0:
288,128,81401,1,0,0:0:0:0:
288,128,81482,1,0,0:0:0:0:
288,128,81563,1,0,0:0:0:0:
288,128,81644,1,0,0:0:0:0:
288,128,81726,1,0,0:0:0:0:
192,64,81888,1,0,0:0:0:0:
192,224,82050,5,0,0:0:0:0:
320,288,82212,1,0,0:0:0:0:
320,288,82293,1,0,0:0:0:0:
320,288,82374,1,0,0:0:0:0:
448,288,82536,1,0,0:0:0:0:
448,288,82617,1,0,0:0:0:0:
448,288,82699,1,0,0:0:0:0:
256,192,82861,12,0,83347,0:0:0:0:
448,128,83672,5,0,0:0:0:0:
439,111,83753,1,0,0:0:0:0:
427,97,83834,1,0,0:0:0:0:
416,85,83915,1,0,0:0:0:0:
404,79,83996,1,0,0:0:0:0:
394,71,84077,5,0,0:0:0:0:
385,65,84158,1,0,0:0:0:0:
374,59,84239,1,0,0:0:0:0:
365,54,84320,1,0,0:0:0:0:
352,45,84401,5,0,0:0:0:0:
337,39,84482,1,0,0:0:0:0:
324,39,84563,1,0,0:0:0:0:
316,48,84644,1,0,0:0:0:0:
307,58,84726,5,0,0:0:0:0:
302,68,84807,1,0,0:0:0:0:
297,79,84888,1,0,0:0:0:0:
293,91,84969,1,0,0:0:0:0:
286,109,85050,5,0,0:0:0:0:
280,125,85131,1,0,0:0:0:0:
271,141,85212,1,0,0:0:0:0:
264,153,85293,1,0,0:0:0:0:
252,166,85374,5,0,0:0:0:0:
241,179,85455,1,0,0:0:0:0:
226,185,85536,1,0,0:0:0:0:
210,188,85617,1,0,0:0:0:0:
198,179,85699,5,0,0:0:0:0:
189,166,85780,1,0,0:0:0:0:
181,152,85861,1,0,0:0:0:0:
174,138,85942,1,0,0:0:0:0:
89,48,86266,5,0,0:0:0:0:
73,70,86347,1,0,0:0:0:0:
63,94,86428,1,0,0:0:0:0:
59,124,86509,1,0,0:0:0:0:
56,155,86590,5,0,0:0:0:0:
67,183,86671,1,0,0:0:0:0:
49,208,86752,1,0,0:0:0:0:
38,241,86834,1,0,0:0:0:0:
43,278,86915,5,0,0:0:0:0:
68,303,86996,1,0,0:0:0:0:
102,318,87077,1,0,0:0:0:0:
137,308,87158,1,0,0:0:0:0:
159,287,87239,5,0,0:0:0:0:
190,314,87320,1,0,0:0:0:0:
214,324,87401,1,0,0:0:0:0:
246,312,87482,5,0,0:0:0:0:
269,295,87563,1,0,0:0:0:0:
292,273,87644,1,0,0:0:0:0:
318,261,87726,1,0,0:0:0:0:
351,252,87807,1,0,0:0:0:0:
384,252,87888,5,0,0:0:0:0:
418,247,87969,1,0,0:0:0:0:
445,228,88050,1,0,0:0:0:0:
449,196,88131,1,0,0:0:0:0:
432,175,88212,5,0,0:0:0:0:
400,163,88293,1,0,0:0:0:0:
373,167,88374,1,0,0:0:0:0:
344,160,88455,1,0,0:0:0:0:
319,143,88536,1,0,0:0:0:0:
194,62,88861,5,0,0:0:0:0:
246,42,88942,1,0,0:0:0:0:
303,42,89023,1,0,0:0:0:0:
355,57,89104,1,0,0:0:0:0:
408,36,89185,5,0,0:0:0:0:
451,69,89266,1,0,0:0:0:0:
476,119,89347,1,0,0:0:0:0:
470,174,89428,1,0,0:0:0:0:
442,219,89509,5,0,0:0:0:0:
393,240,89590,1,0,0:0:0:0:
349,213,89672,1,0,0:0:0:0:
304,239,89753,1,0,0:0:0:0:
260,209,89834,5,0,0:0:0:0:
220,245,89915,1,0,0:0:0:0:
180,281,89996,1,0,0:0:0:0:
129,294,90077,1,0,0:0:0:0:
87,262,90158,5,0,0:0:0:0:
69,203,90239,1,0,0:0:0:0:
70,148,90320,1,0,0:0:0:0:
91,96,90401,1,0,0:0:0:0:
136,62,90482,5,0,0:0:0:0:
188,88,90563,1,0,0:0:0:0:
197,143,90644,1,0,0:0:0:0:
197,199,90726,1,0,0:0:0:0:
214,253,90807,5,0,0:0:0:0:
258,282,90888,1,0,0:0:0:0:
301,250,90969,1,0,0:0:0:0:
314,196,91050,1,0,0:0:0:0:
317,143,91131,1,0,0:0:0:0:
232,84,91455,5,0,0:0:0:0:
276,24,91536,1,0,0:0:0:0:
352,44,91617,1,0,0:0:0:0:
376,120,91698,1,0,0:0:0:0:
316,168,91779,5,0,0:0:0:0:
244,140,91860,1,0,0:0:0:0:
176,96,91941,1,0,0:0:0:0:
100,80,92022,1,0,0:0:0:0:
48,136,92103,1,0,0:0:0:0:
76,204,92184,5,0,0:0:0:0:
144,232,92265,1,0,0:0:0:0:
216,208,92346,1,0,0:0:0:0:
276,160,92427,1,0,0:0:0:0:
344,116,92509,1,0,0:0:0:0:
420,136,92590,1,0,0:0:0:0:
452,204,92671,5,0,0:0:0:0:
412,264,92752,1,0,0:0:0:0:
344,296,92833,1,0,0:0:0:0:
272,276,92914,1,0,0:0:0:0:
240,204,92995,1,0,0:0:0:0:
248,128,93076,1,0,0:0:0:0:
208,64,93157,1,0,0:0:0:0:
132,52,93238,5,0,0:0:0:0:
84,112,93319,1,0,0:0:0:0:
108,184,93401,1,0,0:0:0:0:
200,292,93482,5,0,0:0:0:0:
60,320,93563,5,0,0:0:0:0:
108,184,93644,5,0,0:0:0:0:
200,292,93725,5,0,0:0:0:0:
256,192,94050,12,0,95671,0:0:0:0:
