osu file format v14

[General]
AudioFilename: audio.mp3
AudioLeadIn: 0
PreviewTime: 61597
Countdown: 0
SampleSet: Normal
StackLeniency: 0.7
Mode: 1
LetterboxInBreaks: 0
WidescreenStoryboard: 1

[Editor]
Bookmarks: 52536,62915,83672,87726
DistanceSpacing: 1
BeatDivisor: 4
GridSize: 32
TimelineZoom: 2.800004

[Metadata]
Title:TSLove
TitleUnicode:TSLove
Artist:O2i3
ArtistUnicode:O2i3
Creator:[_Chichinya_]
Version:404 love you <3
Source:
Tags:Melanie Friggy-chan kqrth DDM Hi_Hello 404 AccNotFound FlamingRok Dargin Cyoris210 BlackWolf159 Yuno Taikocracy Prancer agu gamerock Nifty Lno Nepuri Raphalge frukoyurdakul Cyssel Unmei Muma Q____X Vulkin JessiChan iContol Chocola_2287 AezLack _yu68 zigizigiefe Grimbow 404 accnotfound
BeatmapID:1278502
BeatmapSetID:549370

[Difficulty]
HPDrainRate:7
CircleSize:4
OverallDifficulty:6
ApproachRate:9
SliderMultiplier:1.4042328936501
SliderTickRate:1

[Events]
//Background and Video events
0,0,"C78J1LrXUAEt0fT.jpg",0,0
//Break Periods
//Storyboard Layer 0 (Background)
//Storyboard Layer 1 (Fail)
//Storyboard Layer 2 (Pass)
//Storyboard Layer 3 (Foreground)
//Storyboard Sound Samples

[TimingPoints]
645,324.324324324324,4,1,0,70,1,0
645,-100,4,1,0,50,0,0
11023,-95.2380952380952,4,1,0,60,0,0
16212,-90.9090909090909,4,1,0,70,0,0
18807,-86.9565217391304,4,1,0,70,0,0
20104,-80,4,1,0,70,0,0
21401,-66.6666666666667,4,1,0,70,0,1
21726,-100,4,1,0,70,0,1
23347,-100,4,1,0,70,0,0
23672,-50,4,1,0,70,0,0
23996,-100,4,1,0,70,0,1
25942,-100,4,1,0,70,0,0
26104,-50,4,1,0,70,0,0
26590,-100,4,1,0,70,0,1
28536,-100,4,1,0,70,0,0
28861,-50,4,1,0,70,0,0
29185,-100,4,1,0,70,0,1
30482,-111.111111111111,4,1,0,70,0,0
31131,-50,4,1,0,70,0,0
31780,-100,4,1,0,70,0,1
33726,-100,4,1,0,70,0,0
34050,-50,4,1,0,70,0,0
34374,-100,4,1,0,70,0,1
36320,-100,4,1,0,70,0,0
36482,-50,4,1,0,70,0,0
36969,-100,4,1,0,70,0,1
38915,-100,4,1,0,70,0,0
39239,-50,4,1,0,70,0,0
39563,-100,4,1,0,70,0,1
40861,-111.111111111111,4,1,0,70,0,0
41509,-50,4,1,0,70,0,1
41834,-40,4,1,0,70,0,1
42158,-111.111111111111,4,1,0,50,0,0
52536,-100,4,1,0,60,0,0
57726,-95.2380952380954,4,1,0,70,0,0
60320,-90.9090909090909,4,1,0,70,0,0
61617,-95.2380952380952,4,1,0,70,0,0
61780,-100,4,1,0,70,0,0
61942,-105.263157894737,4,1,0,70,0,0
62023,-111.111111111111,4,1,0,70,0,0
62104,-117.647058823529,4,1,0,70,0,0
62185,-125,4,1,0,70,0,0
62266,-133.333333333333,4,1,0,70,0,0
62428,-142.857142857143,4,1,0,70,0,0
62590,-153.846153846154,4,1,0,70,0,0
62915,-66.6666666666667,4,1,0,70,0,1
63239,-100,4,1,0,70,0,1
64861,-100,4,1,0,70,0,0
65185,-50,4,1,0,70,0,0
65509,-100,4,1,0,70,0,1
67455,-100,4,1,0,70,0,0
67617,-50,4,1,0,70,0,0
68104,-100,4,1,0,70,0,1
70050,-100,4,1,0,70,0,0
70374,-50,4,1,0,70,0,0
70699,-100,4,1,0,70,0,1
71996,-111.111111111111,4,1,0,70,0,0
72644,-50,4,1,0,70,0,0
73293,-100,4,1,0,70,0,1
75239,-100,4,1,0,70,0,0
75563,-50,4,1,0,70,0,0
75888,-100,4,1,0,70,0,1
77834,-100,4,1,0,70,0,0
77996,-50,4,1,0,70,0,0
78482,-100,4,1,0,70,0,1
80428,-100,4,1,0,70,0,0
80753,-50,4,1,0,70,0,0
81077,-100,4,1,0,70,0,1
82374,-100,4,1,0,70,0,0
83023,-125,4,1,0,70,0,0
83672,-83.3333333333333,4,1,0,70,0,1
85617,-83.3333333333333,4,1,0,70,0,0
85942,-50,4,1,0,70,0,0
86266,-83.3333333333333,4,1,0,70,0,1
88212,-83.3333333333333,4,1,0,70,0,0
88536,-50,4,1,0,70,0,0
88861,-83.3333333333333,4,1,0,70,0,1
90807,-83.3333333333333,4,1,0,70,0,0
91131,-50,4,1,0,70,0,0
91455,-83.3333333333333,4,1,0,70,0,1
93401,-83.3333333333333,4,1,0,70,0,0
93726,-50,4,1,0,70,0,1

[HitObjects]
192,192,645,5,0,0:0:0:0:
224,224,807,1,0,0:0:0:0:
224,224,969,1,2,0:0:0:0:
224,224,1131,1,0,0:0:0:0:
320,160,1212,1,2,0:0:0:0:
224,224,1293,1,0,0:0:0:0:
224,224,1455,1,2,0:0:0:0:
224,224,1617,1,0,0:0:0:0:
224,224,1780,1,2,0:0:0:0:
224,224,1942,1,2,0:0:0:0:
224,224,2104,1,0,0:0:0:0:
224,224,2266,1,2,0:0:0:0:
224,224,2428,1,2,0:0:0:0:
128,192,2509,1,2,0:0:0:0:
224,224,2590,1,0,0:0:0:0:
224,224,2753,1,0,0:0:0:0:
224,224,2915,1,2,0:0:0:0:
160,288,3077,1,0,0:0:0:0:
224,224,3239,1,2,0:0:0:0:
288,160,3401,1,2,0:0:0:0:
288,160,3563,1,0,0:0:0:0:
288,160,3726,1,2,0:0:0:0:
160,160,3807,1,0,0:0:0:0:
288,160,3888,1,2,0:0:0:0:
256,192,4050,1,0,0:0:0:0:
288,160,4212,1,2,0:0:0:0:
288,160,4374,1,0,0:0:0:0:
288,160,4536,1,0,0:0:0:0:
288,160,4699,1,2,0:0:0:0:
192,128,4861,1,0,0:0:0:0:
192,128,5023,1,0,0:0:0:0:
160,192,5104,1,0,0:0:0:0:
192,128,5185,1,2,0:0:0:0:
192,128,5347,1,0,0:0:0:0:
192,128,5509,1,2,0:0:0:0:
160,192,5590,1,0,0:0:0:0:
192,128,5672,1,2,0:0:0:0:
160,128,5834,1,0,0:0:0:0:
160,160,5996,1,0,0:0:0:0:
160,160,6158,1,2,0:0:0:0:
160,160,6320,1,0,0:0:0:0:
160,192,6401,1,0,0:0:0:0:
160,160,6482,1,0,0:0:0:0:
160,160,6644,1,2,0:0:0:0:
160,160,6807,1,0,0:0:0:0:
160,160,6969,1,2,0:0:0:0:
192,160,7131,1,2,0:0:0:0:
192,160,7293,1,0,0:0:0:0:
192,160,7455,1,2,0:0:0:0:
192,160,7617,1,2,0:0:0:0:
160,192,7699,1,2,0:0:0:0:
192,160,7780,1,0,0:0:0:0:
192,160,7942,1,2,0:0:0:0:
192,160,8104,1,0,0:0:0:0:
192,160,8266,1,0,0:0:0:0:
384,192,8428,1,2,0:0:0:0:
192,160,8590,1,2,0:0:0:0:
192,160,8753,1,0,0:0:0:0:
192,160,8915,1,2,0:0:0:0:
160,192,8996,1,2,0:0:0:0:
192,160,9077,1,2,0:0:0:0:
192,160,9239,1,0,0:0:0:0:
192,160,9401,1,2,0:0:0:0:
192,160,9563,1,0,0:0:0:0:
192,160,9726,1,0,0:0:0:0:
224,224,9888,1,2,0:0:0:0:
224,224,10050,1,0,0:0:0:0:
224,224,10212,1,0,0:0:0:0:
224,224,10293,1,0,0:0:0:0:
224,224,10374,1,2,0:0:0:0:
224,224,10536,1,0,0:0:0:0:
224,224,10617,1,2,0:0:0:0:
224,224,10699,1,0,0:0:0:0:
224,224,10861,1,2,0:0:0:0:
224,224,11023,1,0,0:0:0:0:
192,160,11185,1,0,0:0:0:0:
160,192,11347,1,2,0:0:0:0:
160,192,11509,1,0,0:0:0:0:
160,192,11590,1,2,0:0:0:0:
160,192,11672,1,0,0:0:0:0:
192,160,11834,1,0,0:0:0:0:
128,192,11996,1,2,0:0:0:0:
192,160,12158,1,2,0:0:0:0:
192,160,12239,1,2,0:0:0:0:
128,192,12320,1,0,0:0:0:0:
192,160,12482,1,0,0:0:0:0:
128,192,12644,1,2,0:0:0:0:
128,192,12807,1,0,0:0:0:0:
128,192,12888,1,0,0:0:0:0:
128,192,12969,1,0,0:0:0:0:
192,160,13131,1,0,0:0:0:0:
128,192,13293,1,2,0:0:0:0:
384,192,13455,1,2,0:0:0:0:
384,192,13536,1,2,0:0:0:0:
128,160,13617,1,0,0:0:0:0:
320,192,13780,1,0,0:0:0:0:
128,160,13942,1,2,0:0:0:0:
128,160,14104,1,2,0:0:0:0:
128,160,14185,1,0,0:0:0:0:
128,160,14266,1,0,0:0:0:0:
256,160,14428,1,0,0:0:0:0:
128,160,14590,1,2,0:0:0:0:
256,224,14753,1,0,0:0:0:0:
256,224,14834,1,2,0:0:0:0:
128,160,14915,1,0,0:0:0:0:
256,192,15077,1,0,0:0:0:0:
128,160,15239,1,2,0:0:0:0:
256,192,15401,1,0,0:0:0:0:
128,160,15482,1,0,0:0:0:0:
128,160,15563,1,0,0:0:0:0:
160,224,15726,1,0,0:0:0:0:
128,160,15888,1,2,0:0:0:0:
192,160,16050,1,2,0:0:0:0:
224,224,16212,1,0,0:0:0:0:
192,224,16374,1,0,0:0:0:0:
192,224,16536,1,2,0:0:0:0:
192,128,16699,1,0,0:0:0:0:
128,224,16780,1,2,0:0:0:0:
320,224,16861,1,0,0:0:0:0:
256,224,17023,1,2,0:0:0:0:
224,224,17185,1,0,0:0:0:0:
256,224,17347,1,2,0:0:0:0:
224,224,17509,1,0,0:0:0:0:
192,160,17672,1,2,0:0:0:0:
128,224,17753,1,2,0:0:0:0:
224,224,17834,1,0,0:0:0:0:
256,224,17996,1,2,0:0:0:0:
128,224,18077,1,2,0:0:0:0:
256,224,18158,1,0,0:0:0:0:
128,224,18239,1,0,0:0:0:0:
256,224,18320,1,2,0:0:0:0:
96,160,18482,1,0,0:0:0:0:
256,160,18644,1,2,0:0:0:0:
256,224,18807,1,0,0:0:0:0:
256,224,18888,1,0,0:0:0:0:
256,224,18969,1,0,0:0:0:0:
256,224,19050,1,0,0:0:0:0:
256,224,19131,1,2,0:0:0:0:
256,224,19212,1,2,0:0:0:0:
256,224,19293,1,0,0:0:0:0:
320,224,19374,1,0,0:0:0:0:
256,224,19455,1,2,0:0:0:0:
288,224,19509,1,2,0:0:0:0:
192,128,19563,1,2,0:0:0:0:
192,128,19617,1,0,0:0:0:0:
320,224,19699,1,0,0:0:0:0:
256,224,19780,1,2,0:0:0:0:
320,224,19861,1,2,0:0:0:0:
256,224,19942,1,0,0:0:0:0:
192,256,20023,1,2,0:0:0:0:
256,192,20104,12,0,21077,0:0:0:0:
224,224,21401,5,6,0:0:0:0:
352,192,21726,1,0,0:0:0:0:
192,192,21888,1,0,0:0:0:0:
192,192,21969,1,0,0:0:0:0:
192,192,22050,1,2,0:0:0:0:
192,192,22212,1,0,0:0:0:0:
192,192,22374,1,2,0:0:0:0:
192,192,22536,1,0,0:0:0:0:
192,192,22617,1,2,0:0:0:0:
192,192,22699,1,0,0:0:0:0:
192,192,22861,1,2,0:0:0:0:
192,192,22942,1,2,0:0:0:0:
192,192,23023,1,0,0:0:0:0:
192,192,23185,1,2,0:0:0:0:
192,192,23347,1,0,0:0:0:0:
192,192,23672,1,6,0:0:0:0:
192,192,23996,1,0,0:0:0:0:
192,192,24320,1,0,0:0:0:0:
192,192,24482,1,0,0:0:0:0:
192,192,24563,1,0,0:0:0:0:
192,192,24644,1,2,0:0:0:0:
224,192,24807,1,2,0:0:0:0:
224,192,24969,1,0,0:0:0:0:
224,192,25131,1,0,0:0:0:0:
224,192,25293,1,2,0:0:0:0:
224,192,25455,1,0,0:0:0:0:
192,160,25536,1,2,0:0:0:0:
224,192,25617,1,0,0:0:0:0:
224,192,25780,1,2,0:0:0:0:
224,192,25942,1,0,0:0:0:0:
224,192,26104,1,6,0:0:0:0:
224,192,26266,1,6,0:0:0:0:
224,192,26590,1,2,0:0:0:0:
224,192,26915,1,0,0:0:0:0:
224,192,27077,1,0,0:0:0:0:
224,192,27158,1,0,0:0:0:0:
224,192,27239,1,2,0:0:0:0:
224,192,27401,1,0,0:0:0:0:
224,192,27563,1,2,0:0:0:0:
224,192,27726,1,0,0:0:0:0:
224,192,27807,1,2,0:0:0:0:
224,192,27888,1,0,0:0:0:0:
224,192,28050,1,2,0:0:0:0:
224,192,28131,1,2,0:0:0:0:
224,192,28212,1,0,0:0:0:0:
224,192,28374,1,2,0:0:0:0:
224,192,28536,1,0,0:0:0:0:
224,192,28861,1,6,0:0:0:0:
256,192,29185,1,0,0:0:0:0:
256,192,29509,1,0,0:0:0:0:
320,256,29672,1,0,0:0:0:0:
320,256,29753,1,0,0:0:0:0:
320,256,29834,1,2,0:0:0:0:
320,256,29996,1,2,0:0:0:0:
320,256,30158,1,0,0:0:0:0:
320,256,30320,1,0,0:0:0:0:
320,256,30482,1,2,0:0:0:0:
320,256,30644,1,2,0:0:0:0:
320,256,30807,1,0,0:0:0:0:
320,256,31131,1,4,0:0:0:0:
320,256,31293,1,4,0:0:0:0:
320,256,31455,1,6,0:0:0:0:
320,256,31617,1,6,0:0:0:0:
320,256,31780,1,0,0:0:0:0:
320,256,32104,1,0,0:0:0:0:
320,256,32266,1,0,0:0:0:0:
320,256,32347,1,0,0:0:0:0:
320,256,32428,1,2,0:0:0:0:
320,256,32590,1,0,0:0:0:0:
320,256,32753,1,2,0:0:0:0:
160,192,32834,1,2,0:0:0:0:
320,256,32915,1,0,0:0:0:0:
320,256,32996,1,0,0:0:0:0:
320,256,33077,1,2,0:0:0:0:
320,256,33239,1,2,0:0:0:0:
320,256,33320,1,2,0:0:0:0:
320,256,33401,1,0,0:0:0:0:
320,256,33563,1,2,0:0:0:0:
320,256,33726,1,0,0:0:0:0:
320,256,34050,1,6,0:0:0:0:
320,256,34374,1,0,0:0:0:0:
320,256,34699,1,0,0:0:0:0:
320,256,34861,1,0,0:0:0:0:
320,256,34942,1,0,0:0:0:0:
320,256,35023,1,2,0:0:0:0:
320,256,35185,1,2,0:0:0:0:
320,256,35347,1,0,0:0:0:0:
320,256,35509,1,0,0:0:0:0:
320,256,35672,1,2,0:0:0:0:
320,256,35834,1,0,0:0:0:0:
320,256,35915,1,2,0:0:0:0:
320,256,35996,1,0,0:0:0:0:
320,256,36158,1,2,0:0:0:0:
320,256,36320,1,0,0:0:0:0:
320,256,36482,1,6,0:0:0:0:
256,256,36644,1,6,0:0:0:0:
224,256,36969,1,2,0:0:0:0:
224,256,37293,1,0,0:0:0:0:
224,256,37455,1,0,0:0:0:0:
224,256,37536,1,0,0:0:0:0:
224,256,37617,1,2,0:0:0:0:
224,256,37780,1,0,0:0:0:0:
224,256,37942,1,2,0:0:0:0:
224,256,38023,1,2,0:0:0:0:
224,256,38104,1,0,0:0:0:0:
224,256,38185,1,0,0:0:0:0:
224,256,38266,1,2,0:0:0:0:
224,256,38428,1,2,0:0:0:0:
224,256,38509,1,2,0:0:0:0:
224,256,38590,1,0,0:0:0:0:
224,256,38753,1,2,0:0:0:0:
224,256,38915,1,0,0:0:0:0:
224,256,39239,1,6,0:0:0:0:
224,256,39563,1,0,0:0:0:0:
224,256,39888,1,2,0:0:0:0:
64,128,39969,1,0,0:0:0:0:
224,256,40050,1,2,0:0:0:0:
224,256,40131,1,2,0:0:0:0:
224,256,40212,1,0,0:0:0:0:
224,256,40374,1,2,0:0:0:0:
224,256,40536,1,0,0:0:0:0:
224,256,40699,1,0,0:0:0:0:
224,256,40861,1,2,0:0:0:0:
224,256,41023,1,2,0:0:0:0:
224,256,41185,1,0,0:0:0:0:
224,256,41509,1,2,0:0:0:0:
224,256,41834,1,6,0:0:0:0:
224,256,42158,1,0,0:0:0:0:
384,224,42320,1,0,0:0:0:0:
384,224,42482,1,2,0:0:0:0:
384,224,42644,1,0,0:0:0:0:
384,224,42807,1,0,0:0:0:0:
384,224,42969,1,2,0:0:0:0:
384,224,43131,1,0,0:0:0:0:
384,224,43293,1,2,0:0:0:0:
384,224,43455,1,0,0:0:0:0:
384,224,43617,1,2,0:0:0:0:
384,224,43780,1,2,0:0:0:0:
384,224,43942,1,0,0:0:0:0:
384,224,44104,1,2,0:0:0:0:
384,224,44266,1,0,0:0:0:0:
256,224,44347,1,0,0:0:0:0:
384,224,44428,1,2,0:0:0:0:
384,224,44590,1,0,0:0:0:0:
384,224,44753,1,2,0:0:0:0:
384,224,44915,1,2,0:0:0:0:
256,224,44996,1,2,0:0:0:0:
384,224,45077,1,2,0:0:0:0:
96,128,45239,1,2,0:0:0:0:
96,128,45401,1,0,0:0:0:0:
384,224,45563,1,2,0:0:0:0:
192,96,45644,1,2,0:0:0:0:
384,224,45726,1,0,0:0:0:0:
384,224,45888,1,2,0:0:0:0:
384,224,46050,1,0,0:0:0:0:
384,224,46212,1,2,0:0:0:0:
192,256,46293,1,2,0:0:0:0:
384,224,46374,1,0,0:0:0:0:
384,224,46536,1,2,0:0:0:0:
384,224,46699,1,0,0:0:0:0:
384,224,46861,1,0,0:0:0:0:
384,224,47023,1,2,0:0:0:0:
384,224,47185,1,2,0:0:0:0:
384,224,47347,1,0,0:0:0:0:
384,224,47509,1,0,0:0:0:0:
384,224,47672,1,2,0:0:0:0:
384,224,47834,1,0,0:0:0:0:
384,224,47996,1,0,0:0:0:0:
384,224,48158,1,2,0:0:0:0:
384,224,48320,1,0,0:0:0:0:
384,224,48482,1,2,0:0:0:0:
192,224,48563,1,2,0:0:0:0:
384,224,48644,1,0,0:0:0:0:
384,224,48807,1,2,0:0:0:0:
384,224,48969,1,2,0:0:0:0:
384,224,49131,1,0,0:0:0:0:
384,224,49293,1,2,0:0:0:0:
384,224,49455,1,2,0:0:0:0:
160,192,49536,1,2,0:0:0:0:
384,224,49617,1,0,0:0:0:0:
384,224,49780,1,2,0:0:0:0:
384,224,49942,1,0,0:0:0:0:
384,224,50104,1,0,0:0:0:0:
160,192,50185,1,0,0:0:0:0:
384,224,50266,1,2,0:0:0:0:
384,224,50428,1,0,0:0:0:0:
384,224,50590,1,0,0:0:0:0:
160,192,50672,1,0,0:0:0:0:
384,224,50753,1,2,0:0:0:0:
384,224,50915,1,2,0:0:0:0:
384,224,51077,1,0,0:0:0:0:
160,192,51158,1,2,0:0:0:0:
384,224,51239,1,0,0:0:0:0:
384,224,51401,1,0,0:0:0:0:
192,96,51482,1,0,0:0:0:0:
384,224,51563,1,2,0:0:0:0:
384,224,51726,1,0,0:0:0:0:
160,160,51807,1,0,0:0:0:0:
384,224,51888,1,2,0:0:0:0:
160,192,51969,1,2,0:0:0:0:
384,224,52050,1,0,0:0:0:0:
384,224,52212,1,2,0:0:0:0:
384,224,52374,1,2,0:0:0:0:
384,224,52536,1,0,0:0:0:0:
256,256,52699,1,2,0:0:0:0:
256,256,52861,1,0,0:0:0:0:
256,256,53023,1,0,0:0:0:0:
256,256,53104,1,2,0:0:0:0:
256,256,53185,1,0,0:0:0:0:
256,256,53347,1,2,0:0:0:0:
256,256,53509,1,0,0:0:0:0:
256,256,53590,1,0,0:0:0:0:
256,256,53672,1,2,0:0:0:0:
256,256,53834,1,0,0:0:0:0:
256,256,53996,1,2,0:0:0:0:
96,160,54077,1,2,0:0:0:0:
256,256,54158,1,0,0:0:0:0:
256,256,54320,1,2,0:0:0:0:
256,256,54482,1,0,0:0:0:0:
256,256,54644,1,2,0:0:0:0:
256,256,54726,1,2,0:0:0:0:
256,256,54807,1,0,0:0:0:0:
256,256,54969,1,2,0:0:0:0:
256,256,55131,1,0,0:0:0:0:
256,256,55293,1,2,0:0:0:0:
256,256,55455,1,0,0:0:0:0:
256,256,55617,1,2,0:0:0:0:
256,256,55699,1,2,0:0:0:0:
256,256,55780,1,0,0:0:0:0:
96,128,55861,1,2,0:0:0:0:
160,128,56023,1,2,0:0:0:0:
256,256,56104,1,0,0:0:0:0:
256,256,56185,1,0,0:0:0:0:
256,256,56266,1,2,0:0:0:0:
256,256,56428,1,0,0:0:0:0:
256,256,56590,1,2,0:0:0:0:
256,256,56672,1,2,0:0:0:0:
256,256,56753,1,0,0:0:0:0:
256,256,56915,1,2,0:0:0:0:
64,160,56996,1,2,0:0:0:0:
256,256,57077,1,0,0:0:0:0:
256,256,57239,1,2,0:0:0:0:
256,256,57320,1,2,0:0:0:0:
96,128,57401,1,0,0:0:0:0:
96,128,57482,1,0,0:0:0:0:
96,128,57563,1,2,0:0:0:0:
96,128,57726,1,0,0:0:0:0:
256,256,57888,1,2,0:0:0:0:
256,256,58050,1,0,0:0:0:0:
256,256,58212,1,2,0:0:0:0:
256,256,58293,1,2,0:0:0:0:
256,256,58374,1,0,0:0:0:0:
256,256,58536,1,0,0:0:0:0:
256,256,58617,1,2,0:0:0:0:
256,256,58699,1,0,0:0:0:0:
256,256,58861,1,2,0:0:0:0:
256,256,59023,1,0,0:0:0:0:
256,256,59185,1,0,0:0:0:0:
64,160,59266,1,0,0:0:0:0:
256,256,59347,1,2,0:0:0:0:
256,256,59509,1,2,0:0:0:0:
256,256,59590,1,2,0:0:0:0:
256,256,59672,1,0,0:0:0:0:
256,256,59834,1,2,0:0:0:0:
256,256,59996,1,0,0:0:0:0:
256,256,60077,1,0,0:0:0:0:
256,256,60158,1,0,0:0:0:0:
256,256,60320,1,2,0:0:0:0:
256,256,60401,1,2,0:0:0:0:
256,256,60482,1,0,0:0:0:0:
256,256,60563,1,2,0:0:0:0:
256,256,60644,1,0,0:0:0:0:
256,256,60726,1,0,0:0:0:0:
256,256,60807,1,2,0:0:0:0:
256,256,60888,1,0,0:0:0:0:
256,256,60969,1,2,0:0:0:0:
288,160,61023,1,2,0:0:0:0:
288,160,61077,1,2,0:0:0:0:
256,256,61131,1,0,0:0:0:0:
256,256,61212,1,0,0:0:0:0:
256,256,61293,1,2,0:0:0:0:
256,256,61374,1,2,0:0:0:0:
256,256,61455,1,2,0:0:0:0:
192,192,61617,1,0,0:0:0:0:
160,192,61780,1,0,0:0:0:0:
160,192,61942,1,2,0:0:0:0:
192,256,62023,1,2,0:0:0:0:
192,256,62104,1,2,0:0:0:0:
192,256,62185,1,2,0:0:0:0:
192,256,62266,1,0,0:0:0:0:
192,256,62428,1,0,0:0:0:0:
192,256,62590,1,0,0:0:0:0:
224,224,62915,1,6,0:0:0:0:
352,192,63240,1,0,0:0:0:0:
192,192,63402,1,0,0:0:0:0:
192,192,63483,1,0,0:0:0:0:
192,192,63564,1,2,0:0:0:0:
192,192,63726,1,0,0:0:0:0:
192,192,63888,1,2,0:0:0:0:
192,192,64050,1,0,0:0:0:0:
192,192,64131,1,2,0:0:0:0:
192,192,64213,1,0,0:0:0:0:
192,192,64375,1,2,0:0:0:0:
192,192,64456,1,2,0:0:0:0:
192,192,64537,1,0,0:0:0:0:
192,192,64699,1,2,0:0:0:0:
192,192,64861,1,0,0:0:0:0:
192,192,65186,1,6,0:0:0:0:
192,192,65510,1,0,0:0:0:0:
192,192,65834,1,0,0:0:0:0:
192,192,65996,1,0,0:0:0:0:
192,192,66077,1,0,0:0:0:0:
192,192,66158,1,2,0:0:0:0:
224,192,66321,1,2,0:0:0:0:
224,192,66483,1,0,0:0:0:0:
224,192,66645,1,0,0:0:0:0:
224,192,66807,1,2,0:0:0:0:
224,192,66969,1,0,0:0:0:0:
192,160,67050,1,2,0:0:0:0:
224,192,67131,1,0,0:0:0:0:
224,192,67294,1,2,0:0:0:0:
224,192,67456,1,0,0:0:0:0:
224,192,67618,1,6,0:0:0:0:
224,192,67780,1,6,0:0:0:0:
224,192,68104,1,2,0:0:0:0:
224,192,68429,1,0,0:0:0:0:
224,192,68591,1,0,0:0:0:0:
224,192,68672,1,0,0:0:0:0:
224,192,68753,1,2,0:0:0:0:
224,192,68915,1,0,0:0:0:0:
224,192,69077,1,2,0:0:0:0:
224,192,69240,1,0,0:0:0:0:
224,192,69321,1,2,0:0:0:0:
224,192,69402,1,0,0:0:0:0:
224,192,69564,1,2,0:0:0:0:
224,192,69645,1,2,0:0:0:0:
224,192,69726,1,0,0:0:0:0:
224,192,69888,1,2,0:0:0:0:
224,192,70050,1,0,0:0:0:0:
224,192,70375,1,6,0:0:0:0:
256,192,70699,1,0,0:0:0:0:
256,192,71023,1,0,0:0:0:0:
320,256,71186,1,0,0:0:0:0:
320,256,71267,1,0,0:0:0:0:
320,256,71348,1,2,0:0:0:0:
320,256,71510,1,2,0:0:0:0:
320,256,71672,1,0,0:0:0:0:
320,256,71834,1,0,0:0:0:0:
320,256,71996,1,2,0:0:0:0:
320,256,72158,1,2,0:0:0:0:
320,256,72321,1,0,0:0:0:0:
320,256,72645,1,4,0:0:0:0:
320,256,72807,1,4,0:0:0:0:
320,256,72969,1,6,0:0:0:0:
320,256,73131,1,6,0:0:0:0:
320,256,73294,1,0,0:0:0:0:
320,256,73618,1,0,0:0:0:0:
320,256,73780,1,0,0:0:0:0:
320,256,73861,1,0,0:0:0:0:
320,256,73942,1,2,0:0:0:0:
320,256,74104,1,0,0:0:0:0:
320,256,74267,1,2,0:0:0:0:
160,192,74348,1,2,0:0:0:0:
320,256,74429,1,0,0:0:0:0:
320,256,74510,1,0,0:0:0:0:
320,256,74591,1,2,0:0:0:0:
320,256,74753,1,2,0:0:0:0:
320,256,74834,1,2,0:0:0:0:
320,256,74915,1,0,0:0:0:0:
320,256,75077,1,2,0:0:0:0:
320,256,75240,1,0,0:0:0:0:
320,256,75564,1,6,0:0:0:0:
320,256,75888,1,0,0:0:0:0:
320,256,76213,1,0,0:0:0:0:
320,256,76375,1,0,0:0:0:0:
320,256,76456,1,0,0:0:0:0:
320,256,76537,1,2,0:0:0:0:
320,256,76699,1,2,0:0:0:0:
320,256,76861,1,0,0:0:0:0:
320,256,77023,1,0,0:0:0:0:
320,256,77186,1,2,0:0:0:0:
320,256,77348,1,0,0:0:0:0:
320,256,77429,1,2,0:0:0:0:
320,256,77510,1,0,0:0:0:0:
320,256,77672,1,2,0:0:0:0:
320,256,77834,1,0,0:0:0:0:
320,256,77996,1,6,0:0:0:0:
256,256,78158,1,6,0:0:0:0:
224,256,78483,1,2,0:0:0:0:
224,256,78807,1,0,0:0:0:0:
224,256,78969,1,0,0:0:0:0:
224,256,79050,1,0,0:0:0:0:
224,256,79131,1,2,0:0:0:0:
224,256,79294,1,0,0:0:0:0:
224,256,79456,1,2,0:0:0:0:
224,256,79537,1,2,0:0:0:0:
224,256,79618,1,0,0:0:0:0:
224,256,79699,1,0,0:0:0:0:
224,256,79780,1,2,0:0:0:0:
224,256,79942,1,0,0:0:0:0:
224,256,80023,1,0,0:0:0:0:
224,256,80104,1,2,0:0:0:0:
224,256,80266,1,2,0:0:0:0:
224,256,80428,1,2,0:0:0:0:
224,256,80753,1,6,0:0:0:0:
224,256,81077,1,0,0:0:0:0:
224,256,81402,1,2,0:0:0:0:
64,128,81483,1,0,0:0:0:0:
224,256,81564,1,2,0:0:0:0:
224,256,81645,1,2,0:0:0:0:
224,256,81726,1,0,0:0:0:0:
224,256,81888,1,2,0:0:0:0:
224,256,82050,1,0,0:0:0:0:
224,256,82213,1,0,0:0:0:0:
224,256,82375,1,2,0:0:0:0:
224,256,82537,1,2,0:0:0:0:
224,256,82699,1,0,0:0:0:0:
160,256,83023,1,0,0:0:0:0:
160,256,83185,1,2,0:0:0:0:
160,256,83266,1,2,0:0:0:0:
160,256,83347,1,0,0:0:0:0:
160,192,83401,1,2,0:0:0:0:
160,192,83455,1,2,0:0:0:0:
160,256,83509,1,0,0:0:0:0:
288,128,83672,1,2,0:0:0:0:
256,160,83753,1,2,0:0:0:0:
256,160,83834,1,0,0:0:0:0:
256,160,83915,1,2,0:0:0:0:
256,160,83996,1,0,0:0:0:0:
256,160,84158,1,0,0:0:0:0:
256,160,84239,1,0,0:0:0:0:
256,160,84320,1,2,0:0:0:0:
256,160,84482,1,0,0:0:0:0:
256,160,84563,1,0,0:0:0:0:
256,160,84644,1,2,0:0:0:0:
256,160,84726,1,2,0:0:0:0:
256,160,84807,1,0,0:0:0:0:
256,160,84888,1,2,0:0:0:0:
256,160,84969,1,0,0:0:0:0:
256,160,85131,1,0,0:0:0:0:
256,160,85212,1,2,0:0:0:0:
256,160,85293,1,0,0:0:0:0:
224,224,85347,1,0,0:0:0:0:
224,224,85401,1,0,0:0:0:0:
224,224,85455,1,2,0:0:0:0:
96,192,85536,1,0,0:0:0:0:
160,224,85617,1,2,0:0:0:0:
96,192,85699,1,0,0:0:0:0:
192,192,85780,1,0,0:0:0:0:
192,192,85942,1,4,0:0:0:0:
192,192,86266,1,0,0:0:0:0:
192,192,86428,1,0,0:0:0:0:
192,192,86509,1,0,0:0:0:0:
192,192,86590,1,2,0:0:0:0:
192,192,86753,1,2,0:0:0:0:
192,192,86834,1,2,0:0:0:0:
192,192,86915,1,0,0:0:0:0:
192,192,87077,1,2,0:0:0:0:
192,192,87158,1,0,0:0:0:0:
192,192,87239,1,2,0:0:0:0:
192,192,87320,1,2,0:0:0:0:
192,192,87401,1,0,0:0:0:0:
128,160,87482,1,0,0:0:0:0:
192,192,87563,1,2,0:0:0:0:
288,160,87726,1,2,0:0:0:0:
352,256,87780,1,0,0:0:0:0:
352,256,87834,1,0,0:0:0:0:
288,160,87888,1,2,0:0:0:0:
96,128,87969,1,0,0:0:0:0:
192,128,88050,1,2,0:0:0:0:
160,128,88131,1,2,0:0:0:0:
288,160,88212,1,0,0:0:0:0:
288,160,88293,1,0,0:0:0:0:
288,160,88374,1,2,0:0:0:0:
288,160,88536,1,4,0:0:0:0:
288,160,88699,1,4,0:0:0:0:
288,160,88861,1,0,0:0:0:0:
256,192,88942,1,0,0:0:0:0:
128,224,89023,1,2,0:0:0:0:
128,224,89185,1,0,0:0:0:0:
256,192,89266,1,2,0:0:0:0:
128,224,89347,1,0,0:0:0:0:
128,224,89509,1,2,0:0:0:0:
128,224,89672,1,0,0:0:0:0:
256,192,89753,1,0,0:0:0:0:
128,224,89834,1,2,0:0:0:0:
128,224,89996,1,0,0:0:0:0:
224,224,90158,1,2,0:0:0:0:
256,192,90239,1,0,0:0:0:0:
224,224,90320,1,2,0:0:0:0:
96,160,90401,1,0,0:0:0:0:
224,224,90482,1,2,0:0:0:0:
256,192,90563,1,2,0:0:0:0:
224,224,90644,1,0,0:0:0:0:
160,128,90726,1,0,0:0:0:0:
224,224,90807,1,2,0:0:0:0:
256,192,90888,1,2,0:0:0:0:
224,224,90969,1,2,0:0:0:0:
224,224,91131,1,4,0:0:0:0:
192,192,91455,1,2,0:0:0:0:
160,256,91617,1,0,0:0:0:0:
160,256,91699,1,2,0:0:0:0:
160,256,91780,1,0,0:0:0:0:
160,256,91861,1,2,0:0:0:0:
160,256,91942,1,0,0:0:0:0:
192,160,92023,1,0,0:0:0:0:
192,224,92104,1,2,0:0:0:0:
192,192,92266,1,0,0:0:0:0:
192,192,92347,1,0,0:0:0:0:
256,224,92428,1,2,0:0:0:0:
256,224,92482,1,2,0:0:0:0:
256,224,92536,1,2,0:0:0:0:
352,160,92590,1,0,0:0:0:0:
352,192,92672,1,0,0:0:0:0:
320,192,92753,1,2,0:0:0:0:
288,288,92834,1,2,0:0:0:0:
288,288,92915,1,0,0:0:0:0:
288,288,92996,1,0,0:0:0:0:
288,288,93077,1,2,0:0:0:0:
320,160,93131,1,0,0:0:0:0:
320,160,93185,1,0,0:0:0:0:
320,160,93239,1,2,0:0:0:0:
352,224,93320,1,0,0:0:0:0:
352,224,93401,1,2,0:0:0:0:
320,288,93482,1,2,0:0:0:0:
320,288,93563,1,0,0:0:0:0:
320,288,93644,1,2,0:0:0:0:
320,288,93726,1,4,0:0:0:0:
