osu file format v14

[General]
AudioFilename: audio.mp3
AudioLeadIn: 0
PreviewTime: 61597
Countdown: 0
SampleSet: Normal
StackLeniency: 0.7
Mode: 1
LetterboxInBreaks: 0
WidescreenStoryboard: 1

[Editor]
Bookmarks: 1273,5489,11003,16192,21381,31760,42138,52516,61780,62590,70516,86084
DistanceSpacing: 0.6
BeatDivisor: 12
GridSize: 32
TimelineZoom: 1.700005

[Metadata]
Title:TSLove
TitleUnicode:TSLove
Artist:O2i3
ArtistUnicode:O2i3
Creator:[_Chichinya_]
Version:zigizigiLove <3
Source:
Tags:Melanie Friggy-chan kqrth DDM Hi_Hello 404 AccNotFound FlamingRok Dargin Cyoris210 BlackWolf159 Yuno Taikocracy Prancer agu gamerock Nifty Lno Nepuri Raphalge frukoyurdakul Cyssel Unmei Muma Q____X Vulkin JessiChan iContol Chocola_2287 AezLack _yu68 zigizigiefe Grimbow
BeatmapID:1183674
BeatmapSetID:549370

[Difficulty]
HPDrainRate:7
CircleSize:4
OverallDifficulty:6
ApproachRate:9
SliderMultiplier:1.5042328936501
SliderTickRate:1

[Events]
//Background and Video events
0,0,"Hot-Anime-Wallpapers-HD.jpg",0,0
//Break Periods
//Storyboard Layer 0 (Background)
//Storyboard Layer 1 (Fail)
//Storyboard Layer 2 (Pass)
//Storyboard Layer 3 (Foreground)
//Storyboard Sound Samples

[TimingPoints]
645,324.324324324324,4,1,0,100,1,0
645,-100,4,1,0,40,0,0
5590,-100,4,1,0,20,0,0
5996,-100,4,1,0,40,0,0
7617,-100,4,1,0,50,0,0
16212,-100,4,1,0,70,0,0
18807,-100,4,1,0,80,0,0
21401,-33.3333333333333,4,1,0,100,0,1
21563,-100,4,1,0,100,0,1
23672,-25,4,1,0,100,0,0
24077,-100,4,1,0,100,0,1
26104,-25,4,1,0,100,0,0
26590,-33.3333333333333,4,1,0,100,0,1
26672,-100,4,1,0,100,0,1
28861,-25,4,1,0,100,0,0
29185,-33.3333333333333,4,1,0,100,0,1
29266,-100,4,1,0,100,0,1
30482,-66.6666666666667,4,2,1,100,0,1
30563,-100,4,1,0,100,0,1
30807,-50,4,2,1,100,0,1
30888,-100,4,1,0,100,0,1
31131,-40,4,2,1,100,0,0
31212,-100,4,1,0,100,0,0
31293,-33.3333333333333,4,2,1,100,0,0
31374,-100,4,1,0,100,0,0
31455,-28.5714285714286,4,2,1,100,0,0
31536,-100,4,1,0,100,0,0
31617,-25,4,2,1,100,0,0
31699,-100,4,1,0,100,0,0
31780,-25,4,1,0,100,0,1
31780,-25,4,1,0,100,0,1
31942,-100,4,1,0,100,0,1
34050,-25,4,2,1,100,0,0
34374,-25,4,1,0,100,0,1
34536,-100,4,1,0,100,0,1
36482,-25,4,2,1,100,0,0
36969,-25,4,1,0,100,0,1
37131,-100,4,1,0,100,0,1
39239,-25,4,2,1,100,0,0
39563,-25,4,1,0,100,0,1
39726,-100,4,1,0,100,0,1
40861,-50,4,2,1,100,0,1
40915,-100,4,1,0,100,0,1
41185,-50,4,2,1,100,0,1
41266,-100,4,1,0,100,0,1
41509,-50,4,2,1,70,0,1
41590,-100,4,2,1,70,0,1
41834,-50,4,1,0,60,0,1
41996,-100,4,1,0,50,0,1
42158,-100,4,1,0,40,0,0
52536,-100,4,1,0,30,0,0
52699,-100,4,1,0,40,0,0
55131,-100,4,1,0,50,0,0
57726,-100,4,1,0,60,0,0
60320,-100,4,1,0,80,0,0
61617,-90.9090909090909,4,1,0,80,0,0
61780,-83.3333333333333,4,1,0,80,0,0
61942,-76.9230769230769,4,1,0,80,0,0
62104,-71.4285714285714,4,1,0,80,0,0
62266,-66.6666666666667,4,1,0,80,0,0
62428,-62.5,4,1,0,80,0,0
62590,-58.8235294117647,4,1,0,80,0,0
62915,-25,4,1,0,100,0,1
63077,-100,4,1,0,100,0,1
65185,-25,4,2,1,100,0,0
65590,-100,4,1,0,100,0,1
67617,-25,4,2,1,100,0,0
68104,-25,4,1,0,100,0,1
68266,-100,4,1,0,100,0,1
70374,-25,4,2,1,100,0,0
70780,-100,4,1,0,100,0,1
71996,-66.6666666666667,4,2,1,100,0,1
72077,-100,4,1,0,100,0,1
72320,-50,4,2,1,100,0,1
72401,-100,4,1,0,100,0,1
72644,-40,4,2,1,100,0,0
72726,-100,4,1,0,100,0,0
72807,-33.3333333333333,4,2,1,100,0,0
72888,-100,4,1,0,100,0,0
72969,-28.5714285714286,4,2,1,100,0,0
73050,-100,4,1,0,100,0,0
73131,-25,4,2,1,100,0,0
73212,-100,4,1,0,100,0,0
73293,-25,4,1,0,100,0,1
73455,-100,4,1,0,100,0,1
75563,-25,4,2,1,100,0,0
75888,-25,4,1,0,100,0,1
76050,-100,4,1,0,100,0,1
77996,-25,4,2,1,100,0,0
78482,-25,4,1,0,100,0,1
78644,-100,4,1,0,100,0,1
80753,-25,4,2,1,100,0,0
80807,-25,4,1,0,30,0,0
81077,-25,4,1,0,100,0,0
81239,-100,4,1,0,100,0,0
83023,-83.3333333333333,4,1,0,50,0,0
83185,-76.9230769230769,4,1,0,50,0,0
83347,-71.4285714285714,4,1,0,50,0,0
83509,-66.6666666666667,4,1,0,50,0,0
83672,-76.9230769230769,4,1,0,60,0,1
85942,-50,4,1,0,60,0,0
86266,-76.9230769230769,4,1,0,60,0,1
88536,-25,4,1,0,60,0,0
88861,-25,4,1,0,60,0,1
89023,-90.9090909090909,4,1,0,70,0,1
89185,-83.3333333333333,4,1,0,70,0,1
89347,-76.9230769230769,4,1,0,70,0,1
89509,-71.4285714285714,4,1,0,70,0,1
89672,-66.6666666666667,4,1,0,70,0,1
89834,-62.5,4,1,0,70,0,1
89996,-58.8235294117647,4,1,0,70,0,1
90158,-55.5555555555556,4,1,0,70,0,1
90320,-52.6315789473684,4,1,0,70,0,1
90482,-50,4,1,0,70,0,1
90644,-47.6190476190476,4,1,0,70,0,1
90807,-45.4545454545455,4,1,0,70,0,1
90969,-43.4782608695652,4,1,0,70,0,1
91131,-41.6666666666667,4,1,0,70,0,0
91455,-76.9230769230769,4,1,0,70,0,0
92753,-50,4,1,0,70,0,0

[HitObjects]
192,192,645,5,0,0:0:0:0:
192,192,807,1,0,0:0:0:0:
192,192,969,1,8,0:0:0:0:
192,192,1131,1,0,0:0:0:0:
192,192,1293,1,0,0:0:0:0:
192,192,1455,1,0,0:0:0:0:
160,192,1617,1,8,0:0:0:0:
192,192,1780,1,0,0:0:0:0:
160,192,1942,1,8,0:0:0:0:
160,192,2104,1,8,0:0:0:0:
160,192,2266,1,8,0:0:0:0:
160,192,2428,1,0,0:0:0:0:
160,192,2590,1,8,0:0:0:0:
160,192,2753,1,8,0:0:0:0:
160,192,2915,1,8,0:0:0:0:
160,192,3077,1,0,0:0:0:0:
160,192,3239,1,8,0:0:0:0:
160,192,3401,1,8,0:0:0:0:
160,192,3563,1,0,0:0:0:0:
160,192,3726,1,8,0:0:0:0:
160,192,3888,1,8,0:0:0:0:
160,192,4050,1,8,0:0:0:0:
160,192,4212,1,0,0:0:0:0:
160,192,4374,1,8,0:0:0:0:
160,192,4536,1,0,0:0:0:0:
160,192,4699,1,0,0:0:0:0:
160,192,4861,1,8,0:0:0:0:
160,192,5023,1,0,0:0:0:0:
160,192,5104,1,8,0:0:0:0:
160,192,5185,1,0,0:0:0:0:
160,192,5347,1,0,0:0:0:0:
160,192,5509,1,8,0:0:0:0:
160,192,5590,1,0,0:0:0:0:
160,192,5672,1,0,0:0:0:0:
192,192,5834,1,0,0:0:0:0:
192,192,5996,1,0,0:0:0:0:
192,192,6158,1,8,0:0:0:0:
192,192,6320,1,0,0:0:0:0:
192,192,6482,1,0,0:0:0:0:
192,192,6644,1,0,0:0:0:0:
160,192,6807,1,8,0:0:0:0:
192,192,6969,1,0,0:0:0:0:
160,192,7131,1,8,0:0:0:0:
160,192,7293,1,8,0:0:0:0:
160,192,7455,1,8,0:0:0:0:
160,192,7617,1,0,0:0:0:0:
160,192,7780,1,8,0:0:0:0:
160,192,7942,1,8,0:0:0:0:
160,192,8104,1,8,0:0:0:0:
160,192,8266,1,0,0:0:0:0:
160,192,8428,1,8,0:0:0:0:
160,192,8590,1,8,0:0:0:0:
160,192,8753,1,0,0:0:0:0:
160,192,8915,1,8,0:0:0:0:
160,192,9077,1,8,0:0:0:0:
160,192,9239,1,8,0:0:0:0:
160,192,9401,1,0,0:0:0:0:
160,192,9563,1,8,0:0:0:0:
160,192,9726,1,0,0:0:0:0:
160,192,9888,1,0,0:0:0:0:
160,192,10050,1,8,0:0:0:0:
160,192,10212,1,0,0:0:0:0:
160,192,10374,1,0,0:0:0:0:
160,192,10536,1,8,0:0:0:0:
160,192,10617,1,0,0:0:0:0:
160,192,10699,1,0,0:0:0:0:
160,192,10861,1,8,0:0:0:0:
160,192,11023,1,0,0:0:0:0:
160,192,11347,1,0,0:0:0:0:
160,192,11672,1,0,0:0:0:0:
160,192,11996,1,0,0:0:0:0:
160,192,12320,1,0,0:0:0:0:
160,192,12644,1,0,0:0:0:0:
160,192,12969,1,0,0:0:0:0:
160,192,13293,1,0,0:0:0:0:
160,192,13617,1,0,0:0:0:0:
160,192,13942,1,0,0:0:0:0:
160,192,14266,1,0,0:0:0:0:
160,192,14590,1,0,0:0:0:0:
160,192,14915,1,0,0:0:0:0:
160,192,15239,1,0,0:0:0:0:
160,192,15563,1,0,0:0:0:0:
160,192,15888,1,0,0:0:0:0:
160,192,16212,1,0,0:0:0:0:
160,192,16374,1,0,0:0:0:0:
160,192,16536,1,0,0:0:0:0:
160,192,16699,1,0,0:0:0:0:
160,192,16861,1,0,0:0:0:0:
160,192,17023,1,0,0:0:0:0:
160,192,17185,1,0,0:0:0:0:
160,192,17347,1,0,0:0:0:0:
160,192,17509,1,0,0:0:0:0:
160,192,17672,1,0,0:0:0:0:
160,192,17834,1,0,0:0:0:0:
160,192,17996,1,0,0:0:0:0:
160,192,18158,1,0,0:0:0:0:
160,192,18320,1,0,0:0:0:0:
160,192,18482,1,0,0:0:0:0:
160,192,18644,1,0,0:0:0:0:
160,192,18807,1,8,0:0:0:0:
160,192,18888,1,0,0:0:0:0:
160,192,18969,1,0,0:0:0:0:
160,192,19050,1,0,0:0:0:0:
160,192,19131,1,8,0:0:0:0:
160,192,19212,1,0,0:0:0:0:
160,192,19293,1,0,0:0:0:0:
160,192,19374,1,0,0:0:0:0:
160,192,19455,1,8,0:0:0:0:
160,192,19509,1,8,0:0:0:0:
160,192,19563,1,8,0:0:0:0:
160,192,19617,1,8,0:0:0:0:
160,192,19699,1,0,0:0:0:0:
160,192,19780,1,8,0:0:0:0:
160,192,19861,1,0,0:0:0:0:
160,192,19942,1,0,0:0:0:0:
160,192,20023,1,0,0:0:0:0:
160,192,20104,1,12,0:0:0:0:
192,160,21401,1,4,0:0:0:0:
192,160,21563,1,8,0:0:0:0:
192,160,21726,1,0,0:0:0:0:
192,160,21807,1,0,0:0:0:0:
192,160,21888,1,8,0:0:0:0:
192,160,21969,1,8,0:0:0:0:
192,160,22050,1,0,0:0:0:0:
192,160,22212,1,8,0:0:0:0:
192,160,22374,1,0,0:0:0:0:
192,160,22455,1,8,0:0:0:0:
192,160,22536,1,0,0:0:0:0:
192,160,22617,1,8,0:0:0:0:
192,160,22699,1,8,0:0:0:0:
192,160,22861,1,8,0:0:0:0:
192,160,22942,1,8,0:0:0:0:
192,160,23023,1,8,0:0:0:0:
192,160,23185,1,8,0:0:0:0:
192,160,23347,1,0,0:0:0:0:
192,160,23509,1,8,0:0:0:0:
192,160,23672,1,0,0:0:0:0:
192,160,23996,1,4,0:0:0:0:
192,160,24158,1,8,0:0:0:0:
192,160,24320,1,0,0:0:0:0:
192,160,24401,1,0,0:0:0:0:
192,160,24482,1,8,0:0:0:0:
192,160,24563,1,8,0:0:0:0:
192,160,24644,1,0,0:0:0:0:
192,160,24807,1,8,0:0:0:0:
192,160,24969,1,0,0:0:0:0:
192,160,25050,1,0,0:0:0:0:
192,160,25131,1,0,0:0:0:0:
192,160,25293,1,8,0:0:0:0:
192,160,25455,1,0,0:0:0:0:
192,160,25617,1,8,0:0:0:0:
192,160,25780,1,8,0:0:0:0:
192,160,25942,1,0,0:0:0:0:
192,160,26104,1,0,0:0:0:0:
192,160,26266,1,0,0:0:0:0:
192,160,26590,1,4,0:0:0:0:
192,160,26753,1,8,0:0:0:0:
192,160,26915,1,0,0:0:0:0:
192,160,26996,1,0,0:0:0:0:
192,160,27077,1,0,0:0:0:0:
192,160,27158,1,0,0:0:0:0:
192,160,27239,1,8,0:0:0:0:
192,160,27401,1,8,0:0:0:0:
192,160,27563,1,0,0:0:0:0:
192,160,27644,1,8,0:0:0:0:
192,160,27726,1,0,0:0:0:0:
192,160,27807,1,8,0:0:0:0:
192,160,27888,1,8,0:0:0:0:
192,160,28050,1,8,0:0:0:0:
192,160,28131,1,8,0:0:0:0:
192,160,28212,1,8,0:0:0:0:
192,160,28374,1,8,0:0:0:0:
192,160,28536,1,0,0:0:0:0:
192,160,28699,1,8,0:0:0:0:
192,160,28861,1,0,0:0:0:0:
192,160,29185,1,4,0:0:0:0:
192,160,29347,1,8,0:0:0:0:
192,160,29509,1,0,0:0:0:0:
192,160,29590,1,0,0:0:0:0:
192,160,29672,1,8,0:0:0:0:
192,160,29753,1,8,0:0:0:0:
192,160,29834,1,0,0:0:0:0:
192,160,29996,1,8,0:0:0:0:
192,160,30077,1,8,0:0:0:0:
192,160,30158,1,0,0:0:0:0:
192,160,30239,1,0,0:0:0:0:
192,160,30320,1,0,0:0:0:0:
192,160,30482,1,0,0:0:0:0:
192,160,30509,1,0,0:0:0:0:
192,160,30807,1,0,0:0:0:0:
192,160,30834,1,0,0:0:0:0:
192,160,31131,1,0,0:0:0:0:
192,160,31158,1,0,0:0:0:0:
192,160,31293,1,0,0:0:0:0:
192,160,31320,1,0,0:0:0:0:
192,160,31455,1,0,0:0:0:0:
192,160,31482,1,0,0:0:0:0:
192,160,31617,1,0,0:0:0:0:
192,160,31644,1,0,0:0:0:0:
192,160,31780,1,4,0:0:0:0:
192,160,31942,1,8,0:0:0:0:
192,160,32104,1,0,0:0:0:0:
192,160,32185,1,0,0:0:0:0:
192,160,32266,1,8,0:0:0:0:
192,160,32347,1,8,0:0:0:0:
192,160,32428,1,0,0:0:0:0:
192,160,32590,1,8,0:0:0:0:
192,160,32753,1,0,0:0:0:0:
192,160,32834,1,8,0:0:0:0:
192,160,32915,1,0,0:0:0:0:
192,160,32996,1,8,0:0:0:0:
192,160,33077,1,8,0:0:0:0:
192,160,33239,1,8,0:0:0:0:
192,160,33320,1,8,0:0:0:0:
192,160,33401,1,8,0:0:0:0:
192,160,33563,1,8,0:0:0:0:
192,160,33726,1,0,0:0:0:0:
192,160,33888,1,8,0:0:0:0:
192,160,34050,1,0,0:0:0:0:
192,160,34374,1,4,0:0:0:0:
192,160,34536,1,8,0:0:0:0:
192,160,34699,1,0,0:0:0:0:
192,160,34780,1,0,0:0:0:0:
192,160,34861,1,8,0:0:0:0:
192,160,34942,1,8,0:0:0:0:
192,160,35023,1,0,0:0:0:0:
192,160,35185,1,8,0:0:0:0:
192,160,35347,1,0,0:0:0:0:
192,160,35428,1,0,0:0:0:0:
192,160,35509,1,0,0:0:0:0:
192,160,35672,1,8,0:0:0:0:
192,160,35834,1,0,0:0:0:0:
192,160,35996,1,8,0:0:0:0:
192,160,36158,1,8,0:0:0:0:
192,160,36320,1,0,0:0:0:0:
192,160,36482,1,0,0:0:0:0:
192,160,36644,1,0,0:0:0:0:
192,160,36969,1,4,0:0:0:0:
192,160,37131,1,8,0:0:0:0:
192,160,37293,1,0,0:0:0:0:
192,160,37374,1,0,0:0:0:0:
192,160,37455,1,0,0:0:0:0:
192,160,37536,1,0,0:0:0:0:
192,160,37617,1,8,0:0:0:0:
192,160,37780,1,8,0:0:0:0:
192,160,37942,1,0,0:0:0:0:
192,160,38023,1,8,0:0:0:0:
192,160,38104,1,0,0:0:0:0:
192,160,38185,1,8,0:0:0:0:
192,160,38266,1,8,0:0:0:0:
192,160,38428,1,8,0:0:0:0:
192,160,38509,1,8,0:0:0:0:
192,160,38590,1,8,0:0:0:0:
192,160,38753,1,8,0:0:0:0:
192,160,38915,1,0,0:0:0:0:
192,160,39077,1,8,0:0:0:0:
192,160,39239,1,0,0:0:0:0:
192,160,39563,1,4,0:0:0:0:
192,160,39726,1,0,0:0:0:0:
192,160,39888,1,8,0:0:0:0:
192,160,39969,1,8,0:0:0:0:
192,160,40050,1,8,0:0:0:0:
192,160,40131,1,8,0:0:0:0:
192,160,40212,1,8,0:0:0:0:
192,160,40374,1,8,0:0:0:0:
192,160,40455,1,8,0:0:0:0:
192,160,40536,1,0,0:0:0:0:
192,160,40617,1,0,0:0:0:0:
192,160,40699,1,0,0:0:0:0:
192,160,40861,1,0,0:0:0:0:
192,160,40888,1,0,0:0:0:0:
192,160,41185,1,0,0:0:0:0:
192,160,41212,1,0,0:0:0:0:
192,160,41509,1,8,0:0:0:0:
192,160,41536,1,8,0:0:0:0:
192,160,41834,1,8,0:0:0:0:
192,160,41861,1,8,0:0:0:0:
192,160,42158,1,8,0:0:0:0:
192,160,42320,1,0,0:0:0:0:
192,160,42482,1,0,0:0:0:0:
192,160,42644,1,0,0:0:0:0:
192,160,42807,1,0,0:0:0:0:
192,160,42969,1,0,0:0:0:0:
192,160,43131,1,0,0:0:0:0:
192,160,43293,1,0,0:0:0:0:
192,160,43455,1,0,0:0:0:0:
192,160,43617,1,8,0:0:0:0:
192,160,43780,1,0,0:0:0:0:
192,160,43942,1,8,0:0:0:0:
192,160,44104,1,0,0:0:0:0:
192,160,44266,1,8,0:0:0:0:
192,160,44428,1,0,0:0:0:0:
192,160,44590,1,8,0:0:0:0:
192,160,44753,1,0,0:0:0:0:
192,160,44915,1,8,0:0:0:0:
192,160,45077,1,0,0:0:0:0:
192,160,45239,1,8,0:0:0:0:
192,160,45401,1,0,0:0:0:0:
192,160,45563,1,8,0:0:0:0:
192,160,45726,1,0,0:0:0:0:
192,160,45888,1,8,0:0:0:0:
192,160,46050,1,0,0:0:0:0:
192,160,46212,1,8,0:0:0:0:
192,160,46374,1,0,0:0:0:0:
192,160,46536,1,8,0:0:0:0:
192,160,46699,1,0,0:0:0:0:
192,160,46861,1,8,0:0:0:0:
192,160,47023,1,0,0:0:0:0:
192,160,47185,1,8,0:0:0:0:
192,160,47347,1,0,0:0:0:0:
192,160,47509,1,8,0:0:0:0:
192,160,47672,1,0,0:0:0:0:
192,160,47834,1,8,0:0:0:0:
192,160,47996,1,0,0:0:0:0:
192,160,48158,1,8,0:0:0:0:
192,160,48320,1,0,0:0:0:0:
192,160,48482,1,8,0:0:0:0:
192,160,48644,1,0,0:0:0:0:
192,160,48807,1,8,0:0:0:0:
192,160,48969,1,0,0:0:0:0:
192,160,49131,1,8,0:0:0:0:
192,160,49293,1,0,0:0:0:0:
192,160,49455,1,8,0:0:0:0:
192,160,49617,1,0,0:0:0:0:
192,160,49780,1,8,0:0:0:0:
192,160,49942,1,0,0:0:0:0:
192,160,50104,1,8,0:0:0:0:
192,160,50266,1,0,0:0:0:0:
192,160,50428,1,8,0:0:0:0:
192,160,50590,1,0,0:0:0:0:
192,160,50753,1,8,0:0:0:0:
192,160,50915,1,0,0:0:0:0:
192,160,51077,1,8,0:0:0:0:
192,160,51239,1,0,0:0:0:0:
192,160,51401,1,8,0:0:0:0:
192,160,51563,1,0,0:0:0:0:
192,160,51726,1,8,0:0:0:0:
192,160,51888,1,0,0:0:0:0:
192,160,52050,1,8,0:0:0:0:
192,160,52212,1,0,0:0:0:0:
192,160,52374,1,8,0:0:0:0:
192,160,52536,1,0,0:0:0:0:
192,160,52699,1,0,0:0:0:0:
192,160,52861,1,8,0:0:0:0:
192,160,53023,1,0,0:0:0:0:
192,160,53104,1,0,0:0:0:0:
192,160,53185,1,0,0:0:0:0:
192,160,53347,1,0,0:0:0:0:
192,160,53509,1,8,0:0:0:0:
192,160,53672,1,0,0:0:0:0:
192,160,53996,1,8,0:0:0:0:
192,160,54158,1,0,0:0:0:0:
192,160,54320,1,8,0:0:0:0:
192,160,54644,1,8,0:0:0:0:
192,160,54807,1,0,0:0:0:0:
192,160,54969,1,8,0:0:0:0:
192,160,55293,1,8,0:0:0:0:
192,160,55455,1,0,0:0:0:0:
192,160,55617,1,8,0:0:0:0:
192,160,55780,1,0,0:0:0:0:
192,160,55861,1,8,0:0:0:0:
192,160,56023,1,0,0:0:0:0:
192,160,56104,1,8,0:0:0:0:
192,160,56266,1,0,0:0:0:0:
192,160,56428,1,0,0:0:0:0:
192,160,56590,1,8,0:0:0:0:
192,160,56915,1,8,0:0:0:0:
192,160,57077,1,0,0:0:0:0:
192,160,57239,1,8,0:0:0:0:
192,160,57563,1,8,0:0:0:0:
192,160,57726,1,8,0:0:0:0:
192,160,57888,1,0,0:0:0:0:
192,160,58050,1,8,0:0:0:0:
192,160,58212,1,0,0:0:0:0:
192,160,58293,1,0,0:0:0:0:
192,160,58374,1,0,0:0:0:0:
192,160,58536,1,0,0:0:0:0:
192,160,58699,1,0,0:0:0:0:
192,160,58861,1,0,0:0:0:0:
192,160,59023,1,8,0:0:0:0:
192,160,59185,1,0,0:0:0:0:
192,160,59347,1,8,0:0:0:0:
192,160,59509,1,8,0:0:0:0:
192,160,59672,1,8,0:0:0:0:
192,160,59834,1,0,0:0:0:0:
192,160,59996,1,8,0:0:0:0:
192,160,60158,1,0,0:0:0:0:
192,160,60320,1,8,0:0:0:0:
192,160,60401,1,0,0:0:0:0:
192,160,60482,1,0,0:0:0:0:
192,160,60563,1,0,0:0:0:0:
192,160,60644,1,8,0:0:0:0:
192,160,60726,1,0,0:0:0:0:
192,160,60807,1,0,0:0:0:0:
192,160,60888,1,0,0:0:0:0:
192,160,60969,1,8,0:0:0:0:
192,160,61023,1,8,0:0:0:0:
192,160,61077,1,8,0:0:0:0:
192,160,61131,1,0,0:0:0:0:
192,160,61212,1,0,0:0:0:0:
192,160,61293,1,8,0:0:0:0:
192,160,61374,1,0,0:0:0:0:
192,160,61455,1,0,0:0:0:0:
192,160,61617,1,0,0:0:0:0:
192,160,61644,1,0,0:0:0:0:
192,160,61780,1,0,0:0:0:0:
192,160,61807,1,0,0:0:0:0:
192,160,61942,1,8,0:0:0:0:
192,160,62023,1,0,0:0:0:0:
192,160,62104,1,0,0:0:0:0:
192,160,62185,1,0,0:0:0:0:
192,160,62266,1,8,0:0:0:0:
192,160,62293,1,8,0:0:0:0:
192,160,62428,1,8,0:0:0:0:
192,160,62455,1,8,0:0:0:0:
192,160,62590,1,8,0:0:0:0:
192,160,62617,1,8,0:0:0:0:
192,160,62915,1,4,0:0:0:0:
192,160,63077,1,8,0:0:0:0:
192,160,63239,1,0,0:0:0:0:
192,160,63320,1,0,0:0:0:0:
192,160,63401,1,8,0:0:0:0:
192,160,63482,1,8,0:0:0:0:
192,160,63563,1,0,0:0:0:0:
192,160,63726,1,8,0:0:0:0:
192,160,63888,1,0,0:0:0:0:
192,160,63969,1,8,0:0:0:0:
192,160,64050,1,0,0:0:0:0:
192,160,64131,1,8,0:0:0:0:
192,160,64212,1,8,0:0:0:0:
192,160,64374,1,8,0:0:0:0:
192,160,64455,1,8,0:0:0:0:
192,160,64536,1,8,0:0:0:0:
192,160,64699,1,8,0:0:0:0:
192,160,64861,1,0,0:0:0:0:
192,160,65023,1,8,0:0:0:0:
192,160,65185,1,0,0:0:0:0:
192,160,65509,1,4,0:0:0:0:
192,160,65672,1,8,0:0:0:0:
192,160,65834,1,0,0:0:0:0:
192,160,65915,1,0,0:0:0:0:
192,160,65996,1,8,0:0:0:0:
192,160,66077,1,8,0:0:0:0:
192,160,66158,1,0,0:0:0:0:
192,160,66320,1,8,0:0:0:0:
192,160,66482,1,0,0:0:0:0:
192,160,66563,1,0,0:0:0:0:
192,160,66644,1,0,0:0:0:0:
192,160,66807,1,8,0:0:0:0:
192,160,66969,1,0,0:0:0:0:
192,160,67131,1,8,0:0:0:0:
192,160,67293,1,8,0:0:0:0:
192,160,67455,1,0,0:0:0:0:
192,160,67617,1,0,0:0:0:0:
192,160,67780,1,0,0:0:0:0:
192,160,68104,1,4,0:0:0:0:
192,160,68266,1,8,0:0:0:0:
192,160,68428,1,0,0:0:0:0:
192,160,68509,1,0,0:0:0:0:
192,160,68590,1,0,0:0:0:0:
192,160,68672,1,0,0:0:0:0:
192,160,68753,1,8,0:0:0:0:
192,160,68915,1,8,0:0:0:0:
192,160,69077,1,0,0:0:0:0:
192,160,69158,1,8,0:0:0:0:
192,160,69239,1,0,0:0:0:0:
192,160,69320,1,8,0:0:0:0:
192,160,69401,1,8,0:0:0:0:
192,160,69563,1,8,0:0:0:0:
192,160,69644,1,8,0:0:0:0:
192,160,69726,1,8,0:0:0:0:
192,160,69888,1,8,0:0:0:0:
192,160,70050,1,0,0:0:0:0:
192,160,70212,1,8,0:0:0:0:
192,160,70374,1,0,0:0:0:0:
192,160,70699,1,4,0:0:0:0:
192,160,70861,1,8,0:0:0:0:
192,160,71023,1,0,0:0:0:0:
192,160,71104,1,0,0:0:0:0:
192,160,71185,1,8,0:0:0:0:
192,160,71266,1,8,0:0:0:0:
192,160,71347,1,0,0:0:0:0:
192,160,71509,1,8,0:0:0:0:
192,160,71590,1,8,0:0:0:0:
192,160,71672,1,0,0:0:0:0:
192,160,71753,1,0,0:0:0:0:
192,160,71834,1,0,0:0:0:0:
192,160,71996,1,0,0:0:0:0:
192,160,72023,1,0,0:0:0:0:
192,160,72320,1,0,0:0:0:0:
192,160,72347,1,0,0:0:0:0:
192,160,72644,1,0,0:0:0:0:
192,160,72672,1,0,0:0:0:0:
192,160,72807,1,0,0:0:0:0:
192,160,72834,1,0,0:0:0:0:
192,160,72969,1,0,0:0:0:0:
192,160,72996,1,0,0:0:0:0:
192,160,73131,1,0,0:0:0:0:
192,160,73158,1,0,0:0:0:0:
192,160,73293,1,4,0:0:0:0:
192,160,73455,1,8,0:0:0:0:
192,160,73617,1,0,0:0:0:0:
192,160,73699,1,0,0:0:0:0:
192,160,73780,1,8,0:0:0:0:
192,160,73861,1,8,0:0:0:0:
192,160,73942,1,0,0:0:0:0:
192,160,74104,1,8,0:0:0:0:
192,160,74266,1,0,0:0:0:0:
192,160,74347,1,8,0:0:0:0:
192,160,74428,1,0,0:0:0:0:
192,160,74509,1,8,0:0:0:0:
192,160,74590,1,8,0:0:0:0:
192,160,74753,1,8,0:0:0:0:
192,160,74834,1,8,0:0:0:0:
192,160,74915,1,8,0:0:0:0:
192,160,75077,1,8,0:0:0:0:
192,160,75239,1,0,0:0:0:0:
192,160,75401,1,8,0:0:0:0:
192,160,75563,1,0,0:0:0:0:
192,160,75888,1,4,0:0:0:0:
192,160,76050,1,8,0:0:0:0:
192,160,76212,1,0,0:0:0:0:
192,160,76293,1,0,0:0:0:0:
192,160,76374,1,8,0:0:0:0:
192,160,76455,1,8,0:0:0:0:
192,160,76536,1,0,0:0:0:0:
192,160,76699,1,8,0:0:0:0:
192,160,76861,1,0,0:0:0:0:
192,160,76942,1,0,0:0:0:0:
192,160,77023,1,0,0:0:0:0:
192,160,77185,1,8,0:0:0:0:
192,160,77347,1,0,0:0:0:0:
192,160,77509,1,8,0:0:0:0:
192,160,77672,1,8,0:0:0:0:
192,160,77834,1,0,0:0:0:0:
192,160,77996,1,0,0:0:0:0:
192,160,78158,1,0,0:0:0:0:
192,160,78482,1,4,0:0:0:0:
192,160,78644,1,8,0:0:0:0:
192,160,78807,1,0,0:0:0:0:
192,160,78888,1,0,0:0:0:0:
192,160,78969,1,0,0:0:0:0:
192,160,79050,1,0,0:0:0:0:
192,160,79131,1,8,0:0:0:0:
192,160,79293,1,8,0:0:0:0:
192,160,79455,1,0,0:0:0:0:
192,160,79536,1,8,0:0:0:0:
192,160,79617,1,0,0:0:0:0:
192,160,79699,1,8,0:0:0:0:
192,160,79780,1,8,0:0:0:0:
192,160,79942,1,8,0:0:0:0:
192,160,80023,1,8,0:0:0:0:
192,160,80104,1,8,0:0:0:0:
192,160,80266,1,8,0:0:0:0:
192,160,80428,1,8,0:0:0:0:
192,160,80590,1,8,0:0:0:0:
192,160,80753,1,0,0:0:0:0:
192,160,81077,1,4,0:0:0:0:
192,160,81239,1,0,0:0:0:0:
192,160,81401,1,8,0:0:0:0:
192,160,81482,1,8,0:0:0:0:
192,160,81563,1,8,0:0:0:0:
192,160,81644,1,8,0:0:0:0:
192,160,81726,1,8,0:0:0:0:
192,160,81888,1,8,0:0:0:0:
192,160,81969,1,8,0:0:0:0:
192,160,82050,1,0,0:0:0:0:
192,160,82131,1,0,0:0:0:0:
192,160,82212,1,0,0:0:0:0:
192,160,82374,1,0,0:0:0:0:
192,160,82401,1,0,0:0:0:0:
192,160,82699,1,0,0:0:0:0:
192,160,82726,1,0,0:0:0:0:
192,160,83023,1,8,0:0:0:0:
192,160,83050,1,8,0:0:0:0:
192,160,83185,1,8,0:0:0:0:
192,160,83212,1,8,0:0:0:0:
192,160,83347,1,8,0:0:0:0:
192,160,83374,1,8,0:0:0:0:
192,160,83672,1,8,0:0:0:0:
192,160,83915,1,0,0:0:0:0:
192,160,83996,1,8,0:0:0:0:
192,160,84158,1,0,0:0:0:0:
192,160,84320,1,8,0:0:0:0:
192,160,84401,1,8,0:0:0:0:
192,160,84482,1,0,0:0:0:0:
192,160,84644,1,8,0:0:0:0:
192,160,84726,1,0,0:0:0:0:
192,160,84807,1,0,0:0:0:0:
192,160,84969,1,0,0:0:0:0:
192,160,85131,1,0,0:0:0:0:
192,160,85293,1,8,0:0:0:0:
192,160,85374,1,0,0:0:0:0:
192,160,85455,1,0,0:0:0:0:
192,160,85617,1,0,0:0:0:0:
192,160,85780,1,8,0:0:0:0:
192,160,85942,1,0,0:0:0:0:
192,160,86266,1,4,0:0:0:0:
192,160,86428,1,0,0:0:0:0:
192,160,86509,1,8,0:0:0:0:
192,160,86590,1,8,0:0:0:0:
192,160,86753,1,0,0:0:0:0:
192,160,86915,1,8,0:0:0:0:
192,160,87077,1,8,0:0:0:0:
192,160,87239,1,8,0:0:0:0:
192,160,87401,1,0,0:0:0:0:
192,160,87563,1,8,0:0:0:0:
192,160,87726,1,8,0:0:0:0:
192,160,87780,1,8,0:0:0:0:
192,160,87834,1,8,0:0:0:0:
192,160,87888,1,0,0:0:0:0:
192,160,87969,1,8,0:0:0:0:
192,160,88131,1,8,0:0:0:0:
192,160,88212,1,8,0:0:0:0:
192,160,88374,1,0,0:0:0:0:
192,160,88536,1,0,0:0:0:0:
192,160,88861,1,0,0:0:0:0:
192,160,89023,1,0,0:0:0:0:
192,160,89185,1,8,0:0:0:0:
192,160,89347,1,8,0:0:0:0:
192,160,89509,1,0,0:0:0:0:
192,160,89672,1,0,0:0:0:0:
192,160,89834,1,0,0:0:0:0:
192,160,89996,1,8,0:0:0:0:
192,160,90158,1,0,0:0:0:0:
192,160,90320,1,0,0:0:0:0:
192,160,90482,1,8,0:0:0:0:
192,160,90644,1,8,0:0:0:0:
192,160,90807,1,0,0:0:0:0:
192,160,90969,1,8,0:0:0:0:
192,160,91131,1,0,0:0:0:0:
192,160,91455,1,8,0:0:0:0:
192,160,91617,1,0,0:0:0:0:
192,160,91780,1,8,0:0:0:0:
192,160,91942,1,8,0:0:0:0:
192,160,92104,1,8,0:0:0:0:
192,160,92266,1,0,0:0:0:0:
192,160,92428,1,8,0:0:0:0:
192,160,92590,1,0,0:0:0:0:
192,160,92753,1,0,0:0:0:0:
192,160,93077,1,8,0:0:0:0:
192,160,93401,1,8,0:0:0:0:
192,160,93482,1,8,0:0:0:0:
192,160,93563,1,8,0:0:0:0:
192,160,93644,1,8,0:0:0:0:
192,160,93726,1,0,0:0:0:0:
