osu file format v14

[General]
AudioFilename: audio.mp3
AudioLeadIn: 0
PreviewTime: 61597
Countdown: 0
SampleSet: Normal
StackLeniency: 0.7
Mode: 1
LetterboxInBreaks: 0
WidescreenStoryboard: 1

[Editor]
Bookmarks: 1273,5489,11003,16192,21381,31760,42138,52516,61780,62590,70516,86084
DistanceSpacing: 1
BeatDivisor: 4
GridSize: 32
TimelineZoom: 4.300003

[Metadata]
Title:TSLove
TitleUnicode:TSLove
Artist:O2i3
ArtistUnicode:O2i3
Creator:[_Chichinya_]
Version:iControLove
Source:
Tags:Melanie Friggy-chan kqrth DDM Hi_Hello 404 AccNotFound FlamingRok Dargin Cyoris210 BlackWolf159 Yuno Taikocracy Prancer agu gamerock Nifty Lno Nepuri Raphalge frukoyurdakul Cyssel Unmei Muma Q____X Vulkin JessiChan iContol Chocola_2287 AezLack _yu68 zigizigiefe Grimbow
BeatmapID:1170857
BeatmapSetID:549370

[Difficulty]
HPDrainRate:7
CircleSize:4
OverallDifficulty:6
ApproachRate:9
SliderMultiplier:1.5042328936501
SliderTickRate:1

[Events]
//Background and Video events
0,0,"672901.jpg",0,0
//Break Periods
//Storyboard Layer 0 (Background)
//Storyboard Layer 1 (Fail)
//Storyboard Layer 2 (Pass)
//Storyboard Layer 3 (Foreground)
//Storyboard Sound Samples

[TimingPoints]
645,324.324324324324,4,1,0,100,1,0
10942,-105.263157894737,4,1,0,100,0,0
11185,-117.647058823529,4,1,0,100,0,0
11509,-125,4,1,0,100,0,0
16131,-100,4,1,0,100,0,0
18726,-98.0392156862745,4,1,0,100,0,0
21401,-83.3333333333333,4,1,0,100,0,1
23672,-98.0392156862745,4,1,0,100,0,0
23996,-83.3333333333333,4,1,0,100,0,1
26104,-86.9565217391304,4,1,0,100,0,0
26590,-83.3333333333333,4,1,0,100,0,1
28861,-98.0392156862745,4,1,0,100,0,0
29185,-83.3333333333333,4,1,0,100,0,1
31131,-81.9672131147541,4,1,0,100,0,1
31293,-80.6451612903226,4,1,0,100,0,1
31455,-78.125,4,1,0,100,0,1
31617,-73.5294117647059,4,1,0,100,0,1
31780,-76.9230769230769,4,1,0,100,0,1
34050,-98.0392156862745,4,1,0,100,0,0
34374,-76.9230769230769,4,1,0,100,0,1
36482,-80,4,1,0,100,0,0
36969,-76.9230769230769,4,1,0,100,0,1
39239,-98.0392156862745,4,1,0,100,0,0
39563,-76.9230769230769,4,1,0,100,0,1
41834,-62.5,4,1,0,100,0,1
42158,-98.0392156862745,4,1,0,100,0,0
47023,-96.1538461538461,4,1,0,100,0,0
49942,-94.3396226415094,4,1,0,100,0,0
52536,-100,4,1,0,100,0,0
57726,-90.9090909090909,4,1,0,100,0,0
60320,-89.2857142857143,4,1,0,100,0,0
61699,-94.3396226415094,4,1,0,100,0,0
62347,-100,4,1,0,100,0,0
62915,-83.3333333333333,4,1,0,100,0,1
65185,-98.0392156862745,4,1,0,100,0,0
65509,-83.3333333333333,4,1,0,100,0,1
67617,-86.9565217391304,4,1,0,100,0,0
68104,-83.3333333333333,4,1,0,100,0,1
70374,-98.0392156862745,4,1,0,100,0,0
70699,-83.3333333333333,4,1,0,100,0,1
72644,-81.9672131147541,4,1,0,100,0,1
72807,-80.6451612903226,4,1,0,100,0,1
72969,-78.125,4,1,0,100,0,1
73131,-73.5294117647059,4,1,0,100,0,1
73293,-76.9230769230769,4,1,0,100,0,1
75563,-98.0392156862745,4,1,0,100,0,0
75888,-76.9230769230769,4,1,0,100,0,1
77996,-80,4,1,0,100,0,0
78482,-76.9230769230769,4,1,0,100,0,1
80753,-98.0392156862745,4,1,0,100,0,0
81077,-76.9230769230769,4,1,0,100,0,1
82942,-80,4,1,0,100,0,0
83428,-83.3333333333333,4,1,0,100,0,0
85942,-98.0392156862745,4,1,0,100,0,0
86266,-83.3333333333333,4,1,0,100,0,0
88536,-86.9565217391304,4,1,0,100,0,0
89023,-83.3333333333333,4,1,0,100,0,0
91131,-100,4,1,0,100,0,0
91455,-83.3333333333333,4,1,0,100,0,0

[HitObjects]
256,192,645,5,0,0:0:0:0:
256,192,1780,1,8,0:0:0:0:
256,192,1942,1,0,0:0:0:0:
256,192,3239,1,8,0:0:0:0:
256,192,4374,1,8,0:0:0:0:
256,192,4536,1,0,0:0:0:0:
256,192,5185,1,0,0:0:0:0:
256,192,5509,1,8,0:0:0:0:
256,192,5672,1,0,0:0:0:0:
256,192,5753,1,8,0:0:0:0:
256,192,5834,1,0,0:0:0:0:
256,192,6969,1,8,0:0:0:0:
256,192,7131,1,0,0:0:0:0:
256,192,8428,1,8,0:0:0:0:
256,192,9563,1,8,0:0:0:0:
256,192,9726,1,0,0:0:0:0:
256,192,10374,1,0,0:0:0:0:
256,192,10617,1,0,0:0:0:0:
256,192,10699,1,8,0:0:0:0:
256,192,10861,1,0,0:0:0:0:
256,192,11023,1,0,0:0:0:0:
256,192,11347,1,8,0:0:0:0:
256,192,11590,1,8,0:0:0:0:
256,192,11672,1,0,0:0:0:0:
256,192,11996,1,8,0:0:0:0:
256,192,12320,1,0,0:0:0:0:
256,192,12644,1,8,0:0:0:0:
256,192,12888,1,8,0:0:0:0:
256,192,12969,1,0,0:0:0:0:
256,192,13293,1,8,0:0:0:0:
256,192,13455,1,0,0:0:0:0:
256,192,13617,1,0,0:0:0:0:
256,192,13942,1,8,0:0:0:0:
256,192,14185,1,8,0:0:0:0:
256,192,14266,1,0,0:0:0:0:
256,192,14590,1,8,0:0:0:0:
256,192,14915,1,0,0:0:0:0:
256,192,15239,1,8,0:0:0:0:
256,192,15482,1,8,0:0:0:0:
256,192,15563,1,0,0:0:0:0:
256,192,15726,1,0,0:0:0:0:
256,192,15807,1,0,0:0:0:0:
256,192,15888,1,8,0:0:0:0:
256,192,16050,1,0,0:0:0:0:
256,192,16212,1,8,0:0:0:0:
256,192,16374,1,0,0:0:0:0:
256,192,16536,1,0,0:0:0:0:
256,192,16699,1,0,0:0:0:0:
256,192,16861,1,0,0:0:0:0:
256,192,17023,1,8,0:0:0:0:
256,192,17185,1,0,0:0:0:0:
256,192,17347,1,8,0:0:0:0:
256,192,17509,1,8,0:0:0:0:
256,192,17672,1,8,0:0:0:0:
256,192,17834,1,8,0:0:0:0:
256,192,17996,1,8,0:0:0:0:
256,192,18158,1,0,0:0:0:0:
256,192,18320,1,8,0:0:0:0:
256,192,18482,1,8,0:0:0:0:
256,192,18644,1,0,0:0:0:0:
256,192,18807,1,8,0:0:0:0:
256,192,18888,1,0,0:0:0:0:
256,192,18969,1,8,0:0:0:0:
256,192,19050,1,8,0:0:0:0:
256,192,19131,1,0,0:0:0:0:
256,192,19212,1,0,0:0:0:0:
256,192,19293,1,8,0:0:0:0:
256,192,19374,1,8,0:0:0:0:
256,192,19455,1,0,0:0:0:0:
256,192,19509,1,8,0:0:0:0:
256,192,19563,1,8,0:0:0:0:
256,192,19617,1,0,0:0:0:0:
256,192,19699,1,0,0:0:0:0:
256,192,19780,1,8,0:0:0:0:
256,192,19861,1,0,0:0:0:0:
256,192,19942,1,8,0:0:0:0:
256,192,20023,1,8,0:0:0:0:
256,192,20104,1,0,0:0:0:0:
256,192,20185,1,0,0:0:0:0:
256,192,20266,1,8,0:0:0:0:
256,192,20347,1,8,0:0:0:0:
256,192,20428,1,0,0:0:0:0:
256,192,20509,1,0,0:0:0:0:
256,192,20590,1,8,0:0:0:0:
256,192,20672,1,8,0:0:0:0:
256,192,20753,1,0,0:0:0:0:
256,192,20834,1,0,0:0:0:0:
256,192,20915,1,0,0:0:0:0:
256,192,20996,1,0,0:0:0:0:
256,192,21077,1,0,0:0:0:0:
256,192,21158,1,0,0:0:0:0:
256,192,21239,1,0,0:0:0:0:
256,192,21320,1,0,0:0:0:0:
256,192,21401,1,12,0:0:0:0:
256,192,21563,1,8,0:0:0:0:
256,192,21644,1,8,0:0:0:0:
256,192,21726,1,0,0:0:0:0:
256,192,21888,1,0,0:0:0:0:
256,192,21969,1,0,0:0:0:0:
256,192,22050,1,8,0:0:0:0:
256,192,22212,1,8,0:0:0:0:
256,192,22374,1,8,0:0:0:0:
256,192,22455,1,0,0:0:0:0:
256,192,22536,1,8,0:0:0:0:
256,192,22617,1,8,0:0:0:0:
256,192,22699,1,0,0:0:0:0:
256,192,22861,1,8,0:0:0:0:
256,192,22942,1,8,0:0:0:0:
256,192,23023,1,0,0:0:0:0:
256,192,23185,1,8,0:0:0:0:
256,192,23347,1,0,0:0:0:0:
256,192,23428,1,0,0:0:0:0:
256,192,23509,1,8,0:0:0:0:
256,192,23672,1,0,0:0:0:0:
256,192,23996,5,4,0:0:0:0:
256,192,24158,1,8,0:0:0:0:
256,192,24320,1,0,0:0:0:0:
256,192,24401,1,0,0:0:0:0:
256,192,24482,1,8,0:0:0:0:
256,192,24563,1,0,0:0:0:0:
256,192,24644,1,8,0:0:0:0:
256,192,24726,1,8,0:0:0:0:
256,192,24807,1,0,0:0:0:0:
256,192,24888,1,0,0:0:0:0:
256,192,24969,1,8,0:0:0:0:
256,192,25131,1,0,0:0:0:0:
256,192,25212,1,0,0:0:0:0:
256,192,25293,1,8,0:0:0:0:
256,192,25455,1,8,0:0:0:0:
256,192,25536,1,8,0:0:0:0:
256,192,25617,1,0,0:0:0:0:
256,192,25780,1,8,0:0:0:0:
256,192,25942,1,0,0:0:0:0:
256,192,26023,1,8,0:0:0:0:
256,192,26104,1,0,0:0:0:0:
256,192,26266,1,0,0:0:0:0:
256,192,26590,5,12,0:0:0:0:
256,192,26753,1,8,0:0:0:0:
256,192,26834,1,8,0:0:0:0:
256,192,26916,1,0,0:0:0:0:
256,192,27078,1,0,0:0:0:0:
256,192,27159,1,0,0:0:0:0:
256,192,27240,1,8,0:0:0:0:
256,192,27402,1,8,0:0:0:0:
256,192,27564,1,8,0:0:0:0:
256,192,27645,1,0,0:0:0:0:
256,192,27726,1,8,0:0:0:0:
256,192,27807,1,8,0:0:0:0:
256,192,27889,1,0,0:0:0:0:
256,192,28050,1,0,0:0:0:0:
256,192,28132,1,8,0:0:0:0:
256,192,28213,1,0,0:0:0:0:
256,192,28375,1,8,0:0:0:0:
256,192,28537,1,0,0:0:0:0:
256,192,28617,1,0,0:0:0:0:
256,192,28699,1,8,0:0:0:0:
256,192,28862,1,0,0:0:0:0:
256,192,29185,5,4,0:0:0:0:
256,192,29347,1,0,0:0:0:0:
256,192,29509,1,8,0:0:0:0:
256,192,29590,1,0,0:0:0:0:
256,192,29671,1,8,0:0:0:0:
256,192,29752,1,8,0:0:0:0:
256,192,29834,1,8,0:0:0:0:
256,192,29996,1,0,0:0:0:0:
256,192,30077,1,0,0:0:0:0:
256,192,30158,1,8,0:0:0:0:
256,192,30320,1,0,0:0:0:0:
256,192,30482,1,8,0:0:0:0:
256,192,30644,1,8,0:0:0:0:
256,192,30726,1,0,0:0:0:0:
256,192,30807,1,8,0:0:0:0:
256,192,30888,1,0,0:0:0:0:
256,192,30969,1,0,0:0:0:0:
256,192,31131,1,8,0:0:0:0:
256,192,31293,1,8,0:0:0:0:
256,192,31455,1,8,0:0:0:0:
256,192,31617,1,8,0:0:0:0:
256,192,31780,5,12,0:0:0:0:
256,192,31942,1,8,0:0:0:0:
256,192,32023,1,8,0:0:0:0:
256,192,32105,1,0,0:0:0:0:
256,192,32267,1,0,0:0:0:0:
256,192,32348,1,0,0:0:0:0:
256,192,32429,1,8,0:0:0:0:
256,192,32591,1,8,0:0:0:0:
256,192,32753,1,8,0:0:0:0:
256,192,32834,1,0,0:0:0:0:
256,192,32915,1,8,0:0:0:0:
256,192,32996,1,8,0:0:0:0:
256,192,33078,1,0,0:0:0:0:
256,192,33239,1,8,0:0:0:0:
256,192,33321,1,8,0:0:0:0:
256,192,33402,1,0,0:0:0:0:
256,192,33564,1,8,0:0:0:0:
256,192,33726,1,0,0:0:0:0:
256,192,33807,1,0,0:0:0:0:
256,192,33888,1,8,0:0:0:0:
256,192,34051,1,0,0:0:0:0:
256,192,34374,5,4,0:0:0:0:
256,192,34536,1,8,0:0:0:0:
256,192,34698,1,0,0:0:0:0:
256,192,34779,1,0,0:0:0:0:
256,192,34860,1,8,0:0:0:0:
256,192,34941,1,0,0:0:0:0:
256,192,35022,1,8,0:0:0:0:
256,192,35185,1,0,0:0:0:0:
256,192,35266,1,0,0:0:0:0:
256,192,35347,1,8,0:0:0:0:
256,192,35509,1,0,0:0:0:0:
256,192,35590,1,0,0:0:0:0:
256,192,35671,1,8,0:0:0:0:
256,192,35833,1,8,0:0:0:0:
256,192,35914,1,8,0:0:0:0:
256,192,35995,1,0,0:0:0:0:
256,192,36158,1,8,0:0:0:0:
256,192,36320,1,0,0:0:0:0:
256,192,36401,1,8,0:0:0:0:
256,192,36482,1,0,0:0:0:0:
256,192,36644,1,0,0:0:0:0:
256,192,36968,5,12,0:0:0:0:
256,192,37131,1,8,0:0:0:0:
256,192,37212,1,8,0:0:0:0:
256,192,37294,1,0,0:0:0:0:
256,192,37456,1,0,0:0:0:0:
256,192,37537,1,0,0:0:0:0:
256,192,37618,1,8,0:0:0:0:
256,192,37780,1,8,0:0:0:0:
256,192,37942,1,8,0:0:0:0:
256,192,38023,1,0,0:0:0:0:
256,192,38104,1,8,0:0:0:0:
256,192,38185,1,8,0:0:0:0:
256,192,38267,1,0,0:0:0:0:
256,192,38429,1,0,0:0:0:0:
256,192,38510,1,8,0:0:0:0:
256,192,38591,1,0,0:0:0:0:
256,192,38753,1,8,0:0:0:0:
256,192,38915,1,0,0:0:0:0:
256,192,38996,1,0,0:0:0:0:
256,192,39077,1,8,0:0:0:0:
256,192,39240,1,0,0:0:0:0:
256,192,39563,5,4,0:0:0:0:
256,192,39725,1,0,0:0:0:0:
256,192,39887,1,8,0:0:0:0:
256,192,39969,1,0,0:0:0:0:
256,192,40049,1,8,0:0:0:0:
256,192,40130,1,8,0:0:0:0:
256,192,40211,1,0,0:0:0:0:
256,192,40293,1,8,0:0:0:0:
256,192,40374,1,0,0:0:0:0:
256,192,40455,1,0,0:0:0:0:
256,192,40536,1,8,0:0:0:0:
256,192,40698,1,0,0:0:0:0:
256,192,40780,1,0,0:0:0:0:
256,192,40861,1,8,0:0:0:0:
256,192,41023,1,0,0:0:0:0:
256,192,41104,1,8,0:0:0:0:
256,192,41185,1,0,0:0:0:0:
256,192,41266,1,0,0:0:0:0:
256,192,41347,1,0,0:0:0:0:
256,192,41509,1,0,0:0:0:0:
256,192,41834,1,0,0:0:0:0:
256,192,42158,5,12,0:0:0:0:
256,192,42320,1,0,0:0:0:0:
256,192,42482,1,0,0:0:0:0:
256,192,42644,1,8,0:0:0:0:
256,192,42807,1,0,0:0:0:0:
256,192,42969,1,0,0:0:0:0:
256,192,43131,1,0,0:0:0:0:
256,192,43293,1,8,0:0:0:0:
256,192,43455,1,8,0:0:0:0:
256,192,43617,1,0,0:0:0:0:
256,192,43780,1,8,0:0:0:0:
256,192,43942,1,0,0:0:0:0:
256,192,44104,1,0,0:0:0:0:
256,192,44266,1,8,0:0:0:0:
256,192,44428,1,8,0:0:0:0:
256,192,44590,1,8,0:0:0:0:
256,192,44753,1,0,0:0:0:0:
256,192,44915,1,0,0:0:0:0:
256,192,45077,1,0,0:0:0:0:
256,192,45239,1,0,0:0:0:0:
256,192,45401,1,0,0:0:0:0:
256,192,45563,1,0,0:0:0:0:
256,192,45726,1,0,0:0:0:0:
256,192,45888,1,8,0:0:0:0:
256,192,46050,1,8,0:0:0:0:
256,192,46212,1,8,0:0:0:0:
256,192,46374,1,8,0:0:0:0:
256,192,46536,1,8,0:0:0:0:
256,192,46699,1,0,0:0:0:0:
256,192,46861,1,0,0:0:0:0:
256,192,47023,1,8,0:0:0:0:
256,192,47185,1,0,0:0:0:0:
256,192,47347,1,0,0:0:0:0:
256,192,47509,1,0,0:0:0:0:
256,192,47672,1,0,0:0:0:0:
256,192,47834,1,0,0:0:0:0:
256,192,47996,1,0,0:0:0:0:
256,192,48158,1,0,0:0:0:0:
256,192,48320,1,0,0:0:0:0:
256,192,48482,1,8,0:0:0:0:
256,192,48644,1,8,0:0:0:0:
256,192,48807,1,8,0:0:0:0:
256,192,48969,1,0,0:0:0:0:
256,192,49131,1,8,0:0:0:0:
256,192,49293,1,8,0:0:0:0:
256,192,49455,1,8,0:0:0:0:
256,192,49617,1,0,0:0:0:0:
256,192,49780,1,8,0:0:0:0:
256,192,49942,1,0,0:0:0:0:
256,192,50104,1,0,0:0:0:0:
256,192,50266,1,0,0:0:0:0:
256,192,50428,1,0,0:0:0:0:
256,192,50590,1,0,0:0:0:0:
256,192,50753,1,0,0:0:0:0:
256,192,50915,1,0,0:0:0:0:
256,192,51077,1,8,0:0:0:0:
256,192,51239,1,8,0:0:0:0:
256,192,51401,1,0,0:0:0:0:
256,192,51563,1,8,0:0:0:0:
256,192,51726,1,8,0:0:0:0:
256,192,51888,1,0,0:0:0:0:
256,192,52050,1,8,0:0:0:0:
256,192,52212,1,0,0:0:0:0:
256,192,52374,1,0,0:0:0:0:
256,192,52536,5,0,0:0:0:0:
256,192,52699,1,8,0:0:0:0:
256,192,52861,1,0,0:0:0:0:
256,192,53023,1,8,0:0:0:0:
256,192,53104,1,8,0:0:0:0:
256,192,53185,1,0,0:0:0:0:
256,192,53347,1,8,0:0:0:0:
256,192,53509,1,0,0:0:0:0:
256,192,53590,1,0,0:0:0:0:
256,192,53672,1,8,0:0:0:0:
256,192,53834,1,0,0:0:0:0:
256,192,53996,1,8,0:0:0:0:
256,192,54158,1,0,0:0:0:0:
256,192,54239,1,0,0:0:0:0:
256,192,54320,1,8,0:0:0:0:
256,192,54482,1,0,0:0:0:0:
256,192,54644,1,8,0:0:0:0:
256,192,54807,1,0,0:0:0:0:
256,192,54969,1,8,0:0:0:0:
256,192,55050,1,8,0:0:0:0:
256,192,55131,1,0,0:0:0:0:
256,192,55293,1,0,0:0:0:0:
256,192,55374,1,0,0:0:0:0:
256,192,55455,1,8,0:0:0:0:
256,192,55617,1,8,0:0:0:0:
256,192,55780,1,8,0:0:0:0:
256,192,55861,1,0,0:0:0:0:
256,192,55942,1,8,0:0:0:0:
256,192,56023,1,8,0:0:0:0:
256,192,56104,1,0,0:0:0:0:
256,192,56266,1,0,0:0:0:0:
256,192,56428,1,8,0:0:0:0:
256,192,56590,1,8,0:0:0:0:
256,192,56672,1,0,0:0:0:0:
256,192,56753,1,8,0:0:0:0:
256,192,56834,1,8,0:0:0:0:
256,192,56915,1,0,0:0:0:0:
256,192,57077,1,8,0:0:0:0:
256,192,57158,1,0,0:0:0:0:
256,192,57239,1,8,0:0:0:0:
256,192,57401,1,8,0:0:0:0:
256,192,57563,1,8,0:0:0:0:
256,192,57726,1,0,0:0:0:0:
256,192,57888,1,8,0:0:0:0:
256,192,58050,1,0,0:0:0:0:
256,192,58212,1,8,0:0:0:0:
256,192,58293,1,8,0:0:0:0:
256,192,58374,1,0,0:0:0:0:
256,192,58536,1,8,0:0:0:0:
256,192,58698,1,0,0:0:0:0:
256,192,58779,1,0,0:0:0:0:
256,192,58861,1,8,0:0:0:0:
256,192,59023,1,0,0:0:0:0:
256,192,59185,1,8,0:0:0:0:
256,192,59347,1,0,0:0:0:0:
256,192,59428,1,0,0:0:0:0:
256,192,59509,1,8,0:0:0:0:
256,192,59671,1,0,0:0:0:0:
256,192,59833,1,8,0:0:0:0:
256,192,59996,1,0,0:0:0:0:
256,192,60158,1,8,0:0:0:0:
256,192,60239,1,8,0:0:0:0:
256,192,60320,1,0,0:0:0:0:
256,192,60401,1,0,0:0:0:0:
256,192,60482,1,8,0:0:0:0:
256,192,60563,1,8,0:0:0:0:
256,192,60644,1,0,0:0:0:0:
256,192,60725,1,0,0:0:0:0:
256,192,60806,1,8,0:0:0:0:
256,192,60887,1,8,0:0:0:0:
256,192,60969,1,8,0:0:0:0:
256,192,61022,1,8,0:0:0:0:
256,192,61076,1,8,0:0:0:0:
256,192,61130,1,0,0:0:0:0:
256,192,61212,1,0,0:0:0:0:
256,192,61293,1,8,0:0:0:0:
256,192,61374,1,0,0:0:0:0:
256,192,61455,1,8,0:0:0:0:
256,192,61536,1,8,0:0:0:0:
256,192,61617,1,0,0:0:0:0:
256,192,61780,1,0,0:0:0:0:
256,192,61942,1,0,0:0:0:0:
256,192,62023,1,8,0:0:0:0:
256,192,62104,1,0,0:0:0:0:
256,192,62158,1,0,0:0:0:0:
256,192,62212,1,0,0:0:0:0:
256,192,62266,1,8,0:0:0:0:
256,192,62428,1,8,0:0:0:0:
256,192,62590,1,0,0:0:0:0:
256,192,62915,5,12,0:0:0:0:
256,192,63077,1,8,0:0:0:0:
256,192,63158,1,8,0:0:0:0:
256,192,63240,1,0,0:0:0:0:
256,192,63402,1,0,0:0:0:0:
256,192,63483,1,0,0:0:0:0:
256,192,63564,1,8,0:0:0:0:
256,192,63726,1,8,0:0:0:0:
256,192,63888,1,8,0:0:0:0:
256,192,63969,1,0,0:0:0:0:
256,192,64050,1,8,0:0:0:0:
256,192,64131,1,8,0:0:0:0:
256,192,64213,1,0,0:0:0:0:
256,192,64375,1,8,0:0:0:0:
256,192,64456,1,8,0:0:0:0:
256,192,64537,1,0,0:0:0:0:
256,192,64699,1,8,0:0:0:0:
256,192,64861,1,0,0:0:0:0:
256,192,64942,1,0,0:0:0:0:
256,192,65023,1,8,0:0:0:0:
256,192,65186,1,0,0:0:0:0:
256,192,65510,5,4,0:0:0:0:
256,192,65672,1,8,0:0:0:0:
256,192,65834,1,0,0:0:0:0:
256,192,65915,1,0,0:0:0:0:
256,192,65996,1,8,0:0:0:0:
256,192,66077,1,0,0:0:0:0:
256,192,66158,1,8,0:0:0:0:
256,192,66240,1,8,0:0:0:0:
256,192,66321,1,0,0:0:0:0:
256,192,66402,1,0,0:0:0:0:
256,192,66483,1,8,0:0:0:0:
256,192,66645,1,0,0:0:0:0:
256,192,66726,1,0,0:0:0:0:
256,192,66807,1,8,0:0:0:0:
256,192,66969,1,8,0:0:0:0:
256,192,67050,1,8,0:0:0:0:
256,192,67131,1,0,0:0:0:0:
256,192,67294,1,8,0:0:0:0:
256,192,67456,1,0,0:0:0:0:
256,192,67537,1,8,0:0:0:0:
256,192,67618,1,0,0:0:0:0:
256,192,67780,1,0,0:0:0:0:
256,192,68104,5,12,0:0:0:0:
256,192,68267,1,8,0:0:0:0:
256,192,68348,1,8,0:0:0:0:
256,192,68428,1,0,0:0:0:0:
256,192,68590,1,0,0:0:0:0:
256,192,68673,1,0,0:0:0:0:
256,192,68754,1,8,0:0:0:0:
256,192,68916,1,8,0:0:0:0:
256,192,69078,1,8,0:0:0:0:
256,192,69159,1,0,0:0:0:0:
256,192,69240,1,8,0:0:0:0:
256,192,69321,1,8,0:0:0:0:
256,192,69401,1,0,0:0:0:0:
256,192,69564,1,0,0:0:0:0:
256,192,69644,1,8,0:0:0:0:
256,192,69727,1,0,0:0:0:0:
256,192,69889,1,8,0:0:0:0:
256,192,70051,1,0,0:0:0:0:
256,192,70131,1,0,0:0:0:0:
256,192,70213,1,8,0:0:0:0:
256,192,70374,1,0,0:0:0:0:
256,192,70699,5,4,0:0:0:0:
256,192,70861,1,0,0:0:0:0:
256,192,71023,1,8,0:0:0:0:
256,192,71104,1,0,0:0:0:0:
256,192,71185,1,8,0:0:0:0:
256,192,71266,1,8,0:0:0:0:
256,192,71348,1,8,0:0:0:0:
256,192,71510,1,0,0:0:0:0:
256,192,71591,1,0,0:0:0:0:
256,192,71672,1,8,0:0:0:0:
256,192,71834,1,0,0:0:0:0:
256,192,71996,1,8,0:0:0:0:
256,192,72158,1,8,0:0:0:0:
256,192,72240,1,0,0:0:0:0:
256,192,72321,1,8,0:0:0:0:
256,192,72402,1,0,0:0:0:0:
256,192,72483,1,0,0:0:0:0:
256,192,72645,1,8,0:0:0:0:
256,192,72807,1,8,0:0:0:0:
256,192,72969,1,8,0:0:0:0:
256,192,73131,1,8,0:0:0:0:
256,192,73294,5,12,0:0:0:0:
256,192,73456,1,8,0:0:0:0:
256,192,73537,1,8,0:0:0:0:
256,192,73617,1,0,0:0:0:0:
256,192,73781,1,0,0:0:0:0:
256,192,73862,1,0,0:0:0:0:
256,192,73943,1,8,0:0:0:0:
256,192,74105,1,8,0:0:0:0:
256,192,74267,1,8,0:0:0:0:
256,192,74348,1,0,0:0:0:0:
256,192,74429,1,8,0:0:0:0:
256,192,74510,1,8,0:0:0:0:
256,192,74590,1,0,0:0:0:0:
256,192,74753,1,8,0:0:0:0:
256,192,74835,1,8,0:0:0:0:
256,192,74916,1,0,0:0:0:0:
256,192,75078,1,8,0:0:0:0:
256,192,75240,1,0,0:0:0:0:
256,192,75321,1,0,0:0:0:0:
256,192,75402,1,8,0:0:0:0:
256,192,75563,1,0,0:0:0:0:
256,192,75888,5,4,0:0:0:0:
256,192,76050,1,8,0:0:0:0:
256,192,76212,1,0,0:0:0:0:
256,192,76293,1,0,0:0:0:0:
256,192,76374,1,8,0:0:0:0:
256,192,76455,1,0,0:0:0:0:
256,192,76536,1,8,0:0:0:0:
256,192,76699,1,0,0:0:0:0:
256,192,76780,1,0,0:0:0:0:
256,192,76861,1,8,0:0:0:0:
256,192,77023,1,0,0:0:0:0:
256,192,77104,1,0,0:0:0:0:
256,192,77185,1,8,0:0:0:0:
256,192,77347,1,8,0:0:0:0:
256,192,77428,1,8,0:0:0:0:
256,192,77509,1,0,0:0:0:0:
256,192,77672,1,8,0:0:0:0:
256,192,77834,1,0,0:0:0:0:
256,192,77915,1,8,0:0:0:0:
256,192,77996,1,0,0:0:0:0:
256,192,78158,1,0,0:0:0:0:
256,192,78482,5,12,0:0:0:0:
256,192,78645,1,8,0:0:0:0:
256,192,78726,1,8,0:0:0:0:
256,192,78808,1,0,0:0:0:0:
256,192,78970,1,0,0:0:0:0:
256,192,79051,1,0,0:0:0:0:
256,192,79132,1,8,0:0:0:0:
256,192,79294,1,8,0:0:0:0:
256,192,79456,1,8,0:0:0:0:
256,192,79537,1,0,0:0:0:0:
256,192,79618,1,8,0:0:0:0:
256,192,79699,1,8,0:0:0:0:
256,192,79781,1,0,0:0:0:0:
256,192,79943,1,0,0:0:0:0:
256,192,80024,1,8,0:0:0:0:
256,192,80105,1,8,0:0:0:0:
256,192,80267,1,8,0:0:0:0:
256,192,80429,1,8,0:0:0:0:
256,192,80482,1,8,0:0:0:0:
256,192,80536,1,8,0:0:0:0:
256,192,80590,1,8,0:0:0:0:
256,192,80644,1,8,0:0:0:0:
256,192,80699,1,8,0:0:0:0:
256,192,80754,1,0,0:0:0:0:
256,192,81077,5,4,0:0:0:0:
256,192,81239,1,0,0:0:0:0:
256,192,81401,1,8,0:0:0:0:
256,192,81483,1,0,0:0:0:0:
256,192,81563,1,8,0:0:0:0:
256,192,81644,1,8,0:0:0:0:
256,192,81725,1,0,0:0:0:0:
256,192,81807,1,8,0:0:0:0:
256,192,81888,1,0,0:0:0:0:
256,192,81969,1,0,0:0:0:0:
256,192,82050,1,8,0:0:0:0:
256,192,82212,1,0,0:0:0:0:
256,192,82294,1,0,0:0:0:0:
256,192,82375,1,8,0:0:0:0:
256,192,82537,1,0,0:0:0:0:
256,192,82618,1,8,0:0:0:0:
256,192,82699,1,0,0:0:0:0:
256,192,82780,1,0,0:0:0:0:
256,192,82861,1,0,0:0:0:0:
256,192,83023,1,0,0:0:0:0:
256,192,83185,1,8,0:0:0:0:
256,192,83239,1,0,0:0:0:0:
256,192,83293,1,0,0:0:0:0:
256,192,83347,1,8,0:0:0:0:
256,192,83509,1,8,0:0:0:0:
256,192,83672,5,0,0:0:0:0:
256,192,83753,1,0,0:0:0:0:
256,192,83834,1,8,0:0:0:0:
256,192,83915,1,8,0:0:0:0:
256,192,83996,1,0,0:0:0:0:
256,192,84158,1,8,0:0:0:0:
256,192,84239,1,0,0:0:0:0:
256,192,84320,1,8,0:0:0:0:
256,192,84401,1,0,0:0:0:0:
256,192,84482,1,8,0:0:0:0:
256,192,84563,1,0,0:0:0:0:
256,192,84644,1,0,0:0:0:0:
256,192,84726,1,8,0:0:0:0:
256,192,84807,1,0,0:0:0:0:
256,192,84888,1,0,0:0:0:0:
256,192,84969,1,8,0:0:0:0:
256,192,85023,1,8,0:0:0:0:
256,192,85131,1,0,0:0:0:0:
256,192,85212,1,8,0:0:0:0:
256,192,85293,1,0,0:0:0:0:
256,192,85347,1,8,0:0:0:0:
256,192,85401,1,8,0:0:0:0:
256,192,85455,1,0,0:0:0:0:
256,192,85617,1,0,0:0:0:0:
256,192,85699,1,8,0:0:0:0:
256,192,85780,1,8,0:0:0:0:
256,192,85861,1,8,0:0:0:0:
256,192,85942,1,0,0:0:0:0:
256,192,86266,5,0,0:0:0:0:
256,192,86428,1,0,0:0:0:0:
256,192,86509,1,8,0:0:0:0:
256,192,86590,1,8,0:0:0:0:
256,192,86753,1,0,0:0:0:0:
256,192,86915,1,8,0:0:0:0:
256,192,86969,1,8,0:0:0:0:
256,192,87077,1,0,0:0:0:0:
256,192,87158,1,8,0:0:0:0:
256,192,87239,1,0,0:0:0:0:
256,192,87320,1,8,0:0:0:0:
256,192,87374,1,8,0:0:0:0:
256,192,87428,1,8,0:0:0:0:
256,192,87482,1,0,0:0:0:0:
256,192,87536,1,8,0:0:0:0:
256,192,87590,1,8,0:0:0:0:
256,192,87726,1,8,0:0:0:0:
256,192,87780,1,0,0:0:0:0:
256,192,87834,1,0,0:0:0:0:
256,192,87888,1,0,0:0:0:0:
256,192,87969,1,0,0:0:0:0:
256,192,88023,1,8,0:0:0:0:
256,192,88131,1,8,0:0:0:0:
256,192,88212,1,0,0:0:0:0:
256,192,88293,1,0,0:0:0:0:
256,192,88374,1,8,0:0:0:0:
256,192,88455,1,8,0:0:0:0:
256,192,88536,1,0,0:0:0:0:
256,192,88861,5,0,0:0:0:0:
256,192,88942,1,0,0:0:0:0:
256,192,89023,1,8,0:0:0:0:
256,192,89185,1,0,0:0:0:0:
256,192,89347,1,8,0:0:0:0:
256,192,89428,1,8,0:0:0:0:
256,192,89509,1,0,0:0:0:0:
256,192,89590,1,8,0:0:0:0:
256,192,89672,1,0,0:0:0:0:
256,192,89753,1,8,0:0:0:0:
256,192,89834,1,8,0:0:0:0:
256,192,89915,1,0,0:0:0:0:
256,192,89996,1,8,0:0:0:0:
256,192,90158,1,0,0:0:0:0:
256,192,90239,1,8,0:0:0:0:
256,192,90320,1,0,0:0:0:0:
256,192,90401,1,8,0:0:0:0:
256,192,90482,1,0,0:0:0:0:
256,192,90563,1,8,0:0:0:0:
256,192,90644,1,0,0:0:0:0:
256,192,90726,1,8,0:0:0:0:
256,192,90807,1,0,0:0:0:0:
256,192,90888,1,0,0:0:0:0:
256,192,90969,1,8,0:0:0:0:
256,192,91131,2,0,L|320:192,2,35.1058223412525
256,192,91455,5,8,0:0:0:0:
256,192,91617,1,0,0:0:0:0:
256,192,91699,1,8,0:0:0:0:
256,192,91780,1,0,0:0:0:0:
256,192,91861,1,8,0:0:0:0:
256,192,91942,1,0,0:0:0:0:
256,192,92023,1,8,0:0:0:0:
256,192,92104,1,0,0:0:0:0:
256,192,92266,1,8,0:0:0:0:
256,192,92428,1,8,0:0:0:0:
256,192,92482,1,0,0:0:0:0:
256,192,92536,1,8,0:0:0:0:
256,192,92590,1,0,0:0:0:0:
256,192,92672,1,0,0:0:0:0:
256,192,92753,1,8,0:0:0:0:
256,192,92834,1,8,0:0:0:0:
256,192,92915,1,0,0:0:0:0:
256,192,92996,1,8,0:0:0:0:
256,192,93077,1,0,0:0:0:0:
256,192,93131,1,0,0:0:0:0:
256,192,93185,1,8,0:0:0:0:
256,192,93239,1,0,0:0:0:0:
256,192,93320,1,8,0:0:0:0:
256,192,93401,1,0,0:0:0:0:
256,192,93482,1,0,0:0:0:0:
256,192,93563,1,8,0:0:0:0:
256,192,93644,1,8,0:0:0:0:
256,192,93726,1,0,0:0:0:0:
