osu file format v14

[General]
AudioFilename: audio.mp3
AudioLeadIn: 0
PreviewTime: 61597
Countdown: 0
SampleSet: Normal
StackLeniency: 0.7
Mode: 1
LetterboxInBreaks: 0
WidescreenStoryboard: 1

[Editor]
DistanceSpacing: 1
BeatDivisor: 6
GridSize: 32
TimelineZoom: 5.000002

[Metadata]
Title:TSLove
TitleUnicode:TSLove
Artist:O2i3
ArtistUnicode:O2i3
Creator:[_Chichinya_]
Version:Q____XLove
Source:
Tags:Melanie Friggy-chan kqrth DDM Hi_Hello 404 AccNotFound FlamingRok Dargin Cyoris210 BlackWolf159 Yuno Taikocracy Prancer agu gamerock Nifty Lno Nepuri Raphalge frukoyurdakul Cyssel Unmei Muma Q____X Vulkin JessiChan iContol Chocola_2287 AezLack _yu68 zigizigiefe Grimbow
BeatmapID:1191141
BeatmapSetID:549370

[Difficulty]
HPDrainRate:6
CircleSize:2
OverallDifficulty:6
ApproachRate:6
SliderMultiplier:1.5
SliderTickRate:1

[Events]
//Background and Video events
0,0,"BGQ.jpg",0,0
//Break Periods
//Storyboard Layer 0 (Background)
//Storyboard Layer 1 (Fail)
//Storyboard Layer 2 (Pass)
//Storyboard Layer 3 (Foreground)
//Storyboard Sound Samples

[TimingPoints]
645,324.324324324324,4,1,0,80,1,0
12482,-90.9090909090909,4,1,0,80,0,0
15077,-83.3333333333333,4,1,0,80,0,0
17672,-76.9230769230769,4,1,0,80,0,0
21401,-25,4,1,0,80,0,1
21726,-66.6666666666667,4,1,0,80,0,1
22536,-62.5,4,1,0,80,0,1
22590,-58.8235294117647,4,1,0,80,0,1
22644,-55.5555555555556,4,1,0,80,0,1
22699,-52.6315789473684,4,1,0,80,0,1
22861,-55.5555555555556,4,1,0,80,0,1
22942,-58.8235294117647,4,1,0,80,0,1
23023,-62.5,4,1,0,80,0,1
23185,-66.6666666666667,4,1,0,80,0,1
23672,-25,4,1,0,80,0,1
23996,-66.6666666666667,4,1,0,80,0,1
24482,-62.5,4,1,0,80,0,1
24536,-58.8235294117647,4,1,0,80,0,1
24590,-55.5555555555556,4,1,0,80,0,1
24644,-52.6315789473684,4,1,0,80,0,1
24807,-66.6666666666667,4,1,0,80,0,1
26266,-25,4,1,0,80,0,1
26590,-66.6666666666667,4,1,0,80,0,1
27726,-62.5,4,1,0,80,0,1
27780,-58.8235294117647,4,1,0,80,0,1
27834,-55.5555555555556,4,1,0,80,0,1
27888,-52.6315789473684,4,1,0,80,0,1
28050,-55.5555555555556,4,1,0,80,0,1
28131,-58.8235294117647,4,1,0,80,0,1
28212,-62.5,4,1,0,80,0,1
28861,-25,4,1,0,80,0,1
29185,-66.6666666666667,4,1,0,80,0,1
29672,-62.5,4,1,0,80,0,1
29726,-58.8235294117647,4,1,0,80,0,1
29780,-55.5555555555556,4,1,0,80,0,1
29834,-52.6315789473684,4,1,0,80,0,1
29996,-66.6666666666667,4,1,0,80,0,1
31131,162.162162162162,4,1,0,80,1,1
31293,81.0810810810811,4,1,0,80,1,1
31778,-66.6666666666667,4,1,0,80,0,1
31780,324.324324324324,4,1,0,80,1,1
31942,-66.6666666666667,4,1,0,80,0,1
32915,-62.5,4,1,0,80,0,1
32969,-58.8235294117647,4,1,0,80,0,1
33023,-55.5555555555556,4,1,0,80,0,1
33077,-52.6315789473684,4,1,0,80,0,1
33239,-55.5555555555556,4,1,0,80,0,1
33320,-58.8235294117647,4,1,0,80,0,1
33401,-62.5,4,1,0,80,0,1
33563,-66.6666666666667,4,1,0,80,0,1
34050,-25,4,1,0,80,0,1
34374,-66.6666666666667,4,1,0,80,0,1
34857,-62.5,4,1,0,80,0,1
34915,-58.8235294117647,4,1,0,80,0,1
34969,-55.5555555555556,4,1,0,80,0,1
35023,-52.6315789473684,4,1,0,80,0,1
35185,-66.6666666666667,4,1,0,80,0,1
36644,-25,4,1,0,80,0,1
36969,-66.6666666666667,4,1,0,80,0,1
38104,-62.5,4,1,0,80,0,1
38158,-58.8235294117647,4,1,0,80,0,1
38212,-55.5555555555556,4,1,0,80,0,1
38266,-52.6315789473684,4,1,0,80,0,1
38428,-55.5555555555556,4,1,0,80,0,1
38509,-58.8235294117647,4,1,0,80,0,1
38590,-62.5,4,1,0,80,0,1
38752,-66.6666666666667,4,1,0,80,0,1
39239,-25,4,1,0,80,0,1
39563,-66.6666666666667,4,1,0,80,0,1
40052,-62.5,4,1,0,80,0,1
40104,-58.8235294117647,4,1,0,80,0,1
40158,-55.5555555555556,4,1,0,80,0,1
40212,-52.6315789473684,4,1,0,80,0,1
40374,-66.6666666666667,4,1,0,80,0,1
42158,-100,4,1,0,80,0,0
53996,-90.9090909090909,4,1,0,80,0,0
56428,-83.3333333333333,4,1,0,80,0,0
58698,-76.9230769230769,4,1,0,80,0,0
62915,-66.6666666666667,4,1,0,100,0,1
64050,-62.5,4,1,0,100,0,1
64104,-58.8235294117647,4,1,0,100,0,1
64158,-55.5555555555556,4,1,0,100,0,1
64212,-52.6315789473684,4,1,0,100,0,1
64374,-55.5555555555556,4,1,0,100,0,1
64455,-58.8235294117647,4,1,0,100,0,1
64536,-62.5,4,1,0,100,0,1
64698,-66.6666666666667,4,1,0,100,0,1
65185,-25,4,1,0,100,0,1
65509,-66.6666666666667,4,1,0,100,0,1
65996,-62.5,4,1,0,100,0,1
66050,-58.8235294117647,4,1,0,100,0,1
66104,-55.5555555555556,4,1,0,100,0,1
66158,-52.6315789473684,4,1,0,100,0,1
66320,-66.6666666666667,4,1,0,100,0,1
67779,-25,4,1,0,100,0,1
68104,-66.6666666666667,4,1,0,100,0,1
69239,-62.5,4,1,0,100,0,1
69293,-58.8235294117647,4,1,0,100,0,1
69347,-55.5555555555556,4,1,0,100,0,1
69401,-52.6315789473684,4,1,0,100,0,1
69563,-55.5555555555556,4,1,0,100,0,1
69644,-58.8235294117647,4,1,0,100,0,1
69725,-62.5,4,1,0,100,0,1
69888,-66.6666666666667,4,1,0,100,0,1
70374,-25,4,1,0,100,0,1
70698,-66.6666666666667,4,1,0,100,0,1
71185,-62.5,4,1,0,100,0,1
71239,-58.8235294117647,4,1,0,100,0,1
71293,-55.5555555555556,4,1,0,100,0,1
71347,-52.6315789473684,4,1,0,100,0,1
71509,-66.6666666666667,4,1,0,100,0,1
72644,162.162162162162,4,1,0,100,1,1
72806,81.0810810810811,4,1,0,100,1,1
73293,324.324324324324,4,1,0,100,1,1
73455,-66.6666666666667,4,1,0,100,0,1
74428,-62.5,4,1,0,100,0,1
74482,-58.8235294117647,4,1,0,100,0,1
74536,-55.5555555555556,4,1,0,100,0,1
74590,-52.6315789473684,4,1,0,100,0,1
74752,-55.5555555555556,4,1,0,100,0,1
74833,-58.8235294117647,4,1,0,100,0,1
74914,-62.5,4,1,0,100,0,1
75076,-66.6666666666667,4,1,0,100,0,1
75563,-25,4,1,0,100,0,1
75887,-66.6666666666667,4,1,0,100,0,1
76374,-62.5,4,1,0,100,0,1
76428,-58.8235294117647,4,1,0,100,0,1
76482,-55.5555555555556,4,1,0,100,0,1
76536,-52.6315789473684,4,1,0,100,0,1
76698,-66.6666666666667,4,1,0,100,0,1
78157,-25,4,1,0,100,0,1
78482,-66.6666666666667,4,1,0,100,0,1
79617,-62.5,4,1,0,100,0,1
79671,-58.8235294117647,4,1,0,100,0,1
79725,-55.5555555555556,4,1,0,100,0,1
79779,-52.6315789473684,4,1,0,100,0,1
79941,-55.5555555555556,4,1,0,100,0,1
80022,-58.8235294117647,4,1,0,100,0,1
80103,-62.5,4,1,0,100,0,1
80265,-66.6666666666667,4,1,0,100,0,1
80428,-100,4,1,0,100,0,1
80482,-90.9090909090909,4,1,0,100,0,1
80536,-83.3333333333333,4,1,0,100,0,1
80590,-76.9230769230769,4,1,0,100,0,1
80644,-71.4285714285714,4,1,0,100,0,1
80698,-66.6666666666667,4,1,0,100,0,1
80752,-62.5,4,1,0,100,0,1
81076,-66.6666666666667,4,1,0,100,0,1
81563,-62.5,4,1,0,100,0,1
81617,-58.8235294117647,4,1,0,100,0,1
81671,-55.5555555555556,4,1,0,100,0,1
81725,-52.6315789473684,4,1,0,100,0,1
81887,-66.6666666666667,4,1,0,100,0,1
83022,-83.3333333333333,4,1,0,100,0,0

[Colours]
Combo1 : 133,24,82
Combo2 : 96,61,99
Combo3 : 252,143,143
Combo4 : 234,69,21

[HitObjects]
256,192,645,5,8,0:0:0:0:
256,192,807,1,0,0:0:0:0:
256,192,969,1,8,0:0:0:0:
256,192,1131,1,8,0:0:0:0:
256,192,1293,1,0,0:0:0:0:
256,192,1455,1,0,0:0:0:0:
256,192,1617,1,8,0:0:0:0:
256,192,1780,1,8,0:0:0:0:
256,192,2104,1,8,0:0:0:0:
256,192,2266,1,8,0:0:0:0:
256,192,2428,1,0,0:0:0:0:
256,192,2590,1,8,0:0:0:0:
256,192,2753,1,8,0:0:0:0:
256,192,2915,1,0,0:0:0:0:
256,192,3077,1,0,0:0:0:0:
256,192,3239,1,8,0:0:0:0:
256,192,3401,1,0,0:0:0:0:
256,192,3563,1,8,0:0:0:0:
256,192,3726,1,8,0:0:0:0:
256,192,3888,1,0,0:0:0:0:
256,192,4050,1,0,0:0:0:0:
256,192,4212,1,8,0:0:0:0:
256,192,4374,1,8,0:0:0:0:
256,192,4699,1,8,0:0:0:0:
256,192,4861,1,8,0:0:0:0:
256,192,5023,1,0,0:0:0:0:
256,192,5185,1,8,0:0:0:0:
256,192,5347,1,0,0:0:0:0:
256,192,5509,1,8,0:0:0:0:
256,192,5590,1,0,0:0:0:0:
256,192,5672,1,0,0:0:0:0:
256,192,5834,1,8,0:0:0:0:
256,192,5996,1,8,0:0:0:0:
256,192,6158,1,0,0:0:0:0:
256,192,6320,1,0,0:0:0:0:
256,192,6482,1,8,0:0:0:0:
256,192,6644,1,8,0:0:0:0:
256,192,6807,1,0,0:0:0:0:
256,192,6969,1,8,0:0:0:0:
256,192,7293,1,0,0:0:0:0:
256,192,7455,1,8,0:0:0:0:
256,192,7617,1,8,0:0:0:0:
256,192,7780,1,0,0:0:0:0:
256,192,7942,1,0,0:0:0:0:
256,192,8104,1,8,0:0:0:0:
256,192,8266,1,8,0:0:0:0:
256,192,8428,1,0,0:0:0:0:
256,192,8590,1,0,0:0:0:0:
256,192,8753,1,8,0:0:0:0:
256,192,8915,1,8,0:0:0:0:
256,192,9077,1,0,0:0:0:0:
256,192,9239,1,0,0:0:0:0:
256,192,9401,1,8,0:0:0:0:
256,192,9563,1,8,0:0:0:0:
256,192,9888,1,8,0:0:0:0:
256,192,10050,1,0,0:0:0:0:
256,192,10212,1,0,0:0:0:0:
256,192,10374,1,8,0:0:0:0:
256,192,10536,1,8,0:0:0:0:
256,192,10617,1,0,0:0:0:0:
256,192,10699,1,8,0:0:0:0:
256,192,10861,1,8,0:0:0:0:
256,192,10942,1,0,0:0:0:0:
256,192,11023,1,0,0:0:0:0:
256,192,11185,1,8,0:0:0:0:
256,192,11266,1,8,0:0:0:0:
256,192,11347,1,0,0:0:0:0:
256,192,11509,1,8,0:0:0:0:
256,192,11590,1,8,0:0:0:0:
256,192,11672,1,8,0:0:0:0:
256,192,11834,1,8,0:0:0:0:
256,192,11996,1,0,0:0:0:0:
256,192,12158,1,8,0:0:0:0:
256,192,12482,1,8,0:0:0:0:
256,192,12644,1,8,0:0:0:0:
256,192,12807,1,0,0:0:0:0:
256,192,12888,1,0,0:0:0:0:
256,192,12969,1,8,0:0:0:0:
256,192,13131,1,8,0:0:0:0:
256,192,13293,1,0,0:0:0:0:
256,192,13455,1,0,0:0:0:0:
256,192,13617,1,8,0:0:0:0:
256,192,13780,1,8,0:0:0:0:
256,192,13942,1,0,0:0:0:0:
256,192,14104,1,8,0:0:0:0:
256,192,14185,1,8,0:0:0:0:
256,192,14266,1,8,0:0:0:0:
256,192,14428,1,8,0:0:0:0:
256,192,14590,1,0,0:0:0:0:
256,192,14753,1,8,0:0:0:0:
256,192,15077,1,8,0:0:0:0:
256,192,15239,1,8,0:0:0:0:
256,192,15401,1,0,0:0:0:0:
256,192,15482,1,0,0:0:0:0:
256,192,15563,1,8,0:0:0:0:
256,192,15726,1,8,0:0:0:0:
256,192,15888,1,0,0:0:0:0:
256,192,16050,1,0,0:0:0:0:
256,192,16212,1,8,0:0:0:0:
256,192,16374,1,8,0:0:0:0:
256,192,16536,1,0,0:0:0:0:
256,192,16699,1,0,0:0:0:0:
256,192,16861,1,8,0:0:0:0:
256,192,17023,1,8,0:0:0:0:
256,192,17185,1,0,0:0:0:0:
256,192,17347,1,8,0:0:0:0:
256,192,17672,1,8,0:0:0:0:
256,192,17834,1,8,0:0:0:0:
256,192,17996,1,0,0:0:0:0:
256,192,18158,1,8,0:0:0:0:
256,192,18320,1,8,0:0:0:0:
256,192,18482,1,0,0:0:0:0:
256,192,18644,1,0,0:0:0:0:
256,192,18807,1,8,0:0:0:0:
256,192,18888,1,0,0:0:0:0:
256,192,18969,1,8,0:0:0:0:
256,192,19050,1,8,0:0:0:0:
256,192,19131,1,8,0:0:0:0:
256,192,19212,1,0,0:0:0:0:
256,192,19293,1,8,0:0:0:0:
256,192,19374,1,8,0:0:0:0:
256,192,19455,1,8,0:0:0:0:
256,192,19509,1,0,0:0:0:0:
256,192,19563,1,0,0:0:0:0:
256,192,19617,1,8,0:0:0:0:
256,192,19699,1,0,0:0:0:0:
256,192,19780,1,8,0:0:0:0:
256,192,19861,1,0,0:0:0:0:
256,192,19942,1,8,0:0:0:0:
256,192,20023,1,8,0:0:0:0:
256,192,20104,1,0,0:0:0:0:
256,192,21401,1,12,0:0:0:0:
256,192,21726,1,0,0:0:0:0:
256,192,21888,1,0,0:0:0:0:
256,192,21969,1,0,0:0:0:0:
256,192,22050,1,8,0:0:0:0:
256,192,22212,1,8,0:0:0:0:
256,192,22374,1,8,0:0:0:0:
256,192,22455,1,8,0:0:0:0:
256,192,22536,1,0,0:0:0:0:
256,192,22590,1,0,0:0:0:0:
256,192,22644,1,0,0:0:0:0:
256,192,22699,1,8,0:0:0:0:
256,192,22861,1,8,0:0:0:0:
256,192,22942,1,8,0:0:0:0:
256,192,23023,1,0,0:0:0:0:
256,192,23185,1,8,0:0:0:0:
256,192,23347,1,0,0:0:0:0:
256,192,23672,1,12,0:0:0:0:
256,192,23996,1,0,0:0:0:0:
256,192,24320,1,0,0:0:0:0:
256,192,24401,1,8,0:0:0:0:
256,192,24482,1,0,0:0:0:0:
256,192,24536,1,0,0:0:0:0:
256,192,24590,1,0,0:0:0:0:
256,192,24644,1,8,0:0:0:0:
256,192,24807,1,8,0:0:0:0:
256,192,24969,1,8,0:0:0:0:
256,192,25131,1,0,0:0:0:0:
256,192,25293,1,8,0:0:0:0:
256,192,25455,1,8,0:0:0:0:
256,192,25536,1,8,0:0:0:0:
256,192,25617,1,0,0:0:0:0:
256,192,25780,1,0,0:0:0:0:
256,192,25942,1,8,0:0:0:0:
256,192,26023,1,0,0:0:0:0:
256,192,26104,1,8,0:0:0:0:
256,192,26266,1,12,0:0:0:0:
256,192,26590,1,8,0:0:0:0:
256,192,26915,1,0,0:0:0:0:
256,192,27077,1,0,0:0:0:0:
256,192,27158,1,0,0:0:0:0:
256,192,27239,1,8,0:0:0:0:
256,192,27401,1,8,0:0:0:0:
256,192,27563,1,8,0:0:0:0:
256,192,27644,1,8,0:0:0:0:
256,192,27726,1,0,0:0:0:0:
256,192,27780,1,0,0:0:0:0:
256,192,27834,1,0,0:0:0:0:
256,192,27888,1,8,0:0:0:0:
256,192,28050,1,8,0:0:0:0:
256,192,28131,1,8,0:0:0:0:
256,192,28212,1,0,0:0:0:0:
256,192,28374,1,0,0:0:0:0:
256,192,28455,1,0,0:0:0:0:
256,192,28536,1,8,0:0:0:0:
256,192,28699,1,0,0:0:0:0:
256,192,28861,1,12,0:0:0:0:
256,192,29185,1,8,0:0:0:0:
256,192,29347,1,0,0:0:0:0:
256,192,29509,1,0,0:0:0:0:
256,192,29590,1,8,0:0:0:0:
256,192,29672,1,0,0:0:0:0:
256,192,29726,1,0,0:0:0:0:
256,192,29780,1,0,0:0:0:0:
256,192,29834,1,8,0:0:0:0:
256,192,29996,1,8,0:0:0:0:
256,192,30077,1,8,0:0:0:0:
256,192,30158,1,0,0:0:0:0:
256,192,30320,1,0,0:0:0:0:
256,192,30482,1,8,0:0:0:0:
256,192,30644,1,0,0:0:0:0:
256,192,30726,1,0,0:0:0:0:
256,192,30807,1,8,0:0:0:0:
256,192,30969,1,0,0:0:0:0:
256,192,31131,1,12,0:0:0:0:
256,192,31293,1,12,0:0:0:0:
256,192,31455,1,12,0:0:0:0:
256,192,31617,1,12,0:0:0:0:
256,192,31780,1,12,0:0:0:0:
256,192,31942,1,0,0:0:0:0:
256,192,32104,1,8,0:0:0:0:
256,192,32266,1,0,0:0:0:0:
256,192,32347,1,0,0:0:0:0:
256,192,32428,1,8,0:0:0:0:
256,192,32590,1,0,0:0:0:0:
256,192,32753,1,8,0:0:0:0:
256,192,32834,1,8,0:0:0:0:
256,192,32915,1,0,0:0:0:0:
256,192,32969,1,0,0:0:0:0:
256,192,33023,1,0,0:0:0:0:
256,192,33077,1,8,0:0:0:0:
256,192,33239,1,8,0:0:0:0:
256,192,33320,1,8,0:0:0:0:
256,192,33401,1,0,0:0:0:0:
256,192,33563,1,8,0:0:0:0:
256,192,33726,1,0,0:0:0:0:
256,192,34050,1,12,0:0:0:0:
256,192,34374,1,8,0:0:0:0:
256,192,34536,1,0,0:0:0:0:
256,192,34699,1,0,0:0:0:0:
256,192,34780,1,8,0:0:0:0:
256,192,34861,1,0,0:0:0:0:
256,192,34915,1,0,0:0:0:0:
256,192,34969,1,0,0:0:0:0:
256,192,35023,1,8,0:0:0:0:
256,192,35185,1,8,0:0:0:0:
256,192,35266,1,8,0:0:0:0:
256,192,35347,1,0,0:0:0:0:
256,192,35509,1,0,0:0:0:0:
256,192,35672,1,8,0:0:0:0:
256,192,35834,1,0,0:0:0:0:
256,192,35915,1,0,0:0:0:0:
256,192,35996,1,8,0:0:0:0:
256,192,36158,1,0,0:0:0:0:
256,192,36320,1,0,0:0:0:0:
256,192,36401,1,8,0:0:0:0:
256,192,36482,1,8,0:0:0:0:
256,192,36563,1,0,0:0:0:0:
256,192,36644,1,12,0:0:0:0:
256,192,36969,1,8,0:0:0:0:
256,192,37293,1,0,0:0:0:0:
256,192,37455,1,0,0:0:0:0:
256,192,37536,1,0,0:0:0:0:
256,192,37617,1,8,0:0:0:0:
256,192,37780,1,0,0:0:0:0:
256,192,37942,1,8,0:0:0:0:
256,192,38023,1,8,0:0:0:0:
256,192,38104,1,0,0:0:0:0:
256,192,38158,1,0,0:0:0:0:
256,192,38212,1,0,0:0:0:0:
256,192,38266,1,8,0:0:0:0:
256,192,38428,1,8,0:0:0:0:
256,192,38509,1,8,0:0:0:0:
256,192,38590,1,0,0:0:0:0:
256,192,38753,1,8,0:0:0:0:
256,192,38915,1,0,0:0:0:0:
256,192,39239,1,12,0:0:0:0:
256,192,39563,1,0,0:0:0:0:
256,192,39888,1,8,0:0:0:0:
256,192,39969,1,0,0:0:0:0:
256,192,40050,1,0,0:0:0:0:
256,192,40104,1,0,0:0:0:0:
256,192,40158,1,0,0:0:0:0:
256,192,40212,1,8,0:0:0:0:
256,192,40374,1,8,0:0:0:0:
256,192,40455,1,0,0:0:0:0:
256,192,40536,1,8,0:0:0:0:
256,192,40699,1,0,0:0:0:0:
256,192,40780,1,0,0:0:0:0:
256,192,40861,1,8,0:0:0:0:
256,192,41023,1,0,0:0:0:0:
256,192,41104,1,0,0:0:0:0:
256,192,41185,1,8,0:0:0:0:
256,192,41347,1,0,0:0:0:0:
256,192,41509,1,8,0:0:0:0:
256,192,41834,1,0,0:0:0:0:
256,192,42158,1,8,0:0:0:0:
256,192,42320,1,0,0:0:0:0:
256,192,42644,1,0,0:0:0:0:
256,192,42969,1,0,0:0:0:0:
256,192,43293,1,0,0:0:0:0:
256,192,43617,1,8,0:0:0:0:
256,192,43942,1,8,0:0:0:0:
256,192,44104,1,0,0:0:0:0:
256,192,44266,1,8,0:0:0:0:
256,192,44428,1,8,0:0:0:0:
256,192,44590,1,0,0:0:0:0:
256,192,44753,1,8,0:0:0:0:
256,192,44915,1,0,0:0:0:0:
256,192,45239,1,0,0:0:0:0:
256,192,45563,1,0,0:0:0:0:
256,192,45888,1,8,0:0:0:0:
256,192,46212,1,0,0:0:0:0:
256,192,46536,1,8,0:0:0:0:
256,192,46699,1,0,0:0:0:0:
256,192,46861,1,8,0:0:0:0:
256,192,47023,1,0,0:0:0:0:
256,192,47185,1,8,0:0:0:0:
256,192,47509,1,0,0:0:0:0:
256,192,47834,1,0,0:0:0:0:
256,192,48158,1,8,0:0:0:0:
256,192,48482,1,8,0:0:0:0:
256,192,48807,1,0,0:0:0:0:
256,192,48969,1,8,0:0:0:0:
256,192,49131,1,0,0:0:0:0:
256,192,49293,1,8,0:0:0:0:
256,192,49455,1,8,0:0:0:0:
256,192,49617,1,0,0:0:0:0:
256,192,49780,1,0,0:0:0:0:
256,192,49942,1,8,0:0:0:0:
256,192,50266,1,0,0:0:0:0:
256,192,50428,1,8,0:0:0:0:
256,192,50753,1,8,0:0:0:0:
256,192,50915,1,0,0:0:0:0:
256,192,51239,1,0,0:0:0:0:
256,192,51401,1,8,0:0:0:0:
256,192,51563,1,0,0:0:0:0:
256,192,51726,1,0,0:0:0:0:
256,192,51888,1,0,0:0:0:0:
256,192,52050,1,8,0:0:0:0:
256,192,52212,1,0,0:0:0:0:
256,192,52374,1,0,0:0:0:0:
256,192,52536,1,8,0:0:0:0:
256,192,52699,1,0,0:0:0:0:
256,192,52780,1,8,0:0:0:0:
256,192,52861,1,0,0:0:0:0:
256,192,52942,1,8,0:0:0:0:
256,192,53023,1,8,0:0:0:0:
256,192,53104,1,8,0:0:0:0:
256,192,53185,1,0,0:0:0:0:
256,192,53347,1,8,0:0:0:0:
256,192,53428,1,0,0:0:0:0:
256,192,53509,1,0,0:0:0:0:
256,192,53672,1,8,0:0:0:0:
256,192,53996,1,8,0:0:0:0:
256,192,54158,1,0,0:0:0:0:
256,192,54320,1,0,0:0:0:0:
256,192,54401,1,0,0:0:0:0:
256,192,54482,1,8,0:0:0:0:
256,192,54644,1,8,0:0:0:0:
256,192,54807,1,8,0:0:0:0:
256,192,54888,1,8,0:0:0:0:
256,192,54969,1,0,0:0:0:0:
256,192,55050,1,0,0:0:0:0:
256,192,55131,1,8,0:0:0:0:
256,192,55293,1,0,0:0:0:0:
256,192,55455,1,8,0:0:0:0:
256,192,55617,1,0,0:0:0:0:
256,192,55780,1,0,0:0:0:0:
256,192,55861,1,8,0:0:0:0:
256,192,55942,1,0,0:0:0:0:
256,192,56023,1,8,0:0:0:0:
256,192,56104,1,8,0:0:0:0:
256,192,56266,1,8,0:0:0:0:
256,192,56428,1,0,0:0:0:0:
256,192,56590,1,8,0:0:0:0:
256,192,56672,1,8,0:0:0:0:
256,192,56753,1,0,0:0:0:0:
256,192,56915,1,0,0:0:0:0:
256,192,56996,1,0,0:0:0:0:
256,192,57077,1,8,0:0:0:0:
256,192,57239,1,8,0:0:0:0:
256,192,57401,1,0,0:0:0:0:
256,192,57563,1,0,0:0:0:0:
256,192,57644,1,0,0:0:0:0:
256,192,57726,1,8,0:0:0:0:
256,192,57888,1,8,0:0:0:0:
256,192,58050,1,0,0:0:0:0:
256,192,58212,1,8,0:0:0:0:
256,192,58293,1,8,0:0:0:0:
256,192,58374,1,0,0:0:0:0:
256,192,58536,1,8,0:0:0:0:
256,192,58699,1,0,0:0:0:0:
256,192,58861,1,0,0:0:0:0:
256,192,58942,1,0,0:0:0:0:
256,192,59023,1,8,0:0:0:0:
256,192,59185,1,8,0:0:0:0:
256,192,59347,1,0,0:0:0:0:
256,192,59509,1,8,0:0:0:0:
256,192,59672,1,0,0:0:0:0:
256,192,59834,1,8,0:0:0:0:
256,192,59996,1,0,0:0:0:0:
256,192,60158,1,8,0:0:0:0:
256,192,60320,1,8,0:0:0:0:
256,192,60401,1,0,0:0:0:0:
256,192,60482,1,8,0:0:0:0:
256,192,60563,1,8,0:0:0:0:
256,192,60644,1,8,0:0:0:0:
256,192,60726,1,0,0:0:0:0:
256,192,60807,1,8,0:0:0:0:
256,192,60888,1,8,0:0:0:0:
256,192,60969,1,8,0:0:0:0:
256,192,61023,1,0,0:0:0:0:
256,192,61077,1,0,0:0:0:0:
256,192,61131,1,8,0:0:0:0:
256,192,61212,1,0,0:0:0:0:
256,192,61293,1,8,0:0:0:0:
256,192,61374,1,0,0:0:0:0:
256,192,61455,1,8,0:0:0:0:
256,192,61536,1,0,0:0:0:0:
256,192,61617,1,8,0:0:0:0:
256,192,61671,1,8,0:0:0:0:
256,192,61780,1,0,0:0:0:0:
256,192,61834,1,0,0:0:0:0:
256,192,61942,1,8,0:0:0:0:
256,192,61996,1,8,0:0:0:0:
256,192,62104,1,0,0:0:0:0:
256,192,62158,1,0,0:0:0:0:
256,192,62266,1,8,0:0:0:0:
256,192,62320,1,8,0:0:0:0:
256,192,62428,1,0,0:0:0:0:
256,192,62482,1,0,0:0:0:0:
256,192,62590,1,8,0:0:0:0:
256,192,62915,1,12,0:0:0:0:
256,192,63239,1,0,0:0:0:0:
256,192,63401,1,0,0:0:0:0:
256,192,63482,1,0,0:0:0:0:
256,192,63563,1,8,0:0:0:0:
256,192,63726,1,8,0:0:0:0:
256,192,63888,1,8,0:0:0:0:
256,192,63969,1,8,0:0:0:0:
256,192,64050,1,0,0:0:0:0:
256,192,64104,1,0,0:0:0:0:
256,192,64158,1,0,0:0:0:0:
256,192,64212,1,8,0:0:0:0:
256,192,64374,1,8,0:0:0:0:
256,192,64455,1,8,0:0:0:0:
256,192,64536,1,0,0:0:0:0:
256,192,64699,1,8,0:0:0:0:
256,192,64861,1,0,0:0:0:0:
256,192,65185,1,12,0:0:0:0:
256,192,65509,1,0,0:0:0:0:
256,192,65834,1,0,0:0:0:0:
256,192,65915,1,8,0:0:0:0:
256,192,65996,1,0,0:0:0:0:
256,192,66050,1,0,0:0:0:0:
256,192,66104,1,0,0:0:0:0:
256,192,66158,1,8,0:0:0:0:
256,192,66320,1,8,0:0:0:0:
256,192,66482,1,8,0:0:0:0:
256,192,66644,1,0,0:0:0:0:
256,192,66807,1,8,0:0:0:0:
256,192,66969,1,8,0:0:0:0:
256,192,67050,1,8,0:0:0:0:
256,192,67131,1,0,0:0:0:0:
256,192,67293,1,0,0:0:0:0:
256,192,67455,1,8,0:0:0:0:
256,192,67536,1,0,0:0:0:0:
256,192,67617,1,8,0:0:0:0:
256,192,67780,1,12,0:0:0:0:
256,192,68104,1,8,0:0:0:0:
256,192,68428,1,0,0:0:0:0:
256,192,68590,1,0,0:0:0:0:
256,192,68672,1,0,0:0:0:0:
256,192,68753,1,8,0:0:0:0:
256,192,68915,1,8,0:0:0:0:
256,192,69077,1,8,0:0:0:0:
256,192,69158,1,8,0:0:0:0:
256,192,69239,1,0,0:0:0:0:
256,192,69293,1,0,0:0:0:0:
256,192,69347,1,0,0:0:0:0:
256,192,69401,1,8,0:0:0:0:
256,192,69563,1,8,0:0:0:0:
256,192,69644,1,8,0:0:0:0:
256,192,69726,1,0,0:0:0:0:
256,192,69888,1,0,0:0:0:0:
256,192,69969,1,0,0:0:0:0:
256,192,70050,1,8,0:0:0:0:
256,192,70212,1,0,0:0:0:0:
256,192,70374,1,12,0:0:0:0:
256,192,70699,1,8,0:0:0:0:
256,192,70861,1,0,0:0:0:0:
256,192,71023,1,0,0:0:0:0:
256,192,71104,1,8,0:0:0:0:
256,192,71185,1,0,0:0:0:0:
256,192,71239,1,0,0:0:0:0:
256,192,71293,1,0,0:0:0:0:
256,192,71347,1,8,0:0:0:0:
256,192,71509,1,8,0:0:0:0:
256,192,71590,1,8,0:0:0:0:
256,192,71672,1,0,0:0:0:0:
256,192,71834,1,0,0:0:0:0:
256,192,71996,1,8,0:0:0:0:
256,192,72158,1,0,0:0:0:0:
256,192,72239,1,0,0:0:0:0:
256,192,72320,1,8,0:0:0:0:
256,192,72482,1,0,0:0:0:0:
256,192,72644,1,12,0:0:0:0:
256,192,72807,1,12,0:0:0:0:
256,192,72969,1,12,0:0:0:0:
256,192,73131,1,12,0:0:0:0:
256,192,73293,1,12,0:0:0:0:
256,192,73455,1,0,0:0:0:0:
256,192,73617,1,8,0:0:0:0:
256,192,73780,1,0,0:0:0:0:
256,192,73861,1,0,0:0:0:0:
256,192,73942,1,8,0:0:0:0:
256,192,74104,1,0,0:0:0:0:
256,192,74266,1,8,0:0:0:0:
256,192,74347,1,8,0:0:0:0:
256,192,74428,1,0,0:0:0:0:
256,192,74482,1,0,0:0:0:0:
256,192,74536,1,0,0:0:0:0:
256,192,74590,1,8,0:0:0:0:
256,192,74753,1,8,0:0:0:0:
256,192,74834,1,8,0:0:0:0:
256,192,74915,1,0,0:0:0:0:
256,192,75077,1,8,0:0:0:0:
256,192,75239,1,0,0:0:0:0:
256,192,75563,1,12,0:0:0:0:
256,192,75888,1,8,0:0:0:0:
256,192,76050,1,0,0:0:0:0:
256,192,76212,1,0,0:0:0:0:
256,192,76293,1,8,0:0:0:0:
256,192,76374,1,0,0:0:0:0:
256,192,76428,1,0,0:0:0:0:
256,192,76482,1,0,0:0:0:0:
256,192,76536,1,8,0:0:0:0:
256,192,76699,1,8,0:0:0:0:
256,192,76780,1,8,0:0:0:0:
256,192,76861,1,0,0:0:0:0:
256,192,77023,1,0,0:0:0:0:
256,192,77185,1,8,0:0:0:0:
256,192,77347,1,0,0:0:0:0:
256,192,77428,1,0,0:0:0:0:
256,192,77509,1,8,0:0:0:0:
256,192,77672,1,0,0:0:0:0:
256,192,77834,1,0,0:0:0:0:
256,192,77915,1,8,0:0:0:0:
256,192,77996,1,8,0:0:0:0:
256,192,78077,1,0,0:0:0:0:
256,192,78158,1,12,0:0:0:0:
256,192,78482,1,8,0:0:0:0:
256,192,78807,1,0,0:0:0:0:
256,192,78969,1,0,0:0:0:0:
256,192,79050,1,0,0:0:0:0:
256,192,79131,1,8,0:0:0:0:
256,192,79293,1,0,0:0:0:0:
256,192,79455,1,8,0:0:0:0:
256,192,79536,1,8,0:0:0:0:
256,192,79617,1,0,0:0:0:0:
256,192,79671,1,0,0:0:0:0:
256,192,79725,1,0,0:0:0:0:
256,192,79780,1,8,0:0:0:0:
256,192,79942,1,8,0:0:0:0:
256,192,80023,1,8,0:0:0:0:
256,192,80104,1,0,0:0:0:0:
256,192,80266,1,8,0:0:0:0:
256,192,80428,1,0,0:0:0:0:
256,192,80482,1,0,0:0:0:0:
256,192,80536,1,0,0:0:0:0:
256,192,80590,1,0,0:0:0:0:
256,192,80644,1,0,0:0:0:0:
256,192,80698,1,0,0:0:0:0:
256,192,80753,1,12,0:0:0:0:
256,192,81077,1,0,0:0:0:0:
256,192,81401,1,8,0:0:0:0:
256,192,81482,1,0,0:0:0:0:
256,192,81563,1,0,0:0:0:0:
256,192,81617,1,0,0:0:0:0:
256,192,81671,1,0,0:0:0:0:
256,192,81726,1,8,0:0:0:0:
256,192,81888,1,8,0:0:0:0:
256,192,81969,1,0,0:0:0:0:
256,192,82050,1,8,0:0:0:0:
256,192,82212,1,0,0:0:0:0:
256,192,82293,1,0,0:0:0:0:
256,192,82374,1,8,0:0:0:0:
256,192,82536,1,0,0:0:0:0:
256,192,82617,1,0,0:0:0:0:
256,192,82699,1,8,0:0:0:0:
256,192,82861,1,0,0:0:0:0:
256,192,83023,1,8,0:0:0:0:
256,192,83076,1,8,0:0:0:0:
256,192,83185,1,0,0:0:0:0:
256,192,83238,1,0,0:0:0:0:
256,192,83347,1,8,0:0:0:0:
256,192,83401,1,8,0:0:0:0:
256,192,83509,1,0,0:0:0:0:
256,192,83671,1,8,0:0:0:0:
256,192,83833,1,8,0:0:0:0:
256,192,83887,1,0,0:0:0:0:
256,192,83941,1,0,0:0:0:0:
256,192,83995,1,8,0:0:0:0:
256,192,84157,1,8,0:0:0:0:
256,192,84238,1,8,0:0:0:0:
256,192,84320,1,0,0:0:0:0:
256,192,84482,1,8,0:0:0:0:
256,192,84536,1,0,0:0:0:0:
256,192,84590,1,0,0:0:0:0:
256,192,84644,1,8,0:0:0:0:
256,192,84725,1,0,0:0:0:0:
256,192,84806,1,8,0:0:0:0:
256,192,84887,1,0,0:0:0:0:
256,192,84968,1,8,0:0:0:0:
256,192,85130,1,0,0:0:0:0:
256,192,85211,1,8,0:0:0:0:
256,192,85374,1,8,0:0:0:0:
256,192,85455,1,8,0:0:0:0:
256,192,85509,1,8,0:0:0:0:
256,192,85563,1,8,0:0:0:0:
256,192,85617,1,0,0:0:0:0:
256,192,85780,1,0,0:0:0:0:
256,192,85942,1,8,0:0:0:0:
256,192,86266,1,0,0:0:0:0:
256,192,86428,1,8,0:0:0:0:
256,192,86509,1,0,0:0:0:0:
256,192,86753,1,8,0:0:0:0:
256,192,86914,1,8,0:0:0:0:
256,192,86995,1,0,0:0:0:0:
256,192,87076,1,8,0:0:0:0:
256,192,87157,1,0,0:0:0:0:
256,192,87238,1,8,0:0:0:0:
256,192,87401,1,8,0:0:0:0:
256,192,87455,1,8,0:0:0:0:
256,192,87509,1,8,0:0:0:0:
256,192,87563,1,0,0:0:0:0:
256,192,87725,1,0,0:0:0:0:
256,192,87806,1,0,0:0:0:0:
256,192,87833,1,8,0:0:0:0:
256,192,87995,1,8,0:0:0:0:
256,192,88103,1,0,0:0:0:0:
256,192,88211,1,8,0:0:0:0:
256,192,88374,1,0,0:0:0:0:
256,192,88428,1,0,0:0:0:0:
256,192,88482,1,0,0:0:0:0:
256,192,88536,1,8,0:0:0:0:
256,192,88698,1,8,0:0:0:0:
256,192,88860,1,0,0:0:0:0:
256,192,89022,1,8,0:0:0:0:
256,192,89184,1,0,0:0:0:0:
256,192,89265,1,8,0:0:0:0:
256,192,89347,1,0,0:0:0:0:
256,192,89428,1,0,0:0:0:0:
256,192,89509,1,8,0:0:0:0:
256,192,89671,1,8,0:0:0:0:
256,192,89752,1,8,0:0:0:0:
256,192,89833,1,0,0:0:0:0:
256,192,89995,1,8,0:0:0:0:
256,192,90157,1,0,0:0:0:0:
256,192,90320,1,0,0:0:0:0:
256,192,90401,1,0,0:0:0:0:
256,192,90482,1,8,0:0:0:0:
256,192,90644,1,8,0:0:0:0:
256,192,90806,1,8,0:0:0:0:
256,192,90968,1,8,0:0:0:0:
256,192,91049,1,8,0:0:0:0:
256,192,91130,1,0,0:0:0:0:
256,192,91292,1,0,0:0:0:0:
256,192,91347,1,0,0:0:0:0:
256,192,91401,1,0,0:0:0:0:
256,192,91455,1,8,0:0:0:0:
256,192,91617,1,8,0:0:0:0:
256,192,91779,1,8,0:0:0:0:
256,192,91860,1,0,0:0:0:0:
256,192,91941,1,8,0:0:0:0:
256,192,92022,1,0,0:0:0:0:
256,192,92103,1,8,0:0:0:0:
256,192,92265,1,0,0:0:0:0:
256,192,92428,1,8,0:0:0:0:
256,192,92509,1,8,0:0:0:0:
256,192,92590,1,0,0:0:0:0:
256,192,92671,1,0,0:0:0:0:
256,192,92752,1,8,0:0:0:0:
256,192,92833,1,8,0:0:0:0:
256,192,92914,1,0,0:0:0:0:
256,192,92995,1,0,0:0:0:0:
256,192,93076,1,8,0:0:0:0:
256,192,93157,1,0,0:0:0:0:
256,192,93238,1,0,0:0:0:0:
256,192,93320,1,0,0:0:0:0:
256,192,93401,1,8,0:0:0:0:
256,192,93482,1,0,0:0:0:0:
256,192,93563,1,8,0:0:0:0:
256,192,93644,1,8,0:0:0:0:
256,192,93726,1,0,0:0:0:0:
