osu file format v14

[General]
AudioFilename: audio.mp3
AudioLeadIn: 0
PreviewTime: 61597
Countdown: 0
SampleSet: Normal
StackLeniency: 0.7
Mode: 1
LetterboxInBreaks: 0
WidescreenStoryboard: 0

[Editor]
Bookmarks: 11023,70861
DistanceSpacing: 1
BeatDivisor: 16
GridSize: 32
TimelineZoom: 1.900005

[Metadata]
Title:TSLove
TitleUnicode:TSLove
Artist:O2i3
ArtistUnicode:O2i3
Creator:[_Chichinya_]
Version:NiftyLove
Source:
Tags:Melanie Friggy-chan kqrth DDM Hi_Hello 404 AccNotFound FlamingRok Dargin Cyoris210 BlackWolf159 Yuno Taikocracy Prancer agu gamerock Nifty Lno Nepuri Raphalge frukoyurdakul Cyssel Unmei Muma Q____X Vulkin JessiChan iContol Chocola_2287 AezLack _yu68 zigizigiefe Grimbow
BeatmapID:1206151
BeatmapSetID:549370

[Difficulty]
HPDrainRate:7
CircleSize:5
OverallDifficulty:3
ApproachRate:10
SliderMultiplier:1.5
SliderTickRate:1

[Events]
//Background and Video events
0,0,"Kil4xI7.jpg",0,0
//Break Periods
//Storyboard Layer 0 (Background)
//Storyboard Layer 1 (Fail)
//Storyboard Layer 2 (Pass)
//Storyboard Layer 3 (Foreground)
//Storyboard Sound Samples

[TimingPoints]
645,324.324324324324,4,1,0,80,1,0
20104,-83.3333333333333,4,1,0,5,0,0
21401,-83.3333333333333,4,1,0,5,0,1
21726,-83.3333333333333,4,1,0,80,0,1
23672,-50,4,1,0,80,0,1
23996,-83.3333333333333,4,1,0,5,0,1
24320,-83.3333333333333,4,1,0,80,0,1
26266,-50,4,1,0,80,0,1
26590,-83.3333333333333,4,1,0,5,0,1
26915,-83.3333333333333,4,1,0,80,0,1
28861,-50,4,1,0,80,0,1
29185,-83.3333333333333,4,1,0,5,0,1
29509,-83.3333333333333,4,1,0,80,0,1
31050,-83.3333333333333,4,1,0,5,0,1
31212,-83.3333333333333,4,1,0,25,0,1
31374,-83.3333333333333,4,1,0,55,0,1
31536,-83.3333333333333,4,1,0,80,0,1
32104,-83.3333333333333,4,1,0,80,0,1
34050,-50,4,1,0,80,0,1
34374,-83.3333333333333,4,1,0,5,0,1
34699,-83.3333333333333,4,1,0,80,0,1
36644,-50,4,1,0,80,0,1
36969,-83.3333333333333,4,1,0,5,0,1
37293,-83.3333333333333,4,1,0,80,0,1
39239,-50,4,1,0,80,0,1
39563,-83.3333333333333,4,1,0,5,0,1
39888,-83.3333333333333,4,1,0,80,0,1
41509,-90.9090909090909,4,1,0,80,0,1
41834,-111.111111111111,4,1,0,80,0,1
42158,-133.333333333333,4,1,0,80,0,0
52050,-125,4,1,0,80,0,0
52212,-117.647058823529,4,1,0,80,0,0
52374,-111.111111111111,4,1,0,80,0,0
52536,-100,4,1,0,80,0,0
56428,-100,4,1,0,80,0,0
58698,-100,4,1,0,80,0,0
60320,-90.9090909090909,4,1,0,80,0,0
60482,-83.3333333333333,4,1,0,80,0,0
60644,-76.9230769230769,4,1,0,80,0,0
60807,-71.4285714285714,4,1,0,80,0,0
60969,-66.6666666666667,4,1,0,80,0,0
61131,-62.5,4,1,0,80,0,0
61293,-58.8235294117647,4,1,0,80,0,0
61455,-55.5555555555556,4,1,0,80,0,0
61617,-52.6315789473684,4,1,0,80,0,0
62915,-83.3333333333333,4,1,0,5,0,1
63239,-83.3333333333333,4,1,0,80,0,1
65185,-50,4,1,0,80,0,1
65509,-83.3333333333333,4,1,0,5,0,1
65834,-83.3333333333333,4,1,0,80,0,1
67780,-50,4,1,0,80,0,1
68104,-83.3333333333333,4,1,0,5,0,1
68428,-83.3333333333333,4,1,0,80,0,1
70374,-50,4,1,0,80,0,1
70699,-83.3333333333333,4,1,0,5,0,1
71023,-83.3333333333333,4,1,0,80,0,1
73293,-83.3333333333333,4,1,0,5,0,1
73617,-83.3333333333333,4,1,0,80,0,1
75563,-50,4,1,0,80,0,1
75888,-83.3333333333333,4,1,0,5,0,1
76212,-83.3333333333333,4,1,0,80,0,1
78158,-50,4,1,0,80,0,1
78482,-83.3333333333333,4,1,0,5,0,1
78807,-83.3333333333333,4,1,0,80,0,1
80753,-50,4,1,0,80,0,1
81077,-83.3333333333333,4,1,0,5,0,1
81401,-83.3333333333333,4,1,0,80,0,1
83022,-83.3333333333333,4,1,0,80,0,0

[Colours]
Combo1 : 133,24,82
Combo2 : 96,61,99
Combo3 : 252,143,143
Combo4 : 234,69,21

[HitObjects]
256,192,645,5,0,0:0:0:0:
256,192,969,1,8,0:0:0:0:
256,192,1293,1,0,0:0:0:0:
256,192,1455,1,0,0:0:0:0:
256,192,1617,1,8,0:0:0:0:
256,192,1942,1,0,0:0:0:0:
256,192,2266,1,8,0:0:0:0:
256,192,2428,1,0,0:0:0:0:
256,192,2509,1,0,0:0:0:0:
256,192,2590,1,0,0:0:0:0:
256,192,2753,1,0,0:0:0:0:
256,192,2915,1,8,0:0:0:0:
256,192,3239,1,0,0:0:0:0:
256,192,3563,1,8,0:0:0:0:
256,192,3888,1,0,0:0:0:0:
256,192,4050,1,0,0:0:0:0:
256,192,4212,1,8,0:0:0:0:
256,192,4374,1,0,0:0:0:0:
256,192,4536,1,0,0:0:0:0:
256,192,4861,1,8,0:0:0:0:
256,192,5023,1,0,0:0:0:0:
256,192,5104,1,0,0:0:0:0:
256,192,5185,1,0,0:0:0:0:
256,192,5347,1,0,0:0:0:0:
256,192,5509,1,8,0:0:0:0:
256,192,5672,1,0,0:0:0:0:
256,192,5834,1,0,0:0:0:0:
256,192,6158,1,8,0:0:0:0:
256,192,6320,1,0,0:0:0:0:
256,192,6401,1,0,0:0:0:0:
256,192,6482,1,0,0:0:0:0:
256,192,6644,1,0,0:0:0:0:
256,192,6807,1,8,0:0:0:0:
256,192,6969,1,0,0:0:0:0:
256,192,7131,1,0,0:0:0:0:
256,192,7293,1,0,0:0:0:0:
256,192,7455,1,8,0:0:0:0:
256,192,7617,1,0,0:0:0:0:
256,192,7699,1,0,0:0:0:0:
256,192,7780,1,0,0:0:0:0:
256,192,7942,1,0,0:0:0:0:
256,192,8104,1,8,0:0:0:0:
256,192,8266,1,0,0:0:0:0:
256,192,8428,1,0,0:0:0:0:
256,192,8590,1,0,0:0:0:0:
256,192,8672,1,0,0:0:0:0:
256,192,8753,1,8,0:0:0:0:
256,192,8915,1,0,0:0:0:0:
256,192,9077,1,8,0:0:0:0:
256,192,9239,1,0,0:0:0:0:
256,192,9401,1,8,0:0:0:0:
256,192,9563,1,8,0:0:0:0:
256,192,9726,1,8,0:0:0:0:
256,192,9807,1,8,0:0:0:0:
256,192,9888,1,0,0:0:0:0:
256,192,10050,1,8,0:0:0:0:
256,192,10212,1,0,0:0:0:0:
256,192,10293,1,0,0:0:0:0:
256,192,10374,1,8,0:0:0:0:
256,192,10536,1,0,0:0:0:0:
256,192,10699,1,8,0:0:0:0:
256,192,10861,1,0,0:0:0:0:
256,192,10942,1,0,0:0:0:0:
256,192,11023,1,0,0:0:0:0:
256,192,11347,1,8,0:0:0:0:
256,192,11590,1,0,0:0:0:0:
256,192,11672,1,0,0:0:0:0:
256,192,11996,1,8,0:0:0:0:
256,192,12158,1,0,0:0:0:0:
256,192,12320,1,0,0:0:0:0:
256,192,12644,1,8,0:0:0:0:
256,192,12888,1,0,0:0:0:0:
256,192,12969,1,0,0:0:0:0:
256,192,13131,1,0,0:0:0:0:
256,192,13293,1,8,0:0:0:0:
256,192,13455,1,0,0:0:0:0:
256,192,13617,1,0,0:0:0:0:
256,192,13942,1,8,0:0:0:0:
256,192,14185,1,0,0:0:0:0:
256,192,14266,1,0,0:0:0:0:
256,192,14590,1,8,0:0:0:0:
256,192,14753,1,0,0:0:0:0:
256,192,14915,1,0,0:0:0:0:
256,192,15239,1,8,0:0:0:0:
256,192,15482,1,0,0:0:0:0:
256,192,15563,1,0,0:0:0:0:
256,192,15726,1,0,0:0:0:0:
256,192,15888,1,8,0:0:0:0:
256,192,16050,1,0,0:0:0:0:
256,192,16131,1,0,0:0:0:0:
256,192,16212,1,0,0:0:0:0:
256,192,16536,1,0,0:0:0:0:
256,192,16699,1,0,0:0:0:0:
256,192,16861,1,0,0:0:0:0:
256,192,17185,1,8,0:0:0:0:
256,192,17509,1,0,0:0:0:0:
256,192,17672,1,0,0:0:0:0:
256,192,17834,1,8,0:0:0:0:
256,192,17996,1,0,0:0:0:0:
256,192,18158,1,0,0:0:0:0:
256,192,18320,1,0,0:0:0:0:
256,192,18482,1,8,0:0:0:0:
256,192,18644,1,0,0:0:0:0:
256,192,18807,1,0,0:0:0:0:
256,192,18888,1,0,0:0:0:0:
256,192,18969,1,0,0:0:0:0:
256,192,19131,1,0,0:0:0:0:
256,192,19293,1,8,0:0:0:0:
256,192,19455,1,8,0:0:0:0:
256,192,19617,1,0,0:0:0:0:
256,192,19699,1,0,0:0:0:0:
256,192,19780,1,0,0:0:0:0:
256,192,19942,1,8,0:0:0:0:
256,192,20104,12,0,21401,0:0:0:0:
256,192,21401,6,0,L|448:192,1,179.999994506836
256,192,21726,1,0,0:0:0:0:
256,192,21888,1,0,0:0:0:0:
256,192,21969,1,0,0:0:0:0:
256,192,22050,1,8,0:0:0:0:
256,192,22212,1,8,0:0:0:0:
256,192,22374,1,0,0:0:0:0:
256,192,22455,1,0,0:0:0:0:
256,192,22536,1,0,0:0:0:0:
256,192,22617,1,0,0:0:0:0:
256,192,22699,1,8,0:0:0:0:
256,192,22861,1,0,0:0:0:0:
256,192,22942,1,0,0:0:0:0:
256,192,23023,1,0,0:0:0:0:
256,192,23185,1,8,0:0:0:0:
256,192,23347,1,0,0:0:0:0:
256,192,23672,1,4,0:0:0:0:
256,192,23996,2,0,L|448:192,1,179.999994506836
256,192,24320,1,0,0:0:0:0:
256,192,24401,1,0,0:0:0:0:
256,192,24482,1,8,0:0:0:0:
256,192,24644,1,8,0:0:0:0:
256,192,24807,1,8,0:0:0:0:
256,192,24969,1,0,0:0:0:0:
256,192,25131,1,0,0:0:0:0:
256,192,25293,1,8,0:0:0:0:
256,192,25455,1,8,0:0:0:0:
256,192,25536,1,8,0:0:0:0:
256,192,25617,1,0,0:0:0:0:
256,192,25780,1,8,0:0:0:0:
256,192,25942,1,0,0:0:0:0:
256,192,26023,1,0,0:0:0:0:
256,192,26104,1,8,0:0:0:0:
256,192,26266,1,12,0:0:0:0:
256,192,26590,2,0,L|448:192,1,179.999994506836
256,192,26915,1,0,0:0:0:0:
256,192,27077,1,0,0:0:0:0:
256,192,27158,1,0,0:0:0:0:
256,192,27239,1,8,0:0:0:0:
256,192,27401,1,8,0:0:0:0:
256,192,27563,1,8,0:0:0:0:
256,192,27644,1,8,0:0:0:0:
256,192,27726,1,0,0:0:0:0:
256,192,27807,1,0,0:0:0:0:
256,192,27888,1,8,0:0:0:0:
256,192,28050,1,0,0:0:0:0:
256,192,28131,1,0,0:0:0:0:
256,192,28212,1,8,0:0:0:0:
256,192,28374,1,8,0:0:0:0:
256,192,28536,1,0,0:0:0:0:
256,192,28861,1,12,0:0:0:0:
256,192,29185,2,0,L|448:192,1,179.999994506836
256,192,29509,1,0,0:0:0:0:
256,192,29672,1,8,0:0:0:0:
256,192,29753,1,8,0:0:0:0:
256,192,29834,1,0,0:0:0:0:
256,192,29996,1,0,0:0:0:0:
256,192,30158,1,8,0:0:0:0:
256,192,30320,1,0,0:0:0:0:
256,192,30401,1,0,0:0:0:0:
256,192,30482,1,8,0:0:0:0:
256,192,30644,1,0,0:0:0:0:
256,192,30807,1,8,0:0:0:0:
256,192,30969,1,0,0:0:0:0:
256,192,31131,1,8,0:0:0:0:
256,192,31293,1,8,0:0:0:0:
256,192,31455,1,8,0:0:0:0:
256,192,31617,1,8,0:0:0:0:
256,192,31780,2,0,L|448:192,1,179.999994506836
256,192,32104,1,0,0:0:0:0:
256,192,32266,1,0,0:0:0:0:
256,192,32347,1,0,0:0:0:0:
256,192,32428,1,8,0:0:0:0:
256,192,32590,1,8,0:0:0:0:
256,192,32752,1,0,0:0:0:0:
256,192,32833,1,0,0:0:0:0:
256,192,32914,1,0,0:0:0:0:
256,192,32995,1,0,0:0:0:0:
256,192,33077,1,8,0:0:0:0:
256,192,33239,1,0,0:0:0:0:
256,192,33320,1,0,0:0:0:0:
256,192,33401,1,0,0:0:0:0:
256,192,33563,1,8,0:0:0:0:
256,192,33725,1,0,0:0:0:0:
256,192,34050,1,4,0:0:0:0:
256,192,34374,2,0,L|448:192,1,179.999994506836
256,192,34698,1,0,0:0:0:0:
256,192,34779,1,0,0:0:0:0:
256,192,34860,1,8,0:0:0:0:
256,192,35022,1,8,0:0:0:0:
256,192,35185,1,8,0:0:0:0:
256,192,35347,1,0,0:0:0:0:
256,192,35509,1,0,0:0:0:0:
256,192,35671,1,8,0:0:0:0:
256,192,35833,1,8,0:0:0:0:
256,192,35914,1,8,0:0:0:0:
256,192,35995,1,0,0:0:0:0:
256,192,36158,1,8,0:0:0:0:
256,192,36320,1,0,0:0:0:0:
256,192,36401,1,0,0:0:0:0:
256,192,36482,1,8,0:0:0:0:
256,192,36644,1,12,0:0:0:0:
256,192,36969,2,0,L|448:192,1,179.999994506836
256,192,37293,1,0,0:0:0:0:
256,192,37455,1,0,0:0:0:0:
256,192,37536,1,0,0:0:0:0:
256,192,37617,1,8,0:0:0:0:
256,192,37779,1,8,0:0:0:0:
256,192,37941,1,8,0:0:0:0:
256,192,38022,1,8,0:0:0:0:
256,192,38104,1,0,0:0:0:0:
256,192,38185,1,0,0:0:0:0:
256,192,38266,1,8,0:0:0:0:
256,192,38428,1,0,0:0:0:0:
256,192,38509,1,0,0:0:0:0:
256,192,38590,1,8,0:0:0:0:
256,192,38752,1,8,0:0:0:0:
256,192,38914,1,0,0:0:0:0:
256,192,39239,1,12,0:0:0:0:
256,192,39563,2,0,L|448:192,1,179.999994506836
256,192,39888,1,8,0:0:0:0:
256,192,39969,1,8,0:0:0:0:
256,192,40050,1,8,0:0:0:0:
256,192,40131,1,8,0:0:0:0:
256,192,40212,1,0,0:0:0:0:
256,192,40374,1,0,0:0:0:0:
256,192,40536,1,8,0:0:0:0:
256,192,40699,1,0,0:0:0:0:
256,192,40780,1,0,0:0:0:0:
256,192,40861,1,8,0:0:0:0:
256,192,41023,1,0,0:0:0:0:
256,192,41185,1,0,0:0:0:0:
256,192,41509,1,8,0:0:0:0:
256,192,41834,1,0,0:0:0:0:
256,192,42158,1,12,0:0:0:0:
256,192,44104,1,0,0:0:0:0:
256,192,44266,1,0,0:0:0:0:
256,192,44428,1,0,0:0:0:0:
256,192,44590,1,0,0:0:0:0:
256,192,44753,1,8,0:0:0:0:
256,192,45401,1,8,0:0:0:0:
256,192,46050,1,8,0:0:0:0:
256,192,46699,1,0,0:0:0:0:
256,192,47023,1,0,0:0:0:0:
256,192,47347,1,4,0:0:0:0:
256,192,48644,1,8,0:0:0:0:
256,192,49293,1,8,0:0:0:0:
256,192,49942,1,0,0:0:0:0:
256,192,50428,1,0,0:0:0:0:
256,192,50915,1,0,0:0:0:0:
256,192,51239,1,8,0:0:0:0:
256,192,51482,1,0,0:0:0:0:
256,192,51726,1,8,0:0:0:0:
256,192,51888,1,0,0:0:0:0:
256,192,52050,1,8,0:0:0:0:
256,192,52212,1,0,0:0:0:0:
256,192,52374,1,8,0:0:0:0:
256,192,52536,1,8,0:0:0:0:
256,192,52861,1,0,0:0:0:0:
256,192,53023,1,0,0:0:0:0:
256,192,53104,1,0,0:0:0:0:
256,192,53185,1,0,0:0:0:0:
256,192,53347,1,8,0:0:0:0:
256,192,53509,1,0,0:0:0:0:
256,192,53672,1,8,0:0:0:0:
256,192,53996,1,0,0:0:0:0:
256,192,54158,1,0,0:0:0:0:
256,192,54320,1,8,0:0:0:0:
256,192,54482,1,8,0:0:0:0:
256,192,54563,1,8,0:0:0:0:
256,192,54644,1,0,0:0:0:0:
256,192,54807,1,0,0:0:0:0:
256,192,54969,1,8,0:0:0:0:
256,192,55293,1,0,0:0:0:0:
256,192,55455,1,8,0:0:0:0:
256,192,55617,1,8,0:0:0:0:
256,192,55780,1,0,0:0:0:0:
256,192,55861,1,0,0:0:0:0:
256,192,56023,1,0,0:0:0:0:
256,192,56104,1,8,0:0:0:0:
256,192,56266,1,8,0:0:0:0:
256,192,56428,1,0,0:0:0:0:
256,192,56590,1,8,0:0:0:0:
256,192,56753,1,0,0:0:0:0:
256,192,56915,1,8,0:0:0:0:
256,192,56996,1,8,0:0:0:0:
256,192,57077,1,8,0:0:0:0:
256,192,57239,1,8,0:0:0:0:
256,192,57401,1,0,0:0:0:0:
256,192,57726,1,0,0:0:0:0:
256,192,57888,1,0,0:0:0:0:
256,192,58050,1,8,0:0:0:0:
256,192,58212,1,0,0:0:0:0:
256,192,58374,1,0,0:0:0:0:
256,192,58536,1,0,0:0:0:0:
256,192,58617,1,0,0:0:0:0:
256,192,58699,1,8,0:0:0:0:
256,192,59023,1,0,0:0:0:0:
256,192,59185,1,0,0:0:0:0:
256,192,59347,1,8,0:0:0:0:
256,192,59509,1,0,0:0:0:0:
256,192,59672,1,0,0:0:0:0:
256,192,59753,1,0,0:0:0:0:
256,192,59834,1,0,0:0:0:0:
256,192,59915,1,0,0:0:0:0:
256,192,59996,1,8,0:0:0:0:
256,192,60158,1,8,0:0:0:0:
256,192,60320,1,0,0:0:0:0:
256,192,60401,1,0,0:0:0:0:
256,192,60482,1,0,0:0:0:0:
256,192,60644,1,8,0:0:0:0:
256,192,60807,1,0,0:0:0:0:
256,192,60969,1,0,0:0:0:0:
256,192,61050,1,0,0:0:0:0:
256,192,61131,1,0,0:0:0:0:
256,192,61293,1,8,0:0:0:0:
256,192,61455,1,0,0:0:0:0:
256,192,61617,12,0,62915,0:0:0:0:
256,192,62915,6,0,L|448:192,1,179.999994506836
256,192,63240,1,0,0:0:0:0:
256,192,63402,1,0,0:0:0:0:
256,192,63483,1,0,0:0:0:0:
256,192,63564,1,8,0:0:0:0:
256,192,63726,1,8,0:0:0:0:
256,192,63888,1,0,0:0:0:0:
256,192,63969,1,0,0:0:0:0:
256,192,64050,1,0,0:0:0:0:
256,192,64131,1,0,0:0:0:0:
256,192,64213,1,8,0:0:0:0:
256,192,64375,1,0,0:0:0:0:
256,192,64456,1,0,0:0:0:0:
256,192,64537,1,0,0:0:0:0:
256,192,64699,1,8,0:0:0:0:
256,192,64861,1,0,0:0:0:0:
256,192,65185,2,4,L,1,0.01
256,192,65186,1,4,0:0:0:0:
256,192,65510,2,0,L|448:192,1,179.999994506836
256,192,65834,1,0,0:0:0:0:
256,192,65915,1,0,0:0:0:0:
256,192,65996,1,8,0:0:0:0:
256,192,66158,1,8,0:0:0:0:
256,192,66321,1,8,0:0:0:0:
256,192,66483,1,0,0:0:0:0:
256,192,66645,1,0,0:0:0:0:
256,192,66807,1,8,0:0:0:0:
256,192,66969,1,8,0:0:0:0:
256,192,67050,1,8,0:0:0:0:
256,192,67131,1,0,0:0:0:0:
256,192,67294,1,8,0:0:0:0:
256,192,67456,1,0,0:0:0:0:
256,192,67537,1,0,0:0:0:0:
256,192,67618,1,8,0:0:0:0:
256,192,67780,2,4,L,1,0.01
256,192,68104,2,0,L|448:192,1,179.999994506836
256,192,68429,1,0,0:0:0:0:
256,192,68591,1,0,0:0:0:0:
256,192,68672,1,0,0:0:0:0:
256,192,68753,1,8,0:0:0:0:
256,192,68915,1,8,0:0:0:0:
256,192,69077,1,8,0:0:0:0:
256,192,69158,1,8,0:0:0:0:
256,192,69240,1,0,0:0:0:0:
256,192,69321,1,0,0:0:0:0:
256,192,69402,1,8,0:0:0:0:
256,192,69564,1,0,0:0:0:0:
256,192,69645,1,0,0:0:0:0:
256,192,69726,1,8,0:0:0:0:
256,192,69888,1,8,0:0:0:0:
256,192,70050,1,0,0:0:0:0:
256,192,70374,2,4,L,1,0.01
256,192,70375,1,12,0:0:0:0:
256,192,70699,2,0,L|448:192,1,179.999994506836
256,192,71023,1,0,0:0:0:0:
256,192,71186,1,8,0:0:0:0:
256,192,71267,1,8,0:0:0:0:
256,192,71348,1,0,0:0:0:0:
256,192,71510,1,0,0:0:0:0:
256,192,71672,1,8,0:0:0:0:
256,192,71834,1,0,0:0:0:0:
256,192,71915,1,0,0:0:0:0:
256,192,71996,1,8,0:0:0:0:
256,192,72158,1,0,0:0:0:0:
256,192,72320,1,8,0:0:0:0:
256,192,72483,1,0,0:0:0:0:
256,192,72644,12,0,73131,0:0:0:0:
256,192,72644,5,0,0:0:0:0:
256,192,72807,5,0,0:0:0:0:
256,192,72969,1,0,0:0:0:0:
256,192,73131,1,0,0:0:0:0:
256,192,73294,6,0,L|448:192,1,179.999994506836
256,192,73618,1,0,0:0:0:0:
256,192,73780,1,0,0:0:0:0:
256,192,73861,1,0,0:0:0:0:
256,192,73942,1,8,0:0:0:0:
256,192,74104,1,8,0:0:0:0:
256,192,74266,1,0,0:0:0:0:
256,192,74347,1,0,0:0:0:0:
256,192,74428,1,0,0:0:0:0:
256,192,74509,1,0,0:0:0:0:
256,192,74591,1,8,0:0:0:0:
256,192,74753,1,0,0:0:0:0:
256,192,74834,1,0,0:0:0:0:
256,192,74915,1,0,0:0:0:0:
256,192,75077,1,8,0:0:0:0:
256,192,75239,1,0,0:0:0:0:
256,192,75563,2,4,L,1,0.01
256,192,75564,1,4,0:0:0:0:
256,192,75888,2,0,L|448:192,1,179.999994506836
256,192,76212,1,0,0:0:0:0:
256,192,76293,1,0,0:0:0:0:
256,192,76374,1,8,0:0:0:0:
256,192,76536,1,8,0:0:0:0:
256,192,76699,1,8,0:0:0:0:
256,192,76861,1,0,0:0:0:0:
256,192,77023,1,0,0:0:0:0:
256,192,77185,1,8,0:0:0:0:
256,192,77347,1,8,0:0:0:0:
256,192,77428,1,8,0:0:0:0:
256,192,77509,1,0,0:0:0:0:
256,192,77672,1,8,0:0:0:0:
256,192,77834,1,0,0:0:0:0:
256,192,77915,1,0,0:0:0:0:
256,192,77996,1,8,0:0:0:0:
256,192,78158,2,4,L,1,0.01
256,192,78483,2,0,L|448:192,1,179.999994506836
256,192,78807,1,0,0:0:0:0:
256,192,78969,1,0,0:0:0:0:
256,192,79050,1,0,0:0:0:0:
256,192,79131,1,8,0:0:0:0:
256,192,79293,1,8,0:0:0:0:
256,192,79455,1,8,0:0:0:0:
256,192,79536,1,8,0:0:0:0:
256,192,79618,1,0,0:0:0:0:
256,192,79699,1,0,0:0:0:0:
256,192,79780,1,8,0:0:0:0:
256,192,79942,1,0,0:0:0:0:
256,192,80023,1,0,0:0:0:0:
256,192,80104,1,8,0:0:0:0:
256,192,80266,1,8,0:0:0:0:
256,192,80428,1,0,0:0:0:0:
256,192,80753,2,4,L,1,0.01
256,192,81077,2,0,L|448:192,1,179.999994506836
256,192,81402,1,8,0:0:0:0:
256,192,81483,1,8,0:0:0:0:
256,192,81564,1,8,0:0:0:0:
256,192,81645,1,8,0:0:0:0:
256,192,81726,1,0,0:0:0:0:
256,192,81888,1,0,0:0:0:0:
256,192,82050,1,8,0:0:0:0:
256,192,82213,1,0,0:0:0:0:
256,192,82294,1,0,0:0:0:0:
256,192,82375,1,8,0:0:0:0:
256,192,82537,1,0,0:0:0:0:
256,192,82699,1,8,0:0:0:0:
256,192,82861,1,0,0:0:0:0:
256,192,83023,1,8,0:0:0:0:
256,192,83185,1,0,0:0:0:0:
256,192,83266,1,0,0:0:0:0:
256,192,83347,1,8,0:0:0:0:
256,192,83509,1,0,0:0:0:0:
256,192,83672,1,12,0:0:0:0:
256,192,83996,1,0,0:0:0:0:
256,192,84320,1,8,0:0:0:0:
256,192,84482,1,8,0:0:0:0:
256,192,84644,1,0,0:0:0:0:
256,192,84969,1,8,0:0:0:0:
256,192,85212,1,8,0:0:0:0:
256,192,85293,1,0,0:0:0:0:
256,192,85455,1,0,0:0:0:0:
256,192,85617,1,8,0:0:0:0:
256,192,85780,1,8,0:0:0:0:
256,192,85942,12,0,86266,0:0:0:0:
256,192,86266,5,8,0:0:0:0:
256,192,86590,1,8,0:0:0:0:
256,192,86753,1,0,0:0:0:0:
256,192,86915,1,8,0:0:0:0:
256,192,87077,1,0,0:0:0:0:
256,192,87158,1,0,0:0:0:0:
256,192,87239,1,0,0:0:0:0:
256,192,87401,1,8,0:0:0:0:
256,192,87563,1,8,0:0:0:0:
256,192,87726,1,0,0:0:0:0:
256,192,87807,1,8,0:0:0:0:
256,192,87888,1,8,0:0:0:0:
256,192,88050,1,0,0:0:0:0:
256,192,88131,1,0,0:0:0:0:
256,192,88212,1,0,0:0:0:0:
256,192,88374,1,0,0:0:0:0:
256,192,88536,12,0,88699,0:0:0:0:
256,192,88699,12,0,88861,0:0:0:0:
256,192,88861,5,0,0:0:0:0:
256,192,89185,1,8,0:0:0:0:
256,192,89347,1,0,0:0:0:0:
256,192,89428,1,0,0:0:0:0:
256,192,89509,1,0,0:0:0:0:
256,192,89672,1,0,0:0:0:0:
256,192,89834,1,8,0:0:0:0:
256,192,89915,1,8,0:0:0:0:
256,192,89996,1,0,0:0:0:0:
256,192,90158,1,0,0:0:0:0:
256,192,90401,1,8,0:0:0:0:
256,192,90482,1,0,0:0:0:0:
256,192,90644,1,8,0:0:0:0:
256,192,90807,1,0,0:0:0:0:
256,192,90969,1,8,0:0:0:0:
256,192,91131,12,0,91151,0:0:0:0:
256,192,91151,12,0,91171,0:0:0:0:
256,192,91172,12,0,91192,0:0:0:0:
256,192,91192,12,0,91212,0:0:0:0:
256,192,91212,12,0,91232,0:0:0:0:
256,192,91232,12,0,91252,0:0:0:0:
256,192,91253,12,0,91273,0:0:0:0:
256,192,91273,12,0,91293,0:0:0:0:
256,192,91293,12,0,91313,0:0:0:0:
256,192,91313,12,0,91333,0:0:0:0:
256,192,91334,12,0,91354,0:0:0:0:
256,192,91354,12,0,91374,0:0:0:0:
256,192,91374,12,0,91394,0:0:0:0:
256,192,91394,12,0,91414,0:0:0:0:
256,192,91415,12,0,91435,0:0:0:0:
256,192,91435,12,0,91455,0:0:0:0:
256,192,91617,5,0,0:0:0:0:
256,192,91699,1,0,0:0:0:0:
256,192,91780,1,0,0:0:0:0:
256,192,91942,1,0,0:0:0:0:
256,192,92104,1,8,0:0:0:0:
256,192,92266,1,0,0:0:0:0:
256,192,92428,1,8,0:0:0:0:
256,192,92509,1,8,0:0:0:0:
256,192,92590,1,0,0:0:0:0:
256,192,92672,1,0,0:0:0:0:
256,192,92753,1,8,0:0:0:0:
256,192,92915,1,0,0:0:0:0:
256,192,93077,1,8,0:0:0:0:
256,192,93239,1,0,0:0:0:0:
256,192,93401,1,0,0:0:0:0:
256,192,93482,1,0,0:0:0:0:
256,192,93563,1,0,0:0:0:0:
256,192,93644,1,0,0:0:0:0:
256,192,93726,1,0,0:0:0:0:
