osu file format v14

[General]
AudioFilename: audio.mp3
AudioLeadIn: 0
PreviewTime: 61597
Countdown: 0
SampleSet: Normal
StackLeniency: 0.7
Mode: 1
LetterboxInBreaks: 0
WidescreenStoryboard: 1

[Editor]
DistanceSpacing: 1
BeatDivisor: 4
GridSize: 32
TimelineZoom: 2.300005

[Metadata]
Title:TSLove
TitleUnicode:TSLove
Artist:O2i3
ArtistUnicode:O2i3
Creator:[_Chichinya_]
Version:NepuLove <3
Source:
Tags:Melanie Friggy-chan kqrth DDM Hi_Hello 404 AccNotFound FlamingRok Dargin Cyoris210 BlackWolf159 Yuno Taikocracy Prancer agu gamerock Nifty Lno Nepuri Raphalge frukoyurdakul Cyssel Unmei Muma Q____X Vulkin JessiChan iContol Chocola_2287 AezLack _yu68 zigizigiefe Grimbow
BeatmapID:1196323
BeatmapSetID:549370

[Difficulty]
HPDrainRate:6
CircleSize:2
OverallDifficulty:6
ApproachRate:9
SliderMultiplier:1.4042328936501
SliderTickRate:1

[Events]
//Background and Video events
0,0,"Konachan.com+-+232607+2girls+blonde_hair+book+bow+braids+dress+flowers+glasses+hat+headband+kirisame_marisa+long_hair+minakata_sunao+short_hair+touhou+witch_hat+yellow_eyes.jpg",0,0
//Break Periods
//Storyboard Layer 0 (Background)
//Storyboard Layer 1 (Fail)
//Storyboard Layer 2 (Pass)
//Storyboard Layer 3 (Foreground)
//Storyboard Sound Samples

[TimingPoints]
645,324.324324324324,4,1,0,80,1,0
16212,-100,4,1,0,80,0,0
16293,-98.0392156862745,4,1,0,80,0,0
16374,-96.1538461538461,4,1,0,80,0,0
16455,-94.3396226415094,4,1,0,80,0,0
16536,-92.5925925925926,4,1,0,80,0,0
16617,-90.9090909090909,4,1,0,80,0,0
16699,-89.2857142857143,4,1,0,80,0,0
16780,-87.719298245614,4,1,0,80,0,0
16861,-86.2068965517241,4,1,0,80,0,0
16942,-84.7457627118644,4,1,0,80,0,0
17023,-83.3333333333333,4,1,0,80,0,0
17104,-81.9672131147541,4,1,0,80,0,0
17185,-80.6451612903226,4,1,0,80,0,0
17266,-79.3650793650794,4,1,0,80,0,0
17347,-78.125,4,1,0,80,0,0
17428,-76.9230769230769,4,1,0,80,0,0
17509,-75.7575757575758,4,1,0,80,0,0
17590,-74.6268656716418,4,1,0,80,0,0
17672,-73.5294117647059,4,1,0,80,0,0
17753,-72.463768115942,4,1,0,80,0,0
17834,-71.4285714285714,4,1,0,80,0,0
17915,-70.4225352112676,4,1,0,80,0,0
17996,-69.4444444444444,4,1,0,80,0,0
18077,-68.4931506849315,4,1,0,80,0,0
18158,-67.5675675675676,4,1,0,80,0,0
18239,-66.6666666666667,4,1,0,80,0,0
18320,-65.7894736842105,4,1,0,80,0,0
18401,-64.9350649350649,4,1,0,80,0,0
18482,-64.1025641025641,4,1,0,80,0,0
18563,-63.2911392405063,4,1,0,80,0,0
18644,-62.5,4,1,0,80,0,0
18726,-61.7283950617284,4,1,0,80,0,0
18807,-60.9756097560976,4,1,0,80,0,0
18888,-60.2409638554217,4,1,0,80,0,0
18969,-59.5238095238095,4,1,0,80,0,0
19050,-58.8235294117647,4,1,0,80,0,0
19131,-58.1395348837209,4,1,0,80,0,0
19212,-57.4712643678161,4,1,0,80,0,0
19293,-56.8181818181818,4,1,0,80,0,0
19374,-56.1797752808989,4,1,0,80,0,0
19455,-55.5555555555556,4,1,0,80,0,0
19536,-54.9450549450549,4,1,0,80,0,0
19617,-54.3478260869565,4,1,0,80,0,0
19699,-53.763440860215,4,1,0,80,0,0
19780,-53.1914893617021,4,1,0,80,0,0
19861,-52.6315789473684,4,1,0,80,0,0
19942,-52.0833333333333,4,1,0,80,0,0
20023,-51.5463917525773,4,1,0,80,0,0
20104,-51.0204081632653,4,1,0,80,0,0
21401,-100,4,1,0,100,0,1
23672,-50,4,1,0,100,0,0
23996,-100,4,1,0,100,0,1
26266,-50,4,1,0,100,0,0
26590,-100,4,1,0,100,0,1
28861,-50,4,1,0,100,0,0
29185,-100,4,1,0,100,0,1
30482,-105.263157894737,4,1,0,100,0,0
30644,-111.111111111111,4,1,0,100,0,0
30807,-117.647058823529,4,1,0,100,0,0
31131,-113.636363636364,4,1,0,100,0,0
31293,-109.89010989011,4,1,0,100,0,0
31455,-106.382978723404,4,1,0,100,0,0
31617,-103.092783505155,4,1,0,100,0,0
31780,-100,4,1,0,100,0,1
34050,-50,4,1,0,100,0,0
34374,-100,4,1,0,100,0,1
36644,-50,4,1,0,100,0,0
36969,-100,4,1,0,100,0,1
39239,-50,4,1,0,100,0,0
39563,-100,4,1,0,100,0,1
42158,-100,4,1,0,80,0,0
57726,-100,4,1,0,80,0,0
57807,-98.0392156862745,4,1,0,80,0,0
57888,-96.1538461538461,4,1,0,80,0,0
57969,-94.3396226415094,4,1,0,80,0,0
58050,-92.5925925925926,4,1,0,80,0,0
58131,-90.9090909090909,4,1,0,80,0,0
58213,-89.2857142857143,4,1,0,80,0,0
58294,-87.719298245614,4,1,0,80,0,0
58375,-86.2068965517241,4,1,0,80,0,0
58456,-84.7457627118644,4,1,0,80,0,0
58537,-83.3333333333333,4,1,0,80,0,0
58618,-81.9672131147541,4,1,0,80,0,0
58699,-80.6451612903226,4,1,0,80,0,0
58780,-79.3650793650794,4,1,0,80,0,0
58861,-78.125,4,1,0,80,0,0
58942,-76.9230769230769,4,1,0,80,0,0
59023,-75.7575757575758,4,1,0,80,0,0
59104,-74.6268656716418,4,1,0,80,0,0
59186,-73.5294117647059,4,1,0,80,0,0
59267,-72.463768115942,4,1,0,80,0,0
59348,-71.4285714285714,4,1,0,80,0,0
59429,-70.4225352112676,4,1,0,80,0,0
59510,-69.4444444444444,4,1,0,80,0,0
59591,-68.4931506849315,4,1,0,80,0,0
59672,-67.5675675675676,4,1,0,80,0,0
59753,-66.6666666666667,4,1,0,80,0,0
59834,-65.7894736842105,4,1,0,80,0,0
59915,-64.9350649350649,4,1,0,80,0,0
59996,-64.1025641025641,4,1,0,80,0,0
60077,-63.2911392405063,4,1,0,80,0,0
60158,-62.5,4,1,0,80,0,0
60240,-61.7283950617284,4,1,0,80,0,0
60321,-60.9756097560976,4,1,0,80,0,0
60402,-60.2409638554217,4,1,0,80,0,0
60483,-59.5238095238095,4,1,0,80,0,0
60564,-58.8235294117647,4,1,0,80,0,0
60645,-58.1395348837209,4,1,0,80,0,0
60726,-57.4712643678161,4,1,0,80,0,0
60807,-56.8181818181818,4,1,0,80,0,0
60888,-56.1797752808989,4,1,0,80,0,0
60969,-55.5555555555556,4,1,0,80,0,0
61050,-54.9450549450549,4,1,0,80,0,0
61131,-54.3478260869565,4,1,0,80,0,0
61213,-53.763440860215,4,1,0,80,0,0
61294,-53.1914893617021,4,1,0,80,0,0
61375,-52.6315789473684,4,1,0,80,0,0
61456,-52.0833333333333,4,1,0,80,0,0
61537,-51.5463917525773,4,1,0,80,0,0
61618,-51.0204081632653,4,1,0,80,0,0
61780,-53.763440860215,4,1,0,80,0,0
61942,-56.8181818181818,4,1,0,80,0,0
62104,-60.2409638554217,4,1,0,80,0,0
62185,-62.111801242236,4,1,0,80,0,0
62266,-64.1025641025641,4,1,0,80,0,0
62428,-68.4931506849315,4,1,0,80,0,0
62590,-73.5294117647059,4,1,0,80,0,0
62915,-100,4,1,0,100,0,1
65186,-50,4,1,0,100,0,0
65509,-100,4,1,0,100,0,1
67780,-50,4,1,0,100,0,0
68104,-100,4,1,0,100,0,1
70375,-50,4,1,0,100,0,0
70699,-100,4,1,0,100,0,1
71996,-105.263157894737,4,1,0,100,0,0
72158,-111.111111111111,4,1,0,100,0,0
72321,-117.647058823529,4,1,0,100,0,0
72645,-113.636363636364,4,1,0,100,0,0
72807,-109.89010989011,4,1,0,100,0,0
72969,-106.382978723404,4,1,0,100,0,0
73131,-103.092783505155,4,1,0,100,0,0
73293,-100,4,1,0,100,0,1
75564,-50,4,1,0,100,0,0
75888,-100,4,1,0,100,0,1
78158,-50,4,1,0,100,0,0
78482,-100,4,1,0,100,0,1
80753,-50,4,1,0,100,0,0
81077,-100,4,1,0,100,0,1
83023,-100,4,1,0,100,0,0

[Colours]
Combo1 : 133,24,82
Combo2 : 96,61,99
Combo3 : 252,143,143
Combo4 : 234,69,21

[HitObjects]
128,160,645,5,0,0:0:0:0:
192,160,969,1,8,0:0:0:0:
192,160,1455,1,0,0:0:0:0:
192,160,1617,1,8,0:0:0:0:
192,160,1942,1,0,0:0:0:0:
192,160,2266,1,8,0:0:0:0:
192,160,2753,1,0,0:0:0:0:
192,160,2915,1,8,0:0:0:0:
192,160,3239,1,0,0:0:0:0:
192,160,3563,1,8,0:0:0:0:
192,160,4050,1,0,0:0:0:0:
192,160,4212,1,8,0:0:0:0:
192,160,4536,1,0,0:0:0:0:
192,160,4861,1,8,0:0:0:0:
192,160,5347,1,0,0:0:0:0:
192,160,5509,1,8,0:0:0:0:
192,160,5590,1,0,0:0:0:0:
192,160,5672,1,0,0:0:0:0:
192,160,5753,1,0,0:0:0:0:
192,160,5834,1,0,0:0:0:0:
192,160,5996,1,0,0:0:0:0:
192,160,6158,1,8,0:0:0:0:
192,160,6482,1,0,0:0:0:0:
192,160,6807,1,8,0:0:0:0:
192,160,6969,1,0,0:0:0:0:
192,160,7131,1,0,0:0:0:0:
192,160,7455,1,8,0:0:0:0:
192,160,7780,1,0,0:0:0:0:
192,160,7942,1,0,0:0:0:0:
192,160,8104,1,8,0:0:0:0:
192,160,8266,1,0,0:0:0:0:
192,160,8428,1,0,0:0:0:0:
192,160,8753,1,8,0:0:0:0:
192,160,9239,1,0,0:0:0:0:
192,160,9401,1,8,0:0:0:0:
192,160,9563,1,0,0:0:0:0:
192,160,9726,1,0,0:0:0:0:
192,160,10050,1,8,0:0:0:0:
192,160,10536,1,0,0:0:0:0:
192,160,10699,1,8,0:0:0:0:
192,160,10861,1,8,0:0:0:0:
192,160,11023,1,12,0:0:0:0:
192,192,11185,1,0,0:0:0:0:
192,192,11347,1,8,0:0:0:0:
192,192,11509,1,0,0:0:0:0:
192,192,11672,1,0,0:0:0:0:
192,160,11753,1,0,0:0:0:0:
192,160,11834,1,0,0:0:0:0:
192,160,11996,1,8,0:0:0:0:
192,160,12320,1,0,0:0:0:0:
224,160,12482,1,0,0:0:0:0:
224,160,12563,1,0,0:0:0:0:
224,160,12644,1,8,0:0:0:0:
224,160,12807,1,0,0:0:0:0:
224,160,12969,1,8,0:0:0:0:
224,160,13050,1,8,0:0:0:0:
224,160,13131,1,0,0:0:0:0:
224,160,13212,1,0,0:0:0:0:
224,160,13293,1,8,0:0:0:0:
224,160,13455,1,0,0:0:0:0:
224,160,13617,1,0,0:0:0:0:
224,160,13780,1,0,0:0:0:0:
64,96,13861,1,0,0:0:0:0:
224,160,13942,1,8,0:0:0:0:
224,160,14104,1,0,0:0:0:0:
224,160,14266,1,8,0:0:0:0:
64,64,14347,1,8,0:0:0:0:
224,160,14428,1,0,0:0:0:0:
224,160,14509,1,0,0:0:0:0:
224,160,14590,1,8,0:0:0:0:
224,160,14753,1,0,0:0:0:0:
224,160,14915,1,0,0:0:0:0:
224,192,15077,1,0,0:0:0:0:
224,192,15158,1,0,0:0:0:0:
224,192,15239,1,8,0:0:0:0:
224,192,15401,1,0,0:0:0:0:
224,192,15563,1,8,0:0:0:0:
224,192,15644,1,8,0:0:0:0:
224,192,15726,1,0,0:0:0:0:
224,192,15807,1,0,0:0:0:0:
224,192,15888,1,8,0:0:0:0:
224,192,16050,1,0,0:0:0:0:
224,192,16212,1,8,0:0:0:0:
224,192,16293,1,8,0:0:0:0:
224,192,16374,1,0,0:0:0:0:
224,192,16455,1,0,0:0:0:0:
224,192,16536,1,8,0:0:0:0:
224,192,16699,1,0,0:0:0:0:
224,192,16861,1,8,0:0:0:0:
224,192,16942,1,8,0:0:0:0:
224,192,17023,1,0,0:0:0:0:
224,192,17104,1,0,0:0:0:0:
224,192,17185,1,8,0:0:0:0:
224,192,17347,1,0,0:0:0:0:
224,192,17509,1,8,0:0:0:0:
224,192,17590,1,8,0:0:0:0:
96,32,17672,1,0,0:0:0:0:
96,32,17753,1,0,0:0:0:0:
224,192,17834,1,8,0:0:0:0:
224,192,17996,1,0,0:0:0:0:
224,192,18077,1,0,0:0:0:0:
192,192,18158,1,8,0:0:0:0:
192,192,18239,1,0,0:0:0:0:
192,192,18320,1,8,0:0:0:0:
192,192,18401,1,0,0:0:0:0:
192,192,18482,1,8,0:0:0:0:
192,192,18563,1,8,0:0:0:0:
64,64,18644,1,0,0:0:0:0:
224,224,18807,1,8,0:0:0:0:
224,224,18888,1,0,0:0:0:0:
224,224,18969,1,8,0:0:0:0:
224,224,19050,1,0,0:0:0:0:
224,224,19131,1,8,0:0:0:0:
224,224,19212,1,8,0:0:0:0:
224,224,19293,1,0,0:0:0:0:
224,224,19374,1,0,0:0:0:0:
224,224,19455,1,8,0:0:0:0:
384,128,19509,1,8,0:0:0:0:
384,128,19563,1,8,0:0:0:0:
224,224,19617,1,8,0:0:0:0:
224,224,19699,1,0,0:0:0:0:
96,192,19780,1,8,0:0:0:0:
96,192,19861,1,0,0:0:0:0:
96,192,19942,1,8,0:0:0:0:
96,192,20023,1,8,0:0:0:0:
96,192,20104,1,0,0:0:0:0:
192,64,21401,1,12,0:0:0:0:
128,128,21563,1,0,0:0:0:0:
128,128,21644,1,0,0:0:0:0:
128,128,21726,1,8,0:0:0:0:
128,128,21888,1,0,0:0:0:0:
128,128,21969,1,0,0:0:0:0:
128,128,22050,1,8,0:0:0:0:
128,128,22131,1,0,0:0:0:0:
160,160,22212,1,8,0:0:0:0:
160,128,22374,1,8,0:0:0:0:
160,160,22455,1,8,0:0:0:0:
160,128,22536,1,0,0:0:0:0:
160,160,22617,1,0,0:0:0:0:
160,160,22699,1,8,0:0:0:0:
160,160,22861,1,8,0:0:0:0:
96,160,22942,1,8,0:0:0:0:
96,160,23023,1,8,0:0:0:0:
224,224,23185,1,0,0:0:0:0:
224,256,23347,1,8,0:0:0:0:
224,256,23509,1,0,0:0:0:0:
64,128,23672,1,4,0:0:0:0:
224,224,23996,1,4,0:0:0:0:
224,224,24158,1,0,0:0:0:0:
224,224,24239,1,0,0:0:0:0:
224,224,24320,1,8,0:0:0:0:
224,224,24482,1,0,0:0:0:0:
224,224,24563,1,0,0:0:0:0:
224,224,24644,1,8,0:0:0:0:
224,224,24726,1,8,0:0:0:0:
224,224,24807,1,0,0:0:0:0:
192,224,24969,1,8,0:0:0:0:
192,224,25050,1,0,0:0:0:0:
192,224,25131,1,8,0:0:0:0:
224,224,25212,1,8,0:0:0:0:
224,224,25293,1,0,0:0:0:0:
192,224,25455,1,8,0:0:0:0:
192,224,25536,1,8,0:0:0:0:
192,224,25617,1,0,0:0:0:0:
192,224,25780,1,8,0:0:0:0:
192,224,25942,1,8,0:0:0:0:
96,128,26023,1,8,0:0:0:0:
96,128,26104,1,0,0:0:0:0:
96,128,26266,1,12,0:0:0:0:
128,192,26590,1,12,0:0:0:0:
128,192,26753,1,0,0:0:0:0:
128,192,26834,1,0,0:0:0:0:
128,192,26915,1,8,0:0:0:0:
128,192,27077,1,0,0:0:0:0:
128,192,27158,1,0,0:0:0:0:
160,192,27239,1,8,0:0:0:0:
96,160,27320,1,0,0:0:0:0:
96,160,27401,1,8,0:0:0:0:
128,192,27563,1,8,0:0:0:0:
96,160,27644,1,8,0:0:0:0:
96,160,27726,1,0,0:0:0:0:
96,160,27807,1,8,0:0:0:0:
96,160,27888,1,8,0:0:0:0:
96,160,28050,1,8,0:0:0:0:
96,160,28131,1,8,0:0:0:0:
96,160,28212,1,0,0:0:0:0:
96,160,28374,1,8,0:0:0:0:
96,160,28536,1,0,0:0:0:0:
160,32,28699,1,0,0:0:0:0:
128,0,28861,1,4,0:0:0:0:
256,96,29185,1,4,0:0:0:0:
192,160,29347,1,0,0:0:0:0:
192,160,29428,1,0,0:0:0:0:
192,160,29509,1,8,0:0:0:0:
192,160,29672,1,0,0:0:0:0:
192,160,29753,1,0,0:0:0:0:
192,160,29834,1,8,0:0:0:0:
192,160,29915,1,0,0:0:0:0:
192,160,29996,1,8,0:0:0:0:
192,160,30158,1,8,0:0:0:0:
224,192,30239,1,8,0:0:0:0:
224,192,30320,1,0,0:0:0:0:
224,192,30482,1,8,0:0:0:0:
224,192,30644,1,8,0:0:0:0:
96,160,30807,1,0,0:0:0:0:
96,160,31131,1,0,0:0:0:0:
96,160,31293,1,0,0:0:0:0:
96,160,31455,1,8,0:0:0:0:
96,160,31617,1,8,0:0:0:0:
96,160,31780,1,12,0:0:0:0:
288,128,31942,1,0,0:0:0:0:
288,128,32023,1,0,0:0:0:0:
288,128,32104,1,8,0:0:0:0:
288,128,32266,1,0,0:0:0:0:
288,128,32347,1,0,0:0:0:0:
256,128,32428,1,8,0:0:0:0:
256,128,32590,1,8,0:0:0:0:
256,128,32672,1,0,0:0:0:0:
128,160,32753,1,8,0:0:0:0:
128,160,32834,1,8,0:0:0:0:
128,160,32915,1,0,0:0:0:0:
128,160,32996,1,0,0:0:0:0:
128,160,33077,1,8,0:0:0:0:
128,128,33239,1,0,0:0:0:0:
128,128,33320,1,0,0:0:0:0:
128,128,33401,1,8,0:0:0:0:
128,128,33563,1,8,0:0:0:0:
128,128,33726,1,8,0:0:0:0:
32,96,33807,1,8,0:0:0:0:
32,96,33888,1,0,0:0:0:0:
128,32,34050,1,4,0:0:0:0:
128,160,34374,1,4,0:0:0:0:
128,160,34536,1,0,0:0:0:0:
128,160,34617,1,0,0:0:0:0:
128,160,34699,1,8,0:0:0:0:
128,160,34861,1,0,0:0:0:0:
128,160,34942,1,0,0:0:0:0:
128,160,35023,1,8,0:0:0:0:
128,160,35185,1,8,0:0:0:0:
128,160,35266,1,0,0:0:0:0:
192,160,35347,1,8,0:0:0:0:
192,160,35428,1,8,0:0:0:0:
192,160,35509,1,0,0:0:0:0:
192,160,35590,1,0,0:0:0:0:
160,192,35672,1,8,0:0:0:0:
160,192,35834,1,8,0:0:0:0:
160,192,35915,1,8,0:0:0:0:
160,192,35996,1,0,0:0:0:0:
160,192,36158,1,8,0:0:0:0:
160,192,36320,1,8,0:0:0:0:
160,192,36401,1,8,0:0:0:0:
160,192,36482,1,0,0:0:0:0:
160,192,36644,1,12,0:0:0:0:
160,192,36969,1,12,0:0:0:0:
128,192,37131,1,0,0:0:0:0:
128,192,37212,1,0,0:0:0:0:
128,192,37293,1,8,0:0:0:0:
128,192,37455,1,0,0:0:0:0:
128,192,37536,1,0,0:0:0:0:
128,192,37617,1,8,0:0:0:0:
96,160,37780,1,8,0:0:0:0:
96,160,37861,1,0,0:0:0:0:
96,160,37942,1,8,0:0:0:0:
96,160,38023,1,8,0:0:0:0:
96,160,38104,1,0,0:0:0:0:
96,160,38185,1,0,0:0:0:0:
96,160,38266,1,8,0:0:0:0:
96,160,38428,1,0,0:0:0:0:
96,160,38509,1,0,0:0:0:0:
96,160,38590,1,8,0:0:0:0:
96,160,38753,1,8,0:0:0:0:
96,160,38915,1,8,0:0:0:0:
96,160,38996,1,8,0:0:0:0:
64,128,39077,1,0,0:0:0:0:
96,160,39239,1,4,0:0:0:0:
192,192,39563,1,4,0:0:0:0:
192,192,39726,1,0,0:0:0:0:
192,192,39807,1,0,0:0:0:0:
192,192,39888,1,8,0:0:0:0:
192,192,40050,1,0,0:0:0:0:
192,192,40131,1,0,0:0:0:0:
192,192,40212,1,8,0:0:0:0:
192,160,40374,1,0,0:0:0:0:
192,160,40536,1,8,0:0:0:0:
192,192,40617,1,8,0:0:0:0:
192,192,40699,1,0,0:0:0:0:
192,192,40780,1,0,0:0:0:0:
192,192,40861,1,8,0:0:0:0:
192,192,41023,1,0,0:0:0:0:
192,192,41185,1,8,0:0:0:0:
192,192,41266,1,8,0:0:0:0:
192,192,41347,1,0,0:0:0:0:
192,192,41509,1,8,0:0:0:0:
192,192,41834,1,8,0:0:0:0:
192,192,42158,1,8,0:0:0:0:
128,160,44104,1,0,0:0:0:0:
128,160,44266,1,0,0:0:0:0:
128,160,44428,1,8,0:0:0:0:
128,160,44590,1,8,0:0:0:0:
128,160,44753,1,8,0:0:0:0:
128,160,44915,1,0,0:0:0:0:
160,96,45077,1,8,0:0:0:0:
128,160,45239,1,0,0:0:0:0:
128,96,45563,1,8,0:0:0:0:
256,224,45888,1,0,0:0:0:0:
256,224,46212,1,8,0:0:0:0:
448,256,46861,1,0,0:0:0:0:
448,256,47023,1,8,0:0:0:0:
448,256,47185,1,0,0:0:0:0:
256,192,48158,1,0,0:0:0:0:
64,192,48482,1,8,0:0:0:0:
64,192,48969,1,0,0:0:0:0:
160,192,49131,1,8,0:0:0:0:
160,192,49293,1,0,0:0:0:0:
160,192,49455,1,8,0:0:0:0:
64,192,49617,1,8,0:0:0:0:
64,192,49780,1,0,0:0:0:0:
64,192,49942,1,8,0:0:0:0:
64,192,50266,1,0,0:0:0:0:
64,160,50347,1,0,0:0:0:0:
64,192,50428,1,8,0:0:0:0:
96,160,50753,1,0,0:0:0:0:
128,160,50834,1,0,0:0:0:0:
128,160,50915,1,8,0:0:0:0:
96,32,52536,1,12,0:0:0:0:
352,160,52699,1,8,0:0:0:0:
352,160,52861,1,0,0:0:0:0:
352,160,53023,1,8,0:0:0:0:
352,160,53104,1,8,0:0:0:0:
352,160,53185,1,0,0:0:0:0:
352,160,53347,1,8,0:0:0:0:
352,160,53509,1,0,0:0:0:0:
352,160,53672,1,8,0:0:0:0:
160,128,53996,1,8,0:0:0:0:
160,128,54158,1,0,0:0:0:0:
160,128,54320,1,8,0:0:0:0:
160,128,54644,1,8,0:0:0:0:
128,160,54807,1,8,0:0:0:0:
128,160,54969,1,0,0:0:0:0:
128,160,55293,1,0,0:0:0:0:
128,64,55455,1,8,0:0:0:0:
160,192,55617,1,0,0:0:0:0:
160,192,55780,1,8,0:0:0:0:
160,192,55861,1,0,0:0:0:0:
160,192,56023,1,0,0:0:0:0:
160,192,56104,1,8,0:0:0:0:
160,192,56266,1,0,0:0:0:0:
160,192,56428,1,8,0:0:0:0:
160,192,56590,1,0,0:0:0:0:
160,192,56753,1,8,0:0:0:0:
160,224,56915,1,0,0:0:0:0:
160,224,57077,1,8,0:0:0:0:
160,224,57239,1,8,0:0:0:0:
160,224,57401,1,8,0:0:0:0:
160,224,57563,1,0,0:0:0:0:
160,224,57726,1,8,0:0:0:0:
192,128,57888,1,0,0:0:0:0:
192,128,57969,1,0,0:0:0:0:
192,128,58050,1,8,0:0:0:0:
192,128,58212,1,0,0:0:0:0:
192,128,58374,1,8,0:0:0:0:
192,128,58536,1,0,0:0:0:0:
192,160,58617,1,0,0:0:0:0:
192,160,58699,1,8,0:0:0:0:
192,160,58861,1,0,0:0:0:0:
192,160,59023,1,8,0:0:0:0:
192,160,59104,1,8,0:0:0:0:
192,160,59185,1,0,0:0:0:0:
192,160,59266,1,0,0:0:0:0:
192,160,59347,1,8,0:0:0:0:
192,160,59509,1,0,0:0:0:0:
192,160,59672,1,8,0:0:0:0:
192,160,59753,1,8,0:0:0:0:
192,160,59834,1,0,0:0:0:0:
192,160,59915,1,0,0:0:0:0:
192,160,59996,1,8,0:0:0:0:
192,160,60158,1,0,0:0:0:0:
192,160,60320,1,8,0:0:0:0:
192,160,60401,1,0,0:0:0:0:
192,160,60482,1,8,0:0:0:0:
192,160,60563,1,0,0:0:0:0:
192,160,60644,1,8,0:0:0:0:
192,160,60726,1,8,0:0:0:0:
192,160,60807,1,0,0:0:0:0:
192,160,60888,1,0,0:0:0:0:
192,160,60969,1,8,0:0:0:0:
192,160,61023,1,8,0:0:0:0:
128,37,61077,1,8,0:0:0:0:
192,160,61131,1,8,0:0:0:0:
192,160,61212,1,0,0:0:0:0:
192,160,61293,1,8,0:0:0:0:
192,160,61374,1,0,0:0:0:0:
192,160,61455,1,8,0:0:0:0:
192,160,61536,1,8,0:0:0:0:
192,160,61617,1,0,0:0:0:0:
190,172,61780,1,0,0:0:0:0:
189,171,61942,1,8,0:0:0:0:
185,169,62104,1,0,0:0:0:0:
175,163,62185,1,0,0:0:0:0:
175,164,62266,1,8,0:0:0:0:
172,168,62428,1,8,0:0:0:0:
173,167,62590,1,8,0:0:0:0:
192,64,62915,1,12,0:0:0:0:
128,128,63077,1,0,0:0:0:0:
128,128,63158,1,0,0:0:0:0:
128,128,63240,1,8,0:0:0:0:
128,128,63402,1,0,0:0:0:0:
128,128,63483,1,0,0:0:0:0:
128,128,63564,1,8,0:0:0:0:
128,128,63645,1,0,0:0:0:0:
160,160,63726,1,8,0:0:0:0:
160,128,63888,1,8,0:0:0:0:
160,160,63969,1,8,0:0:0:0:
160,128,64050,1,0,0:0:0:0:
160,160,64131,1,0,0:0:0:0:
160,160,64213,1,8,0:0:0:0:
160,160,64375,1,8,0:0:0:0:
96,160,64456,1,8,0:0:0:0:
96,160,64537,1,8,0:0:0:0:
224,224,64699,1,0,0:0:0:0:
224,256,64861,1,8,0:0:0:0:
224,256,65023,1,0,0:0:0:0:
64,128,65186,1,4,0:0:0:0:
224,224,65510,1,4,0:0:0:0:
224,224,65672,1,0,0:0:0:0:
224,224,65753,1,0,0:0:0:0:
224,224,65834,1,8,0:0:0:0:
224,224,65996,1,0,0:0:0:0:
224,224,66077,1,0,0:0:0:0:
224,224,66158,1,8,0:0:0:0:
224,224,66240,1,8,0:0:0:0:
224,224,66321,1,0,0:0:0:0:
192,224,66483,1,8,0:0:0:0:
192,224,66564,1,0,0:0:0:0:
192,224,66645,1,8,0:0:0:0:
224,224,66726,1,8,0:0:0:0:
224,224,66807,1,0,0:0:0:0:
192,224,66969,1,8,0:0:0:0:
192,224,67050,1,8,0:0:0:0:
192,224,67131,1,0,0:0:0:0:
192,224,67294,1,8,0:0:0:0:
192,224,67456,1,8,0:0:0:0:
96,128,67537,1,8,0:0:0:0:
96,128,67618,1,0,0:0:0:0:
96,128,67780,1,12,0:0:0:0:
128,192,68104,1,12,0:0:0:0:
128,192,68267,1,0,0:0:0:0:
128,192,68348,1,0,0:0:0:0:
128,192,68429,1,8,0:0:0:0:
128,192,68591,1,0,0:0:0:0:
128,192,68672,1,0,0:0:0:0:
160,192,68753,1,8,0:0:0:0:
96,160,68834,1,0,0:0:0:0:
96,160,68915,1,8,0:0:0:0:
128,192,69077,1,8,0:0:0:0:
96,160,69158,1,8,0:0:0:0:
96,160,69240,1,0,0:0:0:0:
96,160,69321,1,8,0:0:0:0:
96,160,69402,1,8,0:0:0:0:
96,160,69564,1,8,0:0:0:0:
96,160,69645,1,8,0:0:0:0:
96,160,69726,1,0,0:0:0:0:
96,160,69888,1,8,0:0:0:0:
96,160,70050,1,0,0:0:0:0:
160,32,70213,1,0,0:0:0:0:
128,0,70375,1,4,0:0:0:0:
256,96,70699,1,4,0:0:0:0:
192,160,70861,1,0,0:0:0:0:
192,160,70942,1,0,0:0:0:0:
192,160,71023,1,8,0:0:0:0:
192,160,71186,1,0,0:0:0:0:
192,160,71267,1,0,0:0:0:0:
192,160,71348,1,8,0:0:0:0:
192,160,71429,1,0,0:0:0:0:
192,160,71510,1,8,0:0:0:0:
192,160,71672,1,8,0:0:0:0:
224,192,71753,1,8,0:0:0:0:
224,192,71834,1,0,0:0:0:0:
224,192,71996,1,8,0:0:0:0:
224,192,72158,1,8,0:0:0:0:
96,160,72321,1,0,0:0:0:0:
96,160,72645,1,0,0:0:0:0:
96,160,72807,1,0,0:0:0:0:
96,160,72969,1,8,0:0:0:0:
96,160,73131,1,8,0:0:0:0:
96,160,73294,1,12,0:0:0:0:
288,128,73456,1,0,0:0:0:0:
288,128,73537,1,0,0:0:0:0:
288,128,73618,1,8,0:0:0:0:
288,128,73780,1,0,0:0:0:0:
288,128,73861,1,0,0:0:0:0:
256,128,73942,1,8,0:0:0:0:
256,128,74104,1,8,0:0:0:0:
256,128,74186,1,0,0:0:0:0:
128,160,74267,1,8,0:0:0:0:
128,160,74348,1,8,0:0:0:0:
128,160,74429,1,0,0:0:0:0:
128,160,74510,1,0,0:0:0:0:
128,160,74591,1,8,0:0:0:0:
128,128,74753,1,0,0:0:0:0:
128,128,74834,1,0,0:0:0:0:
128,128,74915,1,8,0:0:0:0:
128,128,75077,1,8,0:0:0:0:
128,128,75240,1,8,0:0:0:0:
32,96,75321,1,8,0:0:0:0:
32,96,75402,1,0,0:0:0:0:
128,32,75564,1,4,0:0:0:0:
128,160,75888,1,4,0:0:0:0:
128,160,76050,1,0,0:0:0:0:
128,160,76131,1,0,0:0:0:0:
128,160,76213,1,8,0:0:0:0:
128,160,76375,1,0,0:0:0:0:
128,160,76456,1,0,0:0:0:0:
128,160,76537,1,8,0:0:0:0:
128,160,76699,1,8,0:0:0:0:
128,160,76780,1,0,0:0:0:0:
192,160,76861,1,8,0:0:0:0:
192,160,76942,1,8,0:0:0:0:
192,160,77023,1,0,0:0:0:0:
192,160,77104,1,0,0:0:0:0:
160,192,77186,1,8,0:0:0:0:
160,192,77348,1,8,0:0:0:0:
160,192,77429,1,8,0:0:0:0:
160,192,77510,1,0,0:0:0:0:
160,192,77672,1,8,0:0:0:0:
160,192,77834,1,8,0:0:0:0:
160,192,77915,1,8,0:0:0:0:
160,192,77996,1,0,0:0:0:0:
160,192,78158,1,12,0:0:0:0:
160,192,78483,1,12,0:0:0:0:
128,192,78645,1,0,0:0:0:0:
128,192,78726,1,0,0:0:0:0:
128,192,78807,1,8,0:0:0:0:
128,192,78969,1,0,0:0:0:0:
128,192,79050,1,0,0:0:0:0:
128,192,79131,1,8,0:0:0:0:
96,160,79294,1,8,0:0:0:0:
96,160,79375,1,0,0:0:0:0:
96,160,79456,1,8,0:0:0:0:
96,160,79537,1,8,0:0:0:0:
96,160,79618,1,0,0:0:0:0:
96,160,79699,1,0,0:0:0:0:
96,160,79780,1,8,0:0:0:0:
96,160,79942,1,0,0:0:0:0:
96,160,80023,1,0,0:0:0:0:
96,160,80104,1,8,0:0:0:0:
96,160,80267,1,8,0:0:0:0:
96,160,80429,1,8,0:0:0:0:
96,160,80510,1,8,0:0:0:0:
64,128,80590,1,8,0:0:0:0:
96,160,80753,1,4,0:0:0:0:
192,192,81077,1,4,0:0:0:0:
192,192,81240,1,0,0:0:0:0:
192,192,81321,1,0,0:0:0:0:
192,192,81402,1,8,0:0:0:0:
192,192,81564,1,0,0:0:0:0:
192,192,81645,1,0,0:0:0:0:
192,192,81726,1,8,0:0:0:0:
192,160,81888,1,0,0:0:0:0:
192,160,82050,1,8,0:0:0:0:
192,192,82131,1,8,0:0:0:0:
192,192,82213,1,0,0:0:0:0:
192,192,82294,1,0,0:0:0:0:
192,192,82374,1,0,0:0:0:0:
192,192,82537,1,8,0:0:0:0:
192,192,82699,1,0,0:0:0:0:
192,192,82861,1,0,0:0:0:0:
192,192,83023,1,8,0:0:0:0:
91,80,83185,1,0,0:0:0:0:
91,80,83266,1,0,0:0:0:0:
192,192,83348,1,8,0:0:0:0:
91,80,83509,1,8,0:0:0:0:
192,192,83672,1,8,0:0:0:0:
111,196,83834,1,0,0:0:0:0:
111,196,83915,1,0,0:0:0:0:
111,196,83996,1,8,0:0:0:0:
171,210,84158,1,8,0:0:0:0:
107,184,84320,1,8,0:0:0:0:
107,182,84401,1,8,0:0:0:0:
107,182,84482,1,0,0:0:0:0:
107,182,84563,1,0,0:0:0:0:
107,182,84644,1,8,0:0:0:0:
107,182,84726,1,8,0:0:0:0:
107,182,84807,1,0,0:0:0:0:
107,182,84969,1,8,0:0:0:0:
107,184,85050,1,0,0:0:0:0:
107,184,85131,1,0,0:0:0:0:
107,184,85212,1,8,0:0:0:0:
162,54,85293,1,8,0:0:0:0:
107,184,85347,1,8,0:0:0:0:
271,73,85401,1,8,0:0:0:0:
162,54,85455,1,0,0:0:0:0:
345,118,85617,1,0,0:0:0:0:
345,118,85672,1,0,0:0:0:0:
345,118,85726,1,0,0:0:0:0:
345,118,85780,1,8,0:0:0:0:
132,142,85861,1,8,0:0:0:0:
132,142,85942,1,0,0:0:0:0:
185,139,86266,1,8,0:0:0:0:
185,139,86428,1,0,0:0:0:0:
185,139,86509,1,0,0:0:0:0:
185,139,86590,1,8,0:0:0:0:
185,139,86753,1,0,0:0:0:0:
185,139,86915,1,8,0:0:0:0:
185,139,86996,1,8,0:0:0:0:
185,139,87077,1,0,0:0:0:0:
185,139,87239,1,8,0:0:0:0:
185,139,87320,1,0,0:0:0:0:
185,139,87401,1,8,0:0:0:0:
185,139,87482,1,8,0:0:0:0:
185,139,87563,1,0,0:0:0:0:
202,167,87726,1,8,0:0:0:0:
166,161,87780,1,8,0:0:0:0:
142,37,87834,1,8,0:0:0:0:
166,161,87888,1,0,0:0:0:0:
167,160,87996,1,8,0:0:0:0:
165,163,88104,1,8,0:0:0:0:
228,212,88212,1,0,0:0:0:0:
228,212,88374,1,0,0:0:0:0:
228,212,88455,1,0,0:0:0:0:
143,142,88536,1,8,0:0:0:0:
143,142,88699,1,8,0:0:0:0:
143,142,88861,1,0,0:0:0:0:
332,96,89023,1,8,0:0:0:0:
332,96,89104,1,8,0:0:0:0:
332,96,89185,1,0,0:0:0:0:
332,96,89347,1,0,0:0:0:0:
170,139,89509,1,8,0:0:0:0:
173,138,89590,1,0,0:0:0:0:
174,136,89672,1,0,0:0:0:0:
174,136,89753,1,0,0:0:0:0:
209,187,89834,1,8,0:0:0:0:
209,187,89915,1,8,0:0:0:0:
209,187,89996,1,8,0:0:0:0:
141,174,90158,1,8,0:0:0:0:
141,174,90239,1,0,0:0:0:0:
141,174,90320,1,8,0:0:0:0:
141,174,90401,1,8,0:0:0:0:
141,174,90482,1,8,0:0:0:0:
207,217,90590,1,8,0:0:0:0:
207,217,90699,1,8,0:0:0:0:
206,217,90807,1,8,0:0:0:0:
205,210,90969,1,8,0:0:0:0:
78,119,91131,1,0,0:0:0:0:
192,203,91293,1,8,0:0:0:0:
78,119,91455,1,8,0:0:0:0:
183,130,91617,1,8,0:0:0:0:
183,130,91699,1,8,0:0:0:0:
183,130,91780,1,0,0:0:0:0:
183,130,91861,1,8,0:0:0:0:
183,130,91942,1,0,0:0:0:0:
183,130,92023,1,8,0:0:0:0:
183,130,92104,1,8,0:0:0:0:
183,130,92266,1,8,0:0:0:0:
183,130,92428,1,8,0:0:0:0:
183,130,92482,1,8,0:0:0:0:
105,46,92536,1,8,0:0:0:0:
183,130,92590,1,0,0:0:0:0:
183,130,92672,1,0,0:0:0:0:
183,130,92753,1,8,0:0:0:0:
264,123,92915,1,0,0:0:0:0:
264,123,92996,1,0,0:0:0:0:
189,191,93077,1,8,0:0:0:0:
189,191,93158,1,8,0:0:0:0:
189,178,93239,1,0,0:0:0:0:
189,176,93320,1,0,0:0:0:0:
189,171,93401,1,8,0:0:0:0:
187,170,93482,1,8,0:0:0:0:
186,169,93563,1,8,0:0:0:0:
186,167,93644,1,8,0:0:0:0:
186,166,93726,1,0,0:0:0:0:
